osu file format v14

[General]
AudioFilename: audio.mp3
AudioLeadIn: 0
PreviewTime: 53808
Countdown: 0
SampleSet: Soft
StackLeniency: 0.7
Mode: 0
LetterboxInBreaks: 0
WidescreenStoryboard: 1

[Editor]
Bookmarks: 54931,65199
DistanceSpacing: 1.6
BeatDivisor: 4
GridSize: 16
TimelineZoom: 2.599999

[Metadata]
Title:Hajimete no Kakumei! (TV Size)
TitleUnicode:はじめてのかくめい! (TV Size)
Artist:DIALOGUE+
ArtistUnicode:DIALOGUE+
Creator:Mnyui
Version:hs
Source:超人高校生たちは異世界でも余裕で生き抜くようです!
Tags:High School Prodigies Have It Easy Even In Another World choujin koukousei-tachi wa isekai demo yoyuu de ikinuku you desu japanese anime
BeatmapID:2191861
BeatmapSetID:1047617

[Difficulty]
HPDrainRate:5.5
CircleSize:2
OverallDifficulty:8.4
ApproachRate:9.4
SliderMultiplier:1.7
SliderTickRate:1

[Events]
//Background and Video events
0,0,"animebackground.jpg",0,0
//Break Periods
//Storyboard Layer 0 (Background)
//Storyboard Layer 1 (Fail)
//Storyboard Layer 2 (Pass)
//Storyboard Layer 3 (Foreground)
//Storyboard Layer 4 (Overlay)
//Storyboard Sound Samples

[TimingPoints]
730,320.855614973262,4,2,1,60,1,0
1028,320.855614973262,4,2,1,60,1,0
1028,-83.3333333333333,4,2,1,60,0,0
1348,-125,4,2,1,60,0,0
2311,-83.3333333333333,4,2,1,60,0,0
2632,-125,4,2,1,60,0,0
3594,-83.3333333333333,4,2,1,60,0,0
3915,-125,4,2,1,60,0,0
4878,-66.6666666666667,4,2,1,60,0,0
5199,-125,4,2,1,60,0,0
6161,-90.9090909090909,4,2,1,60,0,0
9049,-125,4,2,1,60,0,0
10974,-71.4285714285714,4,2,1,60,0,0
11215,-71.4285714285714,4,2,1,60,0,0
11295,-90.9090909090909,4,2,1,60,0,0
13862,-100,4,2,1,60,0,0
14102,-100,4,2,1,60,0,0
14183,-83.3333333333333,4,2,1,60,0,0
14503,-100,4,2,1,60,0,0
16669,-100,4,2,1,60,0,0
16749,-83.3333333333333,4,2,1,60,0,0
17070,-100,4,2,1,60,0,0
18915,-100,4,2,1,60,0,0
18995,-100,4,2,1,60,0,0
19477,-83.3333333333333,4,2,1,60,0,0
21562,-111.111111111111,4,2,1,60,0,0
21883,-66.6666666666667,4,2,1,60,0,0
24129,-125,4,2,1,60,0,0
29263,-142.857142857143,4,2,1,60,0,0
32070,-142.857142857143,4,2,1,60,0,0
32150,-142.857142857143,4,2,1,60,0,0
32391,-142.857142857143,4,2,1,60,0,0
32471,-142.857142857143,4,2,1,60,0,0
34396,-100,4,2,1,60,0,0
42097,-66.6666666666667,4,2,1,60,0,0
42418,-100,4,2,1,60,0,0
44664,-125,4,2,1,60,0,0
50278,-83.3333333333333,4,2,1,60,0,0
54610,-125,4,2,1,60,0,0
54851,-125,4,2,1,60,0,0
54931,-66.6666666666667,4,2,1,60,0,0
55172,-66.6666666666667,4,2,1,60,0,0
71054,-83.3333333333333,4,2,1,60,0,0
71134,-83.3333333333333,4,2,1,60,0,0
72338,-83.3333333333333,4,2,1,60,0,0
72418,-83.3333333333333,4,2,1,60,0,0
73220,-66.6666666666667,4,2,1,60,0,0
73380,-83.3333333333333,4,2,1,60,0,0
79316,-125,4,2,1,60,0,0
80600,-83.3333333333333,4,2,1,60,0,0
80921,-125,4,2,1,60,0,0
81883,-83.3333333333333,4,2,1,60,0,0
82044,-125,4,2,1,60,0,0
83167,-83.3333333333333,4,2,1,60,0,0
83487,-125,4,2,1,60,0,0
84450,-83.3333333333333,4,2,1,60,0,0
86455,-83.3333333333333,4,2,1,60,0,0
86536,-83.3333333333333,4,2,1,60,0,0
88942,-66.6666666666667,4,2,1,60,0,0
89263,-83.3333333333333,4,2,1,60,0,0

[Colours]
Combo1 : 98,255,102
Combo2 : 204,147,147
Combo3 : 255,255,108
Combo4 : 94,189,236

[HitObjects]
293,272,730,5,2,3:2:0:0:
293,272,836,1,2,3:2:0:0:
293,272,948,1,2,3:2:0:0:
293,272,1028,1,10,0:0:0:0:
293,272,1349,1,0,3:0:0:0:
293,272,1455,1,0,3:0:0:0:
293,272,1562,1,0,3:0:0:0:
293,272,1669,1,10,0:0:0:0:
293,272,1990,1,2,3:2:0:0:
293,272,2097,1,2,3:2:0:0:
293,272,2204,1,2,3:2:0:0:
293,272,2311,1,8,0:0:0:0:
293,272,2632,1,0,3:0:0:0:
293,272,2739,1,0,3:0:0:0:
293,272,2846,1,0,3:0:0:0:
293,272,2953,1,8,0:0:0:0:
293,272,3274,1,2,3:2:0:0:
293,272,3380,1,2,3:2:0:0:
293,272,3487,1,2,3:2:0:0:
293,272,3595,1,4,0:0:0:0:
293,272,3915,1,0,3:0:0:0:
293,272,4022,1,0,3:0:0:0:
293,272,4129,1,0,3:0:0:0:
293,272,4236,1,8,0:0:0:0:
293,272,4557,1,2,3:2:0:0:
293,272,4664,1,2,3:2:0:0:
293,272,4771,1,2,3:2:0:0:
293,272,4878,1,6,0:0:0:0:
293,272,5199,1,0,3:0:0:0:
293,272,5306,1,0,3:0:0:0:
293,272,5413,1,0,3:0:0:0:
293,272,5520,1,8,0:0:0:0:
293,272,5680,1,2,0:0:0:0:
293,272,5840,1,10,3:2:0:0:
293,272,6001,1,2,0:0:0:0:
293,272,6161,1,6,3:2:0:0:
293,272,6322,1,2,0:0:0:0:
293,272,6482,1,2,3:2:0:0:
293,272,6643,1,6,0:0:0:0:
307,280,6964,1,2,0:0:0:0:
307,280,7124,1,0,3:2:0:0:
307,280,7284,1,2,3:2:0:0:
307,280,7365,1,2,3:2:0:0:
307,280,7445,1,6,3:2:0:0:
307,280,7605,1,2,0:0:0:0:
307,280,7766,1,2,3:2:0:0:
307,280,7926,1,4,0:0:0:0:
307,280,8247,1,2,3:2:0:0:
307,280,8407,1,2,3:2:0:0:
307,280,8568,1,0,3:2:0:0:
307,280,8648,1,0,3:2:0:0:
307,280,8728,1,6,0:0:0:0:
69,98,10814,1,0,3:0:0:0:
69,98,10894,1,0,3:0:0:0:
69,98,10974,1,8,0:0:0:0:
69,98,11295,1,6,3:2:0:0:
69,98,11616,1,8,0:0:0:0:
69,98,11776,1,2,3:2:0:0:
69,98,11857,1,2,3:2:0:0:
69,98,11937,1,0,3:2:0:0:
69,98,12097,1,8,0:0:0:0:
69,98,12258,1,8,0:0:0:0:
69,98,12418,1,8,0:0:0:0:
285,220,12579,1,6,0:0:0:0:
272,130,12739,1,8,0:0:0:0:
369,162,12899,1,2,3:2:0:0:
386,306,13060,1,0,3:2:0:0:
392,214,13140,1,0,3:2:0:0:
392,214,13220,1,2,3:2:0:0:
445,213,13381,1,0,3:0:0:0:
212,206,13541,1,2,3:2:0:0:
276,158,13621,1,0,3:2:0:0:
276,158,13702,1,0,3:2:0:0:
276,158,13782,1,0,3:2:0:0:
276,158,13862,1,6,0:0:0:0:
265,238,14183,1,8,0:0:0:0:
477,309,14503,1,2,3:2:0:0:
412,268,14664,1,2,0:0:0:0:
265,238,14825,1,8,0:0:0:0:
387,245,14985,1,2,0:0:0:0:
401,201,15145,1,0,3:0:0:0:
306,150,15306,1,2,0:0:0:0:
265,238,15466,1,8,0:0:0:0:
203,171,15627,1,0,0:0:0:0:
201,226,15787,1,2,3:2:0:0:
355,258,15947,1,0,0:0:0:0:
265,238,16108,1,8,0:0:0:0:
240,144,16268,1,0,0:0:0:0:
436,295,16429,1,4,0:0:0:0:
265,238,16750,1,12,0:0:0:0:
405,211,17070,1,2,3:2:0:0:
401,258,17231,1,2,3:2:0:0:
265,238,17391,1,8,0:0:0:0:
380,313,17552,1,2,0:0:0:0:
425,341,17712,1,0,3:0:0:0:
283,156,17873,1,2,0:0:0:0:
265,238,18033,1,8,0:0:0:0:
398,244,18193,1,0,3:0:0:0:
398,244,18274,1,0,3:0:0:0:
398,244,18354,1,12,0:0:0:0:
438,211,18514,1,8,0:0:0:0:
265,238,18675,1,8,0:0:0:0:
332,205,18996,1,4,0:0:0:0:
341,298,19156,1,2,3:2:0:0:
237,145,19316,1,8,0:0:0:0:
304,257,19477,1,4,0:0:0:0:
457,300,19798,1,2,3:2:0:0:
457,300,19958,1,8,3:2:0:0:
287,282,20119,1,4,0:0:0:0:
319,219,20439,1,2,3:2:0:0:
346,202,20600,1,2,3:2:0:0:
349,202,20760,1,8,0:0:0:0:
287,282,20921,1,6,0:0:0:0:
455,268,21134,1,2,0:0:0:0:
438,338,21348,1,2,0:0:0:0:
411,268,21562,1,2,0:0:0:0:
252,192,21723,1,0,3:0:0:0:
98,189,21883,1,4,0:0:0:0:
198,237,22204,1,12,0:0:0:0:
297,247,22365,1,8,0:0:0:0:
336,200,22525,1,8,0:0:0:0:
346,276,22685,1,12,0:0:0:0:
396,184,23006,1,8,0:0:0:0:
396,184,23167,1,8,0:0:0:0:
396,184,23327,1,12,0:0:0:0:
396,184,23648,1,8,0:0:0:0:
423,246,23808,1,8,0:0:0:0:
294,223,24129,1,2,3:2:0:0:
319,273,24290,1,2,0:0:0:0:
319,273,24450,1,8,3:2:0:0:
319,273,24611,1,2,0:2:0:0:
334,239,24691,1,0,0:2:0:0:
334,239,24771,1,2,3:2:0:0:
334,239,24931,1,2,0:0:0:0:
334,239,25092,1,10,0:0:0:0:
334,239,25252,1,2,0:0:0:0:
271,49,25413,1,0,3:0:0:0:
512,384,25573,1,2,0:0:0:0:
319,273,25734,1,8,3:2:0:0:
512,384,25894,1,2,0:0:0:0:
512,384,26054,1,2,0:0:0:0:
512,384,26215,1,2,0:0:0:0:
334,239,26375,1,10,0:0:0:0:
512,384,26536,1,2,0:0:0:0:
512,384,26696,1,2,3:2:0:0:
512,384,26857,1,2,0:0:0:0:
319,273,27017,1,8,3:2:0:0:
512,384,27177,1,2,0:0:0:0:
512,384,27258,1,2,3:2:0:0:
512,384,27338,1,2,0:0:0:0:
512,384,27498,1,2,0:0:0:0:
334,239,27659,1,10,0:0:0:0:
512,384,27819,1,2,0:0:0:0:
512,384,28140,1,2,0:0:0:0:
319,273,28300,1,8,3:2:0:0:
512,384,28461,1,2,3:2:0:0:
512,384,28621,1,2,0:0:0:0:
512,384,28782,1,2,0:0:0:0:
334,239,28942,1,10,0:0:0:0:
512,384,29103,1,2,0:0:0:0:
512,384,29263,1,2,3:2:0:0:
512,384,29423,1,2,0:0:0:0:
512,384,29584,1,2,0:0:0:0:
512,384,29744,1,2,0:0:0:0:
308,74,29905,1,0,3:0:0:0:
512,384,30065,1,2,0:0:0:0:
512,384,30226,1,2,0:0:0:0:
512,384,30386,1,2,0:0:0:0:
309,74,30546,1,0,3:0:0:0:
512,384,30707,1,2,0:0:0:0:
512,384,30867,1,2,0:0:0:0:
512,384,31028,1,2,0:0:0:0:
309,74,31188,1,0,3:0:0:0:
512,384,31349,1,2,0:0:0:0:
512,384,31509,1,2,0:0:0:0:
512,384,31669,1,2,0:0:0:0:
512,384,31830,1,2,3:2:0:0:
512,384,32151,1,2,0:0:0:0:
512,384,32472,1,2,0:0:0:0:
512,384,32632,1,2,0:0:0:0:
309,74,32792,1,0,3:0:0:0:
512,384,32953,1,2,0:0:0:0:
512,384,33915,1,2,0:0:0:0:
512,384,34076,1,2,3:2:0:0:
512,384,34236,1,2,0:0:0:0:
512,384,34397,1,6,0:0:0:0:
512,384,34557,1,2,0:0:0:0:
512,384,34718,1,8,0:0:0:0:
512,384,34878,1,2,0:0:0:0:
512,384,35038,1,2,3:2:0:0:
512,384,35199,1,2,0:0:0:0:
512,384,35359,1,8,0:0:0:0:
512,384,35520,1,2,0:0:0:0:
142,96,35680,1,0,3:2:0:0:
512,384,35841,1,2,0:0:0:0:
512,384,36001,1,10,0:0:0:0:
512,384,36161,1,2,0:0:0:0:
142,96,36322,1,2,3:2:0:0:
512,384,36482,1,2,0:0:0:0:
512,384,36643,1,8,0:0:0:0:
512,384,36803,1,2,0:0:0:0:
142,96,36964,1,0,3:2:0:0:
325,362,37124,1,2,0:0:0:0:
512,384,37284,1,10,0:0:0:0:
377,231,37445,1,2,0:0:0:0:
142,96,37605,1,2,3:2:0:0:
236,279,37766,1,2,0:0:0:0:
512,384,37926,1,8,0:0:0:0:
343,208,38087,1,2,0:0:0:0:
142,96,38247,1,0,3:2:0:0:
343,208,38407,1,2,0:0:0:0:
512,384,38568,1,10,0:0:0:0:
281,211,38728,1,2,0:0:0:0:
142,96,38889,1,2,3:2:0:0:
411,189,39049,1,2,3:2:0:0:
399,195,39129,1,2,3:2:0:0:
411,189,39210,1,2,3:2:0:0:
349,152,39370,1,2,0:0:0:0:
285,95,39530,1,12,0:0:0:0:
349,152,39691,1,10,0:0:0:0:
349,152,39851,1,10,0:0:0:0:
349,152,40012,1,14,0:0:0:0:
349,152,40333,1,10,0:0:0:0:
349,152,40493,1,10,0:0:0:0:
349,152,40653,1,14,0:0:0:0:
349,152,40974,1,10,0:0:0:0:
349,152,41135,1,10,0:0:0:0:
349,152,41295,1,14,0:0:0:0:
349,152,41616,1,10,0:0:0:0:
349,152,41776,1,10,0:0:0:0:
349,152,41937,1,10,0:0:0:0:
349,152,42097,1,6,0:0:0:0:
349,152,42418,1,12,0:0:0:0:
349,152,42579,1,2,3:2:0:0:
203,57,42659,1,0,3:2:0:0:
349,152,42739,1,8,3:2:0:0:
349,152,42899,1,2,0:0:0:0:
349,152,43060,1,2,0:0:0:0:
349,152,43220,1,6,0:0:0:0:
349,152,43541,1,2,0:0:0:0:
349,152,43702,1,2,0:0:0:0:
349,152,43862,1,2,0:0:0:0:
349,152,44022,1,2,0:0:0:0:
349,152,44183,1,2,0:0:0:0:
349,152,44343,1,2,0:0:0:0:
349,152,44504,1,2,0:0:0:0:
349,152,44664,1,6,0:0:0:0:
420,268,44825,1,2,0:0:0:0:
279,40,45306,1,0,3:2:0:0:
281,130,45466,1,0,0:0:0:0:
281,130,45787,1,0,0:0:0:0:
279,40,45947,1,0,3:2:0:0:
366,167,46108,1,2,0:0:0:0:
366,167,46268,1,2,0:0:0:0:
366,167,46429,1,2,0:0:0:0:
279,40,46589,1,2,3:2:0:0:
366,167,46750,1,2,0:0:0:0:
366,167,47070,1,2,0:0:0:0:
279,40,47231,1,2,3:2:0:0:
414,193,47391,1,2,0:0:0:0:
279,40,47712,1,0,0:0:0:0:
279,40,47873,1,2,3:2:0:0:
412,223,48033,1,2,0:0:0:0:
412,222,48354,1,2,0:0:0:0:
279,40,48514,1,2,3:2:0:0:
412,223,48675,1,2,0:0:0:0:
412,223,48835,1,2,0:0:0:0:
412,223,48996,1,2,0:0:0:0:
279,40,49156,1,2,3:2:0:0:
412,222,49316,1,2,0:0:0:0:
412,223,49477,1,2,0:0:0:0:
333,227,49798,1,4,0:0:0:0:
247,121,50119,1,8,0:0:0:0:
333,227,50279,1,4,0:0:0:0:
168,109,50600,1,0,3:0:0:0:
331,159,50760,1,8,0:0:0:0:
333,227,51081,1,4,0:0:0:0:
168,109,51241,1,0,3:0:0:0:
393,206,51402,1,8,0:0:0:0:
333,227,51562,1,4,3:2:0:0:
432,318,51883,1,8,0:0:0:0:
256,125,52044,1,2,3:2:0:0:
256,125,52124,1,2,3:2:0:0:
256,125,52204,1,2,3:2:0:0:
229,213,52365,1,4,0:0:0:0:
148,201,52525,1,0,3:0:0:0:
148,201,52605,1,0,3:0:0:0:
375,246,52685,1,4,0:0:0:0:
365,186,52846,1,0,3:0:0:0:
301,180,53006,1,10,0:0:0:0:
301,180,53167,1,10,0:0:0:0:
301,180,53327,1,10,0:0:0:0:
301,180,53487,1,14,0:2:0:0:
422,278,53808,1,2,0:2:0:0:
422,278,53889,1,2,0:2:0:0:
422,278,53969,1,2,0:2:0:0:
422,278,54049,1,2,0:2:0:0:
422,278,54129,1,10,0:2:0:0:
422,278,54210,1,10,0:2:0:0:
422,278,54290,1,10,3:2:0:0:
422,278,54370,1,10,3:2:0:0:
422,278,54450,1,10,3:2:0:0:
422,278,54530,1,10,3:2:0:0:
422,278,54611,1,10,3:2:0:0:
406,384,54771,1,2,0:0:0:0:
340,296,54931,1,14,0:0:0:0:
449,330,55092,1,2,0:0:0:0:
381,184,55252,1,8,0:0:0:0:
229,193,55413,1,2,0:0:0:0:
283,169,55573,1,2,3:2:0:0:
311,243,55734,1,2,0:0:0:0:
426,229,55894,1,8,0:0:0:0:
229,193,56054,1,2,0:0:0:0:
283,169,56215,1,2,3:2:0:0:
311,243,56375,1,2,0:0:0:0:
426,229,56536,1,8,0:0:0:0:
229,193,56696,1,2,0:0:0:0:
283,169,56857,1,2,3:2:0:0:
311,243,57017,1,2,0:0:0:0:
426,229,57177,1,10,0:0:0:0:
427,282,57338,1,2,0:0:0:0:
271,117,57498,1,6,0:0:0:0:
426,229,57819,1,10,0:0:0:0:
289,193,58140,1,2,3:2:0:0:
426,229,58461,1,10,0:0:0:0:
345,246,58621,1,2,0:0:0:0:
345,246,58782,1,0,3:2:0:0:
373,213,58942,1,2,0:0:0:0:
426,229,59103,1,8,0:0:0:0:
373,213,59263,1,2,0:0:0:0:
381,195,59423,1,0,3:2:0:0:
291,196,59584,1,10,0:0:0:0:
426,229,59744,1,8,0:0:0:0:
343,269,59905,1,2,0:0:0:0:
343,269,60065,1,4,0:0:0:0:
401,286,60226,1,2,0:0:0:0:
426,229,60386,1,8,0:0:0:0:
242,156,60546,1,2,0:0:0:0:
321,171,60707,1,2,3:2:0:0:
321,171,60867,1,2,0:0:0:0:
426,229,61028,1,8,0:0:0:0:
269,238,61188,1,2,0:0:0:0:
231,198,61349,1,2,3:2:0:0:
169,258,61509,1,2,0:0:0:0:
426,229,61669,1,8,0:0:0:0:
384,285,61830,1,2,0:0:0:0:
354,258,61990,1,2,3:2:0:0:
354,258,62151,1,2,0:0:0:0:
426,229,62311,1,8,0:0:0:0:
284,227,62472,1,2,0:0:0:0:
328,204,62632,1,6,0:0:0:0:
426,229,62953,1,8,0:0:0:0:
478,329,63113,1,2,0:0:0:0:
478,329,63274,1,6,0:0:0:0:
350,195,63434,1,8,0:0:0:0:
425,275,63595,1,8,0:0:0:0:
282,255,63755,1,4,0:0:0:0:
167,109,64076,1,0,3:0:0:0:
292,250,64236,1,8,0:0:0:0:
298,118,64397,1,2,3:2:0:0:
298,118,64477,1,2,3:2:0:0:
298,118,64557,1,2,3:2:0:0:
212,171,64718,1,14,0:0:0:0:
366,220,64878,1,14,0:0:0:0:
271,318,65038,1,2,0:0:0:0:
290,306,65199,1,6,0:0:0:0:
374,285,65359,1,2,0:0:0:0:
381,184,65520,1,8,0:0:0:0:
229,193,65680,1,2,0:0:0:0:
283,169,65841,1,2,3:2:0:0:
311,243,66001,1,2,0:0:0:0:
426,229,66161,1,8,0:0:0:0:
229,193,66322,1,2,0:0:0:0:
283,169,66482,1,2,3:2:0:0:
311,243,66643,1,2,0:0:0:0:
426,229,66803,1,8,0:0:0:0:
229,193,66964,1,2,0:0:0:0:
347,171,67044,1,2,0:0:0:0:
283,169,67124,1,2,3:2:0:0:
311,243,67284,1,2,0:0:0:0:
426,229,67445,1,10,0:0:0:0:
427,282,67605,1,2,0:0:0:0:
271,117,67766,1,6,0:0:0:0:
426,229,68087,1,10,0:0:0:0:
289,193,68407,1,2,3:2:0:0:
426,229,68728,1,10,0:0:0:0:
345,246,68889,1,6,0:0:0:0:
345,246,69049,1,0,3:0:0:0:
373,213,69210,1,10,0:0:0:0:
426,229,69370,1,8,0:0:0:0:
373,213,69530,1,2,0:0:0:0:
381,195,69691,1,4,3:2:0:0:
291,196,69851,1,10,0:0:0:0:
186,76,69931,1,8,0:0:0:0:
426,229,70012,1,8,0:0:0:0:
343,269,70172,1,2,0:0:0:0:
343,269,70333,1,4,0:0:0:0:
401,286,70493,1,2,0:0:0:0:
426,229,70653,1,8,0:0:0:0:
242,156,70814,1,6,0:0:0:0:
321,171,71135,1,2,0:0:0:0:
426,229,71295,1,8,0:0:0:0:
269,238,71456,1,2,0:0:0:0:
231,198,71616,1,6,3:2:0:0:
169,258,71776,1,2,0:0:0:0:
426,229,71937,1,8,0:0:0:0:
384,285,72097,1,6,0:0:0:0:
354,258,72418,1,2,0:0:0:0:
426,229,72579,1,8,0:0:0:0:
246,112,72659,1,0,3:0:0:0:
284,227,72739,1,2,0:0:0:0:
328,204,72899,1,6,0:0:0:0:
170,108,73060,1,0,3:2:0:0:
426,229,73220,1,12,0:0:0:0:
478,329,73541,1,6,0:0:0:0:
350,195,73702,1,8,0:0:0:0:
425,275,73862,1,8,0:0:0:0:
282,255,74022,1,4,0:0:0:0:
244,142,74343,1,2,0:0:0:0:
292,250,74504,1,8,0:0:0:0:
298,118,74664,1,2,3:2:0:0:
298,118,74744,1,2,3:2:0:0:
298,118,74825,1,10,3:2:0:0:
212,171,74985,1,0,3:0:0:0:
366,220,75145,1,10,0:0:0:0:
290,174,75306,1,10,0:0:0:0:
471,184,75466,1,12,0:0:0:0:
360,289,75627,1,2,0:0:0:0:
456,271,75787,1,8,0:0:0:0:
301,304,75947,1,2,0:0:0:0:
407,226,76108,1,8,0:0:0:0:
223,260,76268,1,2,0:0:0:0:
346,256,76429,1,8,0:0:0:0:
223,260,76589,1,2,0:0:0:0:
402,182,76750,1,12,0:0:0:0:
223,260,76910,1,2,0:0:0:0:
402,182,77070,1,8,0:0:0:0:
223,260,77231,1,2,0:0:0:0:
402,182,77391,1,8,0:0:0:0:
223,260,77552,1,2,0:0:0:0:
402,182,77712,1,8,0:0:0:0:
223,260,77873,1,2,0:0:0:0:
402,182,78033,1,12,0:0:0:0:
402,182,78193,1,8,0:0:0:0:
402,182,78274,1,8,0:0:0:0:
402,182,78354,1,12,0:0:0:0:
486,303,78434,1,8,0:0:0:0:
402,182,78514,1,8,0:0:0:0:
469,281,78595,1,8,0:0:0:0:
498,306,78675,1,12,0:0:0:0:
469,281,78835,1,2,0:0:0:0:
470,281,78996,1,2,0:0:0:0:
471,281,79156,1,2,0:0:0:0:
471,282,79316,1,12,0:0:0:0:
293,272,79637,1,0,3:2:0:0:
293,272,79744,1,0,3:2:0:0:
293,272,79851,1,0,3:2:0:0:
293,272,79958,1,10,0:0:0:0:
293,272,80279,1,0,3:0:0:0:
293,272,80386,1,0,3:0:0:0:
293,272,80493,1,0,3:0:0:0:
293,272,80600,1,6,0:0:0:0:
293,272,80921,1,0,3:0:0:0:
293,272,81027,1,0,3:0:0:0:
293,272,81134,1,0,3:0:0:0:
293,272,81242,1,8,0:0:0:0:
293,272,81562,1,0,3:0:0:0:
293,272,81669,1,0,3:0:0:0:
293,272,81776,1,0,3:0:0:0:
293,272,81883,1,4,0:0:0:0:
293,272,82204,1,0,3:0:0:0:
293,272,82311,1,0,3:0:0:0:
293,272,82418,1,0,3:0:0:0:
293,272,82525,1,4,0:0:0:0:
293,272,82846,1,2,3:2:0:0:
293,272,82953,1,2,3:2:0:0:
293,272,83060,1,2,3:2:0:0:
293,272,83167,1,6,0:0:0:0:
293,272,83488,1,0,3:0:0:0:
293,272,83594,1,0,3:0:0:0:
293,272,83701,1,0,3:0:0:0:
293,272,83808,1,8,0:0:0:0:
293,272,83969,1,2,0:0:0:0:
293,272,84129,1,10,0:0:0:0:
293,272,84290,1,2,0:0:0:0:
293,272,84450,1,6,3:2:0:0:
293,272,84611,1,2,0:0:0:0:
293,272,84771,1,2,3:2:0:0:
293,272,84931,1,6,0:0:0:0:
307,280,85252,1,2,0:0:0:0:
307,280,85413,1,0,3:2:0:0:
307,280,85573,1,2,3:2:0:0:
307,280,85653,1,2,3:2:0:0:
307,280,85734,1,14,3:2:0:0:
307,280,85894,1,2,0:0:0:0:
307,280,86054,1,2,3:2:0:0:
307,280,86215,1,4,0:0:0:0:
307,280,86536,1,2,3:2:0:0:
307,280,86696,1,6,3:2:0:0:
307,280,86857,1,2,3:2:0:0:
307,280,86937,1,2,3:2:0:0:
307,280,87017,1,6,0:0:0:0:
370,210,87338,1,2,3:2:0:0:
370,210,87445,1,2,3:2:0:0:
370,210,87552,1,2,3:2:0:0:
370,210,87659,1,2,3:2:0:0:
370,210,87980,1,2,3:2:0:0:
370,210,88300,1,6,3:2:0:0:
490,195,88461,1,8,0:0:0:0:
490,195,88541,1,8,0:0:0:0:
490,195,88621,1,8,0:0:0:0:
490,195,88702,1,8,0:0:0:0:
490,195,88782,1,8,0:0:0:0:
490,195,88862,1,8,0:0:0:0:
306,218,88942,1,14,0:0:0:0:
