osu file format v14

[General]
AudioFilename: audio.ogg
AudioLeadIn: 0
PreviewTime: 47303
Countdown: 0
SampleSet: Soft
StackLeniency: 0.7
Mode: 0
LetterboxInBreaks: 0
WidescreenStoryboard: 1

[Editor]
Bookmarks: 1103,1274,1813,2646,20560,51355,51674,52017,61274
DistanceSpacing: 1
BeatDivisor: 2
GridSize: 16
TimelineZoom: 1.6

[Metadata]
Title:Easy? Hard? Shikashite Susume! (TV Size)
TitleUnicode:イージー?ハード?しかして進めっ!(TV Size)
Artist:DIALOGUE+
ArtistUnicode:DIALOGUE+
Creator:Armada
Version:Normal?
Source:弱キャラ友崎くん 2nd STAGE
Tags:anime japanese pop j-pop jpop opening jaku chara tomozaki kun bottom tier character tomozaki-kun
BeatmapID:4454450
BeatmapSetID:2116325

[Difficulty]
HPDrainRate:3
CircleSize:3.5
OverallDifficulty:4
ApproachRate:5
SliderMultiplier:1
SliderTickRate:1

[Events]
//Background and Video events
0,0,"bg.jpg",0,0
Video,100,"op.avi"
//Break Periods
//Storyboard Layer 0 (Background)
//Storyboard Layer 1 (Fail)
//Storyboard Layer 2 (Pass)
//Storyboard Layer 3 (Foreground)
//Storyboard Layer 4 (Overlay)
//Storyboard Sound Samples

[TimingPoints]
610,342.857142857143,4,2,1,40,1,0
610,-111.111111111111,4,2,1,40,0,0
4724,-111.111111111111,4,2,2,40,0,0
5067,-111.111111111111,4,2,1,40,0,0
6095,-111.111111111111,4,2,1,45,0,0
7124,-111.111111111111,4,2,1,45,0,0
7381,-111.111111111111,4,2,1,5,0,0
7467,-111.111111111111,4,2,1,45,0,0
8838,-100,4,2,1,50,0,0
12952,-100,4,2,1,60,0,0
15952,-100,4,2,1,5,0,0
16038,-100,4,2,1,60,0,0
18695,-100,4,2,1,5,0,0
18781,-100,4,2,1,60,0,0
24438,-111.111111111111,4,2,1,50,0,0
29667,-111.111111111111,4,2,1,5,0,0
29752,-111.111111111111,4,2,1,50,0,0
33352,-111.111111111111,4,2,1,50,0,0
34810,-111.111111111111,4,2,1,5,0,0
34895,-111.111111111111,4,2,1,45,0,0
37467,-111.111111111111,4,2,2,45,0,0
37638,-111.111111111111,4,2,1,45,0,0
39610,-111.111111111111,4,2,2,45,0,0
39695,-111.111111111111,4,2,1,45,0,0
39867,-111.111111111111,4,2,1,50,0,0
40381,-100,4,2,1,55,0,0
41752,-100,4,2,1,60,0,0
42952,-100,4,2,1,65,0,0
46724,-100,4,2,1,65,0,0
46810,-100,4,2,1,5,0,0
46895,-100,4,2,1,65,0,0
47152,-100,4,2,1,5,0,0
47238,-100,4,2,1,65,0,0
47924,-111.111111111111,4,2,1,50,0,0
48610,-90.9090909090909,4,2,1,70,0,0
48867,-90.9090909090909,4,2,1,5,0,0
48952,-90.9090909090909,4,2,1,70,0,0
50238,-90.9090909090909,4,2,1,5,0,0
50324,-90.9090909090909,4,2,1,70,0,0
54352,-90.9090909090909,4,2,1,5,0,0
54438,-90.9090909090909,4,2,1,70,0,0
57095,-90.9090909090909,4,2,1,5,0,0
57181,-90.9090909090909,4,2,1,70,0,0
59838,-90.9090909090909,4,2,1,5,0,0
59924,-90.9090909090909,4,2,1,70,0,0
62324,-90.9090909090909,4,2,1,70,0,0
62924,-90.9090909090909,4,2,1,5,0,0
63010,-90.9090909090909,4,2,1,70,0,0
65324,-90.9090909090909,4,2,1,5,0,0
65410,-90.9090909090909,4,2,1,70,0,0
68067,-90.9090909090909,4,2,1,5,0,0
68152,-90.9090909090909,4,2,1,70,0,0
81524,-100,4,2,1,60,0,0
84524,-100,4,2,1,5,0,0
84610,-100,4,2,1,60,0,0
87352,-100,4,2,1,30,0,0
89410,-100,4,2,1,5,0,0

[Colours]
Combo1 : 158,67,99
Combo2 : 69,124,165
Combo3 : 207,207,207

[HitObjects]
72,227,610,6,0,P|58:269|71:312,1,89.999997253418,6|2,0:2|0:2,0:0:0:0:
134,375,1295,2,0,L|229:358,1,89.999997253418,2|2,0:2|0:2,0:0:0:0:
286,295,1981,2,0,L|381:312,1,89.999997253418,2|2,0:2|0:2,0:0:0:0:
460,283,2667,2,0,P|473:241|460:198,1,89.999997253418,2|2,0:2|0:2,0:0:0:0:
385,147,3352,2,0,L|261:168,2,89.9999972534181,2|2|2,0:2|0:2|0:2,0:0:0:0:
440,75,4381,1,2,0:2:0:0:
370,18,4724,6,0,L|264:37,1,89.999997253418,10|2,0:2|0:2,0:0:0:0:
227,106,5410,2,0,L|148:92,1,44.999998626709,10|8,0:2|3:2,0:0:0:0:
138,90,5752,1,2,3:2:0:0:
62,139,6095,6,0,L|51:196,1,44.999998626709,2|10,3:2|0:2,0:0:0:0:
51,231,6438,1,10,0:2:0:0:
51,231,6610,1,10,0:2:0:0:
120,295,6952,1,2,0:2:0:0:
120,295,7124,2,0,L|178:306,1,44.999998626709,2|0,0:2|0:0,0:0:0:0:
209,309,7467,2,0,L|230:187,1,89.999997253418,10|2,0:2|3:2,0:0:0:0:
224,175,7981,1,10,0:2:0:0:
302,130,8324,2,0,L|316:45,2,44.999998626709,10|2|2,3:2|3:2|3:2,0:0:0:0:
321,169,8838,6,0,L|437:190,1,100,14|2,0:2|3:2,0:0:0:0:
468,194,9352,1,10,0:2:0:0:
456,296,9695,1,2,3:2:0:0:
456,296,9867,2,0,L|339:275,1,100,10|2,0:2|3:2,0:0:0:0:
322,313,10381,2,0,L|215:294,1,100,10|10,0:2|0:2,0:0:0:0:
183,325,10895,1,2,3:2:0:0:
92,277,11238,2,0,L|102:220,2,50,2|10|2,3:2|0:2|0:2,0:0:0:0:
52,80,12267,2,0,P|100:63|163:94,1,100,8|10,0:2|0:2,0:0:0:0:
186,168,12952,6,0,L|323:144,1,100,4|10,3:2|0:0,0:0:0:0:
307,108,13467,1,0,0:0:0:0:
307,108,13638,2,0,L|438:130,1,100,2|10,3:2|0:2,0:0:0:0:
455,128,14152,1,2,0:2:0:0:
511,210,14495,1,2,0:0:0:0:
445,285,14838,1,2,0:2:0:0:
445,285,15010,2,0,L|315:264,1,100,2|10,3:2|0:2,0:0:0:0:
266,208,15695,6,0,L|290:77,1,100,0|10,3:2|0:2,0:0:0:0:
293,63,16210,1,0,0:0:0:0:
293,63,16381,2,0,L|185:44,1,100,2|10,3:2|0:2,0:0:0:0:
145,35,16895,1,2,0:2:0:0:
66,97,17238,1,2,0:2:0:0:
132,178,17581,1,2,0:0:0:0:
132,178,17752,2,0,L|120:256,1,50,2|10,3:2|0:2,0:0:0:0:
123,277,18095,1,2,3:2:0:0:
195,346,18438,6,0,P|243:363|306:332,1,100,4|10,3:2|0:0,0:0:0:0:
325,315,18952,1,0,0:0:0:0:
325,315,19124,2,0,L|307:211,1,100,2|10,3:2|0:2,0:0:0:0:
298,167,19638,1,2,0:2:0:0:
366,93,19981,1,2,0:0:0:0:
463,132,20324,1,2,0:2:0:0:
463,132,20496,2,0,L|485:262,1,100,2|10,3:2|0:2,0:0:0:0:
414,306,21181,6,0,L|285:329,1,100,4|10,3:2|0:0,0:0:0:0:
291,369,21695,1,0,0:0:0:0:
291,369,21866,2,0,L|183:351,1,100,2|10,3:2|0:2,0:0:0:0:
143,342,22380,1,2,0:2:0:0:
67,276,22723,1,10,0:2:0:0:
129,198,23066,1,2,0:2:0:0:
129,198,23237,2,0,L|116:121,1,50,10|2,0:2|3:2,0:0:0:0:
75,125,23581,2,0,L|97:0,1,100,10|2,3:2|3:2,0:0:0:0:
255,104,24610,6,0,L|355:122,1,89.999997253418,10|2,0:2|3:2,0:0:0:0:
388,126,25124,1,10,0:2:0:0:
477,332,25981,2,0,L|379:314,1,89.999997253418,8|10,0:0|0:0,0:0:0:0:
304,349,26667,1,6,3:2:0:0:
178,219,27352,6,0,L|190:146,1,44.999998626709,10|2,0:2|3:2,0:0:0:0:
193,130,27695,1,2,3:2:0:0:
193,130,27867,1,10,0:2:0:0:
249,59,28210,1,14,0:2:0:0:
326,114,28552,1,2,3:0:0:0:
326,114,28724,2,0,L|433:133,1,89.999997253418,2|2,3:0|3:2,0:0:0:0:
484,187,29410,6,0,P|496:235|465:289,1,89.999997253418,6|10,3:2|0:2,0:0:0:0:
449,301,29924,1,2,0:2:0:0:
449,301,30095,2,0,L|349:284,1,89.999997253418,2|2,3:2|3:2,0:0:0:0:
316,275,30610,1,2,3:2:0:0:
253,339,30952,1,10,0:2:0:0:
253,339,31124,2,0,L|195:329,1,44.999998626709,2|8,3:2|0:2,0:0:0:0:
180,295,31467,2,0,L|62:315,1,89.999997253418,2|8,3:2|0:2,0:0:0:0:
19,255,32152,6,0,P|7:212|27:172,1,89.999997253418,2|10,3:2|0:2,0:0:0:0:
79,100,32838,2,0,L|140:110,1,44.999998626709,10|2,0:2|3:2,0:0:0:0:
172,116,33181,1,2,3:2:0:0:
172,116,33352,1,10,0:2:0:0:
233,50,33695,1,2,0:2:0:0:
315,85,34038,1,2,0:2:0:0:
308,178,34381,1,2,3:2:0:0:
308,178,34552,1,10,3:2:0:0:
219,196,34895,6,0,L|237:300,1,89.9999972534181,6|2,3:2|3:2,0:0:0:0:
295,351,35581,1,2,3:2:0:0:
363,292,35924,1,2,3:2:0:0:
363,292,36095,2,0,P|411:307|459:286,1,89.9999972534181,2|0,0:2|0:2,0:0:0:0:
509,230,36781,2,0,L|490:126,1,89.9999972534181,2|2,0:2|0:2,0:0:0:0:
485,96,37295,1,0,3:2:0:0:
414,41,37638,6,0,L|309:59,1,89.9999972534181,2|2,3:2|3:2,0:0:0:0:
307,144,38324,2,0,L|218:160,1,89.9999972534181,0|2,3:2|3:2,0:0:0:0:
174,169,38838,1,2,0:2:0:0:
93,209,39181,1,2,0:2:0:0:
17,160,39524,2,0,L|32:71,1,89.9999972534181,2|8,0:2|0:2,0:0:0:0:
38,26,40038,1,2,3:2:0:0:
136,41,40381,6,0,L|124:113,1,50,6|2,3:2|3:2,0:0:0:0:
125,144,40724,1,2,3:2:0:0:
125,144,40895,2,0,L|236:163,1,100,2|10,3:2|0:2,0:0:0:0:
272,172,41410,1,10,0:2:0:0:
346,106,41752,6,0,L|355:39,1,50,6|2,3:2|0:2,0:0:0:0:
360,10,42095,1,10,0:2:0:0:
360,10,42267,2,0,L|469:29,1,100,10|10,0:2|0:2,0:0:0:0:
511,39,42781,1,2,3:2:0:0:
511,39,42952,1,10,0:2:0:0:
256,192,45524,5,2,3:2:0:0:
171,137,45867,2,0,L|112:147,1,50,10|10,0:2|0:2,0:0:0:0:
75,155,46210,1,10,0:2:0:0:
75,155,46381,1,10,0:2:0:0:
11,232,46724,1,10,0:2:0:0:
79,304,47067,1,10,0:2:0:0:
164,252,47410,2,0,L|273:271,1,100
306,278,47924,2,0,L|295:329,2,44.999998626709,2|0|0,0:2|0:0|0:0,0:0:0:0:
411,245,48610,6,0,P|430:194|391:131,1,110.000003356934,6|10,1:2|0:2,0:0:0:0:
373,111,49124,1,2,0:2:0:0:
373,111,49295,2,0,L|243:133,1,110.000003356934,10|10,0:2|0:2,0:0:0:0:
213,139,49810,1,2,3:2:0:0:
213,139,49981,1,10,0:2:0:0:
121,77,50324,1,10,0:2:0:0:
35,146,50667,2,0,P|14:197|40:256,1,110.000003356934,10|10,0:2|0:2,0:0:0:0:
75,288,51181,5,2,3:2:0:0:
75,288,51352,2,0,L|196:266,1,110.000003356934,10|10,0:2|0:2,0:0:0:0:
280,321,52038,1,10,0:2:0:0:
366,252,52381,2,0,L|352:175,1,55.0000016784668,10|2,0:2|3:2,0:0:0:0:
344,143,52724,2,0,L|230:162,1,110.000003356934,10|10,2:2|0:2,0:0:0:0:
185,155,53238,1,2,3:2:0:0:
185,155,53410,2,0,P|157:95|172:50,1,110.000003356934,10|10,2:2|0:2,0:0:0:0:
213,20,53924,5,10,0:2:0:0:
213,20,54095,2,0,L|333:-1,1,110.000003356934,6|10,3:2|0:2,0:0:0:0:
428,28,54781,2,0,L|441:104,1,55.0000016784668,2|0,3:2|3:2,0:0:0:0:
445,136,55124,1,10,2:2:0:0:
420,243,55467,6,0,L|298:262,1,110.000003356934,2|10,3:2|2:2,0:0:0:0:
261,276,55981,1,2,2:2:0:0:
261,276,56152,1,2,3:2:0:0:
202,369,56495,2,0,L|124:356,1,55.0000016784668,10|2,0:2|3:2,0:0:0:0:
93,352,56838,5,2,3:2:0:0:
14,275,57181,1,10,2:2:0:0:
89,195,57524,2,0,L|110:76,1,110.000003356934,2|10,3:2|0:2,0:0:0:0:
118,35,58038,1,10,0:2:0:0:
118,35,58210,2,0,L|190:48,1,55.0000016784668,2|2,3:2|3:2,0:0:0:0:
225,56,58552,1,10,0:2:0:0:
323,7,58895,2,0,P|343:59|311:126,1,110.000003356934,6|10,3:2|0:2,0:0:0:0:
228,171,59581,6,0,L|207:289,1,110.000003356934,6|10,3:2|0:2,0:0:0:0:
198,336,60095,1,2,3:2:0:0:
198,336,60267,2,0,L|315:356,1,110.000003356934,10|10,0:2|0:2,0:0:0:0:
364,372,60781,1,2,3:2:0:0:
364,372,60952,1,10,0:2:0:0:
447,300,61295,1,10,0:2:0:0:
370,220,61638,2,0,L|389:107,1,110.000003356934,10|10,0:2|0:2,0:0:0:0:
398,60,62152,5,2,3:2:0:0:
398,60,62324,2,0,L|280:39,1,110.000003356934,10|10,0:2|0:2,0:0:0:0:
206,112,63010,1,10,0:2:0:0:
280,192,63352,2,0,L|268:261,1,55.0000016784668,10|2,0:2|3:2,0:0:0:0:
256,299,63695,2,0,L|122:275,1,110.000003356934,10|8,0:2|0:2,0:0:0:0:
97,272,64210,1,2,3:2:0:0:
97,272,64381,1,2,3:2:0:0:
13,199,64724,1,6,3:2:0:0:
94,126,65067,6,0,P|76:74|106:21,1,110.000003356934,6|10,3:2|0:2,0:0:0:0:
152,6,65581,1,2,0:2:0:0:
152,6,65752,2,0,L|269:26,1,110.000003356934,2|8,3:2|0:2,0:0:0:0:
318,38,66267,1,2,3:2:0:0:
318,38,66438,1,2,3:2:0:0:
363,138,66781,2,0,L|435:151,1,55.0000016784668,10|2,0:2|0:2,0:0:0:0:
469,166,67124,2,0,L|448:283,1,110.000003356934,2|8,3:2|0:2,0:0:0:0:
443,332,67638,5,2,0:2:0:0:
443,332,67810,2,0,L|333:312,1,110.000003356934,6|10,3:2|0:2,0:0:0:0:
239,257,68495,2,0,L|172:268,2,55.0000016784668,2|2|10,3:2|3:2|0:2,0:0:0:0:
284,224,69010,1,2,0:2:0:0:
284,224,69181,2,0,L|263:108,1,110.000003356934,2|12,3:2|0:2,0:0:0:0:
173,53,69867,1,2,3:2:0:0:
115,146,70210,2,0,L|38:159,1,55.0000016784668,2|10,3:2|2:2,0:0:0:0:
8,166,70552,6,0,L|27:280,1,110.000003356934,6|0,3:2|3:2,0:0:0:0:
37,334,71067,1,10,0:2:0:0:
37,334,71238,2,0,P|88:316|150:343,1,110.000003356934,2|0,3:2|3:2,0:0:0:0:
244,366,71924,2,0,P|295:383|346:365,1,110.000003356934,2|0,3:2|3:2,0:0:0:0:
390,331,72438,1,10,0:2:0:0:
390,331,72610,1,2,3:2:0:0:
471,258,72952,2,0,L|460:199,1,55.0000016784668,2|10,3:2|0:2,0:0:0:0:
445,151,73295,6,0,L|311:175,1,110.000003356934,2|2,3:2|3:2,0:0:0:0:
287,269,73981,2,0,L|222:257,1,55.0000016784668,2|10,3:2|0:2,0:0:0:0:
194,219,74324,2,0,L|129:230,1,55.0000016784668,2|10,3:2|0:2,0:0:0:0:
84,233,74667,1,2,3:2:0:0:
8,153,75010,1,2,3:2:0:0:
67,60,75352,2,0,L|54:-3,2,55.0000016784668,2|10|2,3:2|0:2|3:2,0:0:0:0:
111,101,75867,5,10,0:2:0:0:
111,101,76038,2,0,L|239:78,1,110.000003356934,6|0,3:2|3:2,0:0:0:0:
277,78,76552,1,10,0:2:0:0:
277,78,76724,2,0,P|299:128|279:197,1,110.000003356934,2|0,3:2|3:2,0:0:0:0:
190,229,77410,2,0,P|180:282|202:331,1,110.000003356934,2|2,3:2|3:2,0:0:0:0:
253,364,77924,1,10,0:2:0:0:
253,364,78095,2,0,L|372:342,1,110.000003356934,2|10,3:2|0:2,0:0:0:0:
419,335,78610,5,2,3:2:0:0:
419,335,78781,1,10,0:2:0:0:
508,269,79124,1,2,3:2:0:0:
508,269,79295,2,0,L|486:148,1,110.000003356934,10|2,0:2|3:2,0:0:0:0:
476,106,79810,2,0,L|355:127,1,110.000003356934,10|2,0:2|3:2,0:0:0:0:
318,139,80324,1,10,0:2:0:0:
318,139,80495,1,10,0:2:0:0:
256,230,80838,2,0,L|189:241,1,55.0000016784668,2|10,3:2|0:2,0:0:0:0:
166,197,81181,2,0,L|99:208,1,55.0000016784668,10|10,0:2|0:2,0:0:0:0:
62,213,81524,6,0,L|38:78,1,100,6|10,3:2|0:2,0:0:0:0:
39,69,82038,1,0,0:2:0:0:
39,69,82209,2,0,L|170:47,1,100,2|10,3:2|0:2,0:0:0:0:
186,42,82723,1,2,0:2:0:0:
256,112,83066,1,2,0:0:0:0:
191,189,83409,1,2,0:2:0:0:
191,189,83581,2,0,P|174:244|208:294,1,100,2|10,3:2|0:2,0:0:0:0:
266,346,84266,6,0,L|397:322,1,100,6|10,3:2|0:2,0:0:0:0:
417,322,84781,1,0,0:2:0:0:
417,322,84952,2,0,L|398:214,1,100,2|10,3:2|0:2,0:0:0:0:
396,173,85466,1,2,0:2:0:0:
311,120,85809,1,2,0:0:0:0:
252,202,86152,1,2,0:2:0:0:
252,202,86323,2,0,L|174:214,1,50,2|8,3:2|0:2,0:0:0:0:
152,218,86667,1,10,0:2:0:0:
152,218,86838,1,10,0:2:0:0:
3,237,87352,5,2,0:2:0:0:
256,192,87695,12,0,89410,0:2:0:0:
