osu file format v14

[General]
AudioFilename: audio.ogg
AudioLeadIn: 0
PreviewTime: 47303
Countdown: 0
SampleSet: Soft
StackLeniency: 0.7
Mode: 0
LetterboxInBreaks: 0
WidescreenStoryboard: 1

[Editor]
Bookmarks: 1813,20560,51355,51674,52017,61274
DistanceSpacing: 1.4
BeatDivisor: 4
GridSize: 16
TimelineZoom: 1.6

[Metadata]
Title:Easy? Hard? Shikashite Susume! (TV Size)
TitleUnicode:イージー?ハード?しかして進めっ!(TV Size)
Artist:DIALOGUE+
ArtistUnicode:DIALOGUE+
Creator:Armada
Version:Insane?
Source:弱キャラ友崎くん 2nd STAGE
Tags:anime japanese pop j-pop jpop opening jaku chara tomozaki kun bottom tier character tomozaki-kun
BeatmapID:4444337
BeatmapSetID:2116325

[Difficulty]
HPDrainRate:5
CircleSize:3.8
OverallDifficulty:8
ApproachRate:9
SliderMultiplier:1.7
SliderTickRate:1

[Events]
//Background and Video events
0,0,"bg.jpg",0,0
Video,100,"op.avi"
//Break Periods
//Storyboard Layer 0 (Background)
//Storyboard Layer 1 (Fail)
//Storyboard Layer 2 (Pass)
//Storyboard Layer 3 (Foreground)
//Storyboard Layer 4 (Overlay)
//Storyboard Sound Samples

[TimingPoints]
610,342.857142857143,4,2,1,40,1,0
610,-133.333333333333,4,2,1,40,0,0
4724,-133.333333333333,4,2,2,40,0,0
5067,-133.333333333333,4,2,1,40,0,0
6095,-133.333333333333,4,2,1,45,0,0
7124,-100,4,2,1,45,0,0
7381,-100,4,2,1,5,0,0
7467,-100,4,2,1,45,0,0
8838,-100,4,2,1,50,0,0
12952,-100,4,2,1,60,0,0
15952,-100,4,2,1,5,0,0
16038,-100,4,2,1,60,0,0
18695,-100,4,2,1,5,0,0
18781,-100,4,2,1,60,0,0
24438,-100,4,2,1,50,0,0
29667,-100,4,2,1,5,0,0
29752,-100,4,2,1,50,0,0
33352,-133.333333333333,4,2,1,50,0,0
34810,-133.333333333333,4,2,1,5,0,0
34895,-125,4,2,1,45,0,0
35495,-125,4,2,2,45,0,0
35581,-125,4,2,1,45,0,0
37467,-125,4,2,2,45,0,0
37638,-125,4,2,1,45,0,0
39610,-125,4,2,2,45,0,0
39695,-125,4,2,1,45,0,0
39867,-125,4,2,1,50,0,0
40381,-125,4,2,1,55,0,0
40895,-100,4,2,1,55,0,0
41752,-100,4,2,1,60,0,0
42952,-357.142857142857,4,2,1,65,0,0
46724,-100,4,2,1,65,0,0
46810,-100,4,2,1,5,0,0
46895,-100,4,2,1,65,0,0
47152,-100,4,2,1,5,0,0
47238,-100,4,2,1,65,0,0
47924,-166.666666666667,4,2,1,50,0,0
48610,-90.9090909090909,4,2,1,70,0,0
48867,-90.9090909090909,4,2,1,5,0,0
48952,-90.9090909090909,4,2,1,70,0,0
50238,-90.9090909090909,4,2,1,5,0,0
50324,-90.9090909090909,4,2,1,70,0,0
54352,-90.9090909090909,4,2,1,5,0,0
54438,-90.9090909090909,4,2,1,70,0,0
57095,-90.9090909090909,4,2,1,5,0,0
57181,-90.9090909090909,4,2,1,70,0,0
59838,-90.9090909090909,4,2,1,5,0,0
59924,-90.9090909090909,4,2,1,70,0,0
62324,-90.9090909090909,4,2,1,70,0,0
62924,-90.9090909090909,4,2,1,5,0,0
63010,-90.9090909090909,4,2,1,70,0,0
65324,-90.9090909090909,4,2,1,5,0,0
65410,-90.9090909090909,4,2,1,70,0,0
68067,-90.9090909090909,4,2,1,5,0,0
68152,-90.9090909090909,4,2,1,70,0,0
81524,-100,4,2,1,60,0,0
84524,-100,4,2,1,5,0,0
84610,-100,4,2,1,60,0,0
87352,-333.333333333333,4,2,1,30,0,0
89410,-333.333333333333,4,2,1,5,0,0

[Colours]
Combo1 : 158,67,99
Combo2 : 69,124,165
Combo3 : 207,207,207

[HitObjects]
345,369,610,6,0,P|417:352|499:337,1,127.500004863739,6|2,0:2|0:2,0:0:0:0:
451,249,1124,1,2,0:2:0:0:
451,249,1295,2,0,P|379:266|297:281,1,127.500004863739,2|2,0:2|0:2,0:0:0:0:
233,229,1810,1,2,0:2:0:0:
233,229,1982,2,0,P|161:212|79:197,1,127.500004863739,2|2,0:2|0:2,0:0:0:0:
127,109,2496,1,2,0:2:0:0:
127,109,2667,2,0,P|199:126|281:141,1,127.500004863739,2|2,0:2|0:2,0:0:0:0:
325,198,3181,1,2,0:2:0:0:
396,145,3352,6,0,P|420:91|377:20,2,127.500004863739,2|2|2,0:2|0:2|0:2,0:0:0:0:
330,297,4381,1,2,0:2:0:0:
330,297,4552,1,0,0:2:0:0:
414,267,4724,6,0,P|446:273|485:282,1,63.7500024318696,10|10,0:2|0:2,0:0:0:0:
463,368,5067,2,0,P|431:361|400:355,1,63.7500024318696,2|2,0:2|0:2,0:0:0:0:
400,355,5324,1,8,0:2:0:0:
400,355,5410,1,10,0:2:0:0:
342,210,5581,1,8,3:2:0:0:
298,304,5752,1,2,3:2:0:0:
298,304,5838,1,8,0:2:0:0:
298,304,5924,2,0,P|319:299|349:292,1,31.8750012159348,8|8,0:2|0:2,0:0:0:0:
232,209,6095,5,2,3:2:0:0:
198,346,6267,1,10,0:2:0:0:
232,209,6438,1,10,0:2:0:0:
198,346,6610,1,10,0:2:0:0:
15,276,6952,5,2,0:2:0:0:
15,276,7038,1,0,0:2:0:0:
15,276,7124,2,0,P|77:282|142:248,1,127.5,2|0,0:2|0:0,0:0:0:0:
134,254,7467,1,10,0:2:0:0:
225,107,7638,1,2,3:2:0:0:
225,107,7724,1,0,3:2:0:0:
225,107,7810,1,2,3:2:0:0:
334,237,7981,1,10,0:2:0:0:
230,204,8324,5,10,3:2:0:0:
342,117,8495,2,0,P|362:121|391:127,2,42.5,2|0|2,3:2|3:2|3:2,0:0:0:0:
488,105,8838,6,0,P|476:151|465:211,1,85,14|2,0:2|3:2,0:0:0:0:
454,283,9181,1,2,3:2:0:0:
342,117,9352,6,0,P|330:163|319:223,1,85,10|2,0:2|3:2,0:0:0:0:
309,293,9695,1,2,3:2:0:0:
110,193,9867,5,10,0:2:0:0:
235,145,10038,1,2,3:2:0:0:
203,251,10210,1,2,3:2:0:0:
144,91,10381,2,0,P|155:44|166:-15,2,85,10|2|10,0:2|3:2|0:2,0:0:0:0:
203,251,10895,2,0,P|191:297|180:357,1,85,2|10,3:2|0:2,0:0:0:0:
184,333,11152,1,8,0:2:0:0:
184,333,11238,1,2,3:2:0:0:
110,193,11410,5,10,0:2:0:0:
110,193,11495,1,8,0:2:0:0:
110,193,11581,2,0,B|155:179|199:200|177:212|226:230|272:216,1,170,2|0,0:2|0:2,0:0:0:0:
356,118,12095,1,8,0:2:0:0:
356,118,12180,1,8,0:2:0:0:
356,118,12267,2,0,L|343:177,1,42.5,8|8,0:2|0:2,0:0:0:0:
437,180,12438,2,0,L|449:120,1,42.5,8|8,0:2|0:2,0:0:0:0:
415,35,12610,1,10,0:2:0:0:
415,35,12952,6,0,P|343:86|260:62,1,170,4|10,3:2|0:0,0:0:0:0:
178,195,13467,1,0,0:0:0:0:
178,195,13552,1,8,0:2:0:0:
178,195,13638,2,0,P|219:185|261:178,1,85,2|0,3:2|0:2,0:0:0:0:
403,252,13981,1,10,0:2:0:0:
213,363,14152,6,0,P|220:321|231:280,1,85,2|2,0:2|3:2,0:0:0:0:
85,128,14495,2,0,P|78:170|67:211,1,85,2|8,0:0|0:0,0:0:0:0:
237,98,14838,1,2,0:2:0:0:
178,195,15010,1,2,3:2:0:0:
137,35,15181,1,2,0:0:0:0:
182,219,15352,1,10,0:2:0:0:
335,171,15524,5,10,0:2:0:0:
335,171,15610,1,8,0:2:0:0:
335,171,15695,2,0,B|380:157|424:178|402:190|451:208|497:194,1,170,0|10,3:2|0:2,0:0:0:0:
379,353,16210,1,0,0:0:0:0:
379,353,16295,1,8,0:2:0:0:
379,353,16381,2,0,P|370:311|363:269,1,85,2|0,3:2|0:2,0:0:0:0:
254,117,16724,1,10,0:2:0:0:
155,278,16895,6,0,P|113:270|71:262,1,85,2|0,0:2|3:2,0:0:0:0:
254,117,17238,2,0,P|295:124|337:132,1,85,2|8,0:2|0:2,0:0:0:0:
166,164,17581,1,2,0:0:0:0:
166,164,17667,1,8,0:0:0:0:
166,164,17752,2,0,P|148:125|155:84,1,85,2|10,3:2|0:2,0:0:0:0:
155,84,18010,1,8,0:2:0:0:
155,84,18095,1,2,3:2:0:0:
244,220,18267,2,0,L|233:270,1,42.5,10|8,0:2|0:2,0:0:0:0:
148,321,18438,6,0,P|227:300|294:349,1,170,4|10,3:2|0:0,0:0:0:0:
447,314,18952,1,0,0:0:0:0:
447,314,19038,1,8,0:2:0:0:
447,314,19124,2,0,P|402:313|369:283,1,85,2|0,3:2|0:2,0:0:0:0:
244,220,19467,1,10,0:2:0:0:
455,141,19638,6,0,P|444:182|438:224,1,85,2|0,0:2|3:2,0:0:0:0:
259,303,19981,2,0,P|250:261|243:219,1,85,2|8,0:0|0:0,0:0:0:0:
90,187,20324,1,2,0:2:0:0:
190,124,20496,1,2,3:2:0:0:
149,284,20667,1,2,0:0:0:0:
193,100,20838,1,10,0:2:0:0:
346,237,21010,5,10,0:2:0:0:
346,237,21095,1,8,0:2:0:0:
346,237,21181,2,0,P|428:248|497:202,1,170,4|10,3:2|0:0,0:0:0:0:
421,66,21695,1,0,0:0:0:0:
421,66,21781,1,8,0:2:0:0:
421,66,21867,2,0,P|412:107|405:149,1,85,2|0,3:2|0:2,0:0:0:0:
346,237,22210,1,10,0:2:0:0:
294,153,22381,6,0,P|297:132|301:111,2,42.5,2|8|0,0:2|0:2|3:2,0:0:0:0:
366,328,22724,1,10,0:2:0:0:
244,235,22895,2,0,P|223:238|202:242,2,42.5,0|8|2,3:2|0:2|0:2,0:0:0:0:
154,332,23238,5,10,0:2:0:0:
37,169,23410,1,2,3:2:0:0:
37,169,23495,1,0,3:2:0:0:
37,169,23581,2,0,L|96:153,1,42.5,10|0,3:2|3:2,0:0:0:0:
99,245,23752,2,0,L|57:255,1,42.5,2|0,3:2|3:2,0:0:0:0:
157,98,23924,1,2,3:2:0:0:
157,98,24438,5,8,0:2:0:0:
157,98,24524,1,8,0:2:0:0:
157,98,24610,2,0,P|197:107|254:118,1,85,10|2,0:2|3:2,0:0:0:0:
317,169,24952,1,2,3:2:0:0:
447,78,25124,1,10,0:2:0:0:
447,78,25467,6,0,P|442:57|436:36,2,42.5,2|2|2,0:0|0:0|0:0,0:0:0:0:
416,172,25810,1,10,0:2:0:0:
416,172,25895,1,8,0:2:0:0:
416,172,25981,2,0,P|431:220|443:275,1,85,8|2,0:0|1:2,0:0:0:0:
345,358,26324,2,0,P|334:316|322:276,1,85,10|0,0:0|0:0,0:0:0:0:
322,276,26667,1,6,3:2:0:0:
120,184,27181,5,10,0:2:0:0:
120,184,27267,1,8,0:2:0:0:
120,184,27352,2,0,P|78:195|17:205,2,85,10|2|2,0:2|3:2|3:2,0:0:0:0:
216,242,27867,2,0,P|224:198|235:155,1,85,10|0,0:2|0:0,0:0:0:0:
172,11,28210,2,0,P|164:55|153:98,1,85,14|0,0:2|0:0,0:0:0:0:
348,83,28552,5,2,3:0:0:0:
348,83,28724,2,0,P|303:74|260:63,1,85,2|2,3:0|3:0,0:0:0:0:
285,177,29067,1,2,3:2:0:0:
410,0,29238,5,2,3:2:0:0:
410,0,29324,1,0,3:2:0:0:
410,0,29410,2,0,P|454:38|432:140,1,170,6|10,3:2|0:2,0:0:0:0:
497,228,29924,1,2,0:2:0:0:
497,228,30095,2,0,P|454:235|398:248,1,85,2|10,3:2|0:2,0:0:0:0:
285,177,30438,1,2,3:2:0:0:
314,269,30610,6,0,P|305:310|293:351,1,85,2|0,3:2|0:2,0:0:0:0:
221,248,30952,1,10,0:2:0:0:
150,345,31124,1,2,3:2:0:0:
150,345,31295,1,8,0:2:0:0:
9,257,31467,2,0,P|50:248|91:238,1,85,2|8,3:2|0:2,0:0:0:0:
91,238,31724,1,8,0:2:0:0:
91,238,31810,1,8,0:2:0:0:
156,148,31981,5,10,0:2:0:0:
156,148,32067,1,10,0:2:0:0:
156,148,32152,2,0,P|144:104|135:60,1,85,2|0,3:2|0:2,0:0:0:0:
227,43,32495,2,0,P|239:87|248:131,1,85,10|8,0:2|0:2,0:0:0:0:
298,197,32838,1,10,0:2:0:0:
399,68,33010,1,2,3:2:0:0:
464,219,33181,1,2,3:2:0:0:
387,155,33352,5,10,0:2:0:0:
298,197,33695,5,2,0:2:0:0:
215,147,34038,5,2,0:2:0:0:
135,205,34381,5,2,3:2:0:0:
135,205,34552,1,10,3:2:0:0:
56,148,34895,6,0,P|46:112|37:64,1,68,6|0,3:2|0:2,0:0:0:0:
131,23,35238,2,0,P|140:55|147:89,1,68,2|2,3:2|0:2,0:0:0:0:
147,89,35495,1,8,0:0:0:0:
147,89,35581,1,2,3:2:0:0:
227,150,35752,1,2,0:2:0:0:
328,131,35924,5,2,3:2:0:0:
328,131,36095,2,0,P|317:163|310:196,1,68,2|0,0:2|3:2,0:0:0:0:
344,306,36438,1,0,0:2:0:0:
344,306,36610,1,0,3:2:0:0:
241,277,36781,2,0,P|192:307|94:289,1,136,2|2,0:2|0:2,0:0:0:0:
30,348,37295,1,2,3:2:0:0:
39,256,37467,5,10,0:2:0:0:
39,256,37552,1,8,0:2:0:0:
39,256,37638,2,0,P|28:223|21:190,1,68,2|0,3:2|0:2,0:0:0:0:
140,116,37981,2,0,P|150:148|156:181,1,68,2|2,3:2|0:2,0:0:0:0:
240,240,38324,1,0,3:2:0:0:
240,240,38495,1,2,0:2:0:0:
307,168,38667,1,2,3:2:0:0:
378,248,38838,6,0,P|411:255|443:265,1,68,2|2,0:2|3:2,0:0:0:0:
504,178,39181,2,0,P|470:170|438:159,1,68,2|0,0:2|3:2,0:0:0:0:
362,76,39524,1,2,0:2:0:0:
362,76,39610,1,8,0:2:0:0:
362,76,39695,1,0,3:2:0:0:
307,168,39867,1,8,0:2:0:0:
282,173,39952,1,8,0:2:0:0:
260,170,40038,1,2,3:2:0:0:
238,159,40124,1,0,3:2:0:0:
220,143,40209,1,2,3:2:0:0:
119,182,40381,5,6,3:2:0:0:
165,52,40552,1,2,3:2:0:0:
200,254,40724,1,2,3:2:0:0:
34,181,40895,2,0,P|67:173|128:157,1,85,2|8,3:2|0:2,0:0:0:0:
312,254,41238,1,10,0:2:0:0:
179,336,41410,2,0,P|186:302|203:242,1,85,10|10,0:2|0:2,0:0:0:0:
437,213,41752,6,0,P|431:256|415:313,1,85,6|2,3:2|0:2,0:0:0:0:
346,165,42095,1,10,0:2:0:0:
467,113,42267,1,10,0:2:0:0:
264,71,42438,1,8,0:2:0:0:
342,192,42610,1,10,0:2:0:0:
342,192,42781,1,2,3:2:0:0:
381,0,42952,5,10,0:2:0:0:
342,192,45524,5,2,3:2:0:0:
256,134,45867,5,10,0:2:0:0:
285,274,46038,1,10,0:2:0:0:
145,304,46210,1,10,0:2:0:0:
115,163,46381,1,10,0:2:0:0:
285,274,46724,6,0,P|320:280|354:289,1,42.5,10|0,0:2|0:2,0:0:0:0:
115,163,47067,2,0,P|94:166|73:169,1,42.5,10|0,0:2|0:2,0:0:0:0:
53,35,47924,6,0,P|97:72|196:55,1,152.999995330811,2|0,0:2|0:2,0:0:0:0:
257,221,48610,6,0,P|265:175|278:130,1,93.5000028533936,6|0,1:2|0:0,0:0:0:0:
412,35,48952,2,0,P|403:80|390:125,1,93.5000028533936,10|2,0:2|0:2,0:0:0:0:
430,294,49295,1,10,0:2:0:0:
257,221,49467,1,0,3:2:0:0:
390,125,49638,1,10,0:2:0:0:
322,317,49810,5,2,3:2:0:0:
322,317,49895,1,0,3:2:0:0:
322,317,49981,2,0,P|278:266|157:298,1,187.000005706787,10|10,0:2|0:2,0:0:0:0:
14,210,50495,1,2,3:2:0:0:
157,128,50667,2,0,P|168:82|177:36,1,93.5000028533936,10|0,0:2|3:2,0:0:0:0:
50,109,51010,1,10,0:2:0:0:
227,223,51182,5,2,3:2:0:0:
227,223,51267,1,0,3:2:0:0:
227,223,51352,2,0,P|269:203|315:200,1,93.5000028533936,10|0,0:2|0:2,0:0:0:0:
463,315,51695,2,0,P|425:288|398:249,1,93.5000028533936,10|0,0:2|3:2,0:0:0:0:
428,66,52038,2,0,P|423:112|403:154,1,93.5000028533936,10|0,0:2|3:2,0:0:0:0:
290,299,52381,1,10,0:2:0:0:
129,197,52552,6,0,P|137:167|143:130,1,46.7500014266968,2|0,3:2|3:2,0:0:0:0:
153,62,52724,1,10,2:2:0:0:
233,177,52895,1,2,3:2:0:0:
233,177,52981,1,0,3:2:0:0:
233,177,53067,1,10,0:2:0:0:
44,141,53238,1,2,3:2:0:0:
256,72,53410,2,0,P|301:83|347:91,1,93.5000028533936,10|0,2:2|3:2,0:0:0:0:
440,270,53752,1,10,0:2:0:0:
507,191,53924,5,10,0:2:0:0:
507,191,54010,1,8,0:2:0:0:
507,191,54095,2,0,P|419:169|349:226,1,187.000005706787,6|10,3:2|0:2,0:0:0:0:
256,316,54610,1,8,0:2:0:0:
256,316,54695,1,8,0:2:0:0:
256,315,54781,2,0,P|302:323|347:334,1,93.5000028533936,2|0,3:2|3:2,0:0:0:0:
210,208,55124,2,0,P|163:200|118:189,1,93.5000028533936,10|0,2:2|2:2,0:0:0:0:
118,189,55381,5,0,3:2:0:0:
118,189,55467,2,0,P|129:234|137:280,1,93.5000028533936,2|0,3:2|3:2,0:0:0:0:
274,146,55810,2,0,P|263:97|255:48,1,93.5000028533936,10|2,2:2|2:2,0:0:0:0:
255,54,56067,1,8,0:2:0:0:
255,54,56152,1,2,3:2:0:0:
377,195,56324,1,0,3:2:0:0:
452,32,56495,1,10,0:2:0:0:
478,256,56667,5,2,3:2:0:0:
478,256,56752,1,0,3:2:0:0:
478,256,56838,2,0,P|386:231|317:291,2,187.000005706787,2|10|2,3:2|2:2|3:2,0:0:0:0:
411,332,57695,1,0,3:2:0:0:
239,228,57867,1,10,0:2:0:0:
225,203,57952,1,8,0:2:0:0:
220,174,58038,1,10,0:2:0:0:
229,146,58124,1,8,0:2:0:0:
251,119,58210,6,0,P|240:73|232:27,1,93.5000028533936,2|2,3:2|3:2,0:0:0:0:
329,181,58552,1,10,0:2:0:0:
145,96,58724,1,8,0:2:0:0:
145,96,58810,1,8,0:2:0:0:
145,96,58895,2,0,P|97:107|49:117,1,93.5000028533936,6|10,3:2|0:2,0:0:0:0:
53,116,59152,1,8,0:2:0:0:
53,116,59238,1,10,0:2:0:0:
139,264,59410,5,8,0:2:0:0:
139,264,59495,1,8,0:2:0:0:
139,264,59581,2,0,B|189:248|238:271|214:285|268:305|320:289,1,187.000005706787,6|10,3:2|0:2,0:0:0:0:
413,242,60095,1,2,3:2:0:0:
322,187,60267,5,10,0:2:0:0:
400,342,60438,1,0,3:2:0:0:
401,133,60610,5,10,0:2:0:0:
318,289,60781,1,2,3:2:0:0:
500,159,60952,6,0,P|492:113|479:68,1,93.5000028533936,10|0,0:2|3:2,0:0:0:0:
297,198,61295,2,0,P|305:244|317:288,1,93.5000028533936,10|2,0:2|3:2,0:0:0:0:
125,103,61638,2,0,P|170:115|216:123,1,93.5000028533936,10|0,0:2|3:2,0:0:0:0:
216,123,61895,1,0,3:2:0:0:
216,123,61981,1,10,0:2:0:0:
149,220,62152,1,2,3:2:0:0:
44,40,62324,6,0,P|34:89|20:137,1,93.5000028533936,10|0,0:2|0:2,0:0:0:0:
127,310,62667,2,0,P|137:261|151:213,1,93.5000028533936,10|0,0:2|0:0,0:0:0:0:
337,104,63010,2,0,P|329:150|316:195,1,93.5000028533936,10|0,0:2|3:2,0:0:0:0:
316,194,63267,1,0,3:2:0:0:
316,194,63352,1,10,0:2:0:0:
251,43,63524,1,2,3:2:0:0:
427,169,63695,6,0,P|439:213|450:259,1,93.5000028533936,10|0,0:2|3:2,0:0:0:0:
495,86,64038,1,8,0:2:0:0:
316,194,64210,1,2,3:2:0:0:
290,206,64295,1,0,3:2:0:0:
263,212,64381,1,2,3:2:0:0:
234,211,64467,1,0,3:2:0:0:
207,204,64552,1,0,3:2:0:0:
184,189,64638,1,0,3:2:0:0:
164,170,64724,1,6,3:2:0:0:
164,170,65067,6,0,P|193:228|112:323,1,187.000005706787,6|10,3:2|0:2,0:0:0:0:
0,212,65581,1,2,0:2:0:0:
0,212,65667,1,0,3:2:0:0:
0,212,65752,2,0,P|45:221|91:233,1,93.5000028533936,2|0,3:2|3:2,0:0:0:0:
190,69,66095,2,0,P|144:78|98:90,1,93.5000028533936,8|2,0:2|3:2,0:0:0:0:
98,89,66352,5,0,3:2:0:0:
98,89,66438,2,0,P|112:42|122:-6,1,93.5000028533936,2|0,3:2|3:2,0:0:0:0:
194,181,66781,1,10,0:2:0:0:
317,38,66952,1,2,0:2:0:0:
317,38,67038,1,8,0:2:0:0:
317,38,67124,2,0,P|304:83|294:128,1,93.5000028533936,2|0,3:2|3:2,0:0:0:0:
331,286,67467,1,8,0:2:0:0:
331,286,67638,1,2,0:2:0:0:
410,136,67810,6,0,P|466:132|503:252,1,187.000005706787,6|10,3:2|0:2,0:0:0:0:
447,339,68324,1,8,0:2:0:0:
447,339,68410,1,8,0:2:0:0:
447,339,68495,1,2,3:2:0:0:
331,286,68667,1,2,3:2:0:0:
234,370,68838,2,0,P|191:359|143:347,1,93.5000028533936,10|2,0:2|0:2,0:0:0:0:
143,347,69095,5,8,0:2:0:0:
143,347,69181,1,2,3:2:0:0:
91,145,69352,1,0,3:2:0:0:
11,281,69524,2,0,P|56:270|101:258,1,93.5000028533936,12|2,0:2|0:2,0:0:0:0:
101,258,69781,5,8,0:2:0:0:
101,258,69867,2,0,L|158:270,3,46.7500014266968,2|8|8|8,3:2|0:2|2:2|2:2,0:0:0:0:
255,237,70210,1,2,3:2:0:0:
271,213,70295,1,8,2:2:0:0:
278,184,70381,1,10,2:2:0:0:
272,156,70467,1,8,2:2:0:0:
252,127,70552,5,6,3:2:0:0:
359,0,70724,1,8,0:2:0:0:
417,160,70895,1,0,3:2:0:0:
417,160,70981,1,0,3:2:0:0:
417,160,71067,1,10,0:2:0:0:
244,14,71238,2,0,P|196:26|148:35,1,93.5000028533936,2|8,3:2|0:2,0:0:0:0:
23,126,71581,1,0,3:2:0:0:
179,191,71752,1,10,0:2:0:0:
27,298,71924,6,0,P|110:267|173:329,1,187.000005706787,2|0,3:2|3:2,0:0:0:0:
380,282,72438,2,0,P|334:273|289:261,1,93.5000028533936,10|2,0:2|3:2,0:0:0:0:
289,261,72695,1,0,3:2:0:0:
289,261,72781,1,8,0:2:0:0:
466,353,72952,1,2,3:2:0:0:
402,175,73124,1,10,0:2:0:0:
380,282,73295,6,0,P|368:332|359:373,1,93.5000028533936,2|8,3:2|0:2,0:0:0:0:
402,175,73638,2,0,P|408:149|415:113,2,46.7500014266968,2|0|8,3:2|3:2|0:2,0:0:0:0:
486,249,73981,1,2,3:2:0:0:
486,249,74152,1,10,0:2:0:0:
294,208,74324,2,0,P|248:219|202:228,1,93.5000028533936,2|10,3:2|0:2,0:0:0:0:
51,180,74667,1,2,3:2:0:0:
51,180,74752,1,0,3:2:0:0:
51,180,74838,1,8,0:2:0:0:
149,97,75010,6,0,L|140:142,3,46.7500014266968,2|0|8|0,3:2|3:2|0:2|3:2,0:0:0:0:
229,55,75352,1,2,3:2:0:0:
258,77,75437,1,0,3:2:0:0:
293,88,75523,1,10,0:2:0:0:
330,85,75609,1,0,3:2:0:0:
363,68,75695,2,0,L|373:22,1,46.7500014266968,2|0,3:2|3:2,0:0:0:0:
435,121,75867,2,0,L|424:166,1,46.7500014266968,10|0,0:2|3:2,0:0:0:0:
410,259,76038,5,6,3:2:0:0:
293,88,76210,1,8,0:2:0:0:
238,280,76381,1,0,3:2:0:0:
238,280,76467,1,0,3:2:0:0:
238,280,76552,1,10,0:2:0:0:
88,196,76724,2,0,P|133:186|179:175,1,93.5000028533936,2|8,3:2|0:2,0:0:0:0:
117,89,77067,1,0,3:2:0:0:
117,89,77152,1,0,3:2:0:0:
117,89,77238,1,10,0:2:0:0:
294,188,77410,6,0,P|382:167|455:221,1,187.000005706787,2|2,3:2|3:2,0:0:0:0:
455,221,77838,1,0,3:2:0:0:
455,221,77924,1,10,0:2:0:0:
408,79,78095,1,2,3:2:0:0:
359,268,78267,1,10,0:2:0:0:
200,187,78438,1,10,0:2:0:0:
200,187,78524,1,0,3:2:0:0:
200,187,78610,2,0,P|177:191|154:196,1,46.7500014266968,2|0,3:2|3:2,0:0:0:0:
148,305,78781,6,0,P|193:294|239:286,1,93.5000028533936,10|2,0:2|3:2,0:0:0:0:
424,363,79124,1,2,3:2:0:0:
377,176,79295,6,0,P|366:221|358:267,1,93.5000028533936,10|2,0:2|3:2,0:0:0:0:
495,187,79638,1,2,3:2:0:0:
302,87,79810,6,0,P|256:97|210:105,1,93.5000028533936,10|2,0:2|3:2,0:0:0:0:
210,105,80067,1,0,3:2:0:0:
210,105,80152,1,2,3:2:0:0:
31,51,80324,1,10,0:2:0:0:
67,262,80495,6,0,P|78:216|88:171,1,93.5000028533936,10|2,0:2|0:2,0:0:0:0:
180,237,80838,1,2,3:2:0:0:
208,242,80924,1,8,0:2:0:0:
235,248,81010,1,10,0:2:0:0:
262,251,81095,1,8,0:2:0:0:
289,256,81181,2,0,L|341:265,3,46.7500014266968,10|8|10|8,0:2|0:2|0:2|0:2,0:0:0:0:
396,345,81524,6,0,P|435:300|379:179,1,170,6|10,3:2|0:2,0:0:0:0:
493,96,82038,1,0,0:2:0:0:
493,96,82124,1,8,0:2:0:0:
493,96,82210,2,0,P|449:88|409:78,1,85,2|0,3:2|0:2,0:0:0:0:
243,182,82552,1,10,0:2:0:0:
288,13,82724,6,0,P|295:54|305:96,1,85,2|2,0:2|3:2,0:0:0:0:
260,265,83067,2,0,P|252:223|242:181,1,85,2|8,0:0|0:2,0:0:0:0:
72,131,83410,1,2,0:2:0:0:
140,235,83581,1,2,3:2:0:0:
183,68,83752,1,2,0:2:0:0:
136,255,83924,1,10,0:2:0:0:
290,149,84095,5,2,3:2:0:0:
290,149,84181,1,0,3:2:0:0:
290,149,84267,2,0,P|345:194|449:160,1,170,6|10,3:2|0:2,0:0:0:0:
365,318,84781,1,0,0:2:0:0:
365,318,84867,1,8,0:2:0:0:
365,318,84952,2,0,P|358:276|347:235,1,85,2|0,3:2|0:2,0:0:0:0:
463,284,85295,1,10,0:2:0:0:
283,373,85467,2,0,P|241:366|200:355,1,85,2|0,0:2|3:2,0:0:0:0:
62,232,85810,2,0,P|103:238|144:249,1,85,2|8,0:0|0:2,0:0:0:0:
276,168,86152,5,2,0:2:0:0:
276,168,86238,1,8,0:2:0:0:
276,168,86324,2,0,P|270:191|264:227,1,42.5,2|8,3:2|0:2,0:0:0:0:
183,117,86495,1,8,0:2:0:0:
208,83,86580,1,8,0:2:0:0:
246,64,86666,1,10,0:2:0:0:
288,65,86752,1,8,0:2:0:0:
325,84,86837,1,10,0:2:0:0:
325,84,87352,6,0,B|14:140|324:84|14:138,1,305.999990661621,2|0,0:2|0:0,0:0:0:0:
