osu file format v14

[General]
AudioFilename: audio.ogg
AudioLeadIn: 0
PreviewTime: 47303
Countdown: 0
SampleSet: Soft
StackLeniency: 0.7
Mode: 0
LetterboxInBreaks: 0
WidescreenStoryboard: 1

[Editor]
Bookmarks: 1813,20560,51355,51674,52017,61274
DistanceSpacing: 1.4
BeatDivisor: 4
GridSize: 16
TimelineZoom: 1.6

[Metadata]
Title:Easy? Hard? Shikashite Susume! (TV Size)
TitleUnicode:イージー?ハード?しかして進めっ!(TV Size)
Artist:DIALOGUE+
ArtistUnicode:DIALOGUE+
Creator:Armada
Version:Hard?
Source:弱キャラ友崎くん 2nd STAGE
Tags:anime japanese pop j-pop jpop opening jaku chara tomozaki kun bottom tier character tomozaki-kun
BeatmapID:4452262
BeatmapSetID:2116325

[Difficulty]
HPDrainRate:4
CircleSize:3.5
OverallDifficulty:6.5
ApproachRate:8
SliderMultiplier:1.4
SliderTickRate:1

[Events]
//Background and Video events
0,0,"bg.jpg",0,0
Video,100,"op.avi"
//Break Periods
//Storyboard Layer 0 (Background)
//Storyboard Layer 1 (Fail)
//Storyboard Layer 2 (Pass)
//Storyboard Layer 3 (Foreground)
//Storyboard Layer 4 (Overlay)
//Storyboard Sound Samples

[TimingPoints]
610,342.857142857143,4,2,1,40,1,0
610,-125,4,2,1,40,0,0
4724,-125,4,2,2,40,0,0
5067,-125,4,2,1,40,0,0
6095,-111.111111111111,4,2,1,45,0,0
7124,-111.111111111111,4,2,1,45,0,0
7381,-111.111111111111,4,2,1,5,0,0
7467,-111.111111111111,4,2,1,45,0,0
8838,-100,4,2,1,50,0,0
12952,-100,4,2,1,60,0,0
15952,-100,4,2,1,5,0,0
16038,-100,4,2,1,60,0,0
18695,-100,4,2,1,5,0,0
18781,-100,4,2,1,60,0,0
24438,-111.111111111111,4,2,1,50,0,0
29667,-111.111111111111,4,2,1,5,0,0
29752,-111.111111111111,4,2,1,50,0,0
33352,-111.111111111111,4,2,1,50,0,0
34810,-111.111111111111,4,2,1,5,0,0
34895,-111.111111111111,4,2,1,45,0,0
37467,-111.111111111111,4,2,2,45,0,0
37638,-111.111111111111,4,2,1,45,0,0
39610,-111.111111111111,4,2,2,45,0,0
39695,-111.111111111111,4,2,1,45,0,0
39867,-111.111111111111,4,2,1,50,0,0
40381,-111.111111111111,4,2,1,55,0,0
40895,-111.111111111111,4,2,1,55,0,0
41752,-111.111111111111,4,2,1,60,0,0
42952,-111.111111111111,4,2,1,65,0,0
46724,-100,4,2,1,65,0,0
46810,-100,4,2,1,5,0,0
46895,-100,4,2,1,65,0,0
47152,-100,4,2,1,5,0,0
47238,-100,4,2,1,65,0,0
47924,-125,4,2,1,50,0,0
48610,-90.9090909090909,4,2,1,70,0,0
48867,-90.9090909090909,4,2,1,5,0,0
48952,-90.9090909090909,4,2,1,70,0,0
50238,-90.9090909090909,4,2,1,5,0,0
50324,-90.9090909090909,4,2,1,70,0,0
54352,-90.9090909090909,4,2,1,5,0,0
54438,-90.9090909090909,4,2,1,70,0,0
57095,-90.9090909090909,4,2,1,5,0,0
57181,-90.9090909090909,4,2,1,70,0,0
59838,-90.9090909090909,4,2,1,5,0,0
59924,-90.9090909090909,4,2,1,70,0,0
62324,-90.9090909090909,4,2,1,70,0,0
62924,-90.9090909090909,4,2,1,5,0,0
63010,-90.9090909090909,4,2,1,70,0,0
65324,-90.9090909090909,4,2,1,5,0,0
65410,-90.9090909090909,4,2,1,70,0,0
68067,-90.9090909090909,4,2,1,5,0,0
68152,-90.9090909090909,4,2,1,70,0,0
81524,-100,4,2,1,60,0,0
84524,-100,4,2,1,5,0,0
84610,-100,4,2,1,60,0,0
87352,-100,4,2,1,30,0,0
89410,-100,4,2,1,5,0,0

[Colours]
Combo1 : 158,67,99
Combo2 : 69,124,165
Combo3 : 207,207,207

[HitObjects]
486,230,610,6,0,L|463:360,1,112,6|2,0:2|0:2,0:0:0:0:
405,178,1295,2,0,L|382:308,1,112,2|2,0:2|0:2,0:0:0:0:
327,131,1982,2,0,L|304:261,1,112,2|2,0:2|0:2,0:0:0:0:
246,79,2667,2,0,L|223:209,1,112,2|2,0:2|0:2,0:0:0:0:
113,298,3352,6,0,P|68:269|-3:284,2,112,2|2|2,0:2|0:2|0:2,0:0:0:0:
252,370,4381,1,2,0:2:0:0:
390,296,4724,2,0,L|401:228,1,56,10|10,0:2|0:2,0:0:0:0:
338,191,5067,2,0,L|325:115,1,56,2|2,0:2|0:2,0:0:0:0:
322,101,5324,1,8,0:2:0:0:
322,101,5410,2,0,L|242:115,1,56,10|8,0:2|3:2,0:0:0:0:
211,165,5752,2,0,L|162:155,3,28,2|8|8|8,3:2|0:2|0:2|0:2,0:0:0:0:
165,122,6095,6,0,L|94:134,1,62.9999980773926,2|10,3:2|0:2,0:0:0:0:
22,149,6438,1,10,0:2:0:0:
22,149,6610,1,10,0:2:0:0:
43,311,6952,5,2,0:2:0:0:
43,311,7124,2,0,L|127:296,1,62.9999980773926,2|0,0:2|0:0,0:0:0:0:
157,236,7467,2,0,L|233:249,1,62.9999980773926,10|2,0:2|3:2,0:0:0:0:
304,262,7810,1,2,3:2:0:0:
304,262,7981,1,10,0:2:0:0:
457,191,8324,1,10,3:2:0:0:
407,124,8495,2,0,L|416:67,2,31.4999990386963,2|0|2,3:2|3:2|3:2,0:0:0:0:
340,173,8838,6,0,L|251:157,1,70,14|2,0:2|3:2,0:0:0:0:
211,98,9181,1,2,3:2:0:0:
211,98,9352,2,0,L|122:113,1,70,10|2,0:2|3:2,0:0:0:0:
82,179,9695,5,2,3:2:0:0:
82,179,9867,2,0,L|97:267,1,70,10|2,0:2|3:2,0:0:0:0:
174,316,10210,1,2,3:2:0:0:
174,316,10381,2,0,L|189:227,1,70,10|2,0:2|3:2,0:0:0:0:
254,186,10724,1,10,0:2:0:0:
324,243,10895,1,2,3:2:0:0:
402,192,11067,1,10,0:2:0:0:
402,192,11152,1,8,0:2:0:0:
402,192,11238,2,0,L|394:144,4,35,2|8|10|8|2,3:2|0:0|0:2|0:2|0:2,0:0:0:0:
187,31,12095,5,8,0:2:0:0:
187,31,12267,2,0,L|179:78,4,35,8|8|8|8|10,0:2|0:2|0:2|0:2|0:2,0:0:0:0:
45,145,12952,6,0,P|15:205|45:274,1,140,4|10,3:2|0:0,0:0:0:0:
116,338,13467,1,0,0:0:0:0:
116,338,13638,2,0,L|208:318,1,70,2|0,3:2|0:2,0:0:0:0:
266,363,13981,1,10,0:2:0:0:
332,300,14152,6,0,L|312:207,1,70,2|2,0:2|3:2,0:0:0:0:
268,154,14495,2,0,P|323:194|399:176,1,140,2|2,0:0|0:2,0:0:0:0:
465,129,15010,2,0,L|445:36,1,70,2|2,3:2|0:0,0:0:0:0:
381,1,15352,1,10,0:2:0:0:
317,65,15524,5,10,0:2:0:0:
317,65,15610,1,8,0:2:0:0:
317,65,15695,2,0,B|279:76|242:59|260:49|219:33|181:45,1,140,0|10,3:2|0:2,0:0:0:0:
137,127,16210,1,0,0:0:0:0:
137,127,16381,2,0,L|49:142,1,70,2|0,3:2|0:2,0:0:0:0:
20,217,16724,1,10,0:2:0:0:
85,279,16895,6,0,L|176:259,1,70,2|0,0:2|3:2,0:0:0:0:
238,297,17238,2,0,L|257:388,1,70,2|8,0:2|0:2,0:0:0:0:
349,353,17581,1,2,0:0:0:0:
349,353,17667,1,8,0:0:0:0:
349,353,17752,2,0,L|329:261,1,70,2|10,3:2|0:2,0:0:0:0:
387,210,18095,1,2,3:2:0:0:
311,179,18267,5,10,0:2:0:0:
311,179,18352,1,8,0:2:0:0:
311,179,18438,2,0,B|270:138|270:138|311:53,1,140,4|10,3:2|0:0,0:0:0:0:
382,14,18952,1,0,0:0:0:0:
382,14,19124,2,0,L|473:33,1,70,2|0,3:2|0:2,0:0:0:0:
505,101,19467,1,10,0:2:0:0:
428,149,19638,6,0,L|336:129,1,70,2|0,0:2|3:2,0:0:0:0:
286,79,19981,2,0,L|194:98,1,70,2|8,0:0|0:0,0:0:0:0:
133,56,20324,1,2,0:2:0:0:
71,122,20495,2,0,L|85:205,1,70,2|2,3:2|0:0,0:0:0:0:
148,254,20838,1,10,0:2:0:0:
230,209,21010,5,10,0:2:0:0:
230,209,21095,1,8,0:2:0:0:
230,209,21181,2,0,P|278:231|380:223,1,140,4|10,3:2|0:0,0:0:0:0:
434,171,21695,1,0,0:0:0:0:
434,171,21867,2,0,L|418:83,1,70,2|0,3:2|0:2,0:0:0:0:
351,43,22210,1,10,0:2:0:0:
296,115,22381,6,0,L|303:157,2,35,2|8|0,0:2|0:2|3:2,0:0:0:0:
226,64,22724,1,10,0:2:0:0:
226,64,22895,2,0,P|229:43|233:22,2,35,0|8|2,3:2|0:2|0:2,0:0:0:0:
161,128,23238,6,0,L|74:112,1,70,10|2,0:2|3:2,0:0:0:0:
50,111,23495,1,0,3:2:0:0:
50,111,23581,2,0,L|40:166,3,35,10|0|2|0,3:2|3:2|3:2|3:2,0:0:0:0:
36,190,23924,5,2,3:2:0:0:
220,360,24438,5,8,0:2:0:0:
220,360,24610,2,0,L|233:288,1,62.9999980773926,10|2,0:2|3:2,0:0:0:0:
248,221,24952,1,2,3:2:0:0:
248,221,25124,1,10,0:2:0:0:
277,59,25467,6,0,L|285:10,2,31.4999990386963,2|2|2,0:0|0:0|0:0,0:0:0:0:
340,126,25810,1,10,0:2:0:0:
340,126,25895,1,8,0:2:0:0:
340,126,25981,2,0,L|419:140,1,62.9999980773926,8|2,0:0|1:2,0:0:0:0:
458,196,26324,2,0,L|443:275,1,62.9999980773926,10|0,0:0|0:0,0:0:0:0:
432,338,26667,1,6,3:2:0:0:
249,182,27181,5,10,0:2:0:0:
249,182,27352,2,0,L|165:195,2,62.9999980773926,10|2|2,0:2|3:2|3:2,0:0:0:0:
319,225,27867,1,10,0:2:0:0:
201,339,28210,1,14,0:2:0:0:
53,268,28552,1,2,3:0:0:0:
53,268,28724,2,0,L|27:125,1,125.999996154785,2|2,3:0|3:2,0:0:0:0:
75,77,29238,5,2,3:2:0:0:
75,77,29324,1,0,3:2:0:0:
75,77,29410,2,0,B|126:67|126:67|151:75|151:75|203:66,1,125.999996154785,6|10,3:2|0:2,0:0:0:0:
272,113,29924,1,2,0:2:0:0:
272,113,30095,2,0,L|358:97,2,62.9999980773926,2|10|2,3:2|0:2|3:2,0:0:0:0:
214,172,30610,6,0,L|239:314,1,125.999996154785,2|10,3:2|0:2,0:0:0:0:
293,355,31124,2,0,L|380:339,1,62.9999980773926,2|8,3:2|0:2,0:0:0:0:
425,299,31467,1,2,3:2:0:0:
425,299,31638,2,0,L|471:306,2,31.4999990386963,8|8|8,0:2|0:2|0:2,0:0:0:0:
358,240,31981,5,10,0:2:0:0:
358,240,32067,1,10,0:2:0:0:
358,240,32152,2,0,P|379:183|341:120,1,125.999996154785,2|10,3:2|0:2,0:0:0:0:
272,73,32667,1,8,0:2:0:0:
272,73,32838,2,0,L|258:146,1,62.9999980773926,10|2,0:2|3:2,0:0:0:0:
217,204,33181,1,2,3:2:0:0:
145,164,33352,6,0,B|111:153|77:169|94:178|57:191|22:181,1,125.999996154785,10|2,0:2|0:2,0:0:0:0:
17,345,34038,2,0,B|50:334|84:350|67:359|104:372|139:362,1,125.999996154785,2|2,0:2|3:2,0:0:0:0:
219,364,34552,1,10,3:2:0:0:
364,288,34895,6,0,P|385:222|350:158,1,125.999996154785,6|2,3:2|3:2,0:0:0:0:
298,131,35410,1,2,0:0:0:0:
298,131,35581,2,0,L|313:48,2,62.9999980773926,2|2|2,3:2|0:2|3:2,0:0:0:0:
283,211,36095,1,2,0:2:0:0:
141,291,36438,5,0,0:2:0:0:
141,291,36610,1,0,3:2:0:0:
70,249,36781,2,0,L|49:124,1,125.999996154785,2|2,0:2|0:2,0:0:0:0:
35,43,37295,1,2,3:2:0:0:
192,31,37638,6,0,L|216:171,1,125.999996154785,2|2,3:2|3:2,0:0:0:0:
288,199,38152,1,2,0:2:0:0:
288,199,38324,2,0,L|302:280,1,62.9999980773926,0|2,3:2|0:2,0:0:0:0:
314,346,38667,1,2,3:2:0:0:
314,346,38838,2,0,L|165:372,2,125.999996154785,2|2|2,0:2|0:2|0:2,0:0:0:0:
388,381,39695,1,0,3:2:0:0:
458,339,39867,2,0,L|448:284,4,31.4999990386963,8|8|2|0|2,0:2|0:2|3:2|3:2|3:2,0:0:0:0:
512,239,40381,6,0,L|497:150,1,62.9999980773926,6|2,3:2|3:2,0:0:0:0:
440,120,40724,1,2,3:2:0:0:
440,120,40895,2,0,B|405:109|371:125|388:134|350:148|315:137,1,125.999996154785,2|10,3:2|0:2,0:0:0:0:
247,189,41410,1,10,0:2:0:0:
247,189,41581,1,10,0:2:0:0:
175,137,41752,6,0,L|94:151,1,62.9999980773926,6|2,3:2|0:2,0:0:0:0:
50,209,42095,1,10,0:2:0:0:
49,209,42267,2,0,L|63:289,1,62.9999980773926,10|8,0:2|0:2,0:0:0:0:
132,330,42610,1,10,0:2:0:0:
132,330,42781,1,2,3:2:0:0:
196,270,42952,5,10,0:2:0:0:
196,270,45524,5,2,3:2:0:0:
316,141,45867,5,10,0:2:0:0:
316,141,46038,1,10,0:2:0:0:
379,196,46210,1,10,0:2:0:0:
379,196,46381,2,0,L|514:173,2,125.999996154785,10|10|10,0:2|0:2|0:2,0:0:0:0:
52,326,47924,6,0,B|97:320|132:348|132:348|155:309|204:294,1,168,2|0,0:2|0:2,0:0:0:0:
292,320,48610,6,0,L|278:244,1,77.0000023498536,6|0,1:2|0:0,0:0:0:0:
197,185,48952,1,10,0:2:0:0:
113,245,49124,1,2,0:2:0:0:
39,181,49295,2,0,L|52:105,1,77.0000023498536,10|0,0:2|3:2,0:0:0:0:
117,28,49638,1,10,0:2:0:0:
201,99,49810,5,2,3:2:0:0:
201,99,49895,1,0,3:2:0:0:
201,99,49981,2,0,B|242:111|282:92|262:81|306:65|348:78,1,154.000004699707,10|10,0:2|0:2,0:0:0:0:
422,145,50495,1,2,3:2:0:0:
356,221,50667,2,0,L|369:296,1,77.0000023498536,10|0,0:2|3:2,0:0:0:0:
304,373,51010,1,10,0:2:0:0:
224,317,51182,5,2,3:2:0:0:
224,317,51267,1,0,3:2:0:0:
224,317,51352,2,0,B|164:327|164:327|136:352|136:352|81:362,2,154.000004699707,10|10|10,0:2|0:2|0:2,0:0:0:0:
290,240,52210,1,0,3:2:0:0:
206,185,52381,2,0,L|186:73,1,77.0000023498536,10|2,0:2|3:2,0:0:0:0:
186,63,52638,5,0,3:2:0:0:
186,63,52724,2,0,L|74:82,1,77.0000023498536,10|2,2:2|3:2,0:0:0:0:
56,162,53067,1,10,0:2:0:0:
56,162,53238,1,2,3:2:0:0:
135,222,53410,2,0,L|246:202,1,77.0000023498536,10|0,2:2|3:2,0:0:0:0:
296,259,53752,1,10,0:2:0:0:
375,196,53924,5,10,0:2:0:0:
375,196,54010,1,8,0:2:0:0:
375,196,54095,2,0,B|421:239|421:239|368:342,1,154.000004699707,6|10,3:2|0:2,0:0:0:0:
290,362,54610,1,8,0:2:0:0:
290,363,54781,2,0,L|195:344,1,77.0000023498536,2|0,3:2|3:2,0:0:0:0:
152,268,55124,2,0,L|57:286,1,77.0000023498536,10|0,2:2|2:2,0:0:0:0:
30,288,55381,5,0,3:2:0:0:
30,288,55467,2,0,L|11:193,1,77.0000023498536,2|0,3:2|3:2,0:0:0:0:
76,134,55810,1,10,2:2:0:0:
76,134,55981,1,2,2:2:0:0:
20,51,56152,2,0,P|90:94|161:66,1,154.000004699707,2|10,3:2|0:2,0:0:0:0:
245,31,56667,1,2,3:2:0:0:
325,89,56838,6,0,L|306:193,1,77.0000023498536,2|0,3:2|0:0,0:0:0:0:
228,221,57181,2,0,L|246:325,1,77.0000023498536,10|0,2:2|2:2,0:0:0:0:
321,365,57524,1,2,3:2:0:0:
321,365,57695,1,0,3:2:0:0:
385,288,57867,2,0,L|439:278,3,38.5000011749268,10|8|10|8,0:2|0:2|0:2|0:2,0:0:0:0:
469,271,58210,6,0,L|451:173,1,77.0000023498536,2|2,3:2|3:2,0:0:0:0:
383,122,58552,1,10,0:2:0:0:
383,122,58724,1,8,0:2:0:0:
317,198,58895,2,0,L|207:178,1,77.0000023498536,6|10,3:2|0:2,0:0:0:0:
154,235,59238,1,10,0:2:0:0:
85,177,59410,5,8,0:2:0:0:
85,177,59495,1,8,0:2:0:0:
85,177,59581,2,0,P|52:112|98:39,1,154.000004699707,6|10,3:2|0:2,0:0:0:0:
181,5,60095,1,2,3:2:0:0:
181,5,60267,2,0,L|285:23,1,77.0000023498536,10|0,0:2|3:2,0:0:0:0:
337,74,60610,1,10,0:2:0:0:
264,142,60781,1,2,3:2:0:0:
333,213,60952,6,0,L|408:198,1,77.0000023498536,10|0,0:2|3:2,0:0:0:0:
426,297,61295,2,0,L|350:311,1,77.0000023498536,10|2,0:2|3:2,0:0:0:0:
273,375,61638,1,10,0:2:0:0:
196,327,61810,1,0,3:2:0:0:
196,327,61895,1,0,3:2:0:0:
196,327,61981,2,0,L|181:251,1,77.0000023498536,10|2,0:2|3:2,0:0:0:0:
130,164,62324,6,0,P|165:149|202:154,1,77.0000023498536,10|0,0:2|0:2,0:0:0:0:
251,66,62667,2,0,P|281:89|295:124,1,77.0000023498536,10|0,0:2|0:0,0:0:0:0:
395,124,63010,2,0,P|390:161|366:191,1,77.0000023498536,10|0,0:2|3:2,0:0:0:0:
289,254,63352,1,10,0:2:0:0:
289,254,63524,1,2,3:2:0:0:
214,187,63695,6,0,P|153:161|63:213,1,154.000004699707,10|8,0:2|0:2,0:0:0:0:
17,277,64210,1,2,3:2:0:0:
17,277,64295,1,0,3:2:0:0:
17,277,64381,2,0,L|29:341,3,38.5000011749268,2|0|0|0,3:2|3:2|3:2|3:2,0:0:0:0:
34,364,64724,1,6,3:2:0:0:
289,254,65067,6,0,B|330:242|370:261|350:272|394:288|436:275,1,154.000004699707,6|10,3:2|0:2,0:0:0:0:
512,212,65581,1,2,0:2:0:0:
512,212,65752,2,0,L|496:117,1,77.0000023498536,2|0,3:2|3:2,0:0:0:0:
428,65,66095,2,0,L|333:82,1,77.0000023498536,8|2,0:2|3:2,0:0:0:0:
265,28,66438,6,0,B|219:71|219:71|272:174,1,154.000004699707,2|10,3:2|0:2,0:0:0:0:
350,207,66952,1,2,0:2:0:0:
350,207,67124,2,0,L|334:301,1,77.0000023498536,2|0,3:2|3:2,0:0:0:0:
275,363,67467,1,8,0:2:0:0:
275,363,67638,1,2,0:2:0:0:
197,299,67810,6,0,P|121:328|35:275,1,154.000004699707,6|10,3:2|0:2,0:0:0:0:
8,226,68324,1,8,0:2:0:0:
8,226,68495,2,0,L|22:150,1,77.0000023498536,2|2,3:2|3:2,0:0:0:0:
100,87,68838,1,10,0:2:0:0:
179,148,69010,1,2,0:2:0:0:
256,85,69181,6,0,L|413:112,1,154.000004699707,2|12,3:2|0:2,0:0:0:0:
493,182,69695,1,2,0:2:0:0:
493,182,69781,1,8,0:2:0:0:
493,182,69867,2,0,L|483:240,3,38.5000011749268,2|8|8|8,3:2|0:2|2:2|2:2,0:0:0:0:
441,243,70210,2,0,L|431:301,3,38.5000011749268,2|8|10|8,3:2|2:2|2:2|2:2,0:0:0:0:
424,329,70552,6,0,L|333:313,1,77.0000023498536,6|8,3:2|0:2,0:0:0:0:
264,369,70895,1,0,3:2:0:0:
264,369,71067,1,10,0:2:0:0:
184,309,71238,2,0,L|212:155,1,154.000004699707,2|0,3:2|3:2,0:0:0:0:
235,62,71752,5,10,0:2:0:0:
235,62,71924,2,0,B|194:50|154:69|174:80|130:96|88:83,1,154.000004699707,2|0,3:2|3:2,0:0:0:0:
16,153,72438,1,10,0:2:0:0:
100,225,72610,1,2,3:2:0:0:
100,225,72695,1,0,3:2:0:0:
100,225,72781,2,0,L|85:315,1,77.0000023498536,8|2,0:2|3:2,0:0:0:0:
190,322,73124,5,10,0:2:0:0:
190,322,73295,2,0,L|206:229,1,77.0000023498536,2|8,3:2|0:2,0:0:0:0:
277,178,73638,2,0,L|353:192,1,77.0000023498536,2|8,3:2|0:2,0:0:0:0:
437,135,73981,1,2,3:2:0:0:
437,135,74152,1,10,0:2:0:0:
507,206,74324,2,0,L|494:281,1,77.0000023498536,2|10,3:2|0:2,0:0:0:0:
418,347,74667,2,0,L|343:334,1,77.0000023498536,2|8,3:2|0:2,0:0:0:0:
266,267,75010,6,0,L|228:273,3,38.5000011749268,2|0|8|0,3:2|3:2|0:2|3:2,0:0:0:0:
200,314,75352,2,0,L|162:320,3,38.5000011749268,2|0|10|0,3:2|3:2|0:2|3:2,0:0:0:0:
114,335,75695,1,2,3:2:0:0:
35,272,75867,1,10,0:2:0:0:
96,193,76038,6,0,L|79:98,1,77.0000023498536,6|8,3:2|0:2,0:0:0:0:
145,38,76381,1,0,3:2:0:0:
229,100,76552,1,10,0:2:0:0:
229,100,76724,2,0,B|270:112|310:93|290:82|334:66|376:79,1,154.000004699707,2|0,3:2|3:2,0:0:0:0:
456,140,77238,1,10,0:2:0:0:
386,212,77410,6,0,P|420:281|372:363,1,154.000004699707,2|2,3:2|3:2,0:0:0:0:
316,282,77924,1,10,0:2:0:0:
252,359,78095,2,0,L|172:345,1,77.0000023498536,2|10,3:2|0:2,0:0:0:0:
112,268,78438,2,0,L|74:275,3,38.5000011749268,10|0|2|0,0:2|3:2|3:2|3:2,0:0:0:0:
24,282,78781,6,0,L|7:181,1,77.0000023498536,10|2,0:2|3:2,0:0:0:0:
63,121,79124,1,2,3:2:0:0:
63,121,79295,2,0,L|164:103,1,77.0000023498536,10|2,0:2|3:2,0:0:0:0:
216,170,79638,1,2,3:2:0:0:
216,170,79810,2,0,L|317:152,1,77.0000023498536,10|2,0:2|3:2,0:0:0:0:
391,115,80152,1,2,3:2:0:0:
460,198,80324,1,10,0:2:0:0:
394,285,80495,2,0,L|293:303,1,77.0000023498536,10|2,0:2|0:2,0:0:0:0:
228,359,80838,2,0,L|162:348,3,38.5000011749268,2|8|10|8,3:2|0:2|0:2|0:2,0:0:0:0:
157,309,81181,2,0,L|119:315,3,38.5000011749268,10|8|10|8,0:2|0:2|0:2|0:2,0:0:0:0:
69,318,81524,6,0,L|46:179,1,140,6|10,3:2|0:2,0:0:0:0:
109,104,82038,1,0,0:2:0:0:
109,104,82210,2,0,L|204:87,1,70,2|0,3:2|0:2,0:0:0:0:
251,145,82552,1,10,0:2:0:0:
196,217,82724,2,0,L|212:312,1,70,2|2,0:2|3:2,0:0:0:0:
157,370,83067,6,0,P|217:328|283:348,1,140,2|2,0:0|0:2,0:0:0:0:
372,317,83581,2,0,L|392:224,1,70,2|2,3:2|0:2,0:0:0:0:
463,188,83923,1,10,0:2:0:0:
422,110,84095,5,2,3:2:0:0:
422,110,84181,1,0,3:2:0:0:
422,110,84267,2,0,L|264:83,1,140,6|10,3:2|0:2,0:0:0:0:
198,130,84781,1,0,0:2:0:0:
198,130,84952,2,0,L|183:218,1,70,2|0,3:2|0:2,0:0:0:0:
122,273,85295,1,10,0:2:0:0:
176,355,85467,6,0,L|264:370,1,70,2|0,0:2|3:2,0:0:0:0:
335,328,85810,2,0,L|350:240,1,70,2|8,0:0|0:2,0:0:0:0:
446,232,86152,1,2,0:2:0:0:
446,232,86238,1,8,0:2:0:0:
446,232,86324,2,0,L|457:172,3,35,2|8|8|8,3:2|0:2|0:2|0:2,0:0:0:0:
422,155,86667,2,0,L|433:95,3,35,10|8|10|8,0:2|0:2|0:2|0:0,0:0:0:0:
256,192,87352,5,2,0:2:0:0:
256,192,87524,12,0,89410,0:2:0:0:
