osu file format v14

[General]
AudioFilename: audio.ogg
AudioLeadIn: 0
PreviewTime: 47303
Countdown: 0
SampleSet: Soft
StackLeniency: 0.7
Mode: 0
LetterboxInBreaks: 0
WidescreenStoryboard: 1

[Editor]
Bookmarks: 1103,1274,1813,2646,20560,51355,51674,52017,61274
DistanceSpacing: 1
BeatDivisor: 4
GridSize: 4
TimelineZoom: 1.6

[Metadata]
Title:Easy? Hard? Shikashite Susume! (TV Size)
TitleUnicode:イージー?ハード?しかして進めっ!(TV Size)
Artist:DIALOGUE+
ArtistUnicode:DIALOGUE+
Creator:Armada
Version:Easy?
Source:弱キャラ友崎くん 2nd STAGE
Tags:anime japanese pop j-pop jpop opening jaku chara tomozaki kun bottom tier character tomozaki-kun
BeatmapID:4454525
BeatmapSetID:2116325

[Difficulty]
HPDrainRate:2
CircleSize:3
OverallDifficulty:2.5
ApproachRate:4
SliderMultiplier:0.9
SliderTickRate:1

[Events]
//Background and Video events
0,0,"bg.jpg",0,0
Video,100,"op.avi"
//Break Periods
//Storyboard Layer 0 (Background)
//Storyboard Layer 1 (Fail)
//Storyboard Layer 2 (Pass)
//Storyboard Layer 3 (Foreground)
//Storyboard Layer 4 (Overlay)
//Storyboard Sound Samples

[TimingPoints]
610,342.857142857143,4,2,1,40,1,0
610,-100,4,2,1,40,0,0
4724,-100,4,2,2,40,0,0
5067,-100,4,2,1,40,0,0
6095,-100,4,2,1,45,0,0
7124,-100,4,2,1,45,0,0
7381,-100,4,2,1,5,0,0
7467,-100,4,2,1,45,0,0
8838,-100,4,2,1,50,0,0
12952,-100,4,2,1,60,0,0
15952,-100,4,2,1,5,0,0
16038,-100,4,2,1,60,0,0
18695,-100,4,2,1,5,0,0
18781,-100,4,2,1,60,0,0
24438,-100,4,2,1,50,0,0
29667,-100,4,2,1,5,0,0
29752,-100,4,2,1,50,0,0
33352,-100,4,2,1,50,0,0
34810,-100,4,2,1,5,0,0
34895,-100,4,2,1,45,0,0
37467,-100,4,2,2,45,0,0
37638,-100,4,2,1,45,0,0
39610,-100,4,2,2,45,0,0
39695,-100,4,2,1,45,0,0
39867,-100,4,2,1,50,0,0
40381,-100,4,2,1,55,0,0
41752,-100,4,2,1,60,0,0
42952,-100,4,2,1,65,0,0
46724,-100,4,2,1,65,0,0
46810,-100,4,2,1,5,0,0
46895,-100,4,2,1,65,0,0
47152,-100,4,2,1,5,0,0
47238,-100,4,2,1,65,0,0
47924,-100,4,2,1,50,0,0
48610,-100,4,2,1,70,0,0
48867,-100,4,2,1,5,0,0
48952,-100,4,2,1,70,0,0
50238,-100,4,2,1,5,0,0
50324,-100,4,2,1,70,0,0
54352,-100,4,2,1,5,0,0
54438,-100,4,2,1,70,0,0
57095,-100,4,2,1,5,0,0
57181,-100,4,2,1,70,0,0
59838,-100,4,2,1,5,0,0
59924,-100,4,2,1,70,0,0
62324,-100,4,2,1,70,0,0
62924,-100,4,2,1,5,0,0
63010,-100,4,2,1,70,0,0
65324,-100,4,2,1,5,0,0
65410,-100,4,2,1,70,0,0
68067,-100,4,2,1,5,0,0
68152,-100,4,2,1,70,0,0
81524,-100,4,2,1,60,0,0
84524,-100,4,2,1,5,0,0
84610,-100,4,2,1,60,0,0
87352,-100,4,2,1,30,0,0
89410,-100,4,2,1,5,0,0

[Colours]
Combo1 : 158,67,99
Combo2 : 69,124,165
Combo3 : 207,207,207

[HitObjects]
148,88,610,5,6,0:2:0:0:
325,61,1295,1,2,0:2:0:0:
387,228,1981,1,2,0:2:0:0:
257,352,2667,1,2,0:2:0:0:
101,262,3352,2,0,L|-23:283,2,89.9999972534181,2|2|2,0:2|0:2|0:2,0:0:0:0:
178,307,4381,1,2,0:2:0:0:
253,257,4724,6,0,P|266:214|254:171,1,90,10|2,0:2|0:2,0:0:0:0:
168,144,5410,2,0,P|154:101|166:58,1,90,10|2,0:2|3:2,0:0:0:0:
240,7,6095,1,2,3:2:0:0:
350,84,6610,1,10,0:2:0:0:
442,289,7467,6,0,L|309:265,1,135,10|10,0:2|0:2,0:0:0:0:
220,250,8324,1,10,3:2:0:0:
107,321,8838,5,14,0:2:0:0:
5,231,9352,1,10,0:2:0:0:
51,104,9867,1,10,0:2:0:0:
184,84,10381,1,10,0:2:0:0:
268,195,10895,2,0,L|384:217,2,90,2|2|2,3:2|3:2|0:2,0:0:0:0:
125,306,12267,5,8,0:0:0:0:
197,359,12610,1,10,0:0:0:0:
275,315,12952,2,0,L|401:337,1,90,4|10,3:2|0:0,0:0:0:0:
443,287,13638,2,0,B|424:253|441:216|453:229|468:192|448:154,1,135,2|2,3:2|0:2,0:0:0:0:
406,79,14495,1,2,0:0:0:0:
279,126,15010,2,0,L|163:105,1,90,2|10,3:2|0:2,0:0:0:0:
102,90,15695,6,0,L|84:190,1,90,0|10,3:2|0:2,0:0:0:0:
12,230,16381,2,0,P|79:269|144:248,1,135,2|2,3:2|0:2,0:0:0:0:
207,208,17238,1,2,3:2:0:0:
325,256,17752,1,2,3:2:0:0:
399,204,18095,1,2,3:2:0:0:
472,256,18438,6,0,P|486:301|458:355,1,90,4|10,3:2|0:0,0:0:0:0:
392,380,19124,2,0,P|309:363|221:351,1,135,2|2,3:2|0:2,0:0:0:0:
171,333,19981,1,2,0:0:0:0:
201,201,20495,2,0,L|306:219,1,90,2|10,3:2|0:2,0:0:0:0:
378,200,21181,6,0,L|396:94,1,90,4|10,3:2|0:0,0:0:0:0:
349,32,21867,2,0,B|314:16|277:36|290:41|258:56|217:39,1,135,2|2,3:2|0:2,0:0:0:0:
130,21,22724,1,10,0:0:0:0:
45,126,23238,1,10,0:2:0:0:
111,186,23581,1,10,3:2:0:0:
43,245,23924,1,2,3:2:0:0:
173,369,24610,6,0,B|213:381|248:364|229:353|269:333|332:352,1,135,10|10,0:2|0:2,0:0:0:0:
487,218,25981,2,0,L|469:120,1,89.999997253418,8|10,0:0|0:0,0:0:0:0:
454,40,26667,1,6,3:2:0:0:
307,141,27352,2,0,P|251:172|186:127,1,135,10|10,0:2|0:2,0:0:0:0:
169,53,28210,2,0,P|113:22|48:67,1,135,14|2,0:2|3:0,0:0:0:0:
10,131,29067,1,2,3:2:0:0:
58,206,29410,6,0,L|159:223,1,90,6|10,3:2|0:2,0:0:0:0:
200,294,30095,2,0,P|235:246|207:152,1,135,2|2,3:2|3:2,0:0:0:0:
317,74,31124,1,2,3:2:0:0:
395,117,31467,2,0,L|413:221,1,90,2|8,3:2|0:2,0:0:0:0:
380,290,32152,2,0,P|427:297|479:262,2,90,2|10|10,3:2|0:2|0:2,0:0:0:0:
267,364,33352,1,10,0:2:0:0:
186,324,33695,1,2,0:2:0:0:
107,367,34038,1,2,0:2:0:0:
5,278,34552,1,10,3:2:0:0:
67,213,34895,6,0,P|80:164|46:104,1,90,6|2,3:2|3:2,0:0:0:0:
150,90,35581,2,0,P|138:40|163:-11,2,90,2|2|0,3:2|3:2|3:2,0:0:0:0:
264,162,36781,2,0,P|331:140|394:167,1,135,2|2,0:2|3:2,0:0:0:0:
457,220,37638,2,0,L|436:335,1,90,2|2,3:2|3:2,0:0:0:0:
376,371,38324,1,0,3:2:0:0:
254,314,38838,2,0,L|140:333,1,90,2|2,0:2|0:2,0:0:0:0:
85,285,39524,2,0,P|58:229|101:150,1,135,2|2,0:2|3:2,0:0:0:0:
146,101,40381,6,0,L|253:119,1,90,6|2,3:2|3:2,0:0:0:0:
307,169,41067,1,8,0:2:0:0:
383,120,41410,1,10,0:2:0:0:
449,180,41752,2,0,P|462:235|436:279,1,90,6|10,3:2|0:2,0:0:0:0:
375,315,42438,1,8,0:2:0:0:
248,268,42952,1,10,0:2:0:0:
248,268,45524,5,2,3:2:0:0:
189,199,45867,2,0,P|134:176|63:216,1,135,10|10,0:2|0:2,0:0:0:0:
15,278,46724,1,10,0:2:0:0:
68,350,47067,1,10,0:2:0:0:
155,329,47410,2,0,B|192:315|229:333|211:343|246:365|293:349,1,135,0|2,0:0|0:2,0:0:0:0:
370,369,48267,1,0,0:0:0:0:
433,305,48610,6,0,P|446:256|415:202,1,90,6|10,1:2|0:2,0:0:0:0:
362,165,49295,1,10,0:2:0:0:
283,208,49638,1,10,0:2:0:0:
211,153,49981,2,0,P|164:141|107:166,1,90,10|10,0:2|0:2,0:0:0:0:
64,219,50667,2,0,L|83:335,1,90,10|10,0:2|0:2,0:0:0:0:
149,363,51352,5,10,0:2:0:0:
217,304,51695,1,10,0:2:0:0:
306,295,52038,1,10,0:2:0:0:
381,344,52381,1,10,0:2:0:0:
450,287,52724,2,0,P|465:237|434:187,1,90,10|10,2:2|0:2,0:0:0:0:
378,150,53410,1,10,2:2:0:0:
436,82,53752,1,10,0:2:0:0:
375,15,54095,6,0,L|281:31,1,90,6|10,3:2|0:2,0:0:0:0:
235,105,54781,2,0,L|258:231,1,90,2|10,3:2|2:2,0:0:0:0:
322,249,55467,2,0,L|441:228,2,90,2|10|2,3:2|2:2|3:2,0:0:0:0:
260,314,56495,1,10,0:2:0:0:
177,278,56838,2,0,L|77:295,1,90,2|10,3:2|2:2,0:0:0:0:
13,243,57524,2,0,P|1:197|26:148,1,90,2|10,3:2|0:2,0:0:0:0:
82,98,58210,2,0,L|181:115,1,90,2|10,3:2|0:2,0:0:0:0:
246,162,58895,1,6,3:2:0:0:
323,115,59239,1,10,0:2:0:0:
384,180,59581,6,0,L|363:298,1,90,6|10,3:2|0:2,0:0:0:0:
293,318,60267,2,0,L|175:297,1,90,10|10,0:2|0:2,0:0:0:0:
122,339,60952,1,10,0:2:0:0:
44,293,61295,1,10,0:2:0:0:
76,208,61638,2,0,L|57:95,1,90,10|10,0:2|0:2,0:0:0:0:
125,56,62324,5,10,0:2:0:0:
193,115,62667,1,10,0:2:0:0:
282,124,63010,1,10,0:2:0:0:
357,75,63353,1,10,0:2:0:0:
427,130,63695,2,0,B|448:183|419:232|408:210|375:265|401:316,1,180,10|2,0:2|3:2,0:0:0:0:
328,361,64724,1,6,3:2:0:0:
249,316,65067,6,0,P|173:348|68:298,1,180,6|2,3:2|3:2,0:0:0:0:
17,256,66095,1,8,0:2:0:0:
72,185,66438,2,0,L|54:87,1,90,2|10,3:2|0:2,0:0:0:0:
112,25,67124,2,0,P|159:15|209:32,1,90,2|8,3:2|0:2,0:0:0:0:
254,96,67810,1,6,3:2:0:0:
196,165,68152,1,10,0:2:0:0:
250,236,68495,2,0,L|347:253,1,90,2|10,3:2|0:2,0:0:0:0:
420,213,69181,2,0,P|457:150|397:45,1,180,2|2,3:2|3:2,0:0:0:0:
336,20,70210,1,2,3:2:0:0:
254,57,70552,6,0,P|239:107|266:154,1,90,6|0,3:2|3:2,0:0:0:0:
327,190,71238,2,0,P|342:240|315:287,1,90,2|0,3:2|3:2,0:0:0:0:
259,336,71924,2,0,L|75:302,1,180,2|2,3:2|3:2,0:0:0:0:
19,243,72952,1,2,3:2:0:0:
80,177,73295,2,0,L|175:193,1,90,2|2,3:2|3:2,0:0:0:0:
240,137,73981,2,0,L|257:39,2,90,2|2|2,3:2|3:2|3:2,0:0:0:0:
295,208,75010,1,2,3:2:0:0:
371,160,75352,2,0,P|417:151|475:177,1,90,2|2,3:2|3:2,0:0:0:0:
511,235,76038,6,0,L|486:344,1,90,6|0,3:2|3:2,0:0:0:0:
414,370,76724,2,0,L|305:345,1,90,2|0,3:2|3:2,0:0:0:0:
274,275,77410,1,2,3:2:0:0:
334,208,77752,1,2,3:2:0:0:
268,146,78095,2,0,L|159:171,1,90,2|10,3:2|0:2,0:0:0:0:
128,239,78781,5,10,0:2:0:0:
42,134,79295,1,10,0:2:0:0:
123,26,79810,1,10,0:2:0:0:
249,71,80324,1,10,0:2:0:0:
243,205,80838,2,0,L|263:319,1,90,2|10,3:2|0:2,0:0:0:0:
321,357,81524,6,0,L|426:338,1,90,6|10,3:2|0:2,0:0:0:0:
461,266,82210,2,0,B|442:232|459:195|471:208|486:171|466:133,1,135,2|2,3:2|0:2,0:0:0:0:
439,51,83067,1,2,0:2:0:0:
315,104,83581,2,0,L|199:125,1,90,2|10,3:2|0:2,0:0:0:0:
156,62,84267,6,0,L|48:80,1,90,6|10,3:2|0:2,0:0:0:0:
5,143,84952,2,0,L|27:282,1,135,2|2,3:2|0:2,0:0:0:0:
88,341,85810,1,2,0:0:0:0:
211,287,86324,1,2,3:2:0:0:
287,334,86667,1,10,0:2:0:0:
457,278,87352,5,2,0:2:0:0:
256,192,87695,12,0,89410,0:2:0:0:
