osu file format v14

[General]
AudioFilename: audio.mp3
AudioLeadIn: 0
PreviewTime: 54183
Countdown: 0
SampleSet: Soft
StackLeniency: 0.7
Mode: 0
LetterboxInBreaks: 0
WidescreenStoryboard: 0

[Editor]
DistanceSpacing: 0.5
BeatDivisor: 4
GridSize: 32
TimelineZoom: 1.3

[Metadata]
Title:Deneb to Spica (TV Size)
TitleUnicode:デネブとスピカ (TV Size)
Artist:DIALOGUE+
ArtistUnicode:DIALOGUE+
Creator:Rizia
Version:Extra
Source:継母の連れ子が元カノだった
Tags:kawaiwkyik enneya een persoon Erisu Lanzhu -Hitomi L1gHT_u opening 内山悠里菜 yurina uchiyama 稗田寧々 nene hieda 守屋亨香 kyoka moriya 緒方佑奈 yuna ogata 鷹村彩花 ayaka takamura 宮原颯希 satsuki miyahara 飯塚麻結 mayu iizuka 村上まなつ manatsu murakami mamahaha no tsurego ga motokano datta my stepmom's daughter is ex girlfriend anime japanese pop
BeatmapID:3818726
BeatmapSetID:1857924

[Difficulty]
HPDrainRate:7
CircleSize:4
OverallDifficulty:8
ApproachRate:9
SliderMultiplier:1.8
SliderTickRate:1

[Events]
//Background and Video events
0,0,"bgbg.jpg",0,0
//Break Periods
//Storyboard Layer 0 (Background)
//Storyboard Layer 1 (Fail)
//Storyboard Layer 2 (Pass)
//Storyboard Layer 3 (Foreground)
//Storyboard Layer 4 (Overlay)
//Storyboard Sound Samples

[TimingPoints]
600,333.333333333333,4,2,1,50,1,0
600,-133.333333333333,4,2,1,50,0,0
4766,-100,4,2,1,60,0,0
6599,-200,4,2,1,60,0,0
8433,-100,4,2,1,60,0,0
12599,-133.333333333333,4,2,1,40,0,0
21766,-100,4,2,1,40,0,0
22266,-133.333333333333,4,2,1,40,0,0
22599,-100,4,2,1,60,0,0
23266,-100,4,2,1,60,0,0
34266,-133.333333333333,4,2,1,60,0,0
44599,-100,4,2,1,60,0,0
50099,-133.333333333333,4,2,1,60,0,0
51766,-100,4,2,1,60,0,0
53766,-80,4,2,1,60,0,0
54266,-133.333333333333,4,2,1,60,0,0
54599,-100,4,2,1,60,0,0
54766,-66.6666666666667,4,2,1,60,0,0
55099,-100,4,2,1,60,0,1
60266,-66.6666666666667,4,2,1,80,0,1
60516,-57.1428571428571,4,2,1,5,0,1
60599,-100,4,2,1,60,0,1
82099,-133.333333333333,4,2,1,50,0,0
83766,-100,4,2,1,60,0,1
88599,-100,4,2,1,60,0,0

[Colours]
Combo1 : 64,53,152
Combo2 : 233,0,110
Combo3 : 63,170,232
Combo4 : 255,150,0
Combo5 : 127,219,65

[HitObjects]
127,336,600,5,4,0:3:0:0:
85,222,766,1,0,0:0:0:0:
147,117,933,1,0,0:0:0:0:
247,229,1099,2,0,P|296:204|388:219,1,135.000005149842,4|0,0:3|0:0,0:0:0:0:
373,211,1599,1,0,0:0:0:0:
441,353,1766,6,0,P|446:311|450:266,1,67.5000025749208,4|0,0:3|0:0,0:0:0:0:
312,348,2099,1,0,0:0:0:0:
373,211,2266,1,0,0:0:0:0:
253,147,2433,2,0,L|142:157,1,101.250003862381,4|0,1:2|0:0,0:0:0:0:
129,158,2766,5,8,0:0:0:0:
340,99,2933,1,8,0:0:0:0:
392,198,3099,2,0,L|466:209,1,67.5000025749208,4|0,1:2|0:0,0:0:0:0:
324,343,3433,5,0,0:0:0:0:
246,278,3599,1,0,1:0:0:0:
189,371,3766,2,0,L|122:380,1,67.5000025749208,0|0,0:0|1:0,0:0:0:0:
78,245,4099,5,0,0:0:0:0:
246,278,4266,1,0,1:0:0:0:
395,190,4433,2,0,L|411:98,1,67.5000025749208,12|0,1:2|0:0,0:0:0:0:
241,229,4766,6,0,P|212:236|179:239,1,45,8|8,0:0|0:0,0:0:0:0:
118,249,4933,2,0,L|110:293,1,45,8|8,0:0|0:0,0:0:0:0:
44,174,5099,2,0,L|51:129,1,45,8|8,0:0|0:0,0:0:0:0:
150,47,5266,1,8,0:0:0:0:
187,72,5349,1,8,0:0:0:0:
232,76,5433,1,8,0:0:0:0:
276,68,5516,1,8,0:0:0:0:
311,40,5599,2,0,P|335:29|373:26,1,45,8|8,0:0|0:0,0:0:0:0:
442,79,5766,6,0,B|473:137|441:208|441:208|407:281|470:360,1,270,4|2,0:0|0:0,0:0:0:0:
352,364,6599,6,0,L|288:371,1,45,2|0,0:0|0:0,0:0:0:0:
394,262,6933,2,0,L|438:257,1,45,2|8,0:0|0:0,0:0:0:0:
454,256,7183,1,8,0:0:0:0:
469,255,7266,1,4,0:3:0:0:
373,178,7433,5,8,0:0:0:0:
158,317,7599,1,8,0:0:0:0:
141,328,7933,5,8,0:0:0:0:
88,74,8099,1,8,0:0:0:0:
354,317,8433,6,0,B|334:214|398:253|386:134,1,180,4|2,1:2|0:0,0:0:0:0:
305,73,8933,1,8,0:0:0:0:
115,125,9099,1,2,0:0:0:0:
248,240,9266,2,0,L|257:140,1,90,0|2,1:0|0:0,0:0:0:0:
147,356,9599,1,8,0:0:0:0:
105,224,9766,1,2,0:0:0:0:
267,330,9933,6,0,L|361:319,1,90,2|0,0:0|0:0,0:0:0:0:
470,236,10266,2,0,P|467:178|460:128,1,90,10|0,0:0|0:0,0:0:0:0:
310,66,10599,6,0,B|230:53|247:106|140:95,1,135,4|0,1:2|0:0,0:0:0:0:
93,82,10933,1,4,1:2:0:0:
256,192,11016,12,4,12099,0:0:0:0:
136,326,12599,5,2,0:0:0:0:
113,241,12766,1,0,0:0:0:0:
198,261,12933,1,0,3:0:0:0:
293,178,13099,2,0,L|278:108,1,67.5000025749208,0|2,0:0|0:0,0:0:0:0:
113,241,13433,5,0,0:0:0:0:
170,135,13599,1,2,3:2:0:0:
66,162,13766,2,0,L|0:147,1,67.5000025749208,0|2,0:0|0:0,0:0:0:0:
170,135,14099,5,0,0:0:0:0:
139,39,14266,1,0,3:0:0:0:
258,71,14433,2,0,L|324:85,1,67.5000025749208
372,227,14766,5,0,0:0:0:0:
456,251,14933,1,2,3:2:0:0:
508,181,15099,1,0,0:0:0:0:
403,124,15266,6,0,P|409:83|402:38,2,67.5000025749208,2|0|0,0:0|0:0|3:0,0:0:0:0:
372,227,15766,1,0,0:0:0:0:
251,192,15933,1,2,0:0:0:0:
299,117,16099,1,0,0:0:0:0:
372,227,16266,1,2,3:2:0:0:
290,328,16433,6,0,B|239:358|239:358|143:334,1,135.000005149842,2|2,0:0|0:0,0:0:0:0:
165,339,16933,1,0,3:0:0:0:
66,356,17099,2,0,L|71:276,1,67.5000025749208,0|2,0:0|0:0,0:0:0:0:
160,91,17433,1,0,0:0:0:0:
181,202,17599,1,2,3:2:0:0:
52,177,17766,5,2,0:0:0:0:
52,177,17849,1,2,0:0:0:0:
52,177,17933,1,2,1:2:0:0:
160,91,18099,1,0,0:0:0:0:
278,150,18266,2,0,P|321:155|410:130,1,135.000005149842,2|0,3:2|0:0,0:0:0:0:
413,232,18766,6,0,P|455:222|494:223,1,67.5000025749208,2|0,0:0|3:0,0:0:0:0:
407,330,19099,2,0,P|373:328|340:319,1,67.5000025749208,2|0,0:0|0:0,0:0:0:0:
224,286,19433,1,2,0:0:0:0:
140,246,19599,1,0,3:0:0:0:
73,338,19766,6,0,L|220:323,1,135.000005149842,2|0,0:0|0:0,0:0:0:0:
207,324,20266,1,0,3:0:0:0:
307,345,20433,1,0,0:0:0:0:
366,215,20599,5,2,0:0:0:0:
307,345,20766,1,0,0:0:0:0:
80,290,20933,1,2,0:0:0:0:
92,302,21266,5,8,0:0:0:0:
132,299,21349,1,8,0:3:0:0:
172,296,21433,1,4,0:3:0:0:
212,293,21516,1,4,0:3:0:0:
252,290,21599,1,4,0:3:0:0:
387,338,21766,6,0,B|428:356|473:330|473:330|486:283|446:211,1,180,4|0,0:3|0:0,0:0:0:0:
402,167,22266,1,0,0:0:0:0:
386,177,22599,6,0,L|319:171,1,45,8|8,0:0|0:0,0:0:0:0:
239,223,22766,2,0,L|172:217,1,45,8|8,0:0|0:0,0:0:0:0:
90,264,22933,1,8,0:0:0:0:
134,68,23099,1,8,0:0:0:0:
134,68,23183,1,8,0:0:0:0:
134,68,23266,6,0,P|183:98|304:75,1,180,4|8,0:0|0:0,0:0:0:0:
386,169,23766,2,0,P|433:161|491:160,1,90,0|0,0:0|1:0,0:0:0:0:
311,316,24099,2,0,P|309:271|301:226,1,90,0|8,0:0|0:0,0:0:0:0:
156,245,24433,2,0,P|120:217|65:194,1,90,0|0,0:0|1:0,0:0:0:0:
279,54,24766,5,0,0:0:0:0:
227,187,24933,1,8,0:0:0:0:
136,99,25099,1,0,0:0:0:0:
339,158,25266,1,0,1:0:0:0:
232,270,25433,5,0,0:0:0:0:
266,93,25599,1,8,0:0:0:0:
380,256,25766,2,0,P|422:251|483:247,1,90,0|0,0:0|1:0,0:0:0:0:
337,341,26099,5,0,0:0:0:0:
161,238,26266,1,8,0:0:0:0:
407,172,26433,2,0,P|448:153|488:133,1,90,0|0,0:0|1:0,0:0:0:0:
216,152,26766,1,0,0:0:0:0:
216,152,26933,1,8,0:0:0:0:
319,0,27099,2,0,P|357:24|394:51,1,90,0|0,0:0|1:0,0:0:0:0:
485,172,27433,6,0,P|441:184|398:195,1,90,0|8,0:0|0:0,0:0:0:0:
342,343,27766,2,0,P|297:340|252:335,1,90,0|0,0:0|1:0,0:0:0:0:
140,256,28099,1,0,0:0:0:0:
38,338,28266,1,8,0:0:0:0:
118,149,28433,5,0,1:0:0:0:
118,149,28516,1,0,1:0:0:0:
118,149,28599,1,4,1:2:0:0:
245,305,28766,1,0,0:0:0:0:
371,213,28933,1,8,0:0:0:0:
455,341,29099,2,0,L|446:243,1,90,0|0,0:0|1:0,0:0:0:0:
321,68,29433,5,0,0:0:0:0:
291,215,29599,1,8,0:0:0:0:
146,257,29766,2,0,P|135:194|138:135,1,90,0|0,0:0|1:0,0:0:0:0:
222,25,30099,2,0,P|233:87|256:142,1,90,0|8,0:0|0:0,0:0:0:0:
463,234,30433,2,0,P|402:212|344:204,1,90,0|8,0:0|0:0,0:0:0:0:
235,314,30766,1,0,0:0:0:0:
58,253,30933,6,0,P|28:201|50:119,1,135,12|0,1:2|0:0,0:0:0:0:
41,130,31266,2,0,L|135:138,1,90,0|0,1:0|0:0,0:0:0:0:
371,319,31599,2,0,P|333:275|251:274,1,135,8|0,1:2|0:0,0:0:0:0:
259,269,31933,2,0,L|270:172,1,90,0|0,1:0|0:0,0:0:0:0:
165,344,32266,5,12,1:2:0:0:
354,197,32433,1,8,1:2:0:0:
133,66,32599,1,8,1:2:0:0:
63,237,32766,1,8,0:0:0:0:
66,254,32849,1,8,0:0:0:0:
69,271,32933,1,8,0:0:0:0:
220,231,33099,1,8,0:0:0:0:
225,204,33183,1,8,0:0:0:0:
230,177,33266,1,8,0:0:0:0:
348,276,33433,5,8,0:0:0:0:
355,311,33516,1,8,0:0:0:0:
363,345,33599,2,0,L|441:357,1,45,8|8,0:0|0:0,0:0:0:0:
512,359,33766,2,0,L|486:295,1,45,8|8,0:0|0:0,0:0:0:0:
434,168,33933,5,4,1:2:0:0:
434,168,34266,2,0,B|444:115|444:115|431:87|431:87|441:33,1,135.000005149842,0|2,1:0|1:2,0:0:0:0:
335,100,34766,2,0,P|295:109|266:105,2,67.5000025749208,0|0|0,0:0|1:0|0:0,0:0:0:0:
144,174,35266,6,0,P|129:128|138:39,1,135.000005149842,2|0,1:2|1:0,0:0:0:0:
136,42,35933,1,0,1:0:0:0:
279,121,36099,1,8,0:0:0:0:
125,204,36266,1,0,1:0:0:0:
292,132,36433,1,8,0:3:0:0:
312,130,36516,1,8,0:3:0:0:
332,128,36599,5,4,1:2:0:0:
426,178,36766,1,0,0:0:0:0:
331,308,36933,2,0,P|284:324|207:266,1,135.000005149842,0|0,1:0|1:0,0:0:0:0:
184,124,37433,1,0,0:0:0:0:
116,339,37599,2,0,P|119:294|127:251,1,67.5000025749208,0|0,1:0|0:0,0:0:0:0:
195,107,37933,5,0,1:0:0:0:
102,325,38099,1,12,0:0:0:0:
37,148,38266,1,0,1:0:0:0:
142,187,38433,1,8,0:3:0:0:
121,78,38599,5,4,0:3:0:0:
63,242,38766,1,8,0:3:0:0:
243,208,38933,1,8,0:3:0:0:
354,342,39099,1,0,1:0:0:0:
370,340,39183,1,0,1:0:0:0:
386,338,39266,6,0,L|397:252,1,67.5000025749208,4|0,1:2|0:0,0:0:0:0:
285,226,39599,1,0,1:0:0:0:
451,198,39766,1,0,0:0:0:0:
292,134,39933,1,0,1:0:0:0:
478,108,40099,1,0,0:0:0:0:
414,328,40266,2,0,L|341:318,1,67.5000025749208,0|0,1:0|0:0,0:0:0:0:
78,220,40599,5,0,1:0:0:0:
298,130,40766,1,0,0:0:0:0:
176,332,40933,1,0,1:0:0:0:
155,95,41099,1,0,0:0:0:0:
315,286,41266,2,0,L|381:295,1,67.5000025749208,0|0,1:0|0:0,0:0:0:0:
456,177,41599,1,0,1:0:0:0:
219,341,41766,6,0,L|207:179,1,135.000005149842,12|0,0:0|0:0,0:0:0:0:
278,135,42266,2,0,L|335:80,1,67.5000025749208,0|0,1:0|0:0,0:0:0:0:
174,84,42599,2,0,L|97:62,1,67.5000025749208,0|0,1:0|0:0,0:0:0:0:
182,196,42933,1,0,1:0:0:0:
383,159,43099,5,12,0:0:0:0:
173,209,43266,2,0,L|192:285,1,67.5000025749208,0|8,1:0|0:3,0:0:0:0:
187,287,43516,1,8,0:3:0:0:
185,300,43599,1,0,1:0:0:0:
183,313,43683,1,8,0:3:0:0:
181,326,43766,2,0,L|174:366,1,33.7500012874604,8|8,0:0|0:0,0:0:0:0:
56,187,43933,5,8,0:0:0:0:
101,199,44016,1,8,0:0:0:0:
147,193,44099,1,8,0:0:0:0:
188,170,44183,1,8,0:0:0:0:
213,130,44266,1,8,0:0:0:0:
431,209,44433,1,8,0:0:0:0:
411,203,44516,1,8,0:0:0:0:
391,198,44599,6,0,P|370:157|379:86,1,90,6|0,1:2|1:0,0:0:0:0:
426,22,44933,1,8,0:0:0:0:
268,208,45099,1,0,1:0:0:0:
268,208,45183,1,0,1:0:0:0:
268,208,45266,2,0,P|215:189|152:199,1,90,2|0,1:2|1:0,0:0:0:0:
71,263,45599,1,8,0:0:0:0:
74,75,45766,5,2,1:2:0:0:
78,92,45849,1,0,1:0:0:0:
83,109,45933,2,0,P|127:108|169:90,1,90,0|2,1:0|1:2,0:0:0:0:
383,231,46266,1,8,0:0:0:0:
282,156,46433,1,0,1:0:0:0:
264,160,46516,1,0,1:0:0:0:
246,164,46599,1,2,1:2:0:0:
428,125,46766,5,0,1:0:0:0:
155,179,46933,1,8,0:0:0:0:
301,38,47099,1,0,1:0:0:0:
438,145,47266,6,0,L|421:291,1,135,2|0,1:2|0:0,0:0:0:0:
432,356,47599,2,0,L|333:365,1,90,8|2,0:0|1:2,0:0:0:0:
324,360,47849,1,0,1:0:0:0:
306,356,47933,1,0,1:0:0:0:
159,217,48099,1,0,1:0:0:0:
97,355,48266,1,8,0:0:0:0:
290,266,48433,1,2,1:2:0:0:
65,176,48599,6,0,L|48:74,1,90,12|8,1:2|0:0,0:0:0:0:
47,69,48849,1,8,0:0:0:0:
43,51,48933,1,8,0:0:0:0:
71,90,49016,1,8,0:0:0:0:
113,116,49099,1,8,0:0:0:0:
162,124,49183,1,8,0:0:0:0:
210,113,49266,6,0,L|270:97,1,45,4|4,0:3|0:3,0:0:0:0:
407,189,49433,2,0,L|363:177,1,45,4|4,0:3|0:3,0:0:0:0:
258,240,49599,2,0,L|262:285,1,45,4|4,0:3|0:3,0:0:0:0:
269,368,49766,1,4,0:0:0:0:
279,377,50099,5,2,0:0:0:0:
279,377,50183,1,2,0:0:0:0:
279,377,50266,1,0,3:0:0:0:
148,294,50433,1,0,3:0:0:0:
296,271,50599,2,0,L|306:199,2,67.5000025749208,2|0|2,0:0|3:0|0:0,0:0:0:0:
79,235,51099,6,0,L|36:241,2,33.7500012874604,0|2|2,1:0|0:0|0:0,0:0:0:0:
207,130,51433,1,2,0:0:0:0:
207,130,51516,1,2,0:0:0:0:
207,130,51599,1,2,0:0:0:0:
374,255,51766,6,0,L|424:248,1,45,10|10,0:0|0:0,0:0:0:0:
501,239,51933,1,8,0:0:0:0:
501,194,52016,1,8,0:0:0:0:
480,155,52099,1,8,0:3:0:0:
443,130,52183,1,8,0:3:0:0:
399,125,52266,1,8,0:3:0:0:
358,142,52349,1,8,0:3:0:0:
329,176,52433,6,0,L|345:361,1,180,4|0,1:2|1:0,0:0:0:0:
87,357,52933,5,8,0:0:0:0:
250,292,53099,1,0,1:0:0:0:
64,169,53266,5,8,0:0:0:0:
333,277,53433,2,0,L|343:212,1,45,8|0,1:2|0:0,0:0:0:0:
156,176,53599,2,0,L|166:111,1,45,8|0,1:2|0:0,0:0:0:0:
410,112,53766,6,0,B|364:153|364:153|236:134,1,168.75,12|0,0:0|0:0,0:0:0:0:
73,85,54099,2,0,L|77:144,1,56.25,8|0,0:0|0:0,0:0:0:0:
167,335,54266,6,0,L|99:330,1,67.5000025749208,8|0,0:0|0:0,0:0:0:0:
11,322,54599,1,8,0:3:0:0:
163,198,54766,6,0,L|237:203,1,67.5000025749208,8|8,0:0|0:0,0:0:0:0:
328,214,54933,1,8,0:0:0:0:
277,370,55099,6,0,B|219:333|219:333|171:358|171:358|85:359,1,180,4|0,0:0|1:0,0:0:0:0:
25,276,55599,2,0,L|38:164,1,90,8|0,0:0|0:0,0:0:0:0:
216,248,55933,1,2,1:2:0:0:
119,142,56099,1,0,1:0:0:0:
262,97,56266,1,8,0:0:0:0:
221,341,56433,6,0,P|272:335|321:331,1,90,2|0,1:2|0:0,0:0:0:0:
459,318,56766,1,0,1:0:0:0:
304,226,56933,1,8,0:0:0:0:
419,136,57099,1,0,0:0:0:0:
383,271,57266,5,2,1:2:0:0:
154,214,57433,1,0,1:0:0:0:
327,144,57599,1,8,0:0:0:0:
204,48,57766,6,0,L|216:153,1,90,6|0,1:2|0:0,0:0:0:0:
239,323,58099,1,0,1:0:0:0:
84,263,58266,1,8,0:0:0:0:
335,220,58433,1,0,1:0:0:0:
352,222,58516,1,8,0:0:0:0:
369,225,58599,1,2,1:2:0:0:
244,75,58766,5,0,1:0:0:0:
465,193,58933,1,8,0:0:0:0:
249,295,59099,1,0,1:0:0:0:
378,195,59266,6,0,L|391:70,1,90,2|0,1:2|1:0,0:0:0:0:
249,295,59599,1,8,0:0:0:0:
126,140,59766,1,0,1:0:0:0:
126,140,59849,1,0,1:0:0:0:
126,140,59933,2,0,P|170:137|231:132,1,90,2|0,1:2|1:0,0:0:0:0:
49,286,60266,6,0,B|223:243|141:372|350:321,1,270.000010299683,12|0,0:0|1:0,0:0:0:0:
29,148,60766,1,0,1:0:0:0:
226,168,60933,2,0,L|235:74,1,90,8|0,0:0|1:0,0:0:0:0:
237,60,61183,1,0,1:0:0:0:
240,42,61266,1,2,1:2:0:0:
126,192,61433,1,0,1:0:0:0:
321,250,61599,1,8,0:0:0:0:
126,192,61766,1,0,0:0:0:0:
146,374,61933,6,0,P|186:339|291:342,1,135,2|0,1:2|0:0,0:0:0:0:
338,361,62266,1,8,0:0:0:0:
489,259,62433,1,2,1:2:0:0:
489,259,62516,1,0,1:0:0:0:
489,259,62599,1,2,1:2:0:0:
314,199,62766,2,0,P|313:154|325:110,1,90,0|8,1:0|0:0,0:0:0:0:
422,309,63099,5,0,1:0:0:0:
427,326,63183,1,0,1:0:0:0:
431,343,63266,2,0,L|323:332,1,90,2|0,1:2|1:0,0:0:0:0:
83,256,63599,1,8,0:0:0:0:
251,207,63766,2,0,L|303:225,1,45,0|0,1:0|1:0,0:0:0:0:
165,129,63933,2,0,L|155:33,1,90,2|0,1:2|0:0,0:0:0:0:
45,167,64266,1,10,0:0:0:0:
81,338,64433,1,0,0:0:0:0:
254,288,64599,6,0,B|298:260|340:263|340:263|384:298|394:331,1,180,2|8,1:2|0:0,0:0:0:0:
394,331,65099,1,0,0:0:0:0:
436,77,65266,2,0,L|448:143,1,45,8|8,0:3|0:3,0:0:0:0:
477,228,65433,2,0,L|432:219,1,45,8|8,0:3|0:3,0:0:0:0:
336,172,65599,2,0,L|291:180,1,45,8|8,0:0|0:0,0:0:0:0:
231,286,65766,1,8,0:0:0:0:
101,222,65933,5,6,1:2:0:0:
121,80,66099,1,0,0:0:0:0:
263,55,66266,1,8,0:0:0:0:
331,182,66433,1,0,0:0:0:0:
231,286,66599,1,2,1:2:0:0:
189,159,66766,1,0,1:0:0:0:
372,76,66933,1,8,0:0:0:0:
425,281,67099,5,0,1:0:0:0:
427,299,67183,1,0,1:0:0:0:
428,316,67266,2,0,L|521:302,1,90,2|0,1:2|1:0,0:0:0:0:
251,252,67599,1,8,0:0:0:0:
365,371,67766,1,0,0:0:0:0:
492,219,67933,2,0,L|505:130,1,90,2|0,1:2|1:0,0:0:0:0:
307,63,68266,5,8,0:0:0:0:
383,161,68433,1,0,0:0:0:0:
279,238,68599,2,0,P|232:252|102:216,1,180,0|8,1:0|0:0,0:0:0:0:
150,56,69099,1,0,1:0:0:0:
150,56,69183,1,8,0:0:0:0:
150,56,69266,2,0,L|156:154,1,90,2|0,1:2|1:0,0:0:0:0:
49,15,69599,1,8,0:0:0:0:
157,163,69766,1,0,0:0:0:0:
48,308,69933,6,0,P|92:286|151:282,1,90,6|0,1:2|0:0,0:0:0:0:
244,346,70266,2,0,P|288:368|348:356,1,90,10|0,0:0|0:0,0:0:0:0:
362,353,70516,1,0,0:0:0:0:
386,327,70599,1,2,1:2:0:0:
422,164,70766,1,0,1:0:0:0:
292,88,70933,2,0,L|226:100,1,45,10|8,0:0|0:0,0:0:0:0:
100,71,71099,1,8,0:0:0:0:
201,26,71266,5,4,1:2:0:0:
175,283,71433,1,0,1:0:0:0:
99,234,71599,1,10,0:0:0:0:
180,196,71766,2,0,L|170:97,1,90,0|2,0:0|1:2,0:0:0:0:
429,249,72099,5,0,0:0:0:0:
343,278,72266,1,10,0:0:0:0:
357,188,72433,2,0,L|254:177,1,90,0|2,0:0|1:2,0:0:0:0:
111,363,72766,5,0,0:0:0:0:
126,274,72933,1,10,0:0:0:0:
195,329,73099,2,0,L|311:347,1,90,0|2,0:0|1:2,0:0:0:0:
431,65,73433,1,0,1:0:0:0:
332,205,73599,1,10,0:0:0:0:
263,48,73766,6,0,B|198:25|161:30|161:30|129:51|113:110,1,180,4|0,1:2|1:0,0:0:0:0:
77,342,74266,2,0,B|128:350|128:350|172:334,1,90,8|0,0:0|0:0,0:0:0:0:
336,174,74599,1,0,1:0:0:0:
242,207,74766,1,0,1:0:0:0:
316,273,74933,1,8,0:0:0:0:
472,201,75099,6,0,B|467:108|467:108|422:61,1,135,4|0,0:0|0:0,0:0:0:0:
438,77,75433,1,0,1:0:0:0:
260,193,75599,2,0,L|369:182,1,90,8|0,0:0|1:0,0:0:0:0:
189,47,75933,2,0,L|99:56,1,90,10|0,0:0|1:0,0:0:0:0:
97,342,76266,1,8,0:0:0:0:
141,337,76349,1,8,0:3:0:0:
186,332,76432,1,8,0:3:0:0:
407,344,76599,5,4,1:2:0:0:
321,186,76766,1,0,1:0:0:0:
173,255,76933,5,8,0:0:0:0:
432,178,77099,1,0,1:0:0:0:
300,283,77266,5,10,0:2:0:0:
260,63,77433,1,0,1:0:0:0:
426,265,77599,5,10,0:2:0:0:
151,366,77766,1,0,1:0:0:0:
149,348,77849,1,0,1:0:0:0:
147,329,77933,5,8,0:0:0:0:
356,210,78099,1,0,1:0:0:0:
122,182,78266,5,8,0:0:0:0:
347,323,78433,1,0,1:0:0:0:
250,206,78599,5,10,0:0:0:0:
403,115,78766,1,0,1:0:0:0:
450,293,78933,5,10,0:0:0:0:
182,381,79099,1,0,1:0:0:0:
180,363,79182,1,0,1:0:0:0:
178,344,79266,5,8,0:0:0:0:
161,127,79433,1,0,1:0:0:0:
294,338,79599,5,8,0:0:0:0:
336,43,79766,1,0,1:0:0:0:
396,252,79933,5,10,0:0:0:0:
164,205,80099,1,0,1:0:0:0:
459,128,80266,5,10,0:0:0:0:
244,0,80433,1,0,1:0:0:0:
242,18,80516,1,0,1:0:0:0:
240,37,80600,5,8,0:0:0:0:
79,236,80766,1,0,1:0:0:0:
380,150,80933,2,0,L|488:139,1,90,8|0,0:0|1:0,0:0:0:0:
389,347,81266,2,0,L|325:353,1,45,8|8,0:0|0:0,0:0:0:0:
129,304,81433,2,0,L|173:299,1,45,8|8,0:0|0:0,0:0:0:0:
261,212,81599,2,0,L|256:167,1,45,8|8,0:0|0:0,0:0:0:0:
248,42,81766,1,12,0:0:0:0:
248,42,82266,6,0,L|327:49,1,67.5000025749208,0|0,1:0|0:0,0:0:0:0:
380,154,82599,2,0,L|459:161,1,67.5000025749208,2|0,1:2|0:0,0:0:0:0:
284,276,82933,2,0,L|363:283,1,67.5000025749208,0|0,1:0|0:0,0:0:0:0:
120,308,83266,2,0,L|113:218,1,67.5000025749208,2|0,1:2|0:0,0:0:0:0:
103,83,83599,1,0,1:0:0:0:
284,276,83766,5,8,0:0:0:0:
390,178,83933,1,4,0:3:0:0:
271,96,84099,1,8,0:0:0:0:
165,237,84266,1,4,0:3:0:0:
338,362,84433,6,0,B|403:380|403:380|462:385|511:319,1,180,4|0,1:2|0:0,0:0:0:0:
470,173,84933,1,0,1:0:0:0:
240,272,85099,6,0,B|143:264|170:318|62:309,1,180,14|0,1:2|0:0,0:0:0:0:
17,193,85599,1,0,1:0:0:0:
352,32,85766,6,0,B|387:78|387:78|359:194,1,135,14|0,1:2|0:0,0:0:0:0:
350,236,86099,1,8,0:0:0:0:
350,236,86183,1,8,0:0:0:0:
350,236,86266,2,0,L|285:243,1,45,8|8,0:0|0:0,0:0:0:0:
232,345,86433,6,12,P|262:297|404:296,1,180,4|8,0:0|0:3,0:0:0:0:
439,330,86849,1,4,0:3:0:0:
452,328,86933,1,4,0:3:0:0:
465,326,87016,1,4,0:3:0:0:
478,324,87099,1,4,1:2:0:0:
133,81,87433,5,0,1:0:0:0:
461,147,87599,1,10,0:0:0:0:
335,176,87766,1,0,1:0:0:0:
508,237,87933,5,10,0:0:0:0:
311,280,88099,1,0,1:0:0:0:
76,326,88266,2,0,L|95:219,1,90,8|0,0:0|1:0,0:0:0:0:
108,152,88516,1,0,1:0:0:0:
108,152,88599,5,2,0:0:0:0:
197,140,88933,1,2,0:0:0:0:
286,128,89266,1,2,0:0:0:0:
375,116,89599,1,2,0:0:0:0:
