osu file format v14

[General]
AudioFilename: audio.mp3
AudioLeadIn: 0
PreviewTime:54164
Countdown: 0
SampleSet: Soft
StackLeniency: 0.7
Mode: 2
LetterboxInBreaks: 0
WidescreenStoryboard: 1

[Editor]
Bookmarks: 8414,12580,23247,33914,44580,49747,55080,76580,81747,84414,88580
DistanceSpacing: 1
BeatDivisor: 4
GridSize: 16
TimelineZoom: 1

[Metadata]
Title:Deneb to Spica (TV Size)
TitleUnicode:デネブとスピカ (TV Size)
Artist:DIALOGUE+
ArtistUnicode:DIALOGUE+
Creator:Greaper
Version:Secre's Rain
Source:継母の連れ子が元カノだった
Tags:Secre chickenbible BlackBN BlackBq -Rustyy [ Azu- ] bigh bighzonda Mamahaha no Tsurego ga Motokano datta My Stepmom's Daughter Is Ex Stepsister is Ex-Girlfriend Girlfriend Tsurekano japanese pop j-pop jpop anime opening op 堀江晶太 shouta shota horie 田淵智也 Tabuchi Tomoya
BeatmapID:3704161
BeatmapSetID:1806253

[Difficulty]
HPDrainRate:5
CircleSize:4
OverallDifficulty:9
ApproachRate:9
SliderMultiplier:1.9
SliderTickRate:2

[Events]
//Background and Video events
0,0,"bg2.jpg",0,0
//Break Periods
//Storyboard Layer 0 (Background)
//Storyboard Layer 1 (Fail)
//Storyboard Layer 2 (Pass)
//Storyboard Layer 3 (Foreground)
//Storyboard Layer 4 (Overlay)
//Storyboard Sound Samples

[TimingPoints]
581,333.333333333333,4,2,11,70,1,0
7914,-100,4,2,11,75,0,0
8080,-100,4,2,11,75,0,0
8414,-100,4,2,11,60,0,0
10914,-100,4,2,11,65,0,0
12580,-100,4,2,12,50,0,0
21247,-100,4,2,11,60,0,0
23247,-100,4,2,11,70,0,0
33914,-100,4,2,11,65,0,0
44580,-100,4,2,11,75,0,0
49747,-100,4,2,11,60,0,0
51414,-100,4,2,11,70,0,0
53747,-100,4,2,11,80,0,0
54580,-100,4,2,11,70,0,0
55080,-100,4,2,11,80,0,1
64580,-100,4,2,11,70,0,0
65914,-100,4,2,11,80,0,1
76580,-100,4,2,11,90,0,1
81747,-100,4,2,11,70,0,0
84414,-100,4,2,11,80,0,1
88580,-100,4,2,11,60,0,0

[Colours]
Combo1 : 132,206,215
Combo2 : 214,133,205
Combo3 : 132,147,215
Combo4 : 218,129,131

[HitObjects]
382,230,581,6,0,L|256:236,2,95,8|0|0,0:0|0:0|0:0,0:0:0:0:
140,201,1080,2,0,L|139:94,1,95,8|0,0:0|0:0,0:0:0:0:
289,94,1414,1,0,0:0:0:0:
139,106,1580,1,0,0:0:0:0:
391,140,1747,6,0,L|390:8,1,95,8|0,0:0|0:0,0:0:0:0:
240,33,2080,1,0,0:0:0:0:
390,45,2247,1,0,0:0:0:0:
155,257,2414,2,0,P|86:227|167:175,1,190,4|8,0:0|0:0,0:0:0:0:
295,158,2914,1,8,0:0:0:0:
59,137,3080,6,0,L|54:30,1,95,4|0,0:0|0:0,0:0:0:0:
207,30,3414,1,0,0:0:0:0:
54,42,3580,1,8,0:0:0:0:
207,30,3747,2,0,L|207:132,1,95,0|8,0:0|0:0,0:0:0:0:
54,42,4080,1,0,0:0:0:0:
207,125,4247,1,8,0:3:0:0:
456,250,4414,6,0,L|255:248,1,190,4|8,0:0|0:0,0:0:0:0:
319,195,4830,1,8,0:0:0:0:
479,189,4914,2,0,L|487:129,1,47.5,8|8,0:0|0:0,0:0:0:0:
436,106,5080,2,0,L|371:91,1,47.5,8|8,0:0|0:0,0:0:0:0:
222,101,5247,6,0,L|160:98,1,47.5,8|8,0:0|0:0,0:0:0:0:
325,32,5414,2,0,L|406:34,1,47.5,8|8,0:0|0:0,0:0:0:0:
181,22,5580,2,0,L|124:20,1,47.5,8|8,0:0|0:0,0:0:0:0:
365,159,5747,6,0,P|412:142|341:57,1,190,4|0,0:0|0:0,0:0:0:0:
215,224,6247,2,0,L|437:243,2,190,4|4|4,0:3|0:3|0:3,0:0:0:0:
365,135,7080,2,0,L|433:134,2,47.5,8|8|8,0:0|0:0|0:3,0:0:0:0:
211,96,7414,5,8,0:0:0:0:
365,135,7580,2,0,L|367:18,1,95,8|0,0:0|0:0,0:0:0:0:
133,102,7914,1,12,0:0:0:0:
366,40,8080,1,12,0:0:0:0:
94,252,8414,6,0,P|39:228|122:158,1,190,12|0,0:0|0:0,0:0:0:0:
241,136,8914,2,0,L|246:23,1,95,8|0,0:0|0:0,0:0:0:0:
94,55,9247,2,0,L|215:46,3,95,8|0|8|0,0:3|0:0|0:0|0:0,0:0:0:0:
341,138,9914,6,0,L|350:35,1,95,8|0,0:3|0:0,0:0:0:0:
194,32,10247,2,0,L|187:-62,1,95,8|0,0:0|0:0,0:0:0:0:
447,72,10580,2,0,L|460:-54,1,95,4|0,0:0|0:0,0:0:0:0:
192,128,10914,6,0,P|182:68|446:147,1,570,12|0,0:0|0:0,0:0:0:0:
159,257,12080,2,0,L|393:235,1,190,4|0,0:0|0:0,0:0:0:0:
205,172,12580,6,0,L|101:161,2,95,2|2|8,0:0|0:0|0:0,0:0:0:0:
353,191,13080,2,0,L|362:-14,1,190,0|2,0:0|0:0,0:0:0:0:
183,42,13747,1,2,0:0:0:0:
367,122,14080,6,0,L|241:129,2,95,2|10|2,0:0|0:0|0:0,0:0:0:0:
174,189,14747,2,0,L|36:196,2,95,2|10|2,0:0|0:0|0:0,0:0:0:0:
323,217,15247,6,0,L|326:115,1,95,2|0,0:0|0:0,0:0:0:0:
178,113,15580,2,0,L|174:6,1,95,8|2,0:0|0:0,0:0:0:0:
335,32,15914,2,0,L|231:30,2,95,2|2|8,0:0|0:0|0:0,0:0:0:0:
180,220,16414,6,0,P|114:197|187:142,1,190,2|2,0:0|0:0,0:0:0:0:
270,131,16914,1,10,0:0:0:0:
428,165,17080,2,0,L|433:-35,1,190,2|2,0:0|0:0,0:0:0:0:
337,9,17580,1,10,0:0:0:0:
189,88,17747,1,2,0:0:0:0:
337,9,17914,6,0,L|339:117,1,95,2|0,0:0|0:0,0:0:0:0:
188,204,18247,2,0,L|288:199,2,95,10|0|2,0:0|0:0|0:0,0:0:0:0:
44,246,18747,6,0,L|265:248,2,190,2|2|2,0:0|0:0|0:0,0:0:0:0:
190,177,19580,1,8,0:0:0:0:
60,142,19747,2,0,L|53:32,1,95,2|2,0:0|0:0,0:0:0:0:
201,49,20080,2,0,L|6:56,1,190,0|2,0:0|0:0,0:0:0:0:
160,127,20580,6,0,L|161:19,1,95,2|0,0:0|0:0,0:0:0:0:
22,43,20914,2,0,L|16:-58,1,95,10|2,0:0|0:0,0:0:0:0:
272,90,21247,2,0,L|351:89,1,47.5,8|8,0:0|0:0,0:0:0:0:
160,32,21414,2,0,L|84:31,1,47.5,8|8,0:0|0:0,0:0:0:0:
295,33,21580,2,0,L|365:34,1,47.5,8|0,0:0|0:0,0:0:0:0:
149,194,21747,6,0,P|90:174|165:107,1,190,12|0,0:3|0:0,0:0:0:0:
304,103,22247,2,0,L|416:100,1,95
225,179,22580,6,0,L|149:179,1,47.5,8|8,0:0|0:0,0:0:0:0:
350,119,22747,2,0,L|422:116,1,47.5,8|8,0:0|0:0,0:0:0:0:
205,87,22914,2,0,L|131:83,1,47.5,8|8,0:0|0:0,0:0:0:0:
361,44,23080,2,0,L|425:46,1,47.5,8|8,0:0|0:0,0:0:0:0:
186,24,23247,6,0,P|96:25|75:120,1,190,4|8,0:0|0:0,0:0:0:0:
222,168,23747,2,0,L|221:58,1,95,0|8,0:0|0:3,0:0:0:0:
73,122,24080,2,0,L|70:17,1,95,0|8,0:0|0:0,0:0:0:0:
314,183,24414,6,0,L|120:183,1,190
275,112,24914,1,8,0:0:0:0:
139,161,25080,2,0,L|138:46,1,95,0|8,0:0|0:3,0:0:0:0:
275,112,25414,1,4,0:3:0:0:
138,66,25580,1,8,0:0:0:0:
418,176,25747,1,4,0:3:0:0:
275,112,25914,5,8,0:3:0:0:
418,176,26080,2,0,L|419:61,1,95,0|8,0:0|0:0,0:0:0:0:
275,112,26414,2,0,L|271:8,1,95,8|8,0:3|0:3,0:0:0:0:
413,24,26747,1,0,0:0:0:0:
271,17,26914,1,8,0:0:0:0:
21,188,27080,1,0,0:0:0:0:
178,193,27247,5,8,0:3:0:0:
21,188,27414,2,0,P|24:125|149:87,1,190,0|4,0:0|0:3,0:0:0:0:
271,137,27914,2,0,L|279:26,1,95,8|4,0:3|0:3,0:0:0:0:
123,60,28247,1,8,0:0:0:0:
373,97,28414,1,4,0:3:0:0:
123,60,28580,5,4,0:0:0:0:
267,69,28747,1,0,0:0:0:0:
123,60,28914,1,8,0:0:0:0:
267,69,29080,2,0,L|269:169,1,95,2|10,0:0|0:3,0:0:0:0:
123,60,29414,1,0,0:0:0:0:
267,69,29580,1,8,0:0:0:0:
26,146,29747,1,0,0:0:0:0:
167,148,29914,5,8,0:3:0:0:
26,146,30080,2,0,L|21:39,1,95,0|8,0:0|0:0,0:0:0:0:
264,107,30414,2,0,L|66:107,1,190
379,218,30914,6,0,P|446:197|371:138,1,190,12|8,0:0|0:3,0:0:0:0:
252,108,31414,1,0,0:0:0:0:
109,113,31580,2,0,L|105:0,1,95,8|4,0:0|0:3,0:0:0:0:
252,108,31914,1,8,0:3:0:0:
109,113,32080,1,4,0:3:0:0:
395,103,32247,1,12,0:0:0:0:
252,108,32413,1,0,0:0:0:0:
487,105,32580,6,0,L|492:225,1,95,8|8,0:3|0:0,0:0:0:0:
432,226,32830,1,8,0:0:0:0:
238,170,32914,2,0,L|125:173,1,95,8|8,0:3|0:0,0:0:0:0:
190,117,33164,1,8,0:0:0:0:
370,140,33247,6,0,L|372:33,1,95,8|8,0:3|0:0,0:0:0:0:
321,30,33497,1,8,0:0:0:0:
153,56,33580,2,0,L|87:60,1,47.5,8|8,0:0|0:0,0:0:0:0:
291,106,33747,2,0,L|356:108,1,47.5,8|8,0:0|0:0,0:0:0:0:
93,224,33914,6,0,P|42:189|112:99,1,190,4|8,0:0|0:3,0:0:0:0:
367,162,34580,2,0,L|155:153,1,190,10|8,0:3|0:3,0:0:0:0:
277,95,35080,1,0,0:0:0:0:
435,221,35247,6,0,L|446:19,1,190,10|10,0:3|0:3,0:0:0:0:
189,168,35914,1,10,0:3:0:0:
341,164,36080,1,8,0:0:0:0:
189,168,36247,2,0,L|180:63,1,95,10|8,0:3|0:3,0:0:0:0:
441,148,36580,6,0,L|213:145,1,190,4|8,0:0|0:3,0:0:0:0:
251,145,37080,1,0,0:0:0:0:
402,199,37247,2,0,P|447:184|386:93,1,190,10|8,0:3|0:3,0:0:0:0:
311,85,37747,1,4,0:3:0:0:
79,187,37914,6,0,L|71:72,1,95,8|4,0:3|0:0,0:0:0:0:
216,66,38247,1,8,0:3:0:0:
72,92,38414,1,8,0:3:0:0:
316,192,38580,1,8,0:3:0:0:
183,183,38747,1,8,0:3:0:0:
316,192,38914,1,8,0:3:0:0:
183,183,39080,1,8,0:3:0:0:
462,118,39247,6,0,L|347:118,3,95,4|0|8|0,0:0|0:0|0:3|0:0,0:0:0:0:
214,180,39914,2,0,L|208:70,1,95,8|8,0:3|0:3,0:0:0:0:
362,78,40247,2,0,L|372:-27,1,95,8|4,0:3|0:3,0:0:0:0:
112,138,40580,6,0,L|216:133,3,95,8|4|8|4,0:3|0:3|0:3|0:3,0:0:0:0:
356,165,41247,2,0,L|363:57,1,95,8|4,0:3|0:3,0:0:0:0:
125,67,41580,1,8,0:3:0:0:
412,127,41747,6,0,P|469:100|391:25,1,190,12|4,0:0|0:3,0:0:0:0:
253,102,42247,1,8,0:3:0:0:
410,126,42414,2,0,L|191:130,1,190,4|4,0:3|0:3,0:0:0:0:
368,208,42914,1,8,0:3:0:0:
121,197,43080,1,12,0:0:0:0:
266,164,43247,5,8,0:3:0:0:
121,197,43414,2,0,L|191:189,1,47.5,8|8,0:0|0:0,0:0:0:0:
350,129,43580,2,0,L|406:121,1,47.5,8|8,0:0|0:0,0:0:0:0:
228,75,43747,6,0,L|159:76,1,47.5,8|8,0:0|0:0,0:0:0:0:
362,36,43914,2,0,L|427:35,1,47.5,8|8,0:0|0:0,0:0:0:0:
197,149,44080,2,0,L|79:150,1,95,8|8,0:0|0:0,0:0:0:0:
153,94,44330,1,8,0:0:0:0:
331,157,44414,2,0,L|403:156,1,47.5,8|8,0:0|0:0,0:0:0:0:
174,238,44580,6,0,P|109:213|189:166,1,190,4|8,0:0|0:0,0:0:0:0:
336,142,45080,2,0,L|342:67,1,47.5,0|8,0:0|0:3,0:0:0:0:
194,67,45247,2,0,L|92:69,1,95,8|8,0:3|0:3,0:0:0:0:
390,183,45580,2,0,L|488:182,1,95,8|0,0:0|0:0,0:0:0:0:
251,286,45914,5,8,0:3:0:0:
396,212,46080,2,0,L|400:85,1,95,8|8,0:3|0:0,0:0:0:0:
155,128,46414,2,0,L|352:123,1,190,0|8,0:0|0:3,0:0:0:0:
204,188,46914,1,8,0:0:0:0:
344,123,47080,1,8,0:3:0:0:
102,229,47247,6,0,P|46:203|124:131,1,190,4|8,0:0|0:0,0:0:0:0:
256,118,47747,2,0,L|260:192,1,47.5
108,230,47914,2,0,L|12:231,2,95,8|8|8,0:3|0:3|0:0,0:0:0:0:
354,221,48414,1,8,0:3:0:0:
108,230,48580,6,0,L|103:108,1,95,4|8,0:0|0:0,0:0:0:0:
162,100,48830,1,8,0:0:0:0:
323,93,48914,2,0,L|389:93,1,47.5,8|8,0:0|0:0,0:0:0:0:
198,151,49080,2,0,L|136:153,1,47.5,8|8,0:0|0:0,0:0:0:0:
350,53,49247,6,0,L|472:51,1,95,8|8,0:3|0:3,0:0:0:0:
389,99,49497,1,8,0:3:0:0:
209,62,49580,2,0,L|137:66,1,47.5,8|8,0:3|0:3,0:0:0:0:
394,218,49747,6,0,P|451:188|371:114,1,190,4|8,0:0|0:3,0:0:0:0:
248,110,50247,1,8,0:3:0:0:
418,81,50580,2,0,L|316:78,2,95,2|8|8,0:0|0:3|0:3,0:0:0:0:
272,181,51080,6,0,L|269:66,1,95,8|0,0:3|0:0,0:0:0:0:
418,73,51414,2,0,L|311:66,1,95,8|0,0:3|0:0,0:0:0:0:
80,138,51747,2,0,L|139:129,1,47.5,8|8,0:0|0:0,0:0:0:0:
291,113,51914,6,0,L|372:106,1,47.5,8|8,0:0|0:0,0:0:0:0:
162,55,52080,2,0,L|92:56,1,47.5,8|8,0:0|0:0,0:0:0:0:
314,35,52247,2,0,L|378:35,1,47.5,8|8,0:0|0:0,0:0:0:0:
144,207,52414,6,0,L|137:91,1,95,12|0,0:0|0:0,0:0:0:0:
286,93,52747,1,8,0:3:0:0:
34,153,52914,2,0,L|27:47,1,95,8|8,0:0|0:3,0:0:0:0:
335,167,53247,1,8,0:0:0:0:
195,162,53414,1,8,0:3:0:0:
335,167,53580,1,8,0:3:0:0:
68,217,53747,6,0,L|63:101,1,95,12|0,0:0|0:0,0:0:0:0:
345,92,54080,1,10,0:0:0:0:
92,143,54247,2,0,P|44:119|105:71,1,142.5,10|0,0:0|0:0,0:0:0:0:
301,140,54580,6,0,L|366:134,1,47.5,8|8,0:3|0:0,0:0:0:0:
173,72,54747,2,0,L|101:74,1,47.5,8|8,0:0|0:0,0:0:0:0:
333,45,54914,2,0,L|387:45,1,47.5,8|0,0:0|0:0,0:0:0:0:
168,217,55080,6,0,P|110:193|181:120,1,190,4|8,0:0|0:3,0:0:0:0:
315,112,55580,1,8,0:0:0:0:
166,114,55747,1,0,0:0:0:0:
430,190,55914,2,0,L|298:188,2,95,8|8|8,0:3|0:3|0:0,0:0:0:0:
162,272,56414,6,0,L|359:269,1,190,10|8,0:3|0:3,0:0:0:0:
207,197,56914,1,10,0:0:0:0:
351,269,57080,1,0,0:0:0:0:
81,141,57247,2,0,L|196:138,2,95,10|8|8,0:3|0:3|0:0,0:0:0:0:
378,235,57747,6,0,P|433:212|347:132,1,190,10|8,0:3|0:3,0:0:0:0:
245,115,58247,1,8,0:0:0:0:
389,117,58414,1,0,0:0:0:0:
123,202,58580,1,8,0:3:0:0:
266,204,58747,1,8,0:3:0:0:
123,202,58914,1,8,0:0:0:0:
266,204,59080,1,0,0:0:0:0:
35,142,59247,6,0,L|28:27,1,95,10|8,0:3|0:3,0:0:0:0:
260,100,59580,2,0,L|262:-15,1,95,8|0,0:0|0:0,0:0:0:0:
493,92,59914,2,0,L|502:-32,1,95,10|8,0:3|0:3,0:0:0:0:
179,223,60247,6,0,L|401:215,1,190,12|8,0:0|0:3,0:0:0:0:
226,150,60747,1,8,0:3:0:0:
463,139,60914,2,0,L|474:24,1,95,8|0,0:0|0:0,0:0:0:0:
329,31,61247,1,10,0:3:0:0:
472,44,61414,1,8,0:3:0:0:
181,71,61580,1,8,0:0:0:0:
329,31,61747,1,0,0:0:0:0:
105,246,61914,6,0,P|61:230|122:136,1,190,8|8,0:3|0:0,0:0:0:0:
365,168,62414,2,0,L|367:62,1,95,0|10,0:0|0:3,0:0:0:0:
220,42,62747,2,0,L|122:43,1,95,8|8,0:3|0:0,0:0:0:0:
384,172,63080,1,8,0:3:0:0:
238,170,63247,5,4,0:0:0:0:
384,172,63414,1,8,0:3:0:0:
139,89,63580,2,0,L|44:90,1,95,8|0,0:0|0:0,0:0:0:0:
312,194,63914,1,8,0:3:0:0:
168,197,64080,1,8,0:3:0:0:
312,194,64247,1,10,0:0:0:0:
168,197,64414,1,2,0:0:0:0:
449,165,64580,6,0,L|450:44,1,95,10|8,0:3|0:3,0:0:0:0:
216,62,64914,2,0,L|109:63,1,95,8|0,0:0|0:0,0:0:0:0:
169,117,65164,1,8,0:3:0:0:
351,96,65247,6,0,L|418:94,1,47.5,8|8,0:0|0:0,0:0:0:0:
196,177,65414,2,0,L|123:177,1,47.5,8|8,0:0|0:0,0:0:0:0:
360,139,65580,2,0,L|435:139,1,47.5,8|8,0:0|0:0,0:0:0:0:
255,84,65747,2,0,L|188:86,1,47.5,8|8,0:0|0:0,0:0:0:0:
389,199,65914,6,0,L|490:198,1,95,4|0,0:0|0:0,0:0:0:0:
225,167,66247,2,0,L|131:166,1,95,8|0,0:0|0:0,0:0:0:0:
423,143,66580,2,0,L|319:143,2,95,8|8|8,0:3|0:3|0:0,0:0:0:0:
158,258,67080,6,0,P|88:236|159:175,1,190,8|8,0:3|0:3,0:0:0:0:
388,195,67580,2,0,L|508:192,1,95,10|0,0:0|0:0,0:0:0:0:
233,131,67914,2,0,L|230:32,1,95,10|8,0:3|0:3,0:0:0:0:
374,27,68247,1,10,0:0:0:0:
230,36,68414,1,0,0:0:0:0:
468,221,68580,6,0,P|510:188|447:77,1,190,10|8,0:3|0:0,0:0:0:0:
310,126,69080,2,0,L|209:129,1,95,0|8,0:0|0:3,0:0:0:0:
368,145,69414,2,0,L|491:140,2,95,8|10|2,0:3|0:0|0:0,0:0:0:0:
101,190,69914,6,0,L|96:77,1,95,10|8,0:3|0:3,0:0:0:0:
264,81,70247,2,0,L|75:83,1,190,10|10,0:0|0:3,0:0:0:0:
213,142,70747,1,8,0:3:0:0:
74,83,70914,2,0,L|140:75,1,47.5,8|8,0:0|0:0,0:0:0:0:
321,114,71080,2,0,L|388:113,1,47.5,8|8,0:0|0:0,0:0:0:0:
174,194,71247,6,0,L|55:195,2,95,12|0|8,0:0|0:0|0:0,0:0:0:0:
321,174,71747,2,0,L|322:57,1,95,0|2,0:0|0:3,0:0:0:0:
177,73,72080,1,8,0:3:0:0:
321,79,72247,1,8,0:0:0:0:
69,196,72414,6,0,L|66:66,1,95,0|2,0:0|0:3,0:0:0:0:
208,94,72747,1,8,0:3:0:0:
66,101,72914,1,8,0:0:0:0:
343,172,73080,2,0,L|343:38,1,95,0|2,0:0|0:3,0:0:0:0:
91,95,73414,1,8,0:3:0:0:
343,77,73580,1,8,0:0:0:0:
91,95,73747,6,0,P|37:84|111:15,1,190,4|8,0:0|0:3,0:0:0:0:
350,160,74247,2,0,L|460:157,1,95,8|0,0:0|0:0,0:0:0:0:
191,219,74580,1,2,0:3:0:0:
330,215,74747,1,8,0:3:0:0:
191,219,74914,1,8,0:0:0:0:
468,178,75080,6,0,L|474:62,1,95,4|0,0:0|0:0,0:0:0:0:
179,88,75414,1,8,0:3:0:0:
447,96,75580,2,0,L|456:-1,1,95,8|0,0:0|0:0,0:0:0:0:
189,202,75914,6,0,L|391:189,1,190,10|8,0:3|0:0,0:0:0:0:
329,133,76330,1,8,0:0:0:0:
156,87,76414,2,0,L|101:84,1,47.5,8|8,0:0|0:0,0:0:0:0:
334,61,76580,6,0,L|443:62,1,95,4|0,0:0|0:0,0:0:0:0:
193,171,76914,2,0,L|81:170,1,95,8|8,0:0|0:3,0:0:0:0:
330,163,77247,1,10,0:0:0:0:
93,144,77414,2,0,L|90:26,1,95,8|8,0:3|0:0,0:0:0:0:
357,44,77747,1,8,0:3:0:0:
101,38,77914,6,0,L|6:40,1,95,10|8,0:0|0:3,0:0:0:0:
310,197,78247,1,8,0:0:0:0:
164,196,78414,1,8,0:3:0:0:
310,197,78580,1,10,0:0:0:0:
66,148,78747,2,0,L|60:38,1,95,8|8,0:3|0:0,0:0:0:0:
368,67,79080,1,8,0:3:0:0:
89,60,79247,5,8,0:0:0:0:
368,67,79414,2,0,L|483:67,1,95,8|8,0:3|0:0,0:0:0:0:
167,189,79747,2,0,L|159:73,1,95,8|8,0:3|0:0,0:0:0:0:
430,98,80080,2,0,L|314:98,2,95,8|8|8,0:3|0:0|0:3,0:0:0:0:
168,187,80580,6,0,L|56:191,1,95,8|8,0:0|0:3,0:0:0:0:
371,181,80914,2,0,L|378:54,1,95,8|8,0:0|0:3,0:0:0:0:
112,96,81247,2,0,L|183:84,1,47.5,8|8,0:0|0:0,0:0:0:0:
351,63,81414,2,0,L|407:58,1,47.5,8|8,0:0|0:0,0:0:0:0:
203,42,81580,2,0,L|125:43,1,47.5,8|8,0:0|0:0,0:0:0:0:
326,108,81747,6,0,P|393:112|450:223,1,190,4|0,0:0|0:0,0:0:0:0:
359,220,82247,1,8,0:3:0:0:
212,147,82414,2,0,L|210:34,1,95,4|8,0:3|0:3,0:0:0:0:
351,48,82747,2,0,L|451:46,1,95,4|8,0:3|0:3,0:0:0:0:
296,70,83080,6,0,P|235:65|173:182,1,190,4|4,0:3|0:3,0:0:0:0:
308,166,83580,1,8,0:3:0:0:
51,218,83747,2,0,L|266:222,1,190,4|8,0:0|0:0,0:0:0:0:
95,154,84247,1,8,0:3:0:0:
361,190,84414,6,0,L|362:89,1,95,4|8,0:0|0:3,0:0:0:0:
221,86,84747,1,2,0:0:0:0:
361,95,84914,1,10,0:3:0:0:
98,101,85080,2,0,L|94:-7,1,95,6|8,0:0|0:3,0:0:0:0:
237,13,85414,1,2,0:0:0:0:
94,6,85580,1,10,0:3:0:0:
388,194,85747,6,0,P|439:173|373:88,1,190,6|8,0:0|0:0,0:0:0:0:
328,86,86164,1,8,0:0:0:0:
162,183,86247,2,0,L|109:181,1,47.5,8|8,0:0|0:0,0:0:0:0:
331,115,86414,1,4,0:0:0:0:
385,122,86497,1,0,0:0:0:0:
386,171,86580,5,0,0:0:0:0:
333,176,86663,1,0,0:0:0:0:
161,93,86747,2,0,L|90:94,1,47.5,8|8,0:3|0:3,0:0:0:0:
309,43,86914,2,0,L|382:42,1,47.5,8|8,0:3|0:3,0:0:0:0:
138,167,87080,6,0,L|28:163,1,95,4|0,0:0|0:0,0:0:0:0:
326,167,87414,1,8,0:3:0:0:
56,96,87580,2,0,L|48:-9,1,95,8|8,0:0|0:3,0:0:0:0:
348,65,87914,2,0,L|446:67,1,95,8|8,0:0|0:3,0:0:0:0:
219,131,88247,2,0,L|116:129,1,95,8|8,0:0|0:3,0:0:0:0:
396,173,88580,5,10,0:0:0:0:
256,192,88914,12,2,89580,0:0:0:0:
