osu file format v14

[General]
AudioFilename: audio.mp3
AudioLeadIn: 0
PreviewTime:54164
Countdown: 0
SampleSet: Soft
StackLeniency: 0.7
Mode: 2
LetterboxInBreaks: 0
WidescreenStoryboard: 1

[Editor]
Bookmarks: 8414,12580,23247,33914,44580,49747,55080,76580,81747,84414,88580
DistanceSpacing: 2.4
BeatDivisor: 4
GridSize: 16
TimelineZoom: 1.9

[Metadata]
Title:Deneb to Spica (TV Size)
TitleUnicode:デネブとスピカ (TV Size)
Artist:DIALOGUE+
ArtistUnicode:DIALOGUE+
Creator:Greaper
Version:Black's Overdose
Source:継母の連れ子が元カノだった
Tags:Secre chickenbible BlackBN BlackBq -Rustyy [ Azu- ] bigh bighzonda Mamahaha no Tsurego ga Motokano datta My Stepmom's Daughter Is Ex Stepsister is Ex-Girlfriend Girlfriend Tsurekano japanese pop j-pop jpop anime opening op 堀江晶太 shouta shota horie 田淵智也 Tabuchi Tomoya
BeatmapID:3704157
BeatmapSetID:1806253

[Difficulty]
HPDrainRate:6
CircleSize:4
OverallDifficulty:9.2
ApproachRate:9.2
SliderMultiplier:1.9
SliderTickRate:2

[Events]
//Background and Video events
0,0,"bg2.jpg",0,0
//Break Periods
//Storyboard Layer 0 (Background)
//Storyboard Layer 1 (Fail)
//Storyboard Layer 2 (Pass)
//Storyboard Layer 3 (Foreground)
//Storyboard Layer 4 (Overlay)
//Storyboard Sound Samples

[TimingPoints]
581,333.333333333333,4,2,11,70,1,0
7914,-100,4,2,11,75,0,0
8080,-100,4,2,11,75,0,0
8414,-100,4,2,11,60,0,0
10914,-100,4,2,11,65,0,0
12580,-100,4,2,12,50,0,0
21247,-100,4,2,11,60,0,0
23247,-100,4,2,11,70,0,0
33914,-100,4,2,11,65,0,0
44580,-100,4,2,11,75,0,0
49747,-100,4,2,11,60,0,0
51414,-100,4,2,11,70,0,0
53747,-100,4,2,11,80,0,0
54580,-100,4,2,11,70,0,0
55080,-100,4,2,11,80,0,1
64580,-100,4,2,11,70,0,0
65914,-100,4,2,11,80,0,1
76580,-100,4,2,11,90,0,1
81747,-100,4,2,11,70,0,0
84414,-100,4,2,11,80,0,1
88580,-100,4,2,11,60,0,0

[Colours]
Combo1 : 132,206,215
Combo2 : 214,133,205
Combo3 : 132,147,215
Combo4 : 218,129,131

[HitObjects]
164,282,581,6,0,L|294:285,2,95,8|0|0,0:0|0:0|0:0,0:0:0:0:
401,288,1080,1,8,0:0:0:0:
208,201,1414,2,0,L|74:200,1,95
354,205,1747,1,8,0:0:0:0:
165,287,2080,2,0,L|165:152,1,95
433,190,2414,2,0,L|238:194,1,190,4|8,0:0|0:0,0:0:0:0:
398,123,2914,1,8,0:0:0:0:
158,231,3080,6,0,P|98:185|173:143,1,190,4|0,0:0|0:0,0:0:0:0:
401,198,3580,2,0,L|402:102,1,95,8|0,0:0|0:0,0:0:0:0:
245,114,3914,2,0,L|142:111,1,95,8|0,0:0|0:0,0:0:0:0:
304,75,4247,1,8,0:3:0:0:
36,321,4414,6,0,P|36:248|163:230,1,190,4|8,0:0|0:0,0:0:0:0:
183,220,4830,1,8,0:0:0:0:
377,265,4914,1,8,0:0:0:0:
431,249,4997,1,8,0:0:0:0:
431,194,5080,1,8,0:0:0:0:
378,173,5164,1,8,0:0:0:0:
185,171,5247,2,0,L|137:168,1,47.5,8|8,0:0|0:0,0:0:0:0:
332,100,5414,2,0,L|379:98,1,47.5,8|8,0:0|0:0,0:0:0:0:
188,63,5580,2,0,L|140:63,1,47.5,8|8,0:0|0:0,0:0:0:0:
359,300,5747,6,0,P|422:236|336:201,1,190,4|0,0:0|0:0,0:0:0:0:
204,195,6247,1,4,0:3:0:0:
400,115,6580,1,4,0:3:0:0:
200,38,6914,1,4,0:3:0:0:
439,207,7080,2,0,L|493:206,2,47.5,8|8|8,0:0|0:0|0:3,0:0:0:0:
196,209,7414,5,8,0:0:0:0:
439,207,7580,1,8,0:0:0:0:
247,140,7914,1,12,0:0:0:0:
487,148,8080,2,0,L|315:135,1,142.5,12|0,0:0|0:0,0:0:0:0:
104,332,8414,6,0,P|42:271|137:236,1,190,12|0,0:0|0:0,0:0:0:0:
347,228,8914,2,0,L|457:230,1,95,8|0,0:0|0:0,0:0:0:0:
209,172,9247,1,8,0:3:0:0:
441,121,9414,1,0,0:0:0:0:
201,78,9580,2,0,L|99:81,1,95,8|0,0:0|0:0,0:0:0:0:
348,292,9914,6,0,P|389:259|334:206,1,142.5,8|0,0:3|0:0,0:0:0:0:
149,212,10247,2,0,L|320:202,1,142.5,8|0,0:0|0:0,0:0:0:0:
77,181,10580,2,0,P|40:125|123:95,1,142.5,4|0,0:0|0:0,0:0:0:0:
327,92,10914,5,12,0:0:0:0:
256,192,11080,12,0,11914,0:0:0:0:
147,214,12080,6,0,L|376:199,1,190,4|0,0:0|0:0,0:0:0:0:
179,290,12580,6,0,L|81:290,2,95,2|2|8,0:0|0:0|0:0,0:0:0:0:
325,282,13080,2,0,L|325:182,1,95,0|2,0:0|0:0,0:0:0:0:
179,153,13414,1,2,0:0:0:0:
325,110,13580,1,10,0:0:0:0:
178,92,13747,6,0,L|56:99,1,95,2|0,0:0|0:0,0:0:0:0:
228,316,14080,2,0,L|347:301,1,95,2|10,0:0|0:0,0:0:0:0:
176,261,14414,2,0,P|123:209|213:158,1,190,2|2,0:0|0:0,0:0:0:0:
340,185,14914,2,0,L|342:84,1,95,10|2,0:0|0:0,0:0:0:0:
194,267,15247,5,2,0:0:0:0:
339,218,15414,1,0,0:0:0:0:
195,192,15580,2,0,L|191:94,1,95,8|2,0:0|0:0,0:0:0:0:
337,87,15914,1,2,0:0:0:0:
193,173,16080,2,0,L|395:167,1,190,2|2,0:0|0:0,0:0:0:0:
233,329,16580,6,0,L|232:228,1,95,0|2,0:0|0:0,0:0:0:0:
379,240,16914,1,10,0:0:0:0:
474,218,17080,1,2,0:0:0:0:
473,125,17247,1,0,0:0:0:0:
373,105,17414,1,2,0:0:0:0:
227,106,17580,2,0,L|106:112,1,95,10|2,0:0|0:0,0:0:0:0:
132,61,17830,1,2,0:0:0:0:
327,322,17914,6,0,P|387:286|316:223,1,190,2|10,0:0|0:0,0:0:0:0:
175,218,18414,1,0,0:0:0:0:
319,200,18580,2,0,L|319:89,1,95,2|2,0:0|0:0,0:0:0:0:
172,91,18914,1,8,0:0:0:0:
409,299,19080,6,0,L|216:283,1,190,2|2,0:0|0:0,0:0:0:0:
75,278,19580,2,0,L|75:172,1,95,8|2,0:0|0:0,0:0:0:0:
224,173,19914,1,2,0:0:0:0:
77,104,20080,2,0,L|181:106,2,95,0|10|2,0:0|0:0|0:0,0:0:0:0:
317,324,20580,6,0,P|313:244|189:228,1,190,2|10,0:0|0:0,0:0:0:0:
122,232,21080,1,2,0:0:0:0:
366,259,21247,2,0,L|429:256,1,47.5,8|8,0:0|0:0,0:0:0:0:
214,202,21414,2,0,L|121:199,1,47.5,8|8,0:0|0:0,0:0:0:0:
364,162,21580,2,0,L|275:162,1,47.5,8|0,0:0|0:0,0:0:0:0:
74,159,21747,5,12,0:3:0:0:
408,322,22247,2,0,L|407:225,1,95
168,239,22580,2,0,L|96:235,1,47.5,8|8,0:0|0:0,0:0:0:0:
318,184,22747,2,0,L|243:183,1,47.5,8|8,0:0|0:0,0:0:0:0:
73,137,22914,2,0,L|147:132,1,47.5,8|8,0:0|0:0,0:0:0:0:
316,77,23080,2,0,L|394:74,1,47.5,8|8,0:0|0:0,0:0:0:0:
120,318,23247,6,0,L|321:311,1,190,4|8,0:0|0:0,0:0:0:0:
69,278,23747,2,0,L|70:177,1,95,0|8,0:0|0:3,0:0:0:0:
222,163,24080,2,0,L|122:163,1,95,0|8,0:0|0:0,0:0:0:0:
368,321,24414,6,0,P|435:275|348:257,1,190
212,205,24914,2,0,L|110:213,1,95,8|0,0:0|0:0,0:0:0:0:
359,266,25247,1,8,0:3:0:0:
203,212,25414,1,4,0:3:0:0:
358,184,25580,2,0,L|358:86,1,95,8|4,0:0|0:3,0:0:0:0:
114,248,25914,6,0,L|314:241,1,190,8|8,0:3|0:0,0:0:0:0:
149,169,26414,1,8,0:3:0:0:
387,160,26580,1,8,0:3:0:0:
232,127,26747,2,0,L|126:135,1,95,0|8,0:0|0:0,0:0:0:0:
378,336,27080,6,0,P|377:256|263:235,1,190
129,201,27580,1,8,0:0:0:0:
284,160,27747,1,4,0:3:0:0:
43,293,27914,2,0,L|44:179,1,95,8|4,0:3|0:3,0:0:0:0:
198,164,28247,2,0,L|70:168,1,95,8|4,0:0|0:3,0:0:0:0:
371,299,28580,6,0,L|163:294,1,190,4|8,0:0|0:0,0:0:0:0:
334,247,29080,1,2,0:0:0:0:
178,246,29247,2,0,L|178:144,1,95,10|0,0:3|0:0,0:0:0:0:
331,143,29580,1,8,0:0:0:0:
88,316,29747,6,0,P|36:281|119:220,1,190
261,209,30247,1,8,0:0:0:0:
108,170,30414,1,0,0:0:0:0:
350,150,30580,1,12,0:3:0:0:
196,143,30747,1,0,0:0:0:0:
465,354,30914,6,0,L|467:239,1,95,12|0,0:0|0:0,0:0:0:0:
311,256,31247,1,8,0:3:0:0:
470,203,31414,1,0,0:0:0:0:
229,296,31580,2,0,L|335:299,1,95,8|4,0:0|0:3,0:0:0:0:
165,257,31914,2,0,L|164:139,1,95,8|4,0:3|0:3,0:0:0:0:
435,302,32247,5,12,0:0:0:0:
194,260,32414,1,0,0:0:0:0:
352,246,32580,1,8,0:3:0:0:
110,221,32747,2,0,L|53:220,2,47.5,8|8|8,0:0|0:0|0:3,0:0:0:0:
354,333,33080,6,0,L|419:329,1,47.5,8|8,0:0|0:0,0:0:0:0:
205,267,33247,2,0,L|132:271,1,47.5,8|8,0:3|0:3,0:0:0:0:
354,240,33414,2,0,L|442:236,1,47.5,8|8,0:0|0:0,0:0:0:0:
207,172,33580,2,0,L|294:168,1,47.5,8|8,0:0|0:0,0:0:0:0:
451,162,33747,2,0,L|525:161,1,47.5,8|8,0:0|0:0,0:0:0:0:
255,334,33914,6,0,P|199:268|294:236,1,190,4|8,0:0|0:3,0:0:0:0:
423,216,34414,1,0,0:0:0:0:
185,307,34580,2,0,L|185:208,1,95,10|0,0:3|0:0,0:0:0:0:
339,216,34914,2,0,L|227:217,1,95,8|0,0:3|0:0,0:0:0:0:
484,348,35247,6,0,P|475:271|351:257,1,190,10|10,0:3|0:3,0:0:0:0:
221,243,35747,1,0,0:0:0:0:
461,219,35914,1,10,0:3:0:0:
220,165,36080,1,8,0:0:0:0:
373,113,36247,2,0,L|487:114,1,95,10|8,0:3|0:3,0:0:0:0:
199,314,36580,6,0,L|412:303,1,190,4|8,0:0|0:3,0:0:0:0:
234,250,37080,1,0,0:0:0:0:
478,261,37247,2,0,L|384:259,1,95,10|4,0:3|0:3,0:0:0:0:
228,249,37580,2,0,L|229:133,1,95,8|4,0:3|0:3,0:0:0:0:
469,144,37914,5,8,0:3:0:0:
228,144,38080,1,4,0:0:0:0:
383,144,38247,2,0,L|386:41,1,95,8|8,0:3|0:3,0:0:0:0:
146,316,38580,1,8,0:3:0:0:
300,289,38747,1,8,0:3:0:0:
57,223,38914,1,8,0:3:0:0:
210,206,39080,1,8,0:3:0:0:
477,343,39247,6,0,P|461:255|352:234,1,190,4|8,0:0|0:3,0:0:0:0:
220,242,39747,1,0,0:0:0:0:
374,216,39914,2,0,L|255:200,1,95,8|8,0:3|0:3,0:0:0:0:
41,190,40247,2,0,L|41:88,1,95,8|4,0:3|0:3,0:0:0:0:
282,279,40580,6,0,P|345:266|271:226,1,190,8|8,0:3|0:3,0:0:0:0:
127,174,41080,1,4,0:3:0:0:
368,285,41247,2,0,L|244:280,1,95,8|4,0:3|0:3,0:0:0:0:
34,254,41580,1,8,0:3:0:0:
301,232,41747,6,0,L|501:229,1,190,12|4,0:0|0:3,0:0:0:0:
339,166,42247,1,8,0:3:0:0:
104,280,42414,2,0,P|110:199|238:190,1,190,4|4,0:3|0:3,0:0:0:0:
356,168,42914,1,8,0:3:0:0:
90,306,43080,5,12,0:0:0:0:
333,312,43247,2,0,L|335:197,1,95,8|8,0:3|0:0,0:0:0:0:
286,216,43497,1,8,0:0:0:0:
92,210,43580,1,8,0:0:0:0:
37,189,43664,1,8,0:0:0:0:
37,132,43747,1,8,0:0:0:0:
91,112,43830,1,8,0:0:0:0:
288,125,43914,2,0,L|373:118,1,47.5,8|8,0:0|0:0,0:0:0:0:
140,54,44080,2,0,L|212:49,1,47.5,8|8,0:0|0:0,0:0:0:0:
388,299,44247,2,0,L|500:298,1,95,8|8,0:0|0:0,0:0:0:0:
433,258,44497,1,8,0:0:0:0:
194,250,44580,6,0,L|195:129,1,95,4|8,0:0|0:3,0:0:0:0:
350,171,44914,1,8,0:0:0:0:
195,98,45080,2,0,L|125:98,1,47.5,0|8,0:0|0:3,0:0:0:0:
341,345,45247,2,0,L|341:236,1,95,8|8,0:3|0:3,0:0:0:0:
188,242,45580,1,8,0:0:0:0:
429,331,45747,6,0,P|483:306|404:232,1,190,0|8,0:0|0:3,0:0:0:0:
269,217,46247,1,8,0:0:0:0:
422,183,46414,2,0,L|422:97,1,47.5
230,120,46580,2,0,L|110:109,1,95,8|8,0:3|0:3,0:0:0:0:
290,87,46914,1,8,0:0:0:0:
138,88,47080,1,8,0:3:0:0:
379,295,47247,6,0,L|253:289,1,95,4|8,0:0|0:3,0:0:0:0:
129,252,47580,1,8,0:0:0:0:
283,218,47747,2,0,L|338:219,1,47.5
138,217,47914,2,0,L|136:122,1,95,8|8,0:3|0:3,0:0:0:0:
291,102,48247,1,8,0:0:0:0:
133,59,48414,1,8,0:3:0:0:
394,309,48580,6,0,L|395:207,1,95,4|8,0:0|0:0,0:0:0:0:
346,211,48830,1,8,0:0:0:0:
151,204,48914,2,0,L|67:204,1,47.5,8|8,0:0|0:0,0:0:0:0:
298,161,49080,2,0,L|373:159,1,47.5,8|8,0:0|0:0,0:0:0:0:
149,144,49247,2,0,L|149:80,1,47.5,8|8,0:3|0:3,0:0:0:0:
346,277,49414,1,8,0:3:0:0:
398,251,49497,1,8,0:3:0:0:
399,198,49580,1,8,0:3:0:0:
344,181,49664,1,8,0:3:0:0:
107,188,49747,5,4,0:0:0:0:
278,327,50080,2,0,L|300:295,3,23.75,8|8|8|8,0:3|0:3|0:3|0:3,0:0:0:0:
136,332,50247,2,0,L|135:225,1,95,8|8,0:3|0:3,0:0:0:0:
282,235,50580,1,2,0:0:0:0:
138,197,50747,1,8,0:3:0:0:
281,156,50914,1,8,0:3:0:0:
39,208,51080,2,0,L|39:141,1,47.5,8|8,0:3|0:3,0:0:0:0:
231,148,51247,6,0,L|352:143,1,95,0|8,0:0|0:3,0:0:0:0:
171,97,51580,1,0,0:0:0:0:
411,311,51747,2,0,L|412:224,1,47.5,8|8,0:0|0:0,0:0:0:0:
214,234,51914,2,0,L|148:234,1,47.5,8|8,0:0|0:0,0:0:0:0:
362,211,52080,1,8,0:0:0:0:
415,182,52164,1,8,0:0:0:0:
415,126,52247,1,8,0:0:0:0:
362,99,52330,1,8,0:0:0:0:
119,257,52414,6,0,L|326:251,1,190,12|8,0:0|0:3,0:0:0:0:
67,189,52914,1,8,0:0:0:0:
222,190,53080,1,8,0:3:0:0:
461,183,53247,1,8,0:0:0:0:
222,104,53414,2,0,L|147:102,1,47.5,8|8,0:3|0:3,0:0:0:0:
371,49,53580,2,0,L|302:47,1,47.5,8|8,0:3|0:3,0:0:0:0:
75,251,53747,6,0,L|258:241,1,142.5,12|0,0:0|0:0,0:0:0:0:
454,235,54080,1,10,0:0:0:0:
187,166,54247,2,0,P|143:129|204:84,1,142.5,10|0,0:0|0:0,0:0:0:0:
383,345,54580,2,0,L|383:278,1,47.5,8|8,0:3|0:0,0:0:0:0:
187,287,54747,2,0,L|268:283,1,47.5,8|8,0:0|0:0,0:0:0:0:
428,233,54914,2,0,L|479:230,1,47.5,8|0,0:0|0:0,0:0:0:0:
229,274,55080,6,0,P|171:234|257:173,1,190,4|8,0:0|0:3,0:0:0:0:
462,157,55580,1,8,0:0:0:0:
235,142,55747,1,0,0:0:0:0:
477,319,55914,2,0,L|373:319,2,95,8|8|8,0:3|0:3|0:0,0:0:0:0:
210,244,56414,6,0,L|403:235,1,190,10|8,0:3|0:3,0:0:0:0:
170,197,56914,1,10,0:0:0:0:
397,201,57080,1,0,0:0:0:0:
153,313,57247,2,0,L|267:316,2,95,10|8|8,0:3|0:3|0:0,0:0:0:0:
423,341,57747,6,0,P|484:277|410:247,1,190,10|8,0:3|0:3,0:0:0:0:
188,237,58247,1,8,0:0:0:0:
341,228,58414,2,0,L|342:163,1,47.5
150,166,58580,2,0,L|45:161,1,95,8|8,0:3|0:3,0:0:0:0:
295,108,58914,1,8,0:0:0:0:
57,89,59080,1,0,0:0:0:0:
295,335,59247,6,0,L|408:336,1,95,10|8,0:3|0:3,0:0:0:0:
161,298,59580,2,0,L|158:196,1,95,8|0,0:0|0:0,0:0:0:0:
209,197,59830,1,0,0:0:0:0:
403,193,59914,1,10,0:3:0:0:
170,191,60080,1,8,0:3:0:0:
440,341,60247,6,0,P|433:272|310:241,1,190,12|8,0:0|0:3,0:0:0:0:
176,235,60747,1,8,0:3:0:0:
414,269,60914,2,0,L|414:166,1,95,8|0,0:0|0:0,0:0:0:0:
260,174,61247,2,0,L|389:178,1,95,10|8,0:3|0:3,0:0:0:0:
126,327,61580,1,8,0:0:0:0:
356,305,61747,1,0,0:0:0:0:
116,232,61914,6,0,L|117:120,1,95,8|8,0:3|0:3,0:0:0:0:
347,130,62247,1,8,0:0:0:0:
106,306,62414,2,0,L|210:304,2,95,0|10|8,0:0|0:3|0:3,0:0:0:0:
349,300,62914,1,8,0:0:0:0:
111,292,63080,6,0,L|4:292,2,95,8|4|8,0:3|0:0|0:3,0:0:0:0:
355,286,63580,1,8,0:0:0:0:
201,265,63747,1,0,0:0:0:0:
447,288,63914,2,0,L|445:175,1,95,8|8,0:3|0:3,0:0:0:0:
206,171,64247,1,10,0:0:0:0:
361,173,64414,1,2,0:0:0:0:
122,305,64580,6,0,L|323:305,1,190,10|8,0:3|0:0,0:0:0:0:
160,241,65080,1,0,0:0:0:0:
401,255,65247,2,0,L|401:187,1,47.5,8|8,0:0|0:0,0:0:0:0:
204,176,65414,2,0,L|131:179,1,47.5,8|8,0:0|0:0,0:0:0:0:
354,113,65580,2,0,L|281:112,1,47.5,8|8,0:0|0:0,0:0:0:0:
112,95,65747,2,0,L|195:95,1,47.5,8|8,0:0|0:0,0:0:0:0:
400,294,65914,6,0,P|462:261|381:204,1,190,4|8,0:0|0:0,0:0:0:0:
243,193,66414,1,0,0:0:0:0:
482,310,66580,2,0,L|376:306,2,95,8|8|8,0:3|0:3|0:0,0:0:0:0:
240,320,67080,6,0,P|193:300|259:220,1,190,8|8,0:3|0:3,0:0:0:0:
406,224,67580,1,10,0:0:0:0:
248,208,67747,1,0,0:0:0:0:
489,346,67914,2,0,L|490:238,1,95,10|8,0:3|0:3,0:0:0:0:
251,222,68247,1,10,0:0:0:0:
406,224,68414,1,0,0:0:0:0:
167,280,68580,6,0,L|360:288,1,190,10|8,0:3|0:0,0:0:0:0:
201,219,69080,2,0,L|129:218,1,47.5,0|8,0:0|0:3,0:0:0:0:
349,193,69247,2,0,L|348:73,1,95,8|8,0:3|0:3,0:0:0:0:
193,101,69580,1,10,0:0:0:0:
435,336,69747,6,0,P|428:269|300:247,1,190,2|8,0:0|0:3,0:0:0:0:
169,242,70247,1,10,0:0:0:0:
326,240,70414,2,0,L|324:174,1,47.5,0|8,0:0|0:3,0:0:0:0:
132,170,70580,2,0,L|22:172,1,95,10|8,0:3|0:3,0:0:0:0:
280,311,70914,2,0,L|353:308,1,47.5,8|8,0:0|0:0,0:0:0:0:
135,260,71080,2,0,L|71:263,1,47.5,8|8,0:0|0:0,0:0:0:0:
331,231,71247,6,0,P|391:194|321:130,1,190,12|8,0:0|0:0,0:0:0:0:
171,137,71747,1,0,0:0:0:0:
412,324,71914,2,0,L|296:321,1,95,2|8,0:3|0:3,0:0:0:0:
162,320,72247,1,8,0:0:0:0:
402,243,72414,6,0,L|211:239,1,190,0|8,0:0|0:3,0:0:0:0:
368,191,72914,1,8,0:0:0:0:
214,197,73080,1,0,0:0:0:0:
456,339,73247,2,0,L|458:237,1,95,2|8,0:3|0:3,0:0:0:0:
303,238,73580,1,8,0:0:0:0:
34,207,73747,6,0,L|229:209,1,190,4|8,0:0|0:3,0:0:0:0:
380,213,74247,2,0,L|380:104,1,95,8|0,0:0|0:0,0:0:0:0:
139,135,74580,2,0,L|268:129,2,95,2|8|8,0:3|0:3|0:0,0:0:0:0:
410,247,75080,6,0,P|397:171|265:172,1,190,4|8,0:0|0:3,0:0:0:0:
143,154,75580,1,8,0:0:0:0:
296,161,75747,1,0,0:0:0:0:
57,286,75914,2,0,L|57:168,1,95,10|8,0:3|0:0,0:0:0:0:
301,197,76247,2,0,L|389:197,1,47.5,8|8,0:0|0:0,0:0:0:0:
154,117,76414,2,0,L|234:112,1,47.5,8|8,0:0|0:0,0:0:0:0:
439,328,76580,6,0,L|438:228,1,95,4|0,0:0|0:0,0:0:0:0:
191,235,76914,2,0,L|311:228,1,95,8|8,0:0|0:3,0:0:0:0:
46,229,77247,1,10,0:0:0:0:
201,173,77414,1,8,0:3:0:0:
46,120,77580,1,8,0:0:0:0:
287,110,77747,2,0,L|364:117,1,47.5,8|8,0:3|0:3,0:0:0:0:
141,284,77914,6,0,L|139:179,1,95,10|8,0:0|0:3,0:0:0:0:
381,189,78247,2,0,L|506:188,1,95,8|8,0:0|0:3,0:0:0:0:
237,188,78580,1,10,0:0:0:0:
83,138,78747,1,8,0:3:0:0:
323,111,78914,1,8,0:0:0:0:
171,99,79080,1,8,0:3:0:0:
410,295,79247,6,0,L|292:287,1,95,8|8,0:0|0:3,0:0:0:0:
74,267,79580,2,0,L|76:126,1,95,8|8,0:0|0:3,0:0:0:0:
318,199,79914,1,8,0:0:0:0:
80,164,80080,1,8,0:3:0:0:
238,147,80247,1,8,0:0:0:0:
81,96,80414,1,8,0:3:0:0:
319,342,80580,6,0,L|318:238,1,95,8|8,0:0|0:3,0:0:0:0:
75,236,80914,2,0,L|208:231,1,95,8|8,0:0|0:3,0:0:0:0:
412,241,81247,2,0,L|413:159,1,47.5,8|8,0:0|0:0,0:0:0:0:
218,198,81414,2,0,L|153:194,1,47.5,8|8,0:0|0:0,0:0:0:0:
366,133,81580,2,0,L|279:130,1,47.5,8|8,0:0|0:0,0:0:0:0:
76,281,81747,6,0,P|83:227|204:195,1,190,4|0,0:0|0:0,0:0:0:0:
352,198,82247,2,0,L|351:97,1,95,8|4,0:3|0:3,0:0:0:0:
193,107,82580,1,8,0:3:0:0:
345,108,82747,2,0,L|484:112,1,95,4|8,0:3|0:3,0:0:0:0:
196,284,83080,6,0,L|323:272,2,95,4|8|4,0:3|0:3|0:3,0:0:0:0:
354,237,83580,1,8,0:3:0:0:
83,175,83747,6,0,L|300:169,1,190,4|8,0:0|0:0,0:0:0:0:
116,119,84247,1,8,0:3:0:0:
384,317,84414,2,0,P|441:293|374:220,1,190,4|2,0:0|0:0,0:0:0:0:
143,219,84914,1,10,0:3:0:0:
380,351,85080,6,0,L|259:344,1,95,6|8,0:0|0:3,0:0:0:0:
130,304,85414,1,2,0:0:0:0:
288,283,85580,1,10,0:3:0:0:
21,242,85747,2,0,P|27:183|151:146,1,190,6|8,0:0|0:0,0:0:0:0:
187,144,86164,1,8,0:0:0:0:
381,146,86247,2,0,L|450:147,1,47.5,8|8,0:0|0:0,0:0:0:0:
187,282,86414,6,0,P|122:224|189:190,1,190,4|8,0:0|0:3,0:0:0:0:
238,195,86830,1,8,0:3:0:0:
431,195,86914,2,0,L|431:138,1,47.5,8|8,0:3|0:3,0:0:0:0:
146,265,87080,6,0,L|362:259,1,190,4|8,0:0|0:3,0:0:0:0:
98,214,87580,1,8,0:0:0:0:
257,196,87747,1,8,0:3:0:0:
496,198,87914,2,0,L|494:86,1,95,8|8,0:0|0:3,0:0:0:0:
256,96,88247,2,0,L|142:90,1,95,8|8,0:0|0:3,0:0:0:0:
399,279,88580,5,10,0:0:0:0:
211,258,88913,1,2,0:0:0:0:
97,98,89246,1,2,0:0:0:0:
367,81,89580,1,2,0:0:0:0:
