osu file format v14

[General]
AudioFilename: audio.mp3
AudioLeadIn: 0
PreviewTime: 54204
Countdown: 0
SampleSet: Normal
StackLeniency: 0.7
Mode: 1
LetterboxInBreaks: 0
WidescreenStoryboard: 1

[Editor]
Bookmarks: 8413,23246,33913,44579,65913
DistanceSpacing: 4
BeatDivisor: 4
GridSize: 32
TimelineZoom: 0.7999998

[Metadata]
Title:Deneb to Spica (TV Size)
TitleUnicode:デネブとスピカ (TV Size)
Artist:DIALOGUE+
ArtistUnicode:DIALOGUE+
Creator:BlackBN
Version:Futsuu
Source:継母の連れ子が元カノだった
Tags:BlackBq Anime Japanese Jpop J-pop pop 連れカノ tsure kano My Stepmom's Daughter Is My Ex Mamahaha no Tsurego ga Motokano datta The Child of Stepmother Was the Ex-Girlfriend op opening 内山悠里菜 Uchiyama Yurina ゆりにゃ Yurinya 稗田寧々 Hieda Nene ねーね Neene 守屋亨香 Moriya Kyouka Kyoka きょんちゃん Kyonchan 緒方佑奈 Ogata Yuuna 鷹村彩花 Takamura Ayaka やかん Yakan 宮原颯希 Miyahara Satsuki さっぴ sappy sappi sappii 飯塚麻結 Iizuka Mayu まゆゆん Mayuyun 村上まなつ Murakami Manatsu まなてぃ Manatei -Maruko-
BeatmapID:3721285
BeatmapSetID:1802439

[Difficulty]
HPDrainRate:7
CircleSize:2
OverallDifficulty:4
ApproachRate:10
SliderMultiplier:1.4
SliderTickRate:1

[Events]
//Background and Video events
0,0,"bg.jpg",0,0
Video,450,"step.mp4"
//Break Periods
//Storyboard Layer 0 (Background)
//Storyboard Layer 1 (Fail)
//Storyboard Layer 2 (Pass)
//Storyboard Layer 3 (Foreground)
//Storyboard Layer 4 (Overlay)
//Storyboard Sound Samples

[TimingPoints]
580,333.333333333333,4,1,0,80,1,0
745,-100,4,1,0,80,0,0
8328,-100,4,1,0,85,0,0
12495,-100,4,1,0,60,0,0
21162,-100,4,1,0,70,0,0
23162,-100,4,1,0,80,0,0
33995,-100,4,1,0,70,0,0
44495,-100,4,1,0,80,0,0
49828,-100,4,1,0,60,0,0
51662,-100,4,1,0,70,0,0
52328,-100,4,1,0,80,0,0
54995,-100,4,1,0,85,0,0
55079,-100,4,1,0,85,0,1
81746,-100,4,1,0,85,0,0
81828,-100,4,1,0,70,0,0
83662,-100,4,1,0,80,0,0
88828,-100,4,1,0,60,0,0

[HitObjects]
384,96,580,1,4,0:0:0:0:
384,96,1079,1,4,0:0:0:0:
256,192,1579,1,8,0:0:0:0:
384,96,1746,1,4,0:0:0:0:
256,192,2246,1,0,0:0:0:0:
384,96,2413,1,12,0:0:0:0:
256,192,2746,1,0,0:0:0:0:
256,192,2913,1,0,0:0:0:0:
256,192,3079,1,8,0:0:0:0:
256,192,3413,1,0,0:0:0:0:
256,192,3579,1,8,0:0:0:0:
256,192,3913,1,0,0:0:0:0:
256,192,4246,1,0,0:0:0:0:
384,96,4413,1,12,0:0:0:0:
256,192,4746,1,8,0:0:0:0:
256,192,4913,1,8,0:0:0:0:
256,192,5246,1,0,0:0:0:0:
256,192,5413,1,0,0:0:0:0:
256,192,5579,1,8,0:0:0:0:
384,96,5746,1,4,0:0:0:0:
256,192,7079,1,0,0:0:0:0:
384,96,7413,1,12,0:0:0:0:
384,96,7579,1,12,0:0:0:0:
384,96,7913,1,4,0:0:0:0:
384,96,8079,1,4,0:0:0:0:
384,96,8413,1,12,0:0:0:0:
256,192,8746,1,0,0:0:0:0:
256,192,8913,1,8,0:0:0:0:
256,192,9079,1,8,0:0:0:0:
256,192,9246,1,0,0:0:0:0:
256,192,9579,1,8,0:0:0:0:
256,192,9913,1,8,0:0:0:0:
256,192,10079,1,8,0:0:0:0:
256,192,10246,1,0,0:0:0:0:
256,192,10413,1,0,0:0:0:0:
384,96,10579,1,12,0:0:0:0:
384,96,10913,1,4,0:0:0:0:
384,96,12079,1,12,0:0:0:0:
256,192,12579,1,0,0:0:0:0:
256,192,12913,1,8,0:0:0:0:
256,192,13079,1,0,0:0:0:0:
256,192,13413,1,8,0:0:0:0:
256,192,13746,1,0,0:0:0:0:
256,192,14079,1,8,0:0:0:0:
256,192,14246,1,8,0:0:0:0:
256,192,14413,1,0,0:0:0:0:
256,192,14913,1,8,0:0:0:0:
256,192,15247,1,0,0:0:0:0:
256,192,15579,1,8,0:0:0:0:
256,192,15913,1,0,0:0:0:0:
256,192,16079,1,8,0:0:0:0:
256,192,16413,1,0,0:0:0:0:
256,192,16746,1,0,0:0:0:0:
256,192,16913,1,8,0:0:0:0:
256,192,17079,1,0,0:0:0:0:
256,192,17913,1,0,0:0:0:0:
256,192,18246,1,0,0:0:0:0:
256,192,18579,1,0,0:0:0:0:
256,192,18746,1,8,0:0:0:0:
256,192,19079,1,0,0:0:0:0:
256,192,19413,1,8,0:0:0:0:
256,192,19579,1,0,0:0:0:0:
256,192,19746,1,8,0:0:0:0:
256,192,20246,1,0,0:0:0:0:
256,192,20579,1,0,0:0:0:0:
256,192,20746,1,0,0:0:0:0:
256,192,20913,1,8,0:0:0:0:
256,192,21246,1,0,0:0:0:0:
256,192,21413,1,0,0:0:0:0:
256,192,21579,1,8,0:0:0:0:
384,96,21746,1,4,0:0:0:0:
256,192,22579,1,0,0:0:0:0:
256,192,22746,1,8,0:0:0:0:
256,192,22913,1,8,0:0:0:0:
384,96,23246,1,12,0:0:0:0:
256,192,23579,1,8,0:0:0:0:
256,192,23746,1,0,0:0:0:0:
256,192,24079,1,0,0:0:0:0:
256,192,24413,1,0,0:0:0:0:
256,192,24746,1,8,0:0:0:0:
256,192,24913,1,8,0:0:0:0:
256,192,25079,1,0,0:0:0:0:
256,192,25413,1,0,0:0:0:0:
256,192,25579,1,8,0:0:0:0:
256,192,25746,1,8,0:0:0:0:
256,192,26079,1,8,0:0:0:0:
256,192,26246,1,0,0:0:0:0:
256,192,26413,1,8,0:0:0:0:
256,192,27079,1,8,0:0:0:0:
256,192,27413,1,0,0:0:0:0:
256,192,27746,1,0,0:0:0:0:
256,192,27913,1,0,0:0:0:0:
256,192,28079,1,8,0:0:0:0:
384,96,28579,1,12,0:0:0:0:
256,192,28913,1,8,0:0:0:0:
256,192,29079,1,0,0:0:0:0:
256,192,29413,1,0,0:0:0:0:
256,192,29579,1,8,0:0:0:0:
256,192,29746,1,0,0:0:0:0:
256,192,30079,1,8,0:0:0:0:
256,192,30413,1,0,0:0:0:0:
256,192,30746,1,8,0:0:0:0:
384,96,30913,1,4,0:0:0:0:
256,192,31246,1,0,0:0:0:0:
256,192,31579,1,8,0:0:0:0:
256,192,31746,1,0,0:0:0:0:
256,192,31913,1,8,0:0:0:0:
256,192,32246,1,8,0:0:0:0:
256,192,32579,1,0,0:0:0:0:
256,192,33246,1,8,0:0:0:0:
256,192,33413,1,0,0:0:0:0:
256,192,33579,1,0,0:0:0:0:
384,96,33913,1,4,0:0:0:0:
256,192,34246,1,0,0:0:0:0:
256,192,34579,1,8,0:0:0:0:
256,192,34746,1,0,0:0:0:0:
256,192,34913,1,0,0:0:0:0:
256,192,35246,1,8,0:0:0:0:
256,192,35579,1,0,0:0:0:0:
256,192,35913,1,0,0:0:0:0:
256,192,36079,1,8,0:0:0:0:
256,192,36246,1,0,0:0:0:0:
384,96,36579,1,4,0:0:0:0:
256,192,37246,1,0,0:0:0:0:
256,192,37579,1,0,0:0:0:0:
256,192,37913,1,0,0:0:0:0:
256,192,38079,1,8,0:0:0:0:
256,192,38246,1,0,0:0:0:0:
256,192,38579,1,8,0:0:0:0:
256,192,38746,1,0,0:0:0:0:
256,192,38913,1,8,0:0:0:0:
384,96,39246,1,4,0:0:0:0:
256,192,39579,1,8,0:0:0:0:
256,192,39746,1,0,0:0:0:0:
256,192,39913,1,0,0:0:0:0:
256,192,40246,1,8,0:0:0:0:
256,192,40579,1,8,0:0:0:0:
256,192,40746,1,8,0:0:0:0:
256,192,40913,1,0,0:0:0:0:
256,192,41246,1,8,0:0:0:0:
256,192,41579,1,8,0:0:0:0:
384,96,41746,1,4,0:0:0:0:
256,192,42246,1,0,0:0:0:0:
256,192,42413,1,8,0:0:0:0:
256,192,43079,1,8,0:0:0:0:
256,192,43246,1,0,0:0:0:0:
256,192,43413,1,8,0:0:0:0:
256,192,43746,1,0,0:0:0:0:
256,192,43913,1,8,0:0:0:0:
256,192,44246,1,0,0:0:0:0:
256,192,44413,1,8,0:0:0:0:
384,96,44579,1,4,0:0:0:0:
256,192,44913,1,8,0:0:0:0:
256,192,45246,1,0,0:0:0:0:
256,192,45413,1,0,0:0:0:0:
256,192,45579,1,8,0:0:0:0:
256,192,45913,1,0,0:0:0:0:
256,192,46246,1,8,0:0:0:0:
256,192,46913,1,8,0:0:0:0:
256,192,47246,1,0,0:0:0:0:
256,192,47579,1,8,0:0:0:0:
256,192,47746,1,8,0:0:0:0:
256,192,47913,1,0,0:0:0:0:
256,192,48246,1,8,0:0:0:0:
256,192,48579,1,0,0:0:0:0:
256,192,48746,1,8,0:0:0:0:
256,192,49079,1,8,0:0:0:0:
256,192,49246,1,0,0:0:0:0:
256,192,49413,1,0,0:0:0:0:
384,96,49746,1,4,0:0:0:0:
256,192,50579,1,8,0:0:0:0:
256,192,50913,1,8,0:0:0:0:
256,192,51079,1,0,0:0:0:0:
256,192,51413,1,8,0:0:0:0:
256,192,51746,1,0,0:0:0:0:
256,192,51913,1,8,0:0:0:0:
256,192,52079,1,0,0:0:0:0:
256,192,52246,1,0,0:0:0:0:
384,96,52413,1,12,0:0:0:0:
256,192,52746,1,0,0:0:0:0:
256,192,52913,1,8,0:0:0:0:
256,192,53246,1,8,0:0:0:0:
256,192,53413,1,0,0:0:0:0:
384,96,53746,1,12,0:0:0:0:
384,96,54079,1,12,0:0:0:0:
384,96,54246,1,12,0:0:0:0:
384,96,55079,1,4,0:0:0:0:
256,192,55413,1,0,0:0:0:0:
256,192,55579,1,8,0:0:0:0:
256,192,55746,1,0,0:0:0:0:
256,192,55913,1,8,0:0:0:0:
256,192,56413,1,8,0:0:0:0:
256,192,56746,1,0,0:0:0:0:
256,192,56913,1,8,0:0:0:0:
256,192,57079,1,8,0:0:0:0:
256,192,57246,1,0,0:0:0:0:
256,192,57579,1,8,0:0:0:0:
256,192,57746,1,0,0:0:0:0:
256,192,58079,1,8,0:0:0:0:
256,192,58246,1,8,0:0:0:0:
256,192,58579,1,0,0:0:0:0:
256,192,58746,1,0,0:0:0:0:
256,192,58913,1,8,0:0:0:0:
256,192,59079,1,0,0:0:0:0:
256,192,59246,1,8,0:0:0:0:
256,192,59579,1,8,0:0:0:0:
256,192,59913,1,0,0:0:0:0:
256,192,60079,1,0,0:0:0:0:
384,96,60246,1,12,0:0:0:0:
256,192,60913,1,8,0:0:0:0:
256,192,61246,1,0,0:0:0:0:
256,192,61579,1,8,0:0:0:0:
256,192,61746,1,0,0:0:0:0:
256,192,61913,1,8,0:0:0:0:
256,192,62246,1,0,0:0:0:0:
256,192,62413,1,8,0:0:0:0:
256,192,62746,1,0,0:0:0:0:
256,192,63079,1,0,0:0:0:0:
256,192,63413,1,8,0:0:0:0:
256,192,63579,1,8,0:0:0:0:
256,192,63913,1,8,0:0:0:0:
256,192,64079,1,0,0:0:0:0:
256,192,64246,1,0,0:0:0:0:
256,192,64413,1,0,0:0:0:0:
256,192,64579,1,8,0:0:0:0:
256,192,64913,1,0,0:0:0:0:
256,192,65246,1,8,0:0:0:0:
384,96,65913,1,4,0:0:0:0:
256,192,66246,1,8,0:0:0:0:
256,192,66413,1,0,0:0:0:0:
256,192,66579,1,8,0:0:0:0:
256,192,67079,1,8,0:0:0:0:
256,192,67413,1,0,0:0:0:0:
256,192,67579,1,8,0:0:0:0:
256,192,67746,1,0,0:0:0:0:
256,192,67913,1,8,0:0:0:0:
256,192,68246,1,8,0:0:0:0:
256,192,68413,1,8,0:0:0:0:
256,192,68579,1,0,0:0:0:0:
256,192,68913,1,8,0:0:0:0:
256,192,69079,1,8,0:0:0:0:
256,192,69413,1,0,0:0:0:0:
256,192,69746,1,0,0:0:0:0:
256,192,70079,1,0,0:0:0:0:
256,192,70246,1,8,0:0:0:0:
256,192,70746,1,0,0:0:0:0:
256,192,70913,1,8,0:0:0:0:
384,96,71246,1,4,0:0:0:0:
256,192,71579,1,0,0:0:0:0:
256,192,71746,1,8,0:0:0:0:
256,192,72079,1,0,0:0:0:0:
256,192,72246,1,0,0:0:0:0:
256,192,72413,1,8,0:0:0:0:
256,192,72746,1,0,0:0:0:0:
256,192,72913,1,8,0:0:0:0:
256,192,73079,1,8,0:0:0:0:
256,192,73413,1,8,0:0:0:0:
256,192,73579,1,0,0:0:0:0:
384,96,73746,1,12,0:0:0:0:
256,192,74246,1,8,0:0:0:0:
256,192,74579,1,0,0:0:0:0:
256,192,74746,1,0,0:0:0:0:
384,96,75079,1,12,0:0:0:0:
256,192,75413,1,0,0:0:0:0:
256,192,75579,1,8,0:0:0:0:
256,192,75913,1,8,0:0:0:0:
384,96,76579,1,12,0:0:0:0:
256,192,76913,1,8,0:0:0:0:
256,192,77246,1,0,0:0:0:0:
256,192,77413,1,0,0:0:0:0:
256,192,77579,1,8,0:0:0:0:
256,192,77913,1,8,0:0:0:0:
256,192,78246,1,0,0:0:0:0:
256,192,78579,1,8,0:0:0:0:
256,192,78746,1,8,0:0:0:0:
256,192,78913,1,0,0:0:0:0:
256,192,79246,1,8,0:0:0:0:
256,192,79579,1,0,0:0:0:0:
256,192,79913,1,8,0:0:0:0:
256,192,80079,1,8,0:0:0:0:
256,192,80246,1,0,0:0:0:0:
256,192,80413,1,0,0:0:0:0:
256,192,80579,1,8,0:0:0:0:
256,192,81246,1,0,0:0:0:0:
256,192,81413,1,0,0:0:0:0:
256,192,81579,1,8,0:0:0:0:
384,96,81746,1,4,0:0:0:0:
256,192,82079,1,8,0:0:0:0:
256,192,82246,1,0,0:0:0:0:
256,192,82413,1,0,0:0:0:0:
256,192,82746,1,8,0:0:0:0:
256,192,83079,1,0,0:0:0:0:
256,192,83413,1,0,0:0:0:0:
256,192,83579,1,0,0:0:0:0:
384,96,83746,1,12,0:0:0:0:
256,192,84079,1,8,0:0:0:0:
256,192,84246,1,8,0:0:0:0:
384,96,84413,1,4,0:0:0:0:
256,192,84746,1,8,0:0:0:0:
256,192,84912,1,0,0:0:0:0:
384,96,85079,1,12,0:0:0:0:
256,192,85413,1,0,0:0:0:0:
256,192,85579,1,8,0:0:0:0:
384,96,85746,1,4,0:0:0:0:
256,192,86413,1,8,0:0:0:0:
256,192,86746,1,0,0:0:0:0:
256,192,86913,1,8,0:0:0:0:
384,96,87079,1,4,0:0:0:0:
256,192,87579,1,8,0:0:0:0:
256,192,87913,1,8,0:0:0:0:
256,192,88079,1,8,0:0:0:0:
256,192,88246,1,0,0:0:0:0:
256,192,88413,1,0,0:0:0:0:
256,192,88579,1,8,0:0:0:0:
256,192,88913,1,0,0:0:0:0:
256,192,89246,1,0,0:0:0:0:
256,192,89579,1,8,0:0:0:0:
