osu file format v14

[General]
AudioFilename: audio.mp3
AudioLeadIn: 0
PreviewTime: 13841
Countdown: 0
SampleSet: Soft
StackLeniency: 0.5
Mode: 0
LetterboxInBreaks: 0
WidescreenStoryboard: 1

[Editor]
DistanceSpacing: 1.5
BeatDivisor: 3
GridSize: 4
TimelineZoom: 1

[Metadata]
Title:Briller (feat. ZeratoR)
TitleUnicode:Briller (feat. ZeratoR)
Artist:DFG
ArtistUnicode:DFG
Creator:Nozhomi
Version:L'argent des Abonnes
Source:
Tags:rap hip-hop billet zrt doctor feelsgood french
BeatmapID:2592325
BeatmapSetID:1247179

[Difficulty]
HPDrainRate:6
CircleSize:4.5
OverallDifficulty:8.3
ApproachRate:9.1
SliderMultiplier:1.8
SliderTickRate:1

[Events]
//Background and Video events
0,0,"briller.jpg",0,0
Video,0,"briller-dfg-ft-zerator.mp4"
//Break Periods
//Storyboard Layer 0 (Background)
//Storyboard Layer 1 (Fail)
//Storyboard Layer 2 (Pass)
//Storyboard Layer 3 (Foreground)
//Storyboard Layer 4 (Overlay)
//Storyboard Sound Samples

[TimingPoints]
65,491.803278688525,4,2,2,60,1,0
7910,491.803278688525,4,2,1,50,1,0
15778,-57.1428571428571,4,2,1,70,0,0
26598,-100,4,2,1,70,0,0
27582,-57.1428571428571,4,2,1,70,0,0
30532,-100,4,2,1,70,0,0
31516,-57.1428571428571,4,2,1,70,0,0
46762,-100,4,2,1,50,0,0
47090,-100,4,2,2,50,0,0
55123,-83.3333333333333,4,2,1,50,0,0
61024,-100,4,2,1,40,0,0
62991,-57.1428571428571,4,2,1,80,0,0
92500,-100,4,2,1,80,0,0
92991,-83.3333333333333,4,2,1,80,0,0
94467,-66.6666666666667,4,2,1,80,0,0
102828,-57.1428571428571,4,2,1,80,0,0
110205,-66.6666666666667,4,2,1,80,0,0
118565,-57.1428571428571,4,2,1,80,0,0
125287,-54.054054054054,4,2,1,80,0,0
125614,-50,4,2,1,80,0,0
125942,-66.6666666666667,4,2,1,80,0,0
140205,-57.1428571428571,4,2,1,80,0,0
141844,-100,4,2,1,20,0,0
142172,-100,4,2,1,15,0,0
142664,-100,4,2,1,10,0,0
143155,-100,4,2,1,5,0,0

[Colours]
Combo1 : 184,97,157
Combo2 : 88,204,64
Combo3 : 61,150,41
Combo4 : 133,61,100

[HitObjects]
48,110,65,38,0,P|85:155|143:166,1,120,2|0,0:0|0:0,0:0:0:0:
273,104,720,1,0,0:0:0:0:
249,280,1048,2,0,P|216:231|221:172,1,120,2|0,0:0|0:0,0:0:0:0:
273,104,1540,1,2,0:0:0:0:
328,170,1704,2,0,L|327:256,1,60
406,296,2032,6,0,L|406:176,1,120,2|0,0:0|0:0,0:0:0:0:
309,70,2687,1,0,0:0:0:0:
450,93,3015,2,0,P|405:130|346:132,1,120,2|0,0:0|0:0,0:0:0:0:
309,70,3507,2,0,P|325:46|325:16,2,60,2|0|0,0:0|0:0|0:0,0:0:0:0:
222,112,3999,6,0,L|102:99,1,120,2|0,0:0|0:0,0:0:0:0:
148,236,4654,1,0,0:0:0:0:
283,185,4983,2,0,L|402:172,1,120,2|0,0:0|0:0,0:0:0:0:
468,220,5474,1,2,0:0:0:0:
450,300,5638,2,0,P|422:287|404:264,1,60
402,172,5966,5,2,0:0:0:0:
335,300,6294,2,0,P|303:348|246:363,1,120
144,257,6950,2,0,P|194:288|251:277,1,120,2|0,0:0|0:0,0:0:0:0:
294,218,7441,1,2,0:0:0:0:
292,145,7605,1,0,0:0:0:0:
230,107,7769,1,0,0:0:0:0:
159,130,7910,5,2,3:2:0:0:
251,277,8238,1,2,0:0:0:0:
367,155,8566,1,2,0:0:0:0:
207,207,8893,1,2,0:0:0:0:
349,296,9222,2,0,L|345:236,1,60,2|0,0:0|0:0,0:0:0:0:
367,155,9549,1,2,0:0:0:0:
446,128,9714,1,0,0:0:0:0:
508,183,9877,5,2,3:2:0:0:
439,336,10206,1,2,0:0:0:0:
318,219,10532,1,2,0:0:0:0:
346,53,10860,1,2,0:0:0:0:
477,157,11188,2,0,L|402:152,1,60,2|0,0:0|0:0,0:0:0:0:
332,150,11516,1,2,0:0:0:0:
275,88,11680,1,0,0:0:0:0:
228,178,11845,5,2,3:2:0:0:
110,57,12173,1,2,0:0:0:0:
275,88,12500,1,2,0:0:0:0:
117,145,12829,1,2,0:0:0:0:
194,1,13155,2,0,L|198:60,1,60,2|0,0:0|0:0,0:0:0:0:
224,141,13483,1,2,0:0:0:0:
293,188,13647,1,0,0:0:0:0:
375,201,13812,6,0,P|411:196|430:179,1,60,2|0,0:0|0:0,0:0:0:0:
370,119,14139,2,0,P|391:90|393:64,1,60,2|0,0:0|0:0,0:0:0:0:
269,136,14467,2,0,P|273:165|293:188,1,60
244,256,14795,2,0,P|267:273|297:275,1,60,2|0,0:0|0:0,0:0:0:0:
450,228,15123,2,0,P|379:175|292:188,1,180,2|0,0:0|0:0,0:0:0:0:
179,237,15779,5,2,3:2:0:0:
183,241,16107,1,0,0:0:0:0:
183,241,16270,2,0,L|78:233,1,105.000001001358,2|0,0:0|0:0,0:0:0:0:
22,101,16599,1,0,0:0:0:0:
123,307,16763,1,10,0:0:0:0:
251,160,16926,2,0,L|146:152,1,105.000001001358
5,228,17254,1,2,0:0:0:0:
123,307,17418,2,0,L|227:314,1,105.000001001358
372,230,17746,2,0,P|273:226|227:314,1,210.000002002716,2|0,0:0|0:0,0:0:0:0:
398,369,18237,6,0,P|368:325|293:311,1,105.000001001358,2|0,3:2|0:0,0:0:0:0:
170,358,18566,1,2,0:0:0:0:
170,358,18648,1,2,0:0:0:0:
170,358,18730,1,10,0:0:0:0:
183,212,18893,1,0,0:0:0:0:
321,308,19057,1,0,0:0:0:0:
97,318,19221,2,0,P|150:284|206:290,1,105.000001001358,2|0,0:0|0:0,0:0:0:0:
304,379,19549,1,0,0:0:0:0:
348,180,19713,2,0,P|247:200|190:285,1,210.000002002716,2|0,3:2|0:0,0:0:0:0:
304,379,20205,37,2,0:0:0:0:
437,316,20369,1,0,0:0:0:0:
482,177,20532,1,0,0:0:0:0:
336,75,20696,2,0,L|348:180,1,105.000001001358,10|0,0:0|0:0,0:0:0:0:
282,311,21024,1,0,0:0:0:0:
420,234,21188,1,2,0:0:0:0:
263,170,21352,2,0,L|251:65,1,105.000001001358
54,50,21680,2,0,B|144:93|144:93|250:66,1,210.000002002716,2|0,0:0|0:0,0:0:0:0:
436,21,22172,5,2,3:2:0:0:
374,154,22336,2,0,P|383:204|433:276,1,105.000001001358
238,337,22664,2,0,P|263:291|272:239,1,105.000001001358,10|0,0:0|0:0,0:0:0:0:
145,75,22991,1,0,0:0:0:0:
87,225,23155,2,0,P|96:276|121:322,2,105.000001001358,2|0|0,0:0|0:0|0:0,0:0:0:0:
247,88,23647,2,0,B|155:148|155:148|37:113,1,210.000002002716,2|0,3:2|0:0,0:0:0:0:
159,9,24139,37,2,0:0:0:0:
295,18,24304,1,0,0:0:0:0:
391,114,24468,1,0,0:0:0:0:
418,247,24632,1,10,0:0:0:0:
325,146,24796,1,0,0:0:0:0:
188,154,24960,1,0,0:0:0:0:
118,270,25123,2,0,P|199:289|265:173,1,210.000002002716,2|0,0:0|0:0,0:0:0:0:
237,8,25614,5,2,0:0:0:0:
113,67,25779,1,0,0:0:0:0:
94,202,25943,1,0,0:0:0:0:
144,328,26107,1,2,3:2:0:0:
172,194,26271,1,0,0:0:0:0:
279,110,26435,1,0,0:0:0:0:
464,181,26598,38,0,P|419:218|360:215,1,120,8|0,0:0|0:0,0:0:0:0:
172,194,27090,2,0,P|230:197|275:159,1,120,2|0,0:0|0:0,0:0:0:0:
337,329,27582,6,0,P|324:224|336:120,1,210.000002002716,2|0,3:2|0:0,0:0:0:0:
401,19,28073,1,2,0:0:0:0:
323,131,28237,1,0,0:0:0:0:
198,187,28401,1,0,0:0:0:0:
66,149,28565,1,10,0:0:0:0:
9,24,28729,1,0,0:0:0:0:
139,65,28893,1,0,0:0:0:0:
140,251,29057,2,0,P|244:169|346:184,1,210.000002002716,2|0,3:2|0:0,0:0:0:0:
434,319,29548,37,2,0:0:0:0:
301,286,29712,1,0,0:0:0:0:
214,180,29876,1,0,0:0:0:0:
231,44,30040,1,2,3:2:0:0:
286,168,30204,1,0,0:0:0:0:
414,214,30368,1,0,0:0:0:0:
512,100,30532,6,0,L|393:93,1,120,8|0,0:0|0:0,0:0:0:0:
167,176,31024,2,0,L|286:168,1,120,2|0,0:0|0:0,0:0:0:0:
396,24,31516,37,2,3:2:0:0:
394,335,31844,1,0,0:0:0:0:
394,335,32008,2,0,L|380:191,1,105.000001001358,2|0,0:0|0:0,0:0:0:0:
286,123,32336,1,0,0:0:0:0:
172,201,32500,2,0,L|93:208,2,78.7500007510185,10|0|0,0:0|0:0|0:0,0:0:0:0:
353,75,32992,2,0,P|272:13|172:33,1,210.000002002716,2|0,0:0|0:0,0:0:0:0:
172,201,33483,2,0,P|271:220|352:159,1,210.000002002716,2|0,0:0|0:0,0:0:0:0:
489,299,33975,5,2,3:2:0:0:
489,299,34139,2,0,P|438:294|379:247,1,105.000001001358
294,117,34467,1,10,0:0:0:0:
57,361,34795,1,0,0:0:0:0:
57,361,34959,2,0,L|44:127,1,210.000002002716,2|0,0:0|0:0,0:0:0:0:
172,33,35450,2,0,L|183:242,1,210.000002002716,2|0,3:2|0:0,0:0:0:0:
350,337,35942,37,2,0:0:0:0:
350,337,36106,2,0,P|316:297|266:284,1,105.000001001358
97,343,36434,1,10,0:0:0:0:
14,43,36762,1,0,0:0:0:0:
14,43,36926,2,0,P|76:137|171:143,1,210.000002002716,2|0,0:0|0:0,0:0:0:0:
317,43,37418,2,0,P|216:57|165:144,1,210.000002002716,2|0,0:0|0:0,0:0:0:0:
369,168,37910,6,0,P|334:129|284:116,1,105.000001001358,2|0,3:2|0:0,0:0:0:0:
165,144,38237,1,0,0:0:0:0:
318,293,38401,2,0,P|321:241|295:196,1,105.000001001358,10|0,0:0|0:0,0:0:0:0:
181,274,38729,1,0,0:0:0:0:
350,145,38893,2,0,P|396:237|381:339,1,210.000002002716,2|0,0:0|0:0,0:0:0:0:
130,339,39385,2,0,P|115:237|161:145,1,210.000002002716,2|0,3:2|0:0,0:0:0:0:
374,54,39877,38,0,B|327:79|327:79|276:69,1,105.000001001358,2|0,0:0|0:0,0:0:0:0:
121,37,40205,1,0,0:0:0:0:
236,243,40369,1,10,0:0:0:0:
236,243,40696,1,0,0:0:0:0:
236,243,40860,1,2,0:0:0:0:
143,78,41024,1,0,0:0:0:0:
328,79,41188,1,0,0:0:0:0:
136,182,41352,2,0,P|235:153|335:182,1,210.000002002716,2|0,0:0|0:0,0:0:0:0:
478,366,41844,5,2,3:2:0:0:
332,246,42008,1,2,0:0:0:0:
334,214,42090,1,2,0:0:0:0:
335,182,42172,1,2,0:0:0:0:
484,257,42336,1,10,0:0:0:0:
291,355,42500,2,0,P|329:330|403:328,1,105.000001001358
257,272,42828,2,0,P|219:247|145:245,1,105.000001001358,2|0,0:0|0:0,0:0:0:0:
46,333,43155,1,0,0:0:0:0:
77,68,43319,2,0,L|95:277,1,210.000002002716,2|0,3:2|0:0,0:0:0:0:
251,211,43811,38,0,L|241:106,1,105.000001001358,2|0,0:0|0:0,0:0:0:0:
388,2,44139,1,0,0:0:0:0:
428,164,44303,2,0,P|358:70|259:43,1,210.000002002716,10|0,0:0|0:0,0:0:0:0:
81,163,44795,6,0,B|108:300|295:381|295:381|287:285|287:285|210:243|177:188|177:188|253:168|253:168|301:212|329:216|329:216|339:151|339:151|307:130|301:114,1,840.000008010864,2|0,3:2|0:0,0:0:0:0:
139,120,46270,38,0,L|239:93,1,105.000001001358,10|0,0:0|0:0,0:0:0:0:
382,52,46598,1,0,0:0:0:0:
405,229,46762,2,0,L|414:169,1,60,2|0,0:0|0:0,0:0:0:0:
241,93,47090,22,0,L|268:270,1,180,2|0,0:0|0:0,0:0:0:0:
349,123,47910,1,0,0:0:0:0:
147,48,48237,2,0,L|183:285,1,240,10|0,0:0|0:0,0:0:0:0:
336,352,49221,6,0,P|439:302|446:187,1,240,2|0,0:0|0:0,0:0:0:0:
339,59,50205,1,10,0:0:0:0:
266,210,50532,1,0,0:0:0:0:
405,116,50860,1,0,0:0:0:0:
213,99,51188,6,0,P|308:130|356:264,1,240,2|0,0:0|0:0,0:0:0:0:
135,295,52172,2,0,P|128:178|213:99,1,240,10|0,0:0|0:0,0:0:0:0:
381,102,53155,1,2,0:0:0:0:
295,246,53483,1,0,0:0:0:0:
213,99,53811,1,0,0:0:0:0:
351,194,54139,1,10,0:0:0:0:
402,34,54467,2,0,L|282:39,1,120
69,92,55123,6,0,L|213:99,1,143.999995605469,2|0,0:0|0:0,0:0:0:0:
307,345,55778,1,2,0:0:0:0:
299,249,55942,1,0,0:0:0:0:
292,153,56106,2,0,L|435:146,1,143.999995605469,10|0,0:0|0:0,0:0:0:0:
237,298,56762,1,2,0:0:0:0:
141,290,56926,1,0,0:0:0:0:
45,283,57090,2,0,P|81:211|146:192,1,143.999995605469,2|0,0:0|0:0,0:0:0:0:
226,239,57582,1,2,0:0:0:0:
326,246,57746,1,2,0:0:0:0:
414,195,57910,1,0,0:0:0:0:
314,102,58073,2,0,L|326:246,1,143.999995605469,10|0,0:0|0:0,0:0:0:0:
280,336,58565,1,2,0:0:0:0:
179,330,58729,1,2,0:0:0:0:
111,254,58893,1,0,0:0:0:0:
141,147,59057,6,0,P|204:172|231:263,1,143.999995605469,2|0,0:0|0:0,0:0:0:0:
234,238,59713,1,2,0:0:0:0:
70,165,59877,1,0,0:0:0:0:
52,324,60041,2,0,P|79:259|144:232,1,143.999995605469,10|0,0:0|0:0,0:0:0:0:
232,330,60532,2,0,P|296:303|324:238,1,143.999995605469,2|0,0:0|0:0,0:0:0:0:
212,114,61024,6,0,P|239:135|271:143,1,60,2|0,0:0|0:0,0:0:0:0:
284,27,61352,2,0,P|287:61|304:89,1,60
398,27,61680,2,0,P|376:54|368:86,1,60
462,143,62008,5,10,0:0:0:0:
462,143,62172,2,0,L|358:140,1,60
250,201,62500,1,2,0:0:0:0:
250,201,62664,2,0,L|309:199,1,60
405,361,62991,22,0,B|358:268|358:268|408:139,1,210.000002002716,2|0,3:2|0:0,0:0:0:0:
476,20,63483,1,2,0:0:0:0:
483,183,63647,1,0,0:0:0:0:
371,31,63811,1,0,0:0:0:0:
310,199,63975,2,0,L|201:192,1,105.000001001358,10|0,0:0|0:0,0:0:0:0:
219,352,64303,2,0,L|149:273,1,105.000001001358,0|2,0:0|0:0,0:0:0:0:
58,148,64631,1,0,0:0:0:0:
44,383,64795,2,0,L|50:278,1,105.000001001358,0|2,0:0|0:0,0:0:0:0:
66,5,65450,5,2,3:2:0:0:
126,127,65614,1,0,0:0:0:0:
255,168,65778,1,0,0:0:0:0:
350,71,65942,2,0,P|427:70|475:128,2,157.500001502037,10|0|2,0:0|3:0|0:0,0:0:0:0:
255,168,66597,1,0,0:0:0:0:
277,302,66761,1,0,0:0:0:0:
381,212,66926,1,2,3:2:0:0:
475,128,67254,37,0,0:0:0:0:
381,212,67418,2,0,L|392:338,1,105.000001001358,2|0,0:0|0:0,0:0:0:0:
508,247,67746,1,0,0:0:0:0:
377,110,67910,1,10,0:0:0:0:
298,232,68073,2,0,L|309:358,1,105.000001001358
201,285,68401,1,2,0:0:0:0:
190,148,68565,2,0,L|181:43,1,105.000001001358
321,0,68893,2,0,B|368:95|368:95|314:198,1,210.000002002716,2|0,0:0|0:0,0:0:0:0:
77,102,69385,5,2,3:2:0:0:
190,148,69549,1,0,0:0:0:0:
320,187,69713,1,0,0:0:0:0:
200,305,69877,2,0,L|189:147,2,157.500001502037,10|0|2,0:0|3:0|0:0,0:0:0:0:
53,206,70532,1,0,0:0:0:0:
64,364,70696,1,0,0:0:0:0:
268,279,70860,2,0,L|254:69,1,210.000002002716,2|0,3:2|0:0,0:0:0:0:
93,16,71352,37,2,0:0:0:0:
98,141,71516,1,0,0:0:0:0:
191,225,71680,1,0,0:0:0:0:
314,201,71844,1,10,0:0:0:0:
254,69,72008,1,0,0:0:0:0:
130,89,72172,1,0,0:0:0:0:
71,199,72336,1,2,0:0:0:0:
110,318,72500,1,0,0:0:0:0:
191,225,72664,1,0,0:0:0:0:
129,88,72828,2,0,P|104:182|191:225,1,210.000002002716,2|0,0:0|0:0,0:0:0:0:
322,123,73319,5,2,3:2:0:0:
469,23,73483,1,0,0:0:0:0:
452,200,73647,1,0,0:0:0:0:
356,47,73811,1,10,0:0:0:0:
356,47,73893,1,0,0:0:0:0:
356,47,73975,2,0,L|248:51,1,105.000001001358
87,192,74303,1,2,3:2:0:0:
239,264,74467,1,0,0:0:0:0:
251,50,74631,1,0,0:0:0:0:
390,213,74795,1,2,3:2:0:0:
390,213,75287,38,0,P|365:256|308:269,1,105.000001001358,2|0,0:0|0:0,0:0:0:0:
177,216,75614,1,0,0:0:0:0:
289,100,75778,2,0,P|321:148|318:204,1,105.000001001358,10|0,0:0|0:0,0:0:0:0:
244,320,76106,1,0,0:0:0:0:
203,130,76270,1,2,3:2:0:0:
390,213,76434,1,0,0:0:0:0:
238,251,76598,1,0,0:0:0:0:
315,70,76762,2,0,L|313:293,1,210.000002002716,2|0,0:0|0:0,0:0:0:0:
113,330,77254,5,2,3:2:0:0:
1,233,77418,1,0,0:0:0:0:
33,89,77582,1,0,0:0:0:0:
167,28,77746,2,0,L|329:43,1,105.000001001358,8|0,0:0|0:0,0:0:0:0:
425,149,78073,2,0,L|320:139,1,105.000001001358,2|2,0:0|0:0,0:0:0:0:
176,175,78401,2,0,L|71:184,1,105.000001001358,2|0,0:0|0:0,0:0:0:0:
40,372,78729,2,0,L|249:352,1,210.000002002716,0|0,3:0|0:0,0:0:0:0:
317,221,79221,37,2,0:0:0:0:
434,342,79385,1,0,0:0:0:0:
477,179,79549,1,0,0:0:0:0:
296,235,79713,2,0,P|197:221|163:127,1,210.000002002716,10|0,0:0|0:0,0:0:0:0:
270,25,80205,1,2,0:0:0:0:
163,127,80368,1,0,0:0:0:0:
310,170,80532,1,0,0:0:0:0:
188,24,80696,2,0,P|90:47|55:141,1,210.000002002716,2|0,0:0|0:0,0:0:0:0:
219,244,81188,6,0,B|174:220|174:220|120:228,1,105.000001001358,2|0,3:2|0:0,0:0:0:0:
68,366,81516,1,0,0:0:0:0:
234,342,81680,2,0,B|242:288|242:288|218:243,1,105.000001001358,10|0,0:0|0:0,0:0:0:0:
104,89,82008,1,0,0:0:0:0:
225,171,82172,1,2,0:0:0:0:
353,99,82336,1,0,0:0:0:0:
212,142,82500,1,0,0:0:0:0:
88,14,82664,1,2,3:2:0:0:
88,14,82991,37,0,0:0:0:0:
117,158,83155,1,2,0:0:0:0:
153,300,83319,2,0,L|293:293,1,105.000001001358
448,229,83647,2,0,L|308:222,1,105.000001001358,10|0,0:0|0:0,0:0:0:0:
274,86,83975,1,0,0:0:0:0:
117,158,84139,2,0,L|257:151,1,105.000001001358,2|0,0:0|0:0,0:0:0:0:
325,30,84467,1,0,0:0:0:0:
427,156,84631,2,0,P|328:169|274:86,1,210.000002002716,2|0,0:0|0:0,0:0:0:0:
380,253,85123,6,0,P|361:300|314:321,1,105.000001001358,2|0,3:2|0:0,0:0:0:0:
219,209,85450,1,0,0:0:0:0:
135,329,85614,1,10,0:0:0:0:
0,223,85778,2,0,P|33:184|84:181,1,105.000001001358
197,277,86106,2,0,P|230:315|281:318,2,105.000001001358,2|0|0,0:0|0:0|0:0,0:0:0:0:
211,142,86598,1,2,0:0:0:0:
211,142,86926,37,0,0:0:0:0:
309,202,87090,1,2,0:0:0:0:
316,86,87254,1,2,0:0:0:0:
211,142,87418,1,2,0:0:0:0:
110,198,87582,1,10,0:0:0:0:
413,32,88073,1,2,3:2:0:0:
443,197,88237,1,0,0:0:0:0:
316,86,88401,1,0,0:0:0:0:
331,295,88565,2,0,L|316:86,1,210.000002002716,2|0,0:0|0:0,0:0:0:0:
128,12,89057,5,2,3:2:0:0:
23,115,89221,1,0,0:0:0:0:
170,101,89385,1,0,0:0:0:0:
316,86,89549,2,0,L|331:295,1,210.000002002716,10|0,0:0|0:0,0:0:0:0:
192,245,90041,1,2,0:0:0:0:
170,101,90204,1,0,0:0:0:0:
287,12,90368,1,0,0:0:0:0:
418,133,90532,2,0,L|435:362,1,210.000002002716,2|0,3:2|0:0,0:0:0:0:
317,234,91024,37,2,0:0:0:0:
490,183,91188,2,0,L|497:287,1,105.000001001358
317,234,91516,2,0,L|309:129,1,105.000001001358,10|0,0:0|0:0,0:0:0:0:
208,21,91844,1,0,0:0:0:0:
72,137,92008,1,2,3:2:0:0:
220,203,92172,2,0,L|212:98,1,105.000001001358
48,10,92500,6,0,P|80:55|144:61,1,120,2|0,0:0|0:0,0:0:0:0:
316,13,92991,2,0,P|286:29|274:65,1,71.9999978027344,2|0,0:0|0:0,0:0:0:0:
370,159,93319,2,0,P|353:128|319:116,1,71.9999978027344,2|0,0:0|0:0,0:0:0:0:
218,207,93647,1,2,0:0:0:0:
218,207,93811,2,0,P|248:190|263:155,1,71.9999978027344,2|0,0:0|0:0,0:0:0:0:
161,78,94139,2,0,P|187:111|185:163,1,71.9999978027344,2|0,0:0|0:0,0:0:0:0:
111,292,94467,5,2,3:2:0:0:
402,10,94959,1,2,0:0:0:0:
263,157,95204,2,0,L|435:153,1,135.000005149842,0|10,0:0|0:0,0:0:0:0:
482,260,95614,1,0,0:0:0:0:
348,280,95778,1,0,0:0:0:0:
398,154,95942,1,2,0:0:0:0:
318,355,96188,2,0,L|183:352,1,135.000005149842,0|2,0:0|0:0,0:0:0:0:
64,26,96926,6,0,P|95:57|99:101,1,90.0000034332277,2|0,3:2|0:0,0:0:0:0:
21,252,97254,2,0,P|25:208|56:176,1,90.0000034332277,0|10,0:0|0:0,0:0:0:0:
234,210,97582,1,0,0:0:0:0:
99,101,97746,1,0,0:0:0:0:
126,251,97910,1,2,0:0:0:0:
215,95,98073,2,0,L|304:99,1,90.0000034332277
484,16,98401,1,2,3:2:0:0:
484,16,98893,5,2,0:0:0:0:
413,172,99057,1,0,0:0:0:0:
330,22,99221,1,0,0:0:0:0:
497,110,99385,2,0,P|424:82|317:115,1,180.000006866455,10|0,0:0|0:0,0:0:0:0:
165,223,99877,1,2,0:0:0:0:
232,65,100041,1,0,0:0:0:0:
325,210,100205,1,0,0:0:0:0:
144,134,100369,2,0,P|217:162|323:128,1,180.000006866455,2|0,0:0|0:0,0:0:0:0:
488,229,100860,6,0,P|443:222|403:202,1,90.0000034332277,2|0,3:2|0:0,0:0:0:0:
228,163,101188,2,0,P|272:156|312:137,1,90.0000034332277,0|10,0:0|0:0,0:0:0:0:
394,6,101516,1,0,0:0:0:0:
466,156,101680,1,0,0:0:0:0:
306,67,101844,1,2,0:0:0:0:
325,210,102008,1,0,0:0:0:0:
331,345,102172,1,0,0:0:0:0:
145,222,102336,2,0,L|325:210,1,180.000006866455,2|0,3:2|0:0,0:0:0:0:
221,357,102828,5,2,0:0:0:0:
363,131,103073,2,0,L|197:142,1,157.500001502037,0|10,0:0|0:0,0:0:0:0:
65,28,103483,1,0,0:0:0:0:
141,222,103647,1,0,0:0:0:0:
274,64,103811,1,2,0:0:0:0:
58,239,104057,2,0,L|224:250,1,157.500001502037,0|2,0:0|0:0,0:0:0:0:
512,360,104795,6,0,L|407:353,1,105.000001001358,2|0,3:2|0:0,0:0:0:0:
293,187,105123,2,0,L|397:193,1,105.000001001358,0|10,0:0|0:0,0:0:0:0:
284,383,105451,1,0,0:0:0:0:
188,180,105615,1,0,0:0:0:0:
354,292,105779,1,2,0:0:0:0:
122,311,105942,2,0,L|226:304,1,105.000001001358
352,101,106270,1,2,3:2:0:0:
352,101,106762,5,2,0:0:0:0:
158,19,106926,1,0,0:0:0:0:
170,228,107090,1,0,0:0:0:0:
352,101,107254,2,0,P|236:142|142:110,1,210.000002002716,10|0,0:0|0:0,0:0:0:0:
3,306,107746,1,2,3:2:0:0:
92,88,107910,1,0,0:0:0:0:
230,277,108074,1,0,0:0:0:0:
4,231,108237,2,0,P|120:190|214:222,1,210.000002002716,2|0,0:0|0:0,0:0:0:0:
352,101,108729,6,0,P|298:117|278:190,1,105.000001001358,2|0,0:0|0:0,0:0:0:0:
386,260,109057,2,0,P|346:214|348:163,1,105.000001001358,2|0,0:0|0:0,0:0:0:0:
431,39,109385,1,2,0:0:0:0:
345,172,109549,1,0,0:0:0:0:
249,46,109713,1,2,0:0:0:0:
436,144,109877,1,2,0:0:0:0:
245,208,110041,1,0,0:0:0:0:
353,6,110205,6,0,P|318:87|345:172,1,180.000006866455,2|0,3:2|0:0,0:0:0:0:
455,319,110697,1,2,0:0:0:0:
233,297,110942,2,0,P|311:262|399:269,1,135.000005149842,0|10,0:0|0:0,0:0:0:0:
482,342,111352,1,0,0:0:0:0:
445,184,111516,1,0,0:0:0:0:
379,332,111680,1,2,0:0:0:0:
235,188,111926,2,0,P|175:157|108:151,1,135.000005149842,0|2,0:0|0:0,0:0:0:0:
108,151,112664,6,0,L|117:240,1,90.0000034332277,2|0,3:2|0:0,0:0:0:0:
244,98,112991,2,0,L|235:188,1,90.0000034332277,0|10,0:0|0:0,0:0:0:0:
98,70,113320,1,0,0:0:0:0:
235,188,113484,1,0,0:0:0:0:
256,13,113647,1,2,0:0:0:0:
108,151,113811,2,0,P|164:126|210:128,1,90.0000034332277
387,256,114139,2,0,P|342:251|303:230,1,90.0000034332277,2|0,3:2|0:0,0:0:0:0:
498,16,114631,5,2,0:0:0:0:
402,123,114795,1,0,0:0:0:0:
303,230,114959,1,0,0:0:0:0:
483,328,115123,2,0,L|464:148,1,180.000006866455,10|0,0:0|0:0,0:0:0:0:
306,16,115614,5,2,0:0:0:0:
402,123,115778,1,0,0:0:0:0:
501,230,115942,1,0,0:0:0:0:
321,328,116106,2,0,L|339:148,1,180.000006866455,2|0,0:0|0:0,0:0:0:0:
177,33,116598,6,0,L|186:122,1,90.0000034332277,2|0,3:2|0:0,0:0:0:0:
50,174,116926,2,0,L|119:230,1,90.0000034332277,0|10,0:0|0:0,0:0:0:0:
35,354,117254,1,0,0:0:0:0:
168,225,117418,1,0,0:0:0:0:
321,328,117582,1,2,0:0:0:0:
168,225,117746,1,0,0:0:0:0:
245,51,117910,1,0,0:0:0:0:
97,151,118073,2,0,L|186:141,1,90.0000034332277,2|0,3:2|0:0,0:0:0:0:
325,102,118401,1,0,0:0:0:0:
256,279,118566,5,2,0:0:0:0:
512,212,118811,2,0,L|356:196,1,157.500001502037,0|10,0:0|0:0,0:0:0:0:
248,27,119221,1,0,0:0:0:0:
157,203,119385,1,0,0:0:0:0:
356,196,119549,1,2,0:0:0:0:
39,141,119795,2,0,L|195:124,1,157.500001502037,0|2,0:0|0:0,0:0:0:0:
351,346,120532,6,0,B|305:323|305:323|284:274,1,105.000001001358,2|0,3:2|0:0,0:0:0:0:
410,146,120860,2,0,B|386:191|386:191|337:213,1,105.000001001358,0|10,0:0|0:0,0:0:0:0:
110,273,121188,1,0,0:0:0:0:
217,109,121352,1,0,0:0:0:0:
284,274,121516,1,2,0:0:0:0:
276,62,121680,2,0,B|291:114|291:114|272:160,1,105.000001001358
195,340,122007,1,2,3:2:0:0:
141,6,122500,5,2,0:0:0:0:
170,171,122664,1,0,0:0:0:0:
199,336,122828,1,0,0:0:0:0:
4,231,122992,2,0,B|103:273|103:273|200:242,1,210.000002002716,10|0,0:0|0:0,0:0:0:0:
392,159,123483,5,2,3:2:0:0:
170,171,123647,1,0,0:0:0:0:
330,288,123811,1,0,0:0:0:0:
361,44,123976,2,0,P|285:111|294:212,1,210.000002002716,2|0,0:0|0:0,0:0:0:0:
511,377,124467,6,0,P|472:332|420:313,1,105.000001001358,2|0,3:2|0:0,0:0:0:0:
197,329,124795,1,0,0:0:0:0:
416,247,124959,2,0,P|442:202|447:150,1,105.000001001358,10|0,0:0|0:0,0:0:0:0:
186,17,125287,2,0,P|188:71|216:119,1,110.999999576569,0|2,3:0|0:0,0:0:0:0:
357,381,125614,2,0,P|353:321|320:271,1,120,0|2,3:0|0:0,0:0:0:0:
2,250,125942,6,0,P|91:257|179:241,1,180.000006866455,2|0,3:2|0:0,0:0:0:0:
306,81,126434,1,2,0:0:0:0:
277,203,126597,1,0,0:0:0:0:
392,284,126761,1,0,0:0:0:0:
447,128,126926,2,0,L|436:6,1,90.0000034332277,10|0,0:0|0:0,0:0:0:0:
308,50,127253,1,0,0:0:0:0:
317,170,127418,2,0,L|327:289,1,90.0000034332277,2|0,0:0|0:0,0:0:0:0:
233,347,127745,1,0,0:0:0:0:
108,268,127910,6,0,P|125:182|198:136,1,180.000006866455,2|0,0:0|0:0,0:0:0:0:
360,212,128401,1,2,3:2:0:0:
306,71,128565,2,0,L|300:160,1,90.0000034332277
286,341,128893,1,10,0:0:0:0:
148,223,129057,2,0,L|237:217,1,90.0000034332277
370,126,129384,1,2,0:0:0:0:
226,137,129549,2,0,L|137:143,1,90.0000034332277
63,328,129877,6,0,L|334:310,1,270.000010299683,2|2,3:2|0:0,0:0:0:0:
395,189,130532,1,0,0:0:0:0:
460,297,130696,1,0,0:0:0:0:
297,213,130860,2,0,P|298:178|322:204,1,90.0000034332277,10|0,0:0|0:0,0:0:0:0:
262,336,131188,1,0,0:0:0:0:
125,267,131352,2,0,P|149:241|150:276,1,90.0000034332277,2|0,0:0|0:0,0:0:0:0:
262,336,131680,1,0,0:0:0:0:
251,166,131844,6,0,B|226:255|226:255|262:336,1,180.000006866455,2|0,0:0|0:0,0:0:0:0:
332,139,132336,1,2,3:2:0:0:
316,291,132500,2,0,B|298:250|298:250|312:202,1,90.0000034332277
377,3,132828,1,10,0:0:0:0:
496,114,132991,2,0,B|469:150|469:150|420:161,1,90.0000034332277
303,82,133319,1,2,0:0:0:0:
349,252,133483,2,0,L|350:159,1,90.0000034332277
137,37,133811,6,0,L|141:306,1,270.000010299683,2|2,3:2|0:0,0:0:0:0:
25,356,134466,1,0,0:0:0:0:
141,306,134630,1,0,0:0:0:0:
29,199,134795,2,0,L|28:109,1,90.0000034332277,10|0,0:0|0:0,0:0:0:0:
137,37,135122,1,0,0:0:0:0:
249,106,135287,2,0,L|249:195,1,90.0000034332277,2|0,0:0|0:0,0:0:0:0:
343,307,135614,1,0,0:0:0:0:
474,235,135778,6,0,P|420:165|333:153,1,180.000006866455,2|0,0:0|0:0,0:0:0:0:
210,313,136270,1,2,3:2:0:0:
343,307,136434,2,0,P|338:259|310:224,1,90.0000034332277
173,122,136762,1,10,0:0:0:0:
465,15,137008,6,0,P|400:32|357:83,1,135.000005149842,0|2,3:0|0:0,0:0:0:0:
278,352,137500,1,0,3:0:0:0:
58,143,137746,6,0,P|196:172|334:158,1,270.000010299683,2|2,3:2|0:0,0:0:0:0:
446,134,138401,1,0,0:0:0:0:
356,11,138565,1,0,0:0:0:0:
323,160,138729,2,0,P|318:205|331:249,1,90.0000034332277,10|0,0:0|0:0,0:0:0:0:
420,337,139057,1,0,0:0:0:0:
255,309,139221,2,0,P|213:300|165:301,1,90.0000034332277,2|0,3:2|0:0,0:0:0:0:
33,360,139549,1,0,0:0:0:0:
94,182,139713,2,0,L|102:361,1,180.000006866455,2|0,0:0|0:0,0:0:0:0:
309,190,140205,6,0,L|227:278,1,105.000001001358,2|0,3:2|0:0,0:0:0:0:
170,57,140532,2,0,L|272:79,1,105.000001001358,2|10,0:0|0:0,0:0:0:0:
361,286,140861,1,2,0:0:0:0:
116,256,141025,1,0,3:0:0:0:
272,79,141189,1,2,0:0:0:0:
227,370,141353,1,2,3:2:0:0:
250,224,141517,5,2,0:0:0:0:
256,192,141680,12,0,143647,0:0:0:0:
