osu file format v14

[General]
AudioFilename: audio.mp3
AudioLeadIn: 0
PreviewTime: 13841
Countdown: 0
SampleSet: Soft
StackLeniency: 0.6
Mode: 0
LetterboxInBreaks: 0
WidescreenStoryboard: 1

[Editor]
DistanceSpacing: 1.3
BeatDivisor: 3
GridSize: 4
TimelineZoom: 1

[Metadata]
Title:Briller (feat. ZeratoR)
TitleUnicode:Briller (feat. ZeratoR)
Artist:DFG
ArtistUnicode:DFG
Creator:Nozhomi
Version:Hard
Source:
Tags:rap hip-hop billet zrt doctor feelsgood french
BeatmapID:3725940
BeatmapSetID:1247179

[Difficulty]
HPDrainRate:4.6
CircleSize:4
OverallDifficulty:6.5
ApproachRate:7.7
SliderMultiplier:1.5
SliderTickRate:1

[Events]
//Background and Video events
0,0,"briller.jpg",0,0
Video,0,"briller-dfg-ft-zerator.mp4"
//Break Periods
//Storyboard Layer 0 (Background)
//Storyboard Layer 1 (Fail)
//Storyboard Layer 2 (Pass)
//Storyboard Layer 3 (Foreground)
//Storyboard Layer 4 (Overlay)
//Storyboard Sound Samples

[TimingPoints]
65,491.803278688525,4,2,2,60,1,0
65,-125,4,2,2,60,0,0
7910,491.803278688525,4,2,1,50,1,0
13811,-125,4,2,1,30,0,0
15778,-66.6666666666667,4,2,1,70,0,0
26598,-83.3333333333333,4,2,1,70,0,0
27582,-66.6666666666667,4,2,1,70,0,0
30532,-83.3333333333333,4,2,1,70,0,0
31516,-66.6666666666667,4,2,1,70,0,0
46762,-83.3333333333333,4,2,1,50,0,0
47090,-100,4,2,2,50,0,0
55123,-100,4,2,1,50,0,0
61024,-100,4,2,1,40,0,0
62991,-66.6666666666667,4,2,1,80,0,0
92500,-83.3333333333333,4,2,1,80,0,0
94467,-66.6666666666667,4,2,1,80,0,0
141844,-100,4,2,1,20,0,0
142172,-100,4,2,1,15,0,0
142664,-100,4,2,1,10,0,0
143155,-100,4,2,1,5,0,0

[Colours]
Combo1 : 184,97,157
Combo2 : 88,204,64
Combo3 : 61,150,41
Combo4 : 133,61,100

[HitObjects]
28,302,65,38,0,B|107:323|107:323|179:293,1,160,2|0,0:0|0:0,0:0:0:0:
198,206,1048,2,0,P|209:148|241:121,1,80,2|0,0:0|0:0,0:0:0:0:
261,113,1540,2,0,P|319:103|354:124,1,80,2|0,0:0|0:0,0:0:0:0:
359,149,2032,6,0,L|354:308,1,160,2|0,0:0|0:0,0:0:0:0:
432,268,3015,2,0,L|434:188,1,80,2|0,0:0|0:0,0:0:0:0:
439,144,3507,2,0,P|456:134|467:118,2,40,2|0|0,0:0|0:0|0:0,0:0:0:0:
397,128,3999,6,0,P|335:87|216:84,1,160,2|0,0:0|0:0,0:0:0:0:
213,155,4983,2,0,P|233:184|234:238,1,80,2|0,0:0|0:0,0:0:0:0:
224,270,5474,2,0,P|203:298|153:318,1,80,2|0,0:0|0:0,0:0:0:0:
119,318,5966,5,2,0:0:0:0:
119,318,6622,1,0,0:0:0:0:
114,230,6950,2,0,L|108:137,1,80,2|0,0:0|0:0,0:0:0:0:
107,65,7605,1,0,0:0:0:0:
124,73,7769,1,0,0:0:0:0:
138,80,7910,5,2,3:2:0:0:
236,129,8238,1,2,0:0:0:0:
345,121,8566,1,2,0:0:0:0:
422,43,8893,1,2,0:0:0:0:
319,1,9222,2,0,P|305:38|325:100,1,100,2|2,0:0|0:0,0:0:0:0:
355,137,9714,1,0,0:0:0:0:
355,137,9877,5,2,3:2:0:0:
407,234,10206,1,2,0:0:0:0:
381,340,10532,1,2,0:0:0:0:
271,347,10860,1,2,0:0:0:0:
214,258,11188,1,2,0:0:0:0:
214,258,11352,2,0,L|267:260,2,50,0|2|0,0:0|0:0|0:0,0:0:0:0:
178,215,11844,5,2,3:2:0:0:
227,116,12172,1,2,0:0:0:0:
149,38,12500,1,2,0:0:0:0:
51,88,12828,1,2,0:0:0:0:
68,197,13155,2,0,L|71:314,1,100,2|2,0:0|0:0,0:0:0:0:
113,340,13647,1,0,0:0:0:0:
113,339,13812,6,0,P|132:335|149:324,1,40,2|0,0:0|0:0,0:0:0:0:
167,284,14139,2,0,P|189:316|228:328,1,80,0|0,0:0|0:0,0:0:0:0:
297,206,14795,2,0,P|274:239|237:251,1,80,0|0,0:0|0:0,0:0:0:0:
194,130,15450,1,0,0:0:0:0:
297,206,15779,5,2,3:2:0:0:
441,98,16107,1,0,0:0:0:0:
441,97,16270,2,0,P|378:133|374:205,1,150.000005722046,2|0,0:0|0:0,0:0:0:0:
446,247,16762,2,0,P|508:210|512:138,1,150.000005722046,10|0,0:0|0:0,0:0:0:0:
441,97,17254,2,0,P|468:64|470:26,2,75.000002861023,2|0|0,0:0|0:0|0:0,0:0:0:0:
367,134,17746,2,0,P|295:111|221:110,1,150.000005722046,2|0,0:0|0:0,0:0:0:0:
137,160,18237,1,2,3:2:0:0:
137,160,18566,1,0,0:0:0:0:
195,215,18729,2,0,P|213:286|167:341,1,150.000005722046,10|0,0:0|0:0,0:0:0:0:
76,303,19221,2,0,P|103:278|139:267,1,75.000002861023,2|0,0:0|0:0,0:0:0:0:
167,341,19549,1,0,0:0:0:0:
94,380,19713,5,2,3:2:0:0:
247,157,20205,2,0,L|233:3,1,150.000005722046,2|0,0:0|0:0,0:0:0:0:
154,32,20696,2,0,L|167:181,1,150.000005722046,10|0,0:0|0:0,0:0:0:0:
110,242,21189,1,2,0:0:0:0:
27,238,21353,2,0,P|39:191|74:168,1,75.000002861023,0|0,0:0|0:0,0:0:0:0:
109,242,21681,2,0,B|68:296|137:326|105:385,1,150.000005722046,2|0,0:0|0:0,0:0:0:0:
10,367,22172,2,0,P|77:294|186:335,1,225.000008583069,2|10,3:2|0:0,0:0:0:0:
256,192,22910,1,0,0:0:0:0:
341,281,23156,2,0,P|308:308|263:311,1,75.000002861023,2|0,0:0|0:0,0:0:0:0:
214,260,23484,1,0,0:0:0:0:
332,204,23647,37,2,3:2:0:0:
253,58,23975,1,0,0:0:0:0:
180,97,24139,2,0,L|99:83,2,75.000002861023,2|0|0,0:0|0:0|0:0,0:0:0:0:
255,134,24631,2,0,L|336:120,2,75.000002861023,10|0|0,0:0|0:0|0:0,0:0:0:0:
193,189,25123,2,0,P|218:256|287:279,1,150.000005722046,2|0,0:0|0:0,0:0:0:0:
367,299,25614,2,0,P|397:330|397:399,2,75.000002861023,2|0|0,0:0|0:0|0:0,0:0:0:0:
341,219,26107,1,2,3:2:0:0:
346,131,26271,1,0,0:0:0:0:
412,82,26435,1,0,0:0:0:0:
510,146,26598,6,0,P|465:183|406:180,1,120,8|0,0:0|0:0,0:0:0:0:
242,95,27090,2,0,P|301:92|346:131,1,120,2|0,0:0|0:0,0:0:0:0:
308,257,27582,38,0,L|109:241,1,150.000005722046,2|0,3:2|0:0,0:0:0:0:
76,241,28073,2,0,L|85:318,2,75.000002861023,2|0|0,0:0|0:0|0:0,0:0:0:0:
124,173,28565,2,0,L|133:96,2,75.000002861023,10|0|0,0:0|0:0|0:0,0:0:0:0:
159,245,29057,2,0,P|198:306|274:309,1,150.000005722046,2|0,3:2|0:0,0:0:0:0:
336,261,29549,2,0,P|357:284|409:289,2,75.000002861023,2|0|0,0:0|0:0|0:0,0:0:0:0:
319,180,30040,1,2,3:2:0:0:
342,100,30204,1,0,0:0:0:0:
282,42,30368,1,0,0:0:0:0:
186,91,30532,6,0,P|136:103|67:84,1,119.999996337891,8|0,0:0|0:0,0:0:0:0:
129,186,31024,2,0,P|179:174|248:193,1,119.999996337891,2|0,0:0|0:0,0:0:0:0:
308,294,31516,37,2,3:2:0:0:
397,156,31844,1,0,0:0:0:0:
397,156,32007,2,0,L|406:74,2,75.000002861023,2|0|0,0:0|0:0|0:0,0:0:0:0:
323,194,32499,2,0,B|398:170|398:170|467:218,1,150.000005722046,10|0,0:0|0:0,0:0:0:0:
452,293,32991,2,0,B|377:317|377:317|308:269,1,150.000005722046,2|0,0:0|0:0,0:0:0:0:
255,231,33483,1,2,0:0:0:0:
255,231,33811,1,0,0:0:0:0:
154,279,33975,2,0,L|159:369,2,75.000002861023,2|0|0,3:2|0:0|0:0,0:0:0:0:
91,224,34467,2,0,P|30:183|17:111,1,150.000005722046,10|0,0:0|0:0,0:0:0:0:
58,39,34959,2,0,P|123:6|192:31,1,150.000005722046,2|0,0:0|0:0,0:0:0:0:
250,117,35450,5,2,3:2:0:0:
358,339,35942,2,0,P|384:365|420:373,2,75.000002861023,2|0|0,0:0|0:0|0:0,0:0:0:0:
421,285,36434,2,0,P|487:282|473:216,1,150.000005722046,10|0,0:0|0:0,0:0:0:0:
395,192,36926,2,0,P|328:188|341:123,1,150.000005722046,2|0,0:0|0:0,0:0:0:0:
412,79,37418,1,2,0:0:0:0:
412,79,37746,1,0,0:0:0:0:
311,138,37910,2,0,L|236:129,2,75.000002861023,2|0|0,3:2|0:0|0:0,0:0:0:0:
382,179,38401,2,0,L|323:225,2,75.000002861023,10|0|0,0:0|0:0|0:0,0:0:0:0:
417,259,38893,1,2,0:0:0:0:
417,259,39221,1,0,0:0:0:0:
443,137,39385,37,2,3:2:0:0:
244,284,39877,2,0,P|201:275|158:220,2,75.000002861023,2|0|0,0:0|0:0|0:0,0:0:0:0:
230,202,40369,2,0,P|156:180|100:232,1,150.000005722046,10|0,0:0|0:0,0:0:0:0:
83,302,40860,2,0,P|50:285|26:232,2,75.000002861023,2|0|0,0:0|0:0|0:0,0:0:0:0:
167,285,41352,1,2,0:0:0:0:
167,285,41844,2,0,L|160:120,1,150.000005722046,2|0,3:2|0:0,0:0:0:0:
129,58,42336,2,0,L|56:39,2,75.000002861023,10|0|0,0:0|0:0|0:0,0:0:0:0:
209,76,42828,2,0,L|327:46,1,112.500004291535,2|0,0:0|3:0,0:0:0:0:
436,153,43319,5,2,3:2:0:0:
436,153,43811,2,0,P|366:131|346:61,1,150.000005722046,2|0,0:0|0:0,0:0:0:0:
274,129,44303,2,0,P|203:144|150:95,1,150.000005722046,10|0,0:0|0:0,0:0:0:0:
58,18,44795,2,0,B|22:154|107:224|107:224|61:207|23:225|23:225|94:253|117:337,1,450.000017166138,2|0,3:2|0:0,0:0:0:0:
113,324,46270,2,0,P|142:301|200:307,1,75.000002861023,10|0,0:0|0:0,0:0:0:0:
260,313,46598,1,0,0:0:0:0:
337,348,46762,2,0,P|359:367|387:375,1,59.9999981689454,2|0,0:0|0:0,0:0:0:0:
459,318,47090,6,0,L|445:168,1,150,2|0,0:0|0:0,0:0:0:0:
348,115,47910,1,0,0:0:0:0:
241,88,48237,2,0,P|262:182|349:224,1,200,10|0,0:0|0:0,0:0:0:0:
436,157,49221,2,0,P|414:62|327:20,1,200,2|0,0:0|0:0,0:0:0:0:
235,81,50205,1,10,0:0:0:0:
305,165,50532,1,0,0:0:0:0:
217,231,50860,1,0,0:0:0:0:
306,311,51188,6,0,P|215:272|84:278,1,200,2|0,0:0|0:0,0:0:0:0:
22,194,52172,2,0,P|121:192|212:153,1,200,10|0,0:0|0:0,0:0:0:0:
256,52,53155,1,2,0:0:0:0:
300,153,53483,1,0,0:0:0:0:
256,254,53811,1,0,0:0:0:0:
212,153,54139,1,10,0:0:0:0:
313,195,54467,2,0,P|364:211|412:189,1,100,0|0,0:0|0:0,0:0:0:0:
398,53,55123,6,0,P|390:108|325:137,1,100,2|0,0:0|0:0,0:0:0:0:
252,99,55778,1,2,0:0:0:0:
169,171,56106,2,0,P|144:213|145:263,1,100,10|0,0:0|0:0,0:0:0:0:
235,327,56762,1,2,0:0:0:0:
189,296,56926,1,0,0:0:0:0:
145,263,57090,6,0,P|103:289|53:288,1,100,2|0,0:0|0:0,0:0:0:0:
27,181,57746,1,2,0:0:0:0:
122,126,58073,2,0,L|306:143,1,150,10|2,0:0|0:0,0:0:0:0:
299,193,58729,1,2,0:0:0:0:
299,193,58893,1,0,0:0:0:0:
327,240,59057,6,0,L|426:230,1,100,2|0,0:0|0:0,0:0:0:0:
379,330,59713,1,2,0:0:0:0:
269,319,60041,2,0,L|169:309,1,100,10|0,0:0|0:0,0:0:0:0:
134,266,60532,2,0,P|149:219|190:192,1,100,2|0,0:0|0:0,0:0:0:0:
245,196,61024,6,0,P|272:217|324:222,1,50,2|0,0:0|0:0,0:0:0:0:
337,200,61352,2,0,L|324:67,1,100,0|0,0:0|0:0,0:0:0:0:
211,53,62008,2,0,P|187:45|166:31,2,50,10|0|0,0:0|0:0|0:0,0:0:0:0:
254,109,62500,2,0,P|232:120|207:125,2,50,2|0|0,0:0|0:0|0:0,0:0:0:0:
315,163,62991,38,0,P|276:207|262:308,1,150.000005722046,2|0,3:2|0:0,0:0:0:0:
314,357,63483,1,2,0:0:0:0:
394,339,63647,2,0,L|387:189,1,150.000005722046,0|10,0:0|0:0,0:0:0:0:
376,106,64139,1,0,0:0:0:0:
444,60,64303,2,0,P|480:51|506:25,2,75.000002861023,0|2|0,0:0|0:0|0:0,0:0:0:0:
376,106,64795,2,0,P|338:105|307:86,1,75.000002861023,0|2,0:0|0:0,0:0:0:0:
307,86,65450,5,2,3:2:0:0:
279,163,65614,1,0,0:0:0:0:
203,196,65778,1,0,0:0:0:0:
123,172,65942,2,0,L|108:19,2,112.500004291535,10|0|2,0:0|3:0|0:0,0:0:0:0:
130,254,66597,1,0,0:0:0:0:
48,266,66761,1,0,0:0:0:0:
40,183,66926,1,2,3:2:0:0:
213,316,67254,37,0,0:0:0:0:
275,262,67418,2,0,P|360:272|410:348,1,150.000005722046,2|0,0:0|0:0,0:0:0:0:
462,380,67910,1,10,0:0:0:0:
462,380,68073,2,0,P|470:343|497:318,1,75.000002861023,0|0,0:0|0:0,0:0:0:0:
453,254,68401,1,2,0:0:0:0:
453,254,68564,2,0,P|444:217|417:192,1,75.000002861023,0|0,0:0|0:0,0:0:0:0:
337,169,68893,1,2,0:0:0:0:
337,169,69385,5,2,3:2:0:0:
274,223,69549,1,0,0:0:0:0:
191,222,69713,1,0,0:0:0:0:
120,179,69877,2,0,L|126:30,2,112.500004291535,10|0|2,0:0|3:0|0:0,0:0:0:0:
116,261,70532,1,0,0:0:0:0:
191,222,70696,1,0,0:0:0:0:
233,151,70860,2,0,L|227:1,1,150.000005722046,2|0,3:2|0:0,0:0:0:0:
317,40,71352,38,0,L|400:23,2,75.000002861023,2|0|0,0:0|0:0|0:0,0:0:0:0:
369,108,71844,2,0,L|452:120,2,75.000002861023,10|0|0,0:0|0:0|0:0,0:0:0:0:
395,189,72336,2,0,L|469:229,2,75.000002861023,2|0|0,0:0|0:0|0:0,0:0:0:0:
385,280,72828,2,0,B|345:286|312:269|312:269|311:301|263:336,1,150.000005722046,2|0,0:0|0:0,0:0:0:0:
179,348,73319,1,2,3:2:0:0:
179,348,73647,1,0,0:0:0:0:
212,218,73811,1,10,0:0:0:0:
135,249,73975,2,0,B|175:255|208:238|208:238|209:270|257:305,1,150.000005722046,0|2,0:0|3:2,0:0:0:0:
331,298,74467,1,0,0:0:0:0:
382,233,74631,1,0,0:0:0:0:
373,150,74795,1,2,3:2:0:0:
373,150,75287,6,0,B|307:187|307:187|213:154,1,150.000005722046,2|0,0:0|0:0,0:0:0:0:
160,131,75778,2,0,B|89:106|89:106|23:143,1,150.000005722046,10|0,0:0|0:0,0:0:0:0:
50,222,76270,1,2,3:2:0:0:
124,257,76434,2,0,P|166:254|201:225,1,75.000002861023,0|0,0:0|0:0,0:0:0:0:
237,162,76762,2,0,P|303:232|397:204,1,150.000005722046,2|0,0:0|0:0,0:0:0:0:
418,183,77254,2,0,L|412:93,1,75.000002861023,2|0,3:2|0:0,0:0:0:0:
405,25,77582,1,0,0:0:0:0:
322,15,77746,2,0,P|289:32|272:66,1,75.000002861023,8|0,0:0|0:0,0:0:0:0:
187,112,78073,2,0,P|219:129|237:162,1,75.000002861023,2|2,0:0|0:0,0:0:0:0:
320,214,78401,2,0,P|287:231|270:265,1,75.000002861023,2|0,0:0|0:0,0:0:0:0:
236,356,78729,37,0,3:0:0:0:
74,168,79221,2,0,L|0:162,2,75.000002861023,2|0|0,0:0|0:0|0:0,0:0:0:0:
123,234,79713,2,0,L|272:223,1,150.000005722046,10|0,0:0|0:0,0:0:0:0:
332,165,80205,2,0,L|406:170,2,75.000002861023,2|0|0,0:0|0:0|0:0,0:0:0:0:
286,96,80696,2,0,L|136:106,1,150.000005722046,2|0,0:0|0:0,0:0:0:0:
74,183,81188,6,0,P|35:245|53:316,1,150.000005722046,2|0,3:2|0:0,0:0:0:0:
135,333,81680,2,0,P|173:270|155:199,1,150.000005722046,10|0,0:0|0:0,0:0:0:0:
131,119,82172,1,2,0:0:0:0:
74,183,82336,2,0,P|48:147|52:93,1,75.000002861023,0|0,0:0|0:0,0:0:0:0:
80,24,82664,1,2,3:2:0:0:
244,18,82991,37,0,0:0:0:0:
300,77,83155,1,2,0:0:0:0:
382,86,83319,2,0,P|414:81|456:40,2,75.000002861023,0|0|10,0:0|0:0|0:0,0:0:0:0:
341,158,83811,2,0,P|371:169|428:155,2,75.000002861023,0|0|2,0:0|0:0|0:0,0:0:0:0:
269,200,84303,2,0,P|289:225|345:241,1,75.000002861023,0|0,0:0|0:0,0:0:0:0:
279,308,84631,2,0,P|200:313|133:280,1,150.000005722046,2|0,0:0|0:0,0:0:0:0:
52,207,85123,6,0,P|131:212|198:179,1,150.000005722046,2|0,3:2|0:0,0:0:0:0:
241,115,85614,1,10,0:0:0:0:
301,170,85778,2,0,L|305:268,1,75.000002861023,0|0,0:0|0:0,0:0:0:0:
385,259,86106,2,0,L|381:184,2,75.000002861023,2|0|0,0:0|0:0|0:0,0:0:0:0:
467,270,86598,1,2,0:0:0:0:
304,244,86926,37,0,0:0:0:0:
385,259,87090,1,2,0:0:0:0:
467,270,87254,1,2,0:0:0:0:
429,179,87418,1,2,0:0:0:0:
385,259,87582,1,10,0:0:0:0:
385,259,88073,1,2,3:2:0:0:
429,179,88237,1,0,0:0:0:0:
473,99,88401,1,0,0:0:0:0:
390,107,88565,2,0,B|313:113|313:113|260:57,1,150.000005722046,2|0,0:0|0:0,0:0:0:0:
201,4,89057,5,2,3:2:0:0:
187,85,89221,1,0,0:0:0:0:
173,166,89385,1,0,0:0:0:0:
94,99,89549,1,10,0:0:0:0:
94,99,90041,1,2,0:0:0:0:
173,166,90204,1,0,0:0:0:0:
252,234,90368,1,0,0:0:0:0:
292,134,90532,2,0,B|292:195|252:233|252:233|295:263|300:333,1,225.000008583069,2|2,3:2|0:0,0:0:0:0:
210,374,91188,2,0,P|226:332|214:299,1,75.000002861023,0|0,0:0|0:0,0:0:0:0:
164,241,91516,2,0,P|130:211|95:210,1,75.000002861023,10|0,0:0|0:0,0:0:0:0:
24,240,91844,1,0,0:0:0:0:
71,341,92008,2,0,B|117:282|117:282|101:209,1,150.000005722046,2|0,3:2|0:0,0:0:0:0:
81,127,92500,1,2,0:0:0:0:
81,127,92991,38,0,L|145:144,1,59.9999981689454,2|0,0:0|0:0,0:0:0:0:
196,52,93319,2,0,L|132:69,1,59.9999981689454,2|0,0:0|0:0,0:0:0:0:
214,131,93647,1,2,0:0:0:0:
214,131,93811,2,0,L|278:148,1,59.9999981689454,2|0,0:0|0:0,0:0:0:0:
350,193,94139,2,0,L|407:177,1,59.9999981689454,2|0,0:0|0:0,0:0:0:0:
448,72,94467,21,2,3:2:0:0:
448,72,94959,1,2,0:0:0:0:
332,113,95204,2,0,L|190:76,1,112.500004291535,0|10,0:0|0:0,0:0:0:0:
166,145,95614,2,0,L|172:239,2,75.000002861023,0|0|2,0:0|0:0|0:0,0:0:0:0:
42,130,96188,2,0,L|50:257,1,112.500004291535,0|2,0:0|0:0,0:0:0:0:
243,88,96926,6,0,L|252:237,1,150.000005722046,2|0,3:2|0:0,0:0:0:0:
335,232,97418,2,0,L|325:82,1,150.000005722046,10|0,0:0|0:0,0:0:0:0:
391,31,97910,1,2,0:0:0:0:
460,73,98073,2,0,P|467:112|452:152,1,75.000002861023,0|0,0:0|0:0,0:0:0:0:
415,216,98401,1,2,3:2:0:0:
415,216,98893,5,2,0:0:0:0:
251,194,99221,1,0,0:0:0:0:
251,194,99385,2,0,L|272:379,1,150.000005722046,10|0,0:0|0:0,0:0:0:0:
189,315,99877,1,2,0:0:0:0:
134,252,100041,1,0,0:0:0:0:
134,169,100205,1,0,0:0:0:0:
169,93,100369,2,0,B|245:119|245:119|311:80,1,150.000005722046,2|0,0:0|0:0,0:0:0:0:
334,169,100860,6,0,B|395:132|395:132|470:157,1,150.000005722046,2|0,3:2|0:0,0:0:0:0:
470,74,101352,1,10,0:0:0:0:
398,222,101680,1,0,0:0:0:0:
334,169,101844,1,2,0:0:0:0:
251,163,102008,1,0,0:0:0:0:
182,209,102172,1,0,0:0:0:0:
173,291,102336,2,0,L|337:282,1,150.000005722046,2|0,3:2|0:0,0:0:0:0:
387,334,102828,5,2,0:0:0:0:
468,241,103073,2,0,P|431:204|414:117,1,112.500004291535,0|10,0:0|0:0,0:0:0:0:
434,67,103483,2,0,P|476:52|507:6,2,75.000002861023,0|0|2,0:0|0:0|0:0,0:0:0:0:
311,88,104057,2,0,L|198:81,1,112.500004291535,0|2,0:0|0:0,0:0:0:0:
37,270,104795,6,0,L|214:260,1,150.000005722046,2|0,3:2|0:0,0:0:0:0:
234,329,105287,1,10,0:0:0:0:
154,184,105615,1,0,0:0:0:0:
196,113,105779,1,2,0:0:0:0:
236,184,105942,2,0,L|310:179,1,75.000002861023,0|0,0:0|0:0,0:0:0:0:
393,175,106270,1,2,3:2:0:0:
393,175,106762,5,2,0:0:0:0:
437,244,106926,1,0,0:0:0:0:
423,325,107090,1,0,0:0:0:0:
341,318,107254,2,0,B|350:251|350:251|310:179,1,150.000005722046,10|0,0:0|0:0,0:0:0:0:
244,129,107746,1,2,3:2:0:0:
184,185,107910,1,0,0:0:0:0:
132,249,108074,1,0,0:0:0:0:
106,171,108237,2,0,B|97:103|97:103|136:31,1,150.000005722046,2|0,0:0|0:0,0:0:0:0:
242,41,108729,6,0,P|270:65|306:69,1,75.000002861023,2|0,0:0|0:0,0:0:0:0:
398,17,109057,1,2,0:0:0:0:
373,119,109221,2,0,P|357:189|400:248,1,150.000005722046,0|0,0:0|0:0,0:0:0:0:
490,290,109713,1,2,0:0:0:0:
487,192,109878,2,0,L|482:117,1,75.000002861023,2|0,0:0|0:0,0:0:0:0:
474,12,110205,5,2,3:2:0:0:
474,12,110696,1,2,0:0:0:0:
374,84,110942,2,0,L|248:68,1,112.500004291535,0|10,0:0|0:0,0:0:0:0:
206,131,111352,2,0,L|129:141,2,75.000002861023,0|0|2,0:0|0:0|0:0,0:0:0:0:
340,227,111926,2,0,L|228:212,1,112.500004291535,0|2,0:0|0:0,0:0:0:0:
29,361,112664,6,0,P|89:320|105:248,1,150.000005722046,2|0,3:2|0:0,0:0:0:0:
55,183,113155,2,0,P|70:111|131:70,1,150.000005722046,10|0,0:0|0:0,0:0:0:0:
213,52,113648,1,2,0:0:0:0:
206,133,113811,2,0,L|198:233,1,75.000002861023,0|0,0:0|0:0,0:0:0:0:
256,268,114139,1,2,3:2:0:0:
256,268,114631,5,2,0:0:0:0:
410,181,114959,1,0,0:0:0:0:
472,249,115123,2,0,P|399:221|300:252,1,150.000005722046,10|0,0:0|0:0,0:0:0:0:
270,291,115615,1,2,0:0:0:0:
236,215,115779,1,0,0:0:0:0:
160,183,115942,1,0,0:0:0:0:
94,230,116106,2,0,P|167:202|266:233,1,150.000005722046,2|0,0:0|0:0,0:0:0:0:
315,171,116598,6,0,L|326:326,1,150.000005722046,2|0,3:2|0:0,0:0:0:0:
391,371,117090,1,10,0:0:0:0:
498,245,117418,1,0,0:0:0:0:
422,211,117582,1,2,0:0:0:0:
347,174,117746,1,0,0:0:0:0:
353,256,117910,1,0,0:0:0:0:
365,337,118074,2,0,P|304:293|231:280,1,150.000005722046,2|0,3:2|0:0,0:0:0:0:
142,301,118566,5,2,0:0:0:0:
200,192,118811,2,0,L|193:79,1,112.500004291535,0|10,0:0|0:0,0:0:0:0:
116,109,119221,2,0,L|120:183,2,75.000002861023,0|0|2,0:0|0:0|0:0,0:0:0:0:
248,78,119795,2,0,L|254:190,1,112.500004291535,0|2,0:0|0:0,0:0:0:0:
470,311,120533,6,0,L|286:288,1,150.000005722046,2|0,3:2|0:0,0:0:0:0:
256,344,121025,1,10,0:0:0:0:
144,222,121353,1,0,0:0:0:0:
199,282,121517,1,2,0:0:0:0:
256,344,121680,2,0,L|348:333,1,75.000002861023,0|0,0:0|0:0,0:0:0:0:
411,318,122008,1,2,3:2:0:0:
411,318,122500,5,2,0:0:0:0:
452,246,122664,1,0,0:0:0:0:
433,165,122828,1,0,0:0:0:0:
344,107,122992,2,0,L|366:278,1,150.000005722046,10|0,0:0|0:0,0:0:0:0:
281,265,123483,5,2,3:2:0:0:
221,205,123647,1,0,0:0:0:0:
219,122,123811,1,0,0:0:0:0:
290,42,123975,2,0,L|313:212,1,150.000005722046,2|0,0:0|0:0,0:0:0:0:
382,282,124467,6,0,P|418:277|446:253,1,75.000002861023,2|0,3:2|0:0,0:0:0:0:
476,152,124795,1,0,0:0:0:0:
385,204,124959,2,0,P|324:199|273:123,1,150.000005722046,10|0,0:0|3:0,0:0:0:0:
270,27,125451,1,2,0:0:0:0:
178,77,125614,2,0,P|140:77|107:61,1,75.000002861023
0,0,125942,6,0,P|75:79|73:188,1,225.000008583069,2|2,3:2|0:0,0:0:0:0:
187,315,126761,1,0,0:0:0:0:
187,315,126926,2,0,L|81:302,1,75.000002861023,10|0,0:0|0:0,0:0:0:0:
67,233,127253,1,0,0:0:0:0:
67,233,127418,2,0,L|173:220,1,75.000002861023,2|0,0:0|0:0,0:0:0:0:
223,214,127745,1,0,0:0:0:0:
278,275,127910,6,0,P|352:329|422:312,1,150.000005722046,2|0,0:0|0:0,0:0:0:0:
432,243,128401,2,0,P|358:189|288:206,1,150.000005722046,2|0,3:2|0:0,0:0:0:0:
223,214,128893,1,10,0:0:0:0:
168,152,129057,2,0,L|158:42,1,75.000002861023,0|0,0:0|0:0,0:0:0:0:
244,58,129384,1,2,0:0:0:0:
244,58,129549,2,0,L|250:132,1,75.000002861023,0|0,0:0|0:0,0:0:0:0:
307,193,129877,6,0,P|414:207|489:128,1,225.000008583069,2|2,3:2|0:0,0:0:0:0:
344,61,130696,1,0,0:0:0:0:
344,61,130860,2,0,P|318:76|293:142,1,75.000002861023,10|0,0:0|0:0,0:0:0:0:
223,83,131188,1,0,0:0:0:0:
223,83,131352,2,0,P|215:111|245:176,1,75.000002861023,2|0,0:0|0:0,0:0:0:0:
157,212,131680,1,0,0:0:0:0:
157,212,131844,6,0,B|228:183|228:183|298:201,1,150.000005722046,2|0,0:0|0:0,0:0:0:0:
308,284,132336,2,0,B|237:313|237:313|166:294,1,150.000005722046,2|0,3:2|0:0,0:0:0:0:
127,368,132828,1,10,0:0:0:0:
127,368,132991,2,0,B|94:343|94:343|79:292,1,75.000002861023,0|0,0:0|0:0,0:0:0:0:
70,228,133319,2,0,B|28:233|28:233|-17:208,2,75.000002861023,2|0|0,0:0|0:0|0:0,0:0:0:0:
126,145,133811,6,0,P|214:77|324:57,1,225.000008583069,2|2,3:2|0:0,0:0:0:0:
402,207,134630,1,0,0:0:0:0:
402,207,134795,2,0,L|409:287,1,75.000002861023,10|0,0:0|0:0,0:0:0:0:
494,275,135123,1,0,0:0:0:0:
494,275,135288,2,0,L|487:200,1,75.000002861023,2|0,0:0|0:0,0:0:0:0:
442,131,135614,1,0,0:0:0:0:
360,117,135778,6,0,P|309:167|311:248,1,150.000005722046,2|0,0:0|0:0,0:0:0:0:
227,254,136270,2,0,P|207:183|143:147,1,150.000005722046,2|0,3:2|0:0,0:0:0:0:
61,161,136762,1,10,0:0:0:0:
18,278,137008,6,0,B|54:271|68:255|68:255|87:272|144:265,1,112.500004291535,0|2,3:0|0:0,0:0:0:0:
207,183,137500,1,0,3:0:0:0:
336,214,137746,6,0,P|326:107|234:51,1,225.000008583069,2|2,3:2|0:0,0:0:0:0:
138,200,138565,1,0,0:0:0:0:
138,200,138729,2,0,P|175:200|207:182,1,75.000002861023,10|0,0:0|0:0,0:0:0:0:
257,255,139057,1,0,0:0:0:0:
257,255,139221,2,0,P|283:229|293:193,1,75.000002861023,2|0,3:2|0:0,0:0:0:0:
382,229,139549,1,0,0:0:0:0:
381,229,139713,2,0,P|385:166|329:73,1,150.000005722046,2|0,0:0|0:0,0:0:0:0:
251,54,140205,6,0,L|259:144,1,75.000002861023,2|0,3:2|0:0,0:0:0:0:
267,225,140532,2,0,L|275:315,1,75.000002861023,2|10,0:0|0:0,0:0:0:0:
180,265,140861,1,2,0:0:0:0:
161,169,141025,1,0,3:0:0:0:
228,98,141189,1,2,0:0:0:0:
325,103,141353,1,2,3:2:0:0:
387,178,141517,5,2,0:0:0:0:
256,192,141680,12,0,143647,0:0:0:0:
