osu file format v14

[General]
AudioFilename: audio.mp3
AudioLeadIn: 0
PreviewTime: 60814
Countdown: 0
SampleSet: Normal
StackLeniency: 0.7
Mode: 3
LetterboxInBreaks: 0
SpecialStyle: 0
WidescreenStoryboard: 0

[Editor]
Bookmarks: 10552,20604,30657,50761,60814,70866,74950,90971,111075,121128,126154,131180,133693,136206,156311,166363,186468,206573,208301,226678,236730,246782,256835,266887,271913,276939,286992,297044,317149,322175
DistanceSpacing: 1
BeatDivisor: 8
GridSize: 8
TimelineZoom: 2.1

[Metadata]
Title:volcanic
TitleUnicode:volcanic
Artist:DETRO
ArtistUnicode:DETRO
Creator:_underjoy
Version:Pyroclasm
Source:BMS
Tags:stamina luze ruze alter ego hard ルゼ LuzeriA ボルケーノ long version ver toy musical 2 nrg
BeatmapID:1608665
BeatmapSetID:765056

[Difficulty]
HPDrainRate:8.7
CircleSize:7
OverallDifficulty:8.5
ApproachRate:5
SliderMultiplier:1.4
SliderTickRate:1

[Events]
//Background and Video events
0,0,"ws_Volcanic_Landform_1600x1200.jpg",0,0
//Break Periods
//Storyboard Layer 0 (Background)
//Storyboard Layer 1 (Fail)
//Storyboard Layer 2 (Pass)
//Storyboard Layer 3 (Foreground)
//Storyboard Sound Samples

[TimingPoints]
500,314.13612565445,4,1,1,50,1,0
70866,-100,4,1,1,50,0,1
89714,-100,4,1,1,50,0,0
126154,-100,4,1,1,35,0,0
135892,-38.4615384615385,4,1,1,35,0,0
135912,-43.4782608695652,4,1,1,35,0,0
135931,-250,4,1,1,35,0,0
135951,-243.90243902439,4,1,1,35,0,0
135971,-238.095238095238,4,1,1,35,0,0
135990,-222.222222222222,4,1,1,35,0,0
136010,-208.333333333333,4,1,1,35,0,0
136030,-188.679245283019,4,1,1,35,0,0
136049,-166.666666666667,4,1,1,35,0,0
136069,-144.927536231884,4,1,1,35,0,0
136089,-125,4,1,1,35,0,0
136108,-104.166666666667,4,1,1,35,0,0
136128,-80.6451612903226,4,1,1,35,0,0
136147,-63.2911392405063,4,1,1,35,0,0
136167,-51.5463917525773,4,1,1,35,0,0
136187,-42.3728813559322,4,1,1,35,0,0
136206,-100,4,1,1,50,0,1
156311,-100,4,1,1,50,0,0
256835,-100,4,1,1,35,0,0
276625,-38.4615384615385,4,1,1,35,0,0
276645,-43.4782608695652,4,1,1,35,0,0
276664,-250,4,1,1,35,0,0
276684,-243.90243902439,4,1,1,35,0,0
276704,-238.095238095238,4,1,1,35,0,0
276723,-222.222222222222,4,1,1,35,0,0
276743,-208.333333333333,4,1,1,35,0,0
276763,-188.679245283019,4,1,1,35,0,0
276782,-166.666666666667,4,1,1,35,0,0
276802,-144.927536231884,4,1,1,35,0,0
276821,-125,4,1,1,35,0,0
276841,-104.166666666667,4,1,1,35,0,0
276861,-80.6451612903226,4,1,1,35,0,0
276880,-63.2911392405063,4,1,1,35,0,0
276900,-51.5463917525773,4,1,1,35,0,0
276920,-42.3728813559322,4,1,1,35,0,0
276939,-100,4,1,1,50,0,1
297044,-100,4,1,1,50,0,0

[HitObjects]
256,192,500,5,0,0:0:0:0:
402,192,500,1,0,0:0:0:0:
329,192,657,1,0,0:0:0:0:
109,192,657,1,0,0:0:0:0:
182,192,735,1,0,0:0:0:0:
475,192,814,1,2,0:0:0:0:
256,192,814,1,0,0:0:0:0:
36,192,814,1,2,0:0:0:0:
329,192,971,1,0,0:0:0:0:
109,192,971,1,0,0:0:0:0:
256,192,1049,1,0,0:0:0:0:
182,192,1128,1,0,0:0:0:0:
402,192,1128,1,0,0:0:0:0:
109,192,1285,1,0,0:0:0:0:
329,192,1285,1,0,0:0:0:0:
402,192,1363,1,0,0:0:0:0:
36,192,1442,1,2,0:0:0:0:
256,192,1442,1,0,0:0:0:0:
475,192,1442,1,2,0:0:0:0:
182,192,1599,1,0,0:0:0:0:
329,192,1599,1,0,0:0:0:0:
402,192,1678,1,0,0:0:0:0:
109,192,1756,1,0,0:0:0:0:
256,192,1756,1,0,0:0:0:0:
402,192,1913,1,0,0:0:0:0:
182,192,1913,1,0,0:0:0:0:
329,192,1992,1,0,0:0:0:0:
36,192,2070,1,2,0:0:0:0:
256,192,2070,1,0,0:0:0:0:
475,192,2070,1,2,0:0:0:0:
182,192,2227,1,0,0:0:0:0:
402,192,2227,1,0,0:0:0:0:
256,192,2306,1,0,0:0:0:0:
329,192,2384,1,0,0:0:0:0:
109,192,2384,1,0,0:0:0:0:
256,192,2463,1,0,0:0:0:0:
182,192,2541,1,0,0:0:0:0:
402,192,2541,1,0,0:0:0:0:
329,192,2620,1,0,0:0:0:0:
36,192,2698,1,2,0:0:0:0:
256,192,2698,1,0,0:0:0:0:
475,192,2698,1,2,0:0:0:0:
182,192,2856,1,0,0:0:0:0:
329,192,2856,1,0,0:0:0:0:
109,192,2934,1,0,0:0:0:0:
402,192,3013,1,0,0:0:0:0:
256,192,3013,1,0,0:0:0:0:
329,192,3170,1,0,0:0:0:0:
109,192,3170,1,0,0:0:0:0:
182,192,3248,1,0,0:0:0:0:
256,192,3327,1,0,0:0:0:0:
36,192,3327,1,2,0:0:0:0:
475,192,3327,1,2,0:0:0:0:
329,192,3484,1,0,0:0:0:0:
109,192,3484,1,0,0:0:0:0:
256,192,3562,1,0,0:0:0:0:
182,192,3641,1,0,0:0:0:0:
402,192,3641,1,0,0:0:0:0:
329,192,3798,1,0,0:0:0:0:
109,192,3798,1,0,0:0:0:0:
402,192,3876,1,0,0:0:0:0:
256,192,3955,1,0,0:0:0:0:
475,192,3955,1,2,0:0:0:0:
36,192,3955,1,2,0:0:0:0:
182,192,4112,1,0,0:0:0:0:
329,192,4112,1,0,0:0:0:0:
475,192,4191,1,0,0:0:0:0:
256,192,4269,1,0,0:0:0:0:
109,192,4269,1,0,0:0:0:0:
402,192,4348,1,0,0:0:0:0:
256,192,4426,1,0,0:0:0:0:
109,192,4426,1,0,0:0:0:0:
402,192,4505,1,0,0:0:0:0:
36,192,4583,1,2,0:0:0:0:
329,192,4583,1,0,0:0:0:0:
475,192,4583,1,2,0:0:0:0:
182,192,4740,1,0,0:0:0:0:
402,192,4740,1,0,0:0:0:0:
256,192,4819,1,0,0:0:0:0:
109,192,4897,1,0,0:0:0:0:
329,192,4897,1,0,0:0:0:0:
182,192,4976,1,0,0:0:0:0:
256,192,5054,1,0,0:0:0:0:
402,192,5054,1,0,0:0:0:0:
109,192,5133,1,0,0:0:0:0:
36,192,5212,1,2,0:0:0:0:
256,192,5212,1,0,0:0:0:0:
475,192,5212,1,2,0:0:0:0:
182,192,5369,1,0,0:0:0:0:
329,192,5369,1,0,0:0:0:0:
109,192,5447,1,0,0:0:0:0:
256,192,5526,1,0,0:0:0:0:
402,192,5526,1,0,0:0:0:0:
182,192,5683,1,0,0:0:0:0:
36,192,5683,1,0,0:0:0:0:
329,192,5761,1,0,0:0:0:0:
256,192,5840,1,0,0:0:0:0:
109,192,5840,1,2,0:0:0:0:
402,192,5840,1,2,0:0:0:0:
182,192,5997,1,0,0:0:0:0:
329,192,5997,1,0,0:0:0:0:
475,192,6075,1,0,0:0:0:0:
256,192,6154,1,0,0:0:0:0:
36,192,6154,1,0,0:0:0:0:
329,192,6311,1,0,0:0:0:0:
182,192,6311,1,0,0:0:0:0:
475,192,6390,1,0,0:0:0:0:
256,192,6468,1,0,0:0:0:0:
109,192,6468,1,2,0:0:0:0:
402,192,6468,1,2,0:0:0:0:
329,192,6625,1,0,0:0:0:0:
182,192,6625,1,0,0:0:0:0:
109,192,6704,1,0,0:0:0:0:
256,192,6782,1,0,0:0:0:0:
402,192,6782,1,0,0:0:0:0:
329,192,6939,1,0,0:0:0:0:
475,192,6939,1,0,0:0:0:0:
182,192,7018,1,0,0:0:0:0:
256,192,7096,1,0,0:0:0:0:
402,192,7096,1,2,0:0:0:0:
109,192,7096,1,2,0:0:0:0:
329,192,7253,1,0,0:0:0:0:
182,192,7253,1,0,0:0:0:0:
36,192,7332,1,0,0:0:0:0:
256,192,7410,1,0,0:0:0:0:
475,192,7410,1,0,0:0:0:0:
109,192,7489,1,0,0:0:0:0:
182,192,7568,1,0,0:0:0:0:
329,192,7568,1,0,0:0:0:0:
36,192,7646,1,0,0:0:0:0:
256,192,7725,1,0,0:0:0:0:
402,192,7725,1,2,0:0:0:0:
109,192,7725,1,2,0:0:0:0:
182,192,7882,1,0,0:0:0:0:
329,192,7882,1,0,0:0:0:0:
402,192,7960,1,0,0:0:0:0:
109,192,8039,1,0,0:0:0:0:
256,192,8039,1,0,0:0:0:0:
36,192,8196,1,0,0:0:0:0:
182,192,8196,1,0,0:0:0:0:
329,192,8274,1,0,0:0:0:0:
402,192,8353,1,2,0:0:0:0:
109,192,8353,1,2,0:0:0:0:
256,192,8353,1,0,0:0:0:0:
329,192,8510,1,0,0:0:0:0:
182,192,8510,1,0,0:0:0:0:
475,192,8589,1,0,0:0:0:0:
36,192,8667,1,0,0:0:0:0:
256,192,8667,1,0,0:0:0:0:
402,192,8746,1,0,0:0:0:0:
182,192,8824,1,0,0:0:0:0:
329,192,8824,1,0,0:0:0:0:
475,192,8903,1,0,0:0:0:0:
402,192,8981,1,2,0:0:0:0:
109,192,8981,1,2,0:0:0:0:
256,192,8981,1,0,0:0:0:0:
329,192,9138,1,0,0:0:0:0:
182,192,9138,1,0,0:0:0:0:
475,192,9217,1,0,0:0:0:0:
109,192,9295,1,0,0:0:0:0:
256,192,9295,1,0,0:0:0:0:
402,192,9374,1,0,0:0:0:0:
256,192,9452,1,0,0:0:0:0:
109,192,9452,1,0,0:0:0:0:
402,192,9531,1,0,0:0:0:0:
329,192,9609,1,0,0:0:0:0:
36,192,9609,1,2,0:0:0:0:
475,192,9609,1,2,0:0:0:0:
182,192,9767,1,0,0:0:0:0:
402,192,9767,1,0,0:0:0:0:
329,192,9845,1,0,0:0:0:0:
256,192,9924,1,0,0:0:0:0:
109,192,9924,1,0,0:0:0:0:
402,192,10002,1,0,0:0:0:0:
329,192,10081,1,0,0:0:0:0:
182,192,10081,1,0,0:0:0:0:
36,192,10159,1,0,0:0:0:0:
256,192,10238,1,0,0:0:0:0:
109,192,10238,1,2,0:0:0:0:
402,192,10238,1,2,0:0:0:0:
329,192,10395,1,0,0:0:0:0:
475,192,10395,1,0,0:0:0:0:
256,192,10473,1,0,0:0:0:0:
182,192,10552,1,0,0:0:0:0:
36,192,10552,1,0,0:0:0:0:
36,192,10709,1,0,0:0:0:0:
182,192,10709,1,0,0:0:0:0:
475,192,10787,1,0,0:0:0:0:
329,192,10787,1,0,0:0:0:0:
256,192,10866,1,0,0:0:0:0:
109,192,10866,1,0,0:0:0:0:
182,192,11023,1,0,0:0:0:0:
36,192,11023,1,0,0:0:0:0:
182,192,11180,1,0,0:0:0:0:
36,192,11180,1,0,0:0:0:0:
329,192,11259,1,0,0:0:0:0:
475,192,11259,1,0,0:0:0:0:
256,192,11337,1,0,0:0:0:0:
109,192,11337,1,0,0:0:0:0:
475,192,11494,1,8,0:0:0:0:
329,192,11494,1,0,0:0:0:0:
182,192,11494,1,0,0:0:0:0:
402,192,11651,1,8,0:0:0:0:
256,192,11651,1,0,0:0:0:0:
109,192,11651,1,0,0:0:0:0:
182,192,11808,1,0,0:0:0:0:
36,192,11808,1,0,0:0:0:0:
36,192,11965,1,0,0:0:0:0:
182,192,11965,1,0,0:0:0:0:
475,192,12044,1,0,0:0:0:0:
329,192,12044,1,0,0:0:0:0:
256,192,12123,1,0,0:0:0:0:
109,192,12123,1,0,0:0:0:0:
182,192,12280,1,0,0:0:0:0:
36,192,12280,1,0,0:0:0:0:
182,192,12437,1,0,0:0:0:0:
36,192,12437,1,0,0:0:0:0:
329,192,12515,1,0,0:0:0:0:
475,192,12515,1,0,0:0:0:0:
256,192,12594,1,0,0:0:0:0:
109,192,12594,1,0,0:0:0:0:
475,192,12751,1,8,0:0:0:0:
329,192,12751,1,0,0:0:0:0:
182,192,12751,1,0,0:0:0:0:
402,192,12908,1,8,0:0:0:0:
256,192,12908,1,0,0:0:0:0:
109,192,12908,1,0,0:0:0:0:
36,192,13065,1,0,0:0:0:0:
182,192,13065,1,0,0:0:0:0:
182,192,13222,1,0,0:0:0:0:
36,192,13222,1,0,0:0:0:0:
329,192,13301,1,0,0:0:0:0:
475,192,13301,1,0,0:0:0:0:
109,192,13379,1,0,0:0:0:0:
256,192,13379,1,0,0:0:0:0:
36,192,13536,1,0,0:0:0:0:
182,192,13536,1,0,0:0:0:0:
36,192,13693,1,0,0:0:0:0:
182,192,13693,1,0,0:0:0:0:
475,192,13772,1,0,0:0:0:0:
329,192,13772,1,0,0:0:0:0:
109,192,13850,1,0,0:0:0:0:
256,192,13850,1,0,0:0:0:0:
182,192,14007,1,0,0:0:0:0:
329,192,14007,1,0,0:0:0:0:
475,192,14007,1,8,0:0:0:0:
109,192,14164,1,0,0:0:0:0:
256,192,14164,1,0,0:0:0:0:
402,192,14164,1,8,0:0:0:0:
182,192,14321,1,0,0:0:0:0:
36,192,14321,1,0,0:0:0:0:
36,192,14479,1,0,0:0:0:0:
182,192,14479,1,0,0:0:0:0:
475,192,14557,1,0,0:0:0:0:
329,192,14557,1,0,0:0:0:0:
256,192,14636,1,0,0:0:0:0:
109,192,14636,1,0,0:0:0:0:
182,192,14793,1,0,0:0:0:0:
36,192,14793,1,0,0:0:0:0:
182,192,14950,1,0,0:0:0:0:
36,192,14950,1,0,0:0:0:0:
329,192,15028,1,0,0:0:0:0:
475,192,15028,1,0,0:0:0:0:
256,192,15107,1,0,0:0:0:0:
109,192,15107,1,0,0:0:0:0:
475,192,15264,1,8,0:0:0:0:
329,192,15264,1,0,0:0:0:0:
182,192,15264,1,0,0:0:0:0:
402,192,15421,1,8,0:0:0:0:
256,192,15421,1,0,0:0:0:0:
109,192,15421,1,0,0:0:0:0:
475,192,15578,1,0,0:0:0:0:
329,192,15578,1,0,0:0:0:0:
329,192,15735,1,0,0:0:0:0:
475,192,15735,1,0,0:0:0:0:
182,192,15814,1,0,0:0:0:0:
36,192,15814,1,0,0:0:0:0:
402,192,15892,1,0,0:0:0:0:
256,192,15892,1,0,0:0:0:0:
475,192,16049,1,0,0:0:0:0:
329,192,16049,1,0,0:0:0:0:
475,192,16206,1,0,0:0:0:0:
329,192,16206,1,0,0:0:0:0:
36,192,16285,1,0,0:0:0:0:
182,192,16285,1,0,0:0:0:0:
402,192,16363,1,0,0:0:0:0:
256,192,16363,1,0,0:0:0:0:
329,192,16520,1,8,0:0:0:0:
182,192,16520,1,0,0:0:0:0:
36,192,16520,1,0,0:0:0:0:
402,192,16678,1,8,0:0:0:0:
256,192,16678,1,0,0:0:0:0:
109,192,16678,1,0,0:0:0:0:
329,192,16835,1,0,0:0:0:0:
475,192,16835,1,0,0:0:0:0:
475,192,16992,1,0,0:0:0:0:
329,192,16992,1,0,0:0:0:0:
36,192,17070,1,0,0:0:0:0:
182,192,17070,1,0,0:0:0:0:
256,192,17149,1,0,0:0:0:0:
402,192,17149,1,0,0:0:0:0:
329,192,17306,1,0,0:0:0:0:
475,192,17306,1,0,0:0:0:0:
329,192,17463,1,0,0:0:0:0:
475,192,17463,1,0,0:0:0:0:
182,192,17541,1,0,0:0:0:0:
36,192,17541,1,0,0:0:0:0:
256,192,17620,1,0,0:0:0:0:
402,192,17620,1,0,0:0:0:0:
36,192,17777,1,0,0:0:0:0:
182,192,17777,1,0,0:0:0:0:
329,192,17777,1,8,0:0:0:0:
109,192,17934,1,0,0:0:0:0:
256,192,17934,1,0,0:0:0:0:
402,192,17934,1,8,0:0:0:0:
475,192,18091,1,0,0:0:0:0:
329,192,18091,1,0,0:0:0:0:
329,192,18248,1,0,0:0:0:0:
475,192,18248,1,0,0:0:0:0:
182,192,18327,1,0,0:0:0:0:
36,192,18327,1,0,0:0:0:0:
402,192,18405,1,0,0:0:0:0:
256,192,18405,1,0,0:0:0:0:
475,192,18562,1,0,0:0:0:0:
329,192,18562,1,0,0:0:0:0:
475,192,18719,1,0,0:0:0:0:
329,192,18719,1,0,0:0:0:0:
36,192,18798,1,0,0:0:0:0:
182,192,18798,1,0,0:0:0:0:
402,192,18876,1,0,0:0:0:0:
256,192,18876,1,0,0:0:0:0:
329,192,19034,1,8,0:0:0:0:
182,192,19034,1,0,0:0:0:0:
36,192,19034,1,0,0:0:0:0:
402,192,19191,1,8,0:0:0:0:
256,192,19191,1,0,0:0:0:0:
109,192,19191,1,0,0:0:0:0:
329,192,19348,1,0,0:0:0:0:
475,192,19348,1,0,0:0:0:0:
475,192,19505,1,0,0:0:0:0:
329,192,19505,1,0,0:0:0:0:
36,192,19583,1,0,0:0:0:0:
182,192,19583,1,0,0:0:0:0:
256,192,19662,1,0,0:0:0:0:
402,192,19662,1,0,0:0:0:0:
329,192,19819,1,0,0:0:0:0:
475,192,19819,1,0,0:0:0:0:
329,192,19976,1,0,0:0:0:0:
475,192,19976,1,0,0:0:0:0:
256,192,20054,1,0,0:0:0:0:
109,192,20054,1,0,0:0:0:0:
36,192,20133,1,0,0:0:0:0:
182,192,20133,1,0,0:0:0:0:
402,192,20133,1,8,0:0:0:0:
109,192,20290,1,0,0:0:0:0:
256,192,20290,1,0,0:0:0:0:
475,192,20290,1,8,0:0:0:0:
36,192,20447,1,0,0:0:0:0:
182,192,20447,1,0,0:0:0:0:
402,192,20447,1,8,0:0:0:0:
109,192,20604,1,0,0:0:0:0:
256,192,20604,1,0,0:0:0:0:
402,192,20683,1,0,0:0:0:0:
109,192,20761,1,0,0:0:0:0:
256,192,20761,1,0,0:0:0:0:
329,192,20840,1,0,0:0:0:0:
475,192,20840,1,0,0:0:0:0:
182,192,20918,1,0,0:0:0:0:
36,192,20918,1,0,0:0:0:0:
329,192,20997,1,0,0:0:0:0:
256,192,21075,1,0,0:0:0:0:
109,192,21075,1,0,0:0:0:0:
402,192,21154,1,0,0:0:0:0:
256,192,21232,1,0,0:0:0:0:
109,192,21232,1,0,0:0:0:0:
329,192,21311,1,0,0:0:0:0:
475,192,21311,1,0,0:0:0:0:
182,192,21390,1,0,0:0:0:0:
36,192,21390,1,0,0:0:0:0:
329,192,21468,1,0,0:0:0:0:
475,192,21547,1,8,0:0:0:0:
256,192,21547,1,0,0:0:0:0:
109,192,21547,1,0,0:0:0:0:
329,192,21625,1,0,0:0:0:0:
402,192,21704,1,8,0:0:0:0:
182,192,21704,1,0,0:0:0:0:
36,192,21704,1,0,0:0:0:0:
475,192,21782,1,0,0:0:0:0:
109,192,21861,1,0,0:0:0:0:
256,192,21861,1,0,0:0:0:0:
402,192,21939,1,0,0:0:0:0:
109,192,22018,1,0,0:0:0:0:
256,192,22018,1,0,0:0:0:0:
329,192,22096,1,0,0:0:0:0:
475,192,22096,1,0,0:0:0:0:
182,192,22175,1,0,0:0:0:0:
36,192,22175,1,0,0:0:0:0:
329,192,22253,1,0,0:0:0:0:
256,192,22332,1,0,0:0:0:0:
109,192,22332,1,0,0:0:0:0:
402,192,22410,1,0,0:0:0:0:
256,192,22489,1,0,0:0:0:0:
109,192,22489,1,0,0:0:0:0:
329,192,22568,1,0,0:0:0:0:
475,192,22568,1,0,0:0:0:0:
182,192,22646,1,0,0:0:0:0:
36,192,22646,1,0,0:0:0:0:
329,192,22725,1,0,0:0:0:0:
475,192,22803,1,8,0:0:0:0:
256,192,22803,1,0,0:0:0:0:
109,192,22803,1,0,0:0:0:0:
329,192,22882,1,0,0:0:0:0:
402,192,22960,1,8,0:0:0:0:
182,192,22960,1,0,0:0:0:0:
36,192,22960,1,0,0:0:0:0:
475,192,23039,1,0,0:0:0:0:
256,192,23117,1,0,0:0:0:0:
109,192,23117,1,0,0:0:0:0:
402,192,23196,1,0,0:0:0:0:
256,192,23274,1,0,0:0:0:0:
109,192,23274,1,0,0:0:0:0:
475,192,23353,1,0,0:0:0:0:
329,192,23353,1,0,0:0:0:0:
36,192,23431,1,0,0:0:0:0:
182,192,23431,1,0,0:0:0:0:
329,192,23510,1,0,0:0:0:0:
109,192,23589,1,0,0:0:0:0:
256,192,23589,1,0,0:0:0:0:
402,192,23667,1,0,0:0:0:0:
109,192,23746,1,0,0:0:0:0:
256,192,23746,1,0,0:0:0:0:
475,192,23824,1,0,0:0:0:0:
329,192,23824,1,0,0:0:0:0:
36,192,23903,1,0,0:0:0:0:
182,192,23903,1,0,0:0:0:0:
329,192,23981,1,0,0:0:0:0:
109,192,24060,1,0,0:0:0:0:
256,192,24060,1,0,0:0:0:0:
475,192,24060,1,8,0:0:0:0:
329,192,24138,1,0,0:0:0:0:
36,192,24217,1,0,0:0:0:0:
182,192,24217,1,0,0:0:0:0:
402,192,24217,1,8,0:0:0:0:
475,192,24295,1,0,0:0:0:0:
109,192,24374,1,0,0:0:0:0:
256,192,24374,1,0,0:0:0:0:
402,192,24452,1,0,0:0:0:0:
109,192,24531,1,0,0:0:0:0:
256,192,24531,1,0,0:0:0:0:
329,192,24609,1,0,0:0:0:0:
475,192,24609,1,0,0:0:0:0:
182,192,24688,1,0,0:0:0:0:
36,192,24688,1,0,0:0:0:0:
329,192,24767,1,0,0:0:0:0:
256,192,24845,1,0,0:0:0:0:
109,192,24845,1,0,0:0:0:0:
402,192,24924,1,0,0:0:0:0:
256,192,25002,1,0,0:0:0:0:
109,192,25002,1,0,0:0:0:0:
329,192,25081,1,0,0:0:0:0:
475,192,25081,1,0,0:0:0:0:
182,192,25159,1,0,0:0:0:0:
36,192,25159,1,0,0:0:0:0:
329,192,25238,1,0,0:0:0:0:
402,192,25316,1,8,0:0:0:0:
256,192,25316,1,0,0:0:0:0:
109,192,25316,1,0,0:0:0:0:
329,192,25395,1,0,0:0:0:0:
475,192,25473,1,8,0:0:0:0:
182,192,25473,1,0,0:0:0:0:
36,192,25473,1,0,0:0:0:0:
109,192,25552,1,0,0:0:0:0:
256,192,25630,1,0,0:0:0:0:
402,192,25630,1,0,0:0:0:0:
109,192,25709,1,0,0:0:0:0:
256,192,25787,1,0,0:0:0:0:
402,192,25787,1,0,0:0:0:0:
36,192,25866,1,0,0:0:0:0:
182,192,25866,1,0,0:0:0:0:
475,192,25945,1,0,0:0:0:0:
329,192,25945,1,0,0:0:0:0:
182,192,26023,1,0,0:0:0:0:
402,192,26102,1,0,0:0:0:0:
256,192,26102,1,0,0:0:0:0:
109,192,26180,1,0,0:0:0:0:
402,192,26259,1,0,0:0:0:0:
256,192,26259,1,0,0:0:0:0:
36,192,26337,1,0,0:0:0:0:
182,192,26337,1,0,0:0:0:0:
475,192,26416,1,0,0:0:0:0:
329,192,26416,1,0,0:0:0:0:
182,192,26494,1,0,0:0:0:0:
402,192,26573,1,8,0:0:0:0:
256,192,26573,1,0,0:0:0:0:
36,192,26573,1,0,0:0:0:0:
182,192,26651,1,0,0:0:0:0:
475,192,26730,1,8,0:0:0:0:
329,192,26730,1,0,0:0:0:0:
109,192,26730,1,0,0:0:0:0:
36,192,26808,1,0,0:0:0:0:
402,192,26887,1,0,0:0:0:0:
256,192,26887,1,0,0:0:0:0:
109,192,26965,1,0,0:0:0:0:
402,192,27044,1,0,0:0:0:0:
256,192,27044,1,0,0:0:0:0:
182,192,27123,1,0,0:0:0:0:
36,192,27123,1,0,0:0:0:0:
329,192,27201,1,0,0:0:0:0:
475,192,27201,1,0,0:0:0:0:
182,192,27280,1,0,0:0:0:0:
256,192,27358,1,0,0:0:0:0:
402,192,27358,1,0,0:0:0:0:
109,192,27437,1,0,0:0:0:0:
256,192,27515,1,0,0:0:0:0:
402,192,27515,1,0,0:0:0:0:
182,192,27594,1,0,0:0:0:0:
36,192,27594,1,0,0:0:0:0:
329,192,27672,1,0,0:0:0:0:
475,192,27672,1,0,0:0:0:0:
182,192,27751,1,0,0:0:0:0:
36,192,27829,1,0,0:0:0:0:
256,192,27829,1,0,0:0:0:0:
402,192,27829,1,8,0:0:0:0:
182,192,27908,1,0,0:0:0:0:
109,192,27986,1,0,0:0:0:0:
329,192,27986,1,0,0:0:0:0:
475,192,27986,1,8,0:0:0:0:
36,192,28065,1,0,0:0:0:0:
256,192,28143,1,0,0:0:0:0:
402,192,28143,1,0,0:0:0:0:
109,192,28222,1,0,0:0:0:0:
256,192,28301,1,0,0:0:0:0:
402,192,28301,1,0,0:0:0:0:
36,192,28379,1,0,0:0:0:0:
182,192,28379,1,0,0:0:0:0:
475,192,28458,1,0,0:0:0:0:
329,192,28458,1,0,0:0:0:0:
182,192,28536,1,0,0:0:0:0:
402,192,28615,1,0,0:0:0:0:
256,192,28615,1,0,0:0:0:0:
109,192,28693,1,0,0:0:0:0:
402,192,28772,1,0,0:0:0:0:
256,192,28772,1,0,0:0:0:0:
36,192,28850,1,0,0:0:0:0:
182,192,28850,1,0,0:0:0:0:
475,192,28929,1,0,0:0:0:0:
329,192,28929,1,0,0:0:0:0:
182,192,29007,1,0,0:0:0:0:
402,192,29086,1,8,0:0:0:0:
256,192,29086,1,0,0:0:0:0:
36,192,29086,1,0,0:0:0:0:
182,192,29164,1,0,0:0:0:0:
475,192,29243,1,8,0:0:0:0:
329,192,29243,1,0,0:0:0:0:
109,192,29243,1,0,0:0:0:0:
256,192,29321,1,0,0:0:0:0:
36,192,29400,1,0,0:0:0:0:
402,192,29400,1,4,0:0:0:0:
475,192,29400,1,0,0:0:0:0:
182,192,29400,1,0,0:0:0:0:
109,192,29400,1,0,0:0:0:50:big kick.wav
256,192,29557,1,2,0:0:0:0:
36,192,29557,1,0,0:0:0:0:
109,192,29557,1,0,0:0:0:50:big kick.wav
475,192,29557,1,2,0:0:0:0:
329,192,29636,1,2,0:0:0:0:
402,192,29636,1,0,0:0:0:50:big kick.wav
475,192,29714,1,2,0:0:0:0:
256,192,29714,1,2,0:0:0:0:
36,192,29714,1,4,0:0:0:0:
109,192,29714,1,0,0:0:0:50:big kick.wav
329,192,29793,1,0,0:0:0:50:big kick.wav
182,192,29793,1,0,0:0:0:0:
36,192,29871,1,0,0:0:0:0:
402,192,29871,1,4,0:0:0:0:
109,192,29871,1,0,0:0:0:50:big kick.wav
256,192,29871,1,0,0:0:0:0:
182,192,29950,1,0,0:0:0:0:
329,192,29950,1,0,0:0:0:50:big kick.wav
36,192,30028,1,0,0:0:0:0:
475,192,30028,1,0,0:0:0:0:
402,192,30028,1,4,0:0:0:0:
109,192,30028,1,0,0:0:0:50:big kick.wav
256,192,30107,1,0,0:0:0:0:
36,192,30185,1,0,0:0:0:50:big kick.wav
329,192,30185,1,2,0:0:0:0:
182,192,30185,1,2,0:0:0:0:
475,192,30185,1,8,0:0:0:0:
109,192,30342,1,2,0:0:0:0:
256,192,30342,1,2,0:0:0:0:
402,192,30342,1,4,0:0:0:0:
475,192,30342,1,0,0:0:0:50:big kick.wav
182,192,30499,1,0,0:0:0:50:big kick.wav
329,192,30499,1,2,0:0:0:0:
475,192,30499,1,2,0:0:0:0:
36,192,30499,1,0,0:0:0:0:
475,192,30578,1,0,0:0:0:0:
329,192,30578,1,2,0:0:0:0:
36,192,30657,1,2,0:0:0:0:
256,192,30657,1,2,0:0:0:0:
109,192,30657,1,0,0:0:0:50:big kick.wav
402,192,30657,1,0,0:0:0:0:
256,192,30814,1,2,0:0:0:0:
109,192,30814,1,2,0:0:0:0:
182,192,30814,1,0,0:0:0:0:
329,192,30892,1,2,0:0:0:0:
402,192,30892,1,0,0:0:0:0:
475,192,30892,1,2,0:0:0:0:
182,192,30971,1,2,0:0:0:0:
109,192,30971,1,0,0:0:0:50:big kick.wav
36,192,30971,1,2,0:0:0:0:
329,192,31128,1,0,0:0:0:0:
402,192,31128,1,2,0:0:0:0:
256,192,31128,1,2,0:0:0:0:
109,192,31285,1,2,0:0:0:0:
182,192,31285,1,0,0:0:0:50:big kick.wav
256,192,31285,1,2,0:0:0:0:
329,192,31363,1,2,0:0:0:0:
402,192,31363,1,0,0:0:0:0:
475,192,31363,1,2,0:0:0:0:
182,192,31442,1,2,0:0:0:0:
109,192,31442,1,0,0:0:0:0:
36,192,31442,1,2,0:0:0:0:
256,192,31599,1,2,0:0:0:0:
402,192,31599,1,2,0:0:0:0:
475,192,31599,1,8,0:0:0:0:
109,192,31599,1,0,0:0:0:50:big kick.wav
329,192,31756,1,2,0:0:0:0:
36,192,31756,1,0,0:0:0:0:
402,192,31756,1,8,0:0:0:0:
182,192,31756,1,2,0:0:0:0:
329,192,31913,1,0,0:0:0:50:big kick.wav
402,192,31913,1,2,0:0:0:0:
256,192,31913,1,2,0:0:0:0:
256,192,32070,1,2,0:0:0:0:
109,192,32070,1,2,0:0:0:0:
182,192,32070,1,0,0:0:0:0:
475,192,32149,1,2,0:0:0:0:
402,192,32149,1,0,0:0:0:0:
329,192,32149,1,2,0:0:0:0:
182,192,32227,1,2,0:0:0:0:
109,192,32227,1,0,0:0:0:50:big kick.wav
36,192,32227,1,2,0:0:0:0:
256,192,32384,1,2,0:0:0:0:
329,192,32384,1,0,0:0:0:0:
402,192,32384,1,2,0:0:0:0:
109,192,32541,1,2,0:0:0:0:
256,192,32541,1,2,0:0:0:0:
182,192,32541,1,0,0:0:0:50:big kick.wav
475,192,32620,1,2,0:0:0:0:
329,192,32620,1,2,0:0:0:0:
402,192,32620,1,0,0:0:0:0:
109,192,32698,1,0,0:0:0:0:
36,192,32698,1,2,0:0:0:0:
182,192,32698,1,2,0:0:0:0:
402,192,32856,1,2,0:0:0:0:
475,192,32856,1,8,0:0:0:0:
256,192,32856,1,2,0:0:0:0:
109,192,32856,1,0,0:0:0:50:big kick.wav
402,192,33013,1,8,0:0:0:0:
36,192,33013,1,0,0:0:0:0:
182,192,33013,1,2,0:0:0:0:
329,192,33013,1,2,0:0:0:0:
402,192,33170,1,2,0:0:0:0:
329,192,33170,1,0,0:0:0:50:big kick.wav
256,192,33170,1,2,0:0:0:0:
256,192,33327,1,2,0:0:0:0:
109,192,33327,1,2,0:0:0:0:
182,192,33327,1,0,0:0:0:0:
475,192,33405,1,2,0:0:0:0:
402,192,33405,1,0,0:0:0:0:
329,192,33405,1,2,0:0:0:0:
182,192,33484,1,2,0:0:0:0:
109,192,33484,1,0,0:0:0:50:big kick.wav
36,192,33484,1,2,0:0:0:0:
256,192,33641,1,2,0:0:0:0:
329,192,33641,1,0,0:0:0:0:
402,192,33641,1,2,0:0:0:0:
109,192,33798,1,2,0:0:0:0:
256,192,33798,1,2,0:0:0:0:
182,192,33798,1,0,0:0:0:50:big kick.wav
475,192,33876,1,2,0:0:0:0:
329,192,33876,1,2,0:0:0:0:
402,192,33876,1,0,0:0:0:0:
109,192,33955,1,0,0:0:0:0:
36,192,33955,1,2,0:0:0:0:
182,192,33955,1,2,0:0:0:0:
402,192,34112,1,2,0:0:0:0:
475,192,34112,1,8,0:0:0:0:
256,192,34112,1,2,0:0:0:0:
109,192,34112,1,0,0:0:0:50:big kick.wav
402,192,34269,1,8,0:0:0:0:
36,192,34269,1,0,0:0:0:0:
182,192,34269,1,2,0:0:0:0:
329,192,34269,1,2,0:0:0:0:
256,192,34426,1,2,0:0:0:0:
329,192,34426,1,0,0:0:0:50:big kick.wav
402,192,34426,1,2,0:0:0:0:
182,192,34583,1,0,0:0:0:0:
109,192,34583,1,2,0:0:0:0:
256,192,34583,1,2,0:0:0:0:
329,192,34662,1,2,0:0:0:0:
402,192,34662,1,0,0:0:0:0:
475,192,34662,1,2,0:0:0:0:
36,192,34740,1,2,0:0:0:0:
109,192,34740,1,0,0:0:0:50:big kick.wav
182,192,34740,1,2,0:0:0:0:
402,192,34897,1,2,0:0:0:0:
329,192,34897,1,0,0:0:0:0:
256,192,34897,1,2,0:0:0:0:
182,192,35054,1,0,0:0:0:50:big kick.wav
256,192,35054,1,2,0:0:0:0:
109,192,35054,1,2,0:0:0:0:
402,192,35133,1,0,0:0:0:0:
329,192,35133,1,2,0:0:0:0:
475,192,35133,1,2,0:0:0:0:
182,192,35212,1,2,0:0:0:0:
36,192,35212,1,8,0:0:0:0:
109,192,35212,1,2,0:0:0:0:
329,192,35290,1,0,0:0:0:50:big kick.wav
256,192,35290,1,0,0:0:0:0:
402,192,35290,1,0,0:0:0:0:
109,192,35369,1,8,0:0:0:0:
36,192,35369,1,0,0:0:0:50:big kick.wav
182,192,35369,1,2,0:0:0:0:
475,192,35369,1,2,0:0:0:0:
329,192,35526,1,8,0:0:0:0:
475,192,35526,1,0,0:0:0:50:big kick.wav
402,192,35526,1,2,0:0:0:0:
36,192,35526,1,2,0:0:0:0:
256,192,35683,1,2,0:0:0:0:
182,192,35683,1,0,0:0:0:50:big kick.wav
109,192,35683,1,2,0:0:0:0:
256,192,35840,1,2,0:0:0:0:
402,192,35840,1,2,0:0:0:0:
329,192,35840,1,0,0:0:0:0:
36,192,35918,1,2,0:0:0:0:
109,192,35918,1,0,0:0:0:0:
182,192,35918,1,2,0:0:0:0:
329,192,35997,1,2,0:0:0:0:
402,192,35997,1,0,0:0:0:50:big kick.wav
475,192,35997,1,2,0:0:0:0:
256,192,36154,1,2,0:0:0:0:
182,192,36154,1,0,0:0:0:0:
109,192,36154,1,2,0:0:0:0:
402,192,36311,1,2,0:0:0:0:
256,192,36311,1,2,0:0:0:0:
329,192,36311,1,0,0:0:0:50:big kick.wav
36,192,36390,1,2,0:0:0:0:
182,192,36390,1,2,0:0:0:0:
109,192,36390,1,0,0:0:0:0:
402,192,36468,1,0,0:0:0:0:
475,192,36468,1,2,0:0:0:0:
329,192,36468,1,2,0:0:0:0:
109,192,36625,1,0,0:0:0:50:big kick.wav
36,192,36625,1,8,0:0:0:0:
256,192,36625,1,2,0:0:0:0:
402,192,36625,1,2,0:0:0:0:
109,192,36782,1,8,0:0:0:0:
475,192,36782,1,0,0:0:0:0:
329,192,36782,1,2,0:0:0:0:
182,192,36782,1,2,0:0:0:0:
109,192,36939,1,2,0:0:0:0:
256,192,36939,1,2,0:0:0:0:
182,192,36939,1,0,0:0:0:50:big kick.wav
256,192,37096,1,2,0:0:0:0:
402,192,37096,1,2,0:0:0:0:
329,192,37096,1,0,0:0:0:0:
36,192,37175,1,2,0:0:0:0:
109,192,37175,1,0,0:0:0:0:
182,192,37175,1,2,0:0:0:0:
329,192,37253,1,2,0:0:0:0:
402,192,37253,1,0,0:0:0:50:big kick.wav
475,192,37253,1,2,0:0:0:0:
256,192,37410,1,2,0:0:0:0:
182,192,37410,1,0,0:0:0:0:
109,192,37410,1,2,0:0:0:0:
402,192,37568,1,2,0:0:0:0:
256,192,37568,1,2,0:0:0:0:
329,192,37568,1,0,0:0:0:50:big kick.wav
36,192,37646,1,2,0:0:0:0:
182,192,37646,1,2,0:0:0:0:
109,192,37646,1,0,0:0:0:0:
402,192,37725,1,0,0:0:0:0:
475,192,37725,1,2,0:0:0:0:
329,192,37725,1,2,0:0:0:0:
109,192,37882,1,0,0:0:0:50:big kick.wav
36,192,37882,1,8,0:0:0:0:
256,192,37882,1,2,0:0:0:0:
402,192,37882,1,2,0:0:0:0:
109,192,38039,1,8,0:0:0:0:
475,192,38039,1,2,0:0:0:0:
329,192,38039,1,0,0:0:0:0:
182,192,38039,1,2,0:0:0:0:
109,192,38196,1,2,0:0:0:0:
182,192,38196,1,0,0:0:0:50:big kick.wav
256,192,38196,1,2,0:0:0:0:
329,192,38353,1,0,0:0:0:0:
402,192,38353,1,2,0:0:0:0:
256,192,38353,1,2,0:0:0:0:
182,192,38431,1,2,0:0:0:0:
109,192,38431,1,0,0:0:0:0:
36,192,38431,1,2,0:0:0:0:
475,192,38510,1,2,0:0:0:0:
402,192,38510,1,0,0:0:0:50:big kick.wav
329,192,38510,1,2,0:0:0:0:
109,192,38667,1,2,0:0:0:0:
182,192,38667,1,0,0:0:0:0:
256,192,38667,1,2,0:0:0:0:
329,192,38824,1,0,0:0:0:50:big kick.wav
256,192,38824,1,2,0:0:0:0:
402,192,38824,1,2,0:0:0:0:
109,192,38903,1,0,0:0:0:0:
182,192,38903,1,2,0:0:0:0:
36,192,38903,1,2,0:0:0:0:
329,192,38981,1,2,0:0:0:0:
475,192,38981,1,2,0:0:0:0:
402,192,38981,1,0,0:0:0:0:
256,192,39138,1,2,0:0:0:0:
402,192,39138,1,2,0:0:0:0:
109,192,39138,1,0,0:0:0:50:big kick.wav
36,192,39138,1,8,0:0:0:0:
329,192,39295,1,0,0:0:0:0:
182,192,39295,1,2,0:0:0:0:
109,192,39295,1,8,0:0:0:0:
475,192,39295,1,2,0:0:0:0:
36,192,39452,1,0,0:0:0:0:
256,192,39452,1,0,0:0:0:50:big kick.wav
402,192,39452,1,4,0:0:0:0:
475,192,39452,1,0,0:0:0:0:
182,192,39452,1,0,0:0:0:0:
475,192,39609,1,0,0:0:0:50:big kick.wav
36,192,39609,1,0,0:0:0:0:
109,192,39609,1,2,0:0:0:0:
329,192,39609,1,2,0:0:0:0:
256,192,39688,1,0,0:0:0:0:
182,192,39688,1,2,0:0:0:0:
402,192,39688,1,2,0:0:0:0:
475,192,39767,1,2,0:0:0:0:
36,192,39767,1,0,0:0:0:50:big kick.wav
329,192,39767,1,4,0:0:0:0:
109,192,39767,1,2,0:0:0:0:
402,192,39924,1,4,0:0:0:0:
475,192,39924,1,0,0:0:0:0:
256,192,39924,1,0,0:0:0:50:big kick.wav
109,192,39924,1,0,0:0:0:0:
329,192,40002,1,0,0:0:0:50:big kick.wav
182,192,40002,1,0,0:0:0:0:
36,192,40002,1,0,0:0:0:0:
402,192,40081,1,4,0:0:0:0:
475,192,40081,1,0,0:0:0:0:
256,192,40081,1,0,0:0:0:50:big kick.wav
109,192,40081,1,0,0:0:0:0:
36,192,40238,1,0,0:0:0:0:
329,192,40238,1,0,0:0:0:50:big kick.wav
402,192,40238,1,2,0:0:0:0:
182,192,40238,1,2,0:0:0:0:
475,192,40238,1,0,0:0:0:0:
109,192,40395,1,0,0:0:0:0:
36,192,40395,1,2,0:0:0:0:
182,192,40395,1,2,0:0:0:0:
329,192,40395,1,4,0:0:0:0:
475,192,40395,1,0,0:0:0:50:big kick.wav
109,192,40552,1,2,0:0:0:0:
256,192,40552,1,0,0:0:0:0:
402,192,40552,1,2,0:0:0:0:
36,192,40552,1,0,0:0:0:0:
475,192,40552,1,0,0:0:0:50:big kick.wav
182,192,40630,1,2,0:0:0:0:
329,192,40630,1,0,0:0:0:0:
36,192,40709,1,0,0:0:0:0:
475,192,40709,1,2,0:0:0:0:
256,192,40709,1,2,0:0:0:0:
109,192,40709,1,0,0:0:0:50:big kick.wav
402,192,40866,1,2,0:0:0:0:
182,192,40866,1,0,0:0:0:0:
329,192,40866,1,2,0:0:0:0:
109,192,40945,1,2,0:0:0:0:
256,192,40945,1,2,0:0:0:0:
36,192,40945,1,0,0:0:0:0:
329,192,41023,1,2,0:0:0:0:
402,192,41023,1,2,0:0:0:0:
475,192,41023,1,0,0:0:0:50:big kick.wav
109,192,41180,1,2,0:0:0:0:
256,192,41180,1,2,0:0:0:0:
475,192,41180,1,0,0:0:0:0:
402,192,41337,1,2,0:0:0:0:
329,192,41337,1,2,0:0:0:0:
182,192,41337,1,0,0:0:0:50:big kick.wav
256,192,41416,1,2,0:0:0:0:
109,192,41416,1,2,0:0:0:0:
36,192,41416,1,0,0:0:0:0:
329,192,41494,1,2,0:0:0:0:
402,192,41494,1,2,0:0:0:0:
475,192,41494,1,0,0:0:0:0:
256,192,41651,1,2,0:0:0:0:
475,192,41651,1,8,0:0:0:0:
402,192,41651,1,2,0:0:0:0:
109,192,41651,1,0,0:0:0:50:big kick.wav
36,192,41808,1,0,0:0:0:0:
182,192,41808,1,2,0:0:0:0:
329,192,41808,1,2,0:0:0:0:
402,192,41808,1,8,0:0:0:0:
475,192,41965,1,0,0:0:0:50:big kick.wav
256,192,41965,1,2,0:0:0:0:
109,192,41965,1,2,0:0:0:0:
402,192,42123,1,2,0:0:0:0:
182,192,42123,1,0,0:0:0:0:
329,192,42123,1,2,0:0:0:0:
109,192,42201,1,2,0:0:0:0:
256,192,42201,1,2,0:0:0:0:
36,192,42201,1,0,0:0:0:0:
329,192,42280,1,2,0:0:0:0:
402,192,42280,1,2,0:0:0:0:
475,192,42280,1,0,0:0:0:50:big kick.wav
109,192,42437,1,2,0:0:0:0:
256,192,42437,1,2,0:0:0:0:
475,192,42437,1,0,0:0:0:0:
402,192,42594,1,2,0:0:0:0:
329,192,42594,1,2,0:0:0:0:
182,192,42594,1,0,0:0:0:50:big kick.wav
256,192,42672,1,2,0:0:0:0:
109,192,42672,1,2,0:0:0:0:
36,192,42672,1,0,0:0:0:0:
329,192,42751,1,2,0:0:0:0:
402,192,42751,1,2,0:0:0:0:
475,192,42751,1,0,0:0:0:0:
256,192,42908,1,2,0:0:0:0:
475,192,42908,1,8,0:0:0:0:
402,192,42908,1,2,0:0:0:0:
109,192,42908,1,0,0:0:0:50:big kick.wav
36,192,43065,1,0,0:0:0:0:
182,192,43065,1,2,0:0:0:0:
329,192,43065,1,2,0:0:0:0:
402,192,43065,1,8,0:0:0:0:
475,192,43222,1,0,0:0:0:50:big kick.wav
256,192,43222,1,2,0:0:0:0:
109,192,43222,1,2,0:0:0:0:
329,192,43379,1,2,0:0:0:0:
182,192,43379,1,0,0:0:0:0:
402,192,43379,1,2,0:0:0:0:
36,192,43458,1,0,0:0:0:0:
256,192,43458,1,2,0:0:0:0:
109,192,43458,1,2,0:0:0:0:
475,192,43536,1,0,0:0:0:50:big kick.wav
402,192,43536,1,2,0:0:0:0:
329,192,43536,1,2,0:0:0:0:
475,192,43693,1,2,0:0:0:0:
256,192,43693,1,2,0:0:0:0:
109,192,43693,1,0,0:0:0:0:
182,192,43850,1,0,0:0:0:50:big kick.wav
329,192,43850,1,2,0:0:0:0:
402,192,43850,1,2,0:0:0:0:
36,192,43929,1,0,0:0:0:0:
109,192,43929,1,2,0:0:0:0:
256,192,43929,1,2,0:0:0:0:
475,192,44007,1,0,0:0:0:0:
402,192,44007,1,2,0:0:0:0:
329,192,44007,1,2,0:0:0:0:
402,192,44164,1,2,0:0:0:0:
109,192,44164,1,0,0:0:0:50:big kick.wav
256,192,44164,1,2,0:0:0:0:
475,192,44164,1,8,0:0:0:0:
329,192,44321,1,2,0:0:0:0:
402,192,44321,1,8,0:0:0:0:
36,192,44321,1,0,0:0:0:0:
182,192,44321,1,2,0:0:0:0:
109,192,44479,1,0,0:0:0:50:big kick.wav
256,192,44479,1,2,0:0:0:0:
475,192,44479,1,2,0:0:0:0:
402,192,44636,1,2,0:0:0:0:
182,192,44636,1,0,0:0:0:0:
329,192,44636,1,2,0:0:0:0:
109,192,44714,1,2,0:0:0:0:
256,192,44714,1,2,0:0:0:0:
36,192,44714,1,0,0:0:0:0:
329,192,44793,1,2,0:0:0:0:
402,192,44793,1,2,0:0:0:0:
475,192,44793,1,0,0:0:0:50:big kick.wav
109,192,44950,1,0,0:0:0:0:
256,192,44950,1,2,0:0:0:0:
475,192,44950,1,2,0:0:0:0:
182,192,45107,1,0,0:0:0:50:big kick.wav
329,192,45107,1,2,0:0:0:0:
402,192,45107,1,2,0:0:0:0:
256,192,45185,1,2,0:0:0:0:
109,192,45185,1,2,0:0:0:0:
36,192,45185,1,0,0:0:0:0:
402,192,45264,1,2,0:0:0:0:
475,192,45264,1,2,0:0:0:0:
329,192,45264,1,8,0:0:0:0:
36,192,45342,1,0,0:0:0:0:
109,192,45342,1,0,0:0:0:0:
182,192,45342,1,0,0:0:0:50:big kick.wav
475,192,45421,1,2,0:0:0:0:
329,192,45421,1,2,0:0:0:0:
402,192,45421,1,8,0:0:0:0:
256,192,45421,1,0,0:0:0:50:big kick.wav
182,192,45578,1,2,0:0:0:0:
329,192,45578,1,2,0:0:0:0:
475,192,45578,1,8,0:0:0:0:
109,192,45578,1,0,0:0:0:50:big kick.wav
36,192,45735,1,0,0:0:0:50:big kick.wav
256,192,45735,1,2,0:0:0:0:
402,192,45735,1,2,0:0:0:0:
182,192,45892,1,2,0:0:0:0:
329,192,45892,1,2,0:0:0:0:
109,192,45892,1,0,0:0:0:0:
475,192,45971,1,0,0:0:0:0:
256,192,45971,1,2,0:0:0:0:
402,192,45971,1,2,0:0:0:0:
36,192,46049,1,0,0:0:0:50:big kick.wav
109,192,46049,1,2,0:0:0:0:
182,192,46049,1,2,0:0:0:0:
36,192,46206,1,0,0:0:0:0:
256,192,46206,1,2,0:0:0:0:
402,192,46206,1,2,0:0:0:0:
329,192,46363,1,2,0:0:0:0:
182,192,46363,1,2,0:0:0:0:
109,192,46363,1,0,0:0:0:50:big kick.wav
475,192,46442,1,0,0:0:0:0:
402,192,46442,1,2,0:0:0:0:
256,192,46442,1,2,0:0:0:0:
36,192,46520,1,0,0:0:0:0:
109,192,46520,1,2,0:0:0:0:
182,192,46520,1,2,0:0:0:0:
109,192,46678,1,0,0:0:0:50:big kick.wav
402,192,46678,1,8,0:0:0:0:
256,192,46678,1,2,0:0:0:0:
36,192,46678,1,2,0:0:0:0:
182,192,46835,1,2,0:0:0:0:
109,192,46835,1,0,0:0:0:0:
475,192,46835,1,8,0:0:0:0:
329,192,46835,1,2,0:0:0:0:
36,192,46992,1,0,0:0:0:50:big kick.wav
256,192,46992,1,2,0:0:0:0:
402,192,46992,1,2,0:0:0:0:
182,192,47149,1,2,0:0:0:0:
329,192,47149,1,2,0:0:0:0:
109,192,47149,1,0,0:0:0:0:
475,192,47227,1,0,0:0:0:0:
256,192,47227,1,2,0:0:0:0:
402,192,47227,1,2,0:0:0:0:
36,192,47306,1,0,0:0:0:50:big kick.wav
109,192,47306,1,2,0:0:0:0:
182,192,47306,1,2,0:0:0:0:
36,192,47463,1,0,0:0:0:0:
256,192,47463,1,2,0:0:0:0:
402,192,47463,1,2,0:0:0:0:
329,192,47620,1,2,0:0:0:0:
182,192,47620,1,2,0:0:0:0:
109,192,47620,1,0,0:0:0:50:big kick.wav
475,192,47698,1,0,0:0:0:0:
402,192,47698,1,2,0:0:0:0:
256,192,47698,1,2,0:0:0:0:
36,192,47777,1,0,0:0:0:0:
109,192,47777,1,2,0:0:0:0:
182,192,47777,1,2,0:0:0:0:
109,192,47934,1,2,0:0:0:0:
402,192,47934,1,8,0:0:0:0:
256,192,47934,1,2,0:0:0:0:
36,192,47934,1,0,0:0:0:50:big kick.wav
182,192,48091,1,2,0:0:0:0:
109,192,48091,1,0,0:0:0:0:
475,192,48091,1,8,0:0:0:0:
329,192,48091,1,2,0:0:0:0:
402,192,48248,1,2,0:0:0:0:
256,192,48248,1,2,0:0:0:0:
36,192,48248,1,4,0:0:0:0:
475,192,48248,1,0,0:0:0:50:big kick.wav
109,192,48405,1,0,0:0:0:0:
329,192,48405,1,2,0:0:0:0:
182,192,48405,1,2,0:0:0:0:
36,192,48405,1,0,0:0:0:0:
256,192,48484,1,2,0:0:0:0:
402,192,48484,1,2,0:0:0:0:
475,192,48484,1,0,0:0:0:0:
36,192,48562,1,4,0:0:0:0:
109,192,48562,1,0,0:0:0:50:big kick.wav
329,192,48562,1,2,0:0:0:0:
182,192,48562,1,2,0:0:0:0:
256,192,48719,1,2,0:0:0:0:
402,192,48719,1,2,0:0:0:0:
36,192,48719,1,0,0:0:0:0:
475,192,48719,1,0,0:0:0:0:
109,192,48876,1,0,0:0:0:50:big kick.wav
182,192,48876,1,2,0:0:0:0:
329,192,48876,1,2,0:0:0:0:
36,192,48876,1,4,0:0:0:0:
256,192,48955,1,2,0:0:0:0:
475,192,48955,1,0,0:0:0:0:
402,192,48955,1,2,0:0:0:0:
182,192,49034,1,2,0:0:0:0:
36,192,49034,1,0,0:0:0:0:
329,192,49034,1,2,0:0:0:0:
109,192,49034,1,0,0:0:0:0:
36,192,49191,1,4,0:0:0:0:
256,192,49191,1,2,0:0:0:0:
475,192,49191,1,0,0:0:0:50:big kick.wav
402,192,49191,1,2,0:0:0:0:
329,192,49348,1,2,0:0:0:0:
475,192,49348,1,0,0:0:0:0:
182,192,49348,1,2,0:0:0:0:
109,192,49348,1,0,0:0:0:0:
402,192,49505,1,2,0:0:0:0:
256,192,49505,1,2,0:0:0:0:
109,192,49505,1,0,0:0:0:50:big kick.wav
36,192,49505,1,0,0:0:0:0:
475,192,49505,1,4,0:0:0:0:
402,192,49662,1,2,0:0:0:0:
475,192,49662,1,0,0:0:0:0:
182,192,49662,1,0,0:0:0:50:big kick.wav
329,192,49662,1,2,0:0:0:0:
256,192,49740,1,2,0:0:0:0:
109,192,49740,1,0,0:0:0:0:
36,192,49740,1,0,0:0:0:0:
329,192,49819,1,0,0:0:0:50:big kick.wav
402,192,49819,1,2,0:0:0:0:
475,192,49819,1,4,0:0:0:0:
182,192,49819,1,2,0:0:0:0:
256,192,49976,1,2,0:0:0:0:
475,192,49976,1,2,0:0:0:0:
109,192,49976,1,0,0:0:0:50:big kick.wav
36,192,49976,1,0,0:0:0:0:
182,192,50054,1,0,0:0:0:50:big kick.wav
402,192,50054,1,2,0:0:0:0:
329,192,50054,1,2,0:0:0:0:
256,192,50133,1,2,0:0:0:0:
475,192,50133,1,2,0:0:0:0:
36,192,50133,1,4,0:0:0:0:
109,192,50133,1,0,0:0:0:50:big kick.wav
402,192,50290,1,2,0:0:0:0:
36,192,50290,1,4,0:0:0:0:
182,192,50290,1,2,0:0:0:0:
475,192,50290,1,0,0:0:0:0:
109,192,50290,1,0,0:0:0:50:big kick.wav
475,192,50447,1,2,0:0:0:0:
329,192,50447,1,0,0:0:0:50:big kick.wav
36,192,50447,1,4,0:0:0:0:
109,192,50447,1,2,0:0:0:0:
402,192,50447,1,0,0:0:0:0:
329,192,50604,1,0,0:0:0:50:big kick.wav
36,192,50604,1,2,0:0:0:0:
475,192,50604,1,2,0:0:0:0:
256,192,50604,1,4,0:0:0:0:
402,192,50604,1,0,0:0:0:0:
109,192,50683,1,2,0:0:0:0:
182,192,50683,1,0,0:0:0:0:
475,192,50761,1,2,0:0:0:0:
402,192,50761,1,2,0:0:0:0:
256,192,50761,1,0,0:0:0:0:
36,192,50761,1,0,0:0:0:0:
182,192,50840,1,0,0:0:0:0:
329,192,50840,1,0,0:0:0:0:
109,192,50918,1,0,0:0:0:0:
256,192,50918,1,2,0:0:0:0:
36,192,50997,1,0,0:0:0:0:
475,192,50997,1,0,0:0:0:0:
182,192,51075,1,0,0:0:0:0:
329,192,51075,1,2,0:0:0:0:
36,192,51154,1,0,0:0:0:0:
402,192,51154,1,0,0:0:0:0:
256,192,51232,1,2,0:0:0:0:
109,192,51232,1,0,0:0:0:0:
182,192,51311,1,0,0:0:0:0:
36,192,51311,1,0,0:0:0:0:
329,192,51390,1,2,0:0:0:0:
475,192,51390,1,0,0:0:0:0:
109,192,51468,1,0,0:0:0:0:
182,192,51468,1,0,0:0:0:0:
402,192,51547,1,0,0:0:0:0:
256,192,51547,1,2,0:0:0:0:
329,192,51625,1,0,0:0:0:0:
475,192,51625,1,0,0:0:0:0:
182,192,51704,1,2,0:0:0:0:
36,192,51704,1,0,0:0:0:0:
402,192,51782,1,0,0:0:0:0:
475,192,51782,1,0,0:0:0:0:
109,192,51861,1,0,0:0:0:0:
256,192,51861,1,2,0:0:0:0:
36,192,51939,1,0,0:0:0:0:
402,192,51939,1,0,0:0:0:0:
182,192,52018,1,0,0:0:0:0:
329,192,52018,1,2,0:0:0:0:
36,192,52096,1,0,0:0:0:0:
402,192,52096,1,0,0:0:0:0:
256,192,52175,1,2,0:0:0:0:
109,192,52175,1,0,0:0:0:0:
329,192,52253,1,0,0:0:0:0:
475,192,52253,1,0,0:0:0:0:
182,192,52332,1,2,0:0:0:0:
36,192,52332,1,0,0:0:0:0:
256,192,52410,1,0,0:0:0:0:
109,192,52410,1,0,0:0:0:0:
329,192,52489,1,2,0:0:0:0:
475,192,52489,1,0,0:0:0:0:
109,192,52568,1,0,0:0:0:0:
36,192,52568,1,0,0:0:0:0:
402,192,52646,1,0,0:0:0:0:
256,192,52646,1,2,0:0:0:0:
475,192,52725,1,0,0:0:0:0:
36,192,52725,1,0,0:0:0:0:
329,192,52803,1,0,0:0:0:0:
182,192,52803,1,2,0:0:0:0:
109,192,52882,1,0,0:0:0:0:
475,192,52882,1,0,0:0:0:0:
256,192,52960,1,2,0:0:0:0:
402,192,52960,1,0,0:0:0:0:
36,192,53039,1,0,0:0:0:0:
109,192,53039,1,0,0:0:0:0:
329,192,53117,1,0,0:0:0:0:
182,192,53117,1,2,0:0:0:0:
475,192,53196,1,0,0:0:0:0:
36,192,53196,1,0,0:0:0:0:
256,192,53274,1,2,0:0:0:0:
402,192,53274,1,0,0:0:0:0:
329,192,53353,1,0,0:0:0:0:
475,192,53353,1,0,0:0:0:0:
182,192,53431,1,2,0:0:0:0:
36,192,53431,1,0,0:0:0:0:
109,192,53510,1,0,0:0:0:0:
402,192,53510,1,0,0:0:0:0:
329,192,53589,1,2,0:0:0:0:
475,192,53589,1,0,0:0:0:0:
36,192,53667,1,0,0:0:0:0:
182,192,53667,1,0,0:0:0:0:
256,192,53746,1,2,0:0:0:0:
109,192,53746,1,0,0:0:0:0:
402,192,53824,1,0,0:0:0:0:
475,192,53824,1,0,0:0:0:0:
182,192,53903,1,2,0:0:0:0:
329,192,53903,1,0,0:0:0:0:
109,192,53981,1,0,0:0:0:0:
36,192,53981,1,0,0:0:0:0:
256,192,54060,1,2,0:0:0:0:
402,192,54060,1,0,0:0:0:0:
109,192,54138,1,0,0:0:0:0:
182,192,54138,1,0,0:0:0:0:
329,192,54217,1,2,0:0:0:0:
475,192,54217,1,0,0:0:0:0:
402,192,54295,1,0,0:0:0:0:
256,192,54295,1,0,0:0:0:0:
182,192,54374,1,2,0:0:0:0:
36,192,54374,1,0,0:0:0:0:
109,192,54452,1,0,0:0:0:0:
475,192,54452,1,0,0:0:0:0:
402,192,54531,1,0,0:0:0:0:
256,192,54531,1,2,0:0:0:0:
329,192,54609,1,0,0:0:0:0:
109,192,54609,1,0,0:0:0:0:
182,192,54688,1,2,0:0:0:0:
36,192,54688,1,0,0:0:0:0:
402,192,54767,1,0,0:0:0:0:
256,192,54767,1,0,0:0:0:0:
329,192,54845,1,2,0:0:0:0:
475,192,54845,1,0,0:0:0:0:
182,192,54924,1,0,0:0:0:0:
36,192,54924,1,0,0:0:0:0:
256,192,55002,1,2,0:0:0:0:
109,192,55002,1,0,0:0:0:0:
36,192,55081,1,0,0:0:0:0:
402,192,55081,1,0,0:0:0:0:
475,192,55159,1,0,0:0:0:0:
329,192,55159,1,2,0:0:0:0:
256,192,55238,1,0,0:0:0:0:
109,192,55238,1,0,0:0:0:0:
182,192,55316,1,2,0:0:0:0:
36,192,55316,1,0,0:0:0:0:
402,192,55395,1,0,0:0:0:0:
109,192,55395,1,0,0:0:0:0:
329,192,55473,1,2,0:0:0:0:
475,192,55473,1,0,0:0:0:0:
182,192,55552,1,0,0:0:0:0:
36,192,55552,1,0,0:0:0:0:
402,192,55630,1,0,0:0:0:0:
256,192,55630,1,2,0:0:0:0:
475,192,55709,1,0,0:0:0:0:
109,192,55709,1,0,0:0:0:0:
329,192,55787,1,0,0:0:0:0:
182,192,55787,1,2,0:0:0:0:
402,192,55866,1,0,0:0:0:0:
109,192,55866,1,0,0:0:0:0:
475,192,55945,1,0,0:0:0:0:
36,192,55945,1,2,0:0:0:0:
256,192,56023,1,0,0:0:0:0:
329,192,56023,1,0,0:0:0:0:
182,192,56102,1,2,0:0:0:0:
402,192,56102,1,0,0:0:0:0:
329,192,56180,1,0,0:0:0:0:
109,192,56180,1,0,0:0:0:0:
256,192,56259,1,0,0:0:0:0:
36,192,56259,1,2,0:0:0:0:
182,192,56337,1,0,0:0:0:0:
402,192,56337,1,0,0:0:0:0:
475,192,56416,1,0,0:0:0:0:
36,192,56416,1,2,0:0:0:0:
402,192,56494,1,0,0:0:0:0:
109,192,56494,1,0,0:0:0:0:
329,192,56573,1,0,0:0:0:0:
182,192,56573,1,2,0:0:0:0:
256,192,56651,1,0,0:0:0:0:
36,192,56651,1,0,0:0:0:0:
109,192,56730,1,0,0:0:0:0:
329,192,56730,1,2,0:0:0:0:
182,192,56808,1,0,0:0:0:0:
402,192,56808,1,0,0:0:0:0:
256,192,56887,1,0,0:0:0:0:
475,192,56887,1,2,0:0:0:0:
36,192,56965,1,0,0:0:0:0:
329,192,56965,1,0,0:0:0:0:
475,192,57044,1,2,0:0:0:0:
182,192,57044,1,0,0:0:0:0:
402,192,57123,1,0,0:0:0:0:
109,192,57123,1,0,0:0:0:0:
36,192,57201,1,0,0:0:0:0:
329,192,57201,1,2,0:0:0:0:
256,192,57280,1,0,0:0:0:0:
475,192,57280,1,0,0:0:0:0:
109,192,57358,1,0,0:0:0:0:
329,192,57358,1,2,0:0:0:0:
182,192,57437,1,0,0:0:0:0:
402,192,57437,1,0,0:0:0:0:
256,192,57515,1,0,0:0:0:0:
475,192,57515,1,2,0:0:0:0:
402,192,57594,1,0,0:0:0:0:
109,192,57594,1,0,0:0:0:0:
36,192,57672,1,2,0:0:0:0:
329,192,57672,1,0,0:0:0:0:
109,192,57751,1,0,0:0:0:0:
402,192,57751,1,0,0:0:0:0:
182,192,57829,1,2,0:0:0:0:
475,192,57829,1,0,0:0:0:0:
256,192,57908,1,0,0:0:0:0:
36,192,57908,1,0,0:0:0:0:
402,192,57986,1,0,0:0:0:0:
182,192,57986,1,2,0:0:0:0:
329,192,58065,1,0,0:0:0:0:
109,192,58065,1,0,0:0:0:0:
256,192,58143,1,0,0:0:0:0:
36,192,58143,1,2,0:0:0:0:
182,192,58222,1,0,0:0:0:0:
402,192,58222,1,0,0:0:0:0:
36,192,58301,1,2,0:0:0:0:
329,192,58301,1,0,0:0:0:0:
109,192,58379,1,0,0:0:0:0:
402,192,58379,1,0,0:0:0:0:
182,192,58458,1,2,0:0:0:0:
475,192,58458,1,0,0:0:0:0:
329,192,58536,1,0,0:0:0:0:
109,192,58536,1,0,0:0:0:0:
36,192,58615,1,2,0:0:0:0:
475,192,58615,1,0,0:0:0:0:
109,192,58693,1,0,0:0:0:0:
402,192,58693,1,0,0:0:0:0:
182,192,58772,1,2,0:0:0:0:
329,192,58772,1,0,0:0:0:0:
256,192,58850,1,0,0:0:0:0:
36,192,58850,1,0,0:0:0:0:
182,192,58929,1,0,0:0:0:0:
475,192,58929,1,2,0:0:0:0:
109,192,59007,1,0,0:0:0:0:
402,192,59007,1,0,0:0:0:0:
36,192,59086,1,0,0:0:0:0:
329,192,59086,1,2,0:0:0:0:
402,192,59164,1,0,0:0:0:0:
256,192,59164,1,0,0:0:0:0:
475,192,59243,1,2,0:0:0:0:
36,192,59243,1,0,0:0:0:0:
402,192,59321,1,0,0:0:0:0:
109,192,59321,1,0,0:0:0:0:
329,192,59400,1,2,0:0:0:0:
182,192,59400,1,0,0:0:0:0:
256,192,59479,1,0,0:0:0:0:
109,192,59479,1,0,0:0:0:0:
475,192,59557,1,4,0:0:0:0:
182,192,59557,1,0,0:0:0:0:
402,192,59557,1,2,0:0:0:0:
36,192,59557,1,0,0:0:0:50:big kick.wav
329,192,59714,1,2,0:0:0:0:
475,192,59714,1,2,0:0:0:0:
109,192,59714,1,0,0:0:0:0:
36,192,59714,1,0,0:0:0:50:big kick.wav
256,192,59793,1,0,0:0:0:50:big kick.wav
402,192,59793,1,2,0:0:0:0:
182,192,59871,1,2,0:0:0:0:
109,192,59871,1,0,0:0:0:50:big kick.wav
329,192,59871,1,2,0:0:0:0:
36,192,59871,1,4,0:0:0:0:
256,192,59950,1,0,0:0:0:50:big kick.wav
402,192,59950,1,0,0:0:0:0:
329,192,60028,1,2,0:0:0:0:
109,192,60028,1,0,0:0:0:50:big kick.wav
182,192,60028,1,2,0:0:0:0:
36,192,60028,1,4,0:0:0:0:
256,192,60107,1,0,0:0:0:50:big kick.wav
402,192,60107,1,0,0:0:0:0:
109,192,60185,1,0,0:0:0:50:big kick.wav
475,192,60185,1,2,0:0:0:0:
329,192,60185,1,2,0:0:0:0:
36,192,60185,1,4,0:0:0:0:
402,192,60342,1,0,0:0:0:0:
475,192,60342,1,0,0:0:0:0:
256,192,60342,1,0,0:0:0:50:big kick.wav
109,192,60342,1,0,0:0:0:0:
329,192,60499,1,2,0:0:0:0:
36,192,60499,1,0,0:0:0:50:big kick.wav
182,192,60499,1,2,0:0:0:0:
402,192,60499,1,4,0:0:0:0:
109,192,60578,1,0,0:0:0:0:
402,192,60657,1,2,0:0:0:0:
475,192,60657,1,0,0:0:0:50:big kick.wav
256,192,60657,1,2,0:0:0:0:
36,192,60657,1,0,0:0:0:0:
182,192,60735,1,2,0:0:0:0:
329,192,60814,1,0,0:0:0:50:big kick.wav
402,192,60814,1,0,0:0:0:0:
475,192,60814,1,0,0:0:0:0:
109,192,60814,1,8,0:0:0:0:
36,192,60814,1,0,0:0:0:0:
182,192,60971,1,0,0:0:0:0:
109,192,60971,1,0,0:0:0:0:
329,192,60971,1,0,0:0:0:0:
475,192,60971,1,0,0:0:0:0:
182,192,61128,1,0,0:0:0:0:
256,192,61128,1,0,0:0:0:50:big kick.wav
402,192,61128,1,0,0:0:0:0:
475,192,61128,1,0,0:0:0:0:
36,192,61128,1,0,0:0:0:0:
256,192,61285,1,0,0:0:0:0:
329,192,61285,1,0,0:0:0:0:
109,192,61285,1,0,0:0:0:0:
36,192,61285,1,0,0:0:0:0:
329,192,61442,1,0,0:0:0:0:
402,192,61442,1,0,0:0:0:0:
182,192,61442,1,0,0:0:0:50:big kick.wav
36,192,61442,1,8,0:0:0:0:
109,192,61442,1,0,0:0:0:0:
256,192,61599,1,0,0:0:0:0:
329,192,61599,1,0,0:0:0:0:
109,192,61599,1,0,0:0:0:0:
475,192,61599,1,0,0:0:0:0:
182,192,61756,1,0,0:0:0:0:
256,192,61756,1,0,0:0:0:50:big kick.wav
402,192,61756,1,0,0:0:0:0:
36,192,61756,1,0,0:0:0:0:
475,192,61756,1,0,0:0:0:0:
109,192,61913,1,0,0:0:0:0:
182,192,61913,1,0,0:0:0:0:
329,192,61913,1,0,0:0:0:0:
402,192,61913,1,0,0:0:0:0:
256,192,62070,1,0,0:0:0:50:big kick.wav
402,192,62070,1,0,0:0:0:0:
36,192,62070,1,8,0:0:0:0:
109,192,62070,1,0,0:0:0:0:
475,192,62070,1,0,0:0:0:0:
329,192,62227,1,0,0:0:0:0:
182,192,62227,1,0,0:0:0:0:
475,192,62227,1,0,0:0:0:0:
109,192,62227,1,0,0:0:0:0:
36,192,62384,1,0,0:0:0:0:
182,192,62384,1,0,0:0:0:0:
475,192,62384,1,0,0:0:0:0:
402,192,62384,1,0,0:0:0:0:
256,192,62384,1,0,0:0:0:50:big kick.wav
329,192,62541,1,0,0:0:0:0:
109,192,62541,1,0,0:0:0:0:
182,192,62541,1,0,0:0:0:0:
402,192,62541,1,0,0:0:0:0:
109,192,62698,1,0,0:0:0:0:
475,192,62698,1,0,0:0:0:0:
256,192,62698,1,0,0:0:0:50:big kick.wav
402,192,62698,1,0,0:0:0:0:
36,192,62698,1,8,0:0:0:0:
329,192,62856,1,0,0:0:0:0:
402,192,62856,1,0,0:0:0:0:
182,192,62856,1,0,0:0:0:0:
36,192,62856,1,0,0:0:0:0:
109,192,63013,1,0,0:0:0:0:
256,192,63013,1,0,0:0:0:50:big kick.wav
475,192,63013,1,0,0:0:0:0:
329,192,63013,1,0,0:0:0:0:
36,192,63013,1,0,0:0:0:0:
182,192,63170,1,0,0:0:0:0:
109,192,63170,1,0,0:0:0:0:
329,192,63170,1,0,0:0:0:0:
402,192,63170,1,0,0:0:0:0:
475,192,63327,1,0,0:0:0:0:
402,192,63327,1,0,0:0:0:0:
256,192,63327,1,0,0:0:0:50:big kick.wav
36,192,63327,1,8,0:0:0:0:
109,192,63327,1,0,0:0:0:0:
329,192,63484,1,0,0:0:0:0:
182,192,63484,1,0,0:0:0:0:
36,192,63484,1,0,0:0:0:0:
475,192,63484,1,0,0:0:0:0:
475,192,63641,1,0,0:0:0:0:
402,192,63641,1,0,0:0:0:0:
256,192,63641,1,0,0:0:0:50:big kick.wav
109,192,63641,1,0,0:0:0:0:
36,192,63641,1,0,0:0:0:0:
329,192,63798,1,0,0:0:0:0:
182,192,63798,1,0,0:0:0:0:
402,192,63798,1,0,0:0:0:0:
109,192,63798,1,0,0:0:0:0:
182,192,63955,1,0,0:0:0:0:
36,192,63955,1,0,0:0:0:0:
329,192,63955,1,0,0:0:0:0:
475,192,63955,1,8,0:0:0:0:
256,192,63955,1,0,0:0:0:50:big kick.wav
109,192,64112,1,0,0:0:0:0:
329,192,64112,1,0,0:0:0:0:
402,192,64112,1,0,0:0:0:0:
182,192,64112,1,0,0:0:0:0:
256,192,64269,1,0,0:0:0:50:big kick.wav
109,192,64269,1,0,0:0:0:0:
36,192,64269,1,0,0:0:0:0:
402,192,64269,1,0,0:0:0:0:
475,192,64269,1,0,0:0:0:0:
182,192,64426,1,0,0:0:0:0:
329,192,64426,1,0,0:0:0:0:
36,192,64426,1,0,0:0:0:0:
475,192,64426,1,0,0:0:0:0:
402,192,64583,1,0,0:0:0:0:
329,192,64583,1,0,0:0:0:0:
182,192,64583,1,0,0:0:0:50:big kick.wav
109,192,64583,1,0,0:0:0:0:
36,192,64583,1,8,0:0:0:0:
329,192,64740,1,0,0:0:0:0:
256,192,64740,1,0,0:0:0:0:
109,192,64740,1,0,0:0:0:0:
475,192,64740,1,0,0:0:0:0:
256,192,64897,1,0,0:0:0:50:big kick.wav
182,192,64897,1,0,0:0:0:0:
402,192,64897,1,0,0:0:0:0:
475,192,64897,1,0,0:0:0:0:
36,192,64897,1,0,0:0:0:0:
109,192,65054,1,0,0:0:0:0:
182,192,65054,1,0,0:0:0:0:
329,192,65054,1,0,0:0:0:0:
402,192,65054,1,0,0:0:0:0:
402,192,65212,1,0,0:0:0:0:
36,192,65212,1,8,0:0:0:0:
109,192,65212,1,0,0:0:0:0:
475,192,65212,1,0,0:0:0:0:
256,192,65212,1,0,0:0:0:50:big kick.wav
109,192,65369,1,0,0:0:0:0:
182,192,65369,1,0,0:0:0:0:
402,192,65369,1,0,0:0:0:0:
475,192,65369,1,0,0:0:0:0:
36,192,65447,1,0,0:0:0:0:
329,192,65447,1,0,0:0:0:50:big kick.wav
182,192,65526,1,8,0:0:0:0:
256,192,65526,1,0,0:0:0:50:big kick.wav
402,192,65526,1,0,0:0:0:0:
475,192,65526,1,0,0:0:0:0:
256,192,65683,1,0,0:0:0:50:big kick.wav
329,192,65683,1,0,0:0:0:0:
109,192,65683,1,0,0:0:0:0:
36,192,65683,1,8,0:0:0:0:
475,192,65683,1,0,0:0:0:0:
182,192,65840,1,0,0:0:0:50:big kick.wav
109,192,65840,1,0,0:0:0:0:
36,192,65840,1,0,0:0:0:0:
402,192,65840,1,8,0:0:0:0:
475,192,65840,1,0,0:0:0:0:
329,192,65997,1,0,0:0:0:0:
402,192,65997,1,0,0:0:0:0:
182,192,65997,1,0,0:0:0:0:
36,192,65997,1,0,0:0:0:0:
329,192,66154,1,0,0:0:0:0:
256,192,66154,1,0,0:0:0:50:big kick.wav
109,192,66154,1,0,0:0:0:0:
36,192,66154,1,0,0:0:0:0:
475,192,66154,1,0,0:0:0:0:
256,192,66311,1,0,0:0:0:0:
182,192,66311,1,0,0:0:0:0:
402,192,66311,1,0,0:0:0:0:
475,192,66311,1,0,0:0:0:0:
182,192,66468,1,0,0:0:0:0:
109,192,66468,1,0,0:0:0:0:
329,192,66468,1,0,0:0:0:50:big kick.wav
475,192,66468,1,8,0:0:0:0:
402,192,66468,1,0,0:0:0:0:
256,192,66625,1,0,0:0:0:0:
182,192,66625,1,0,0:0:0:0:
402,192,66625,1,0,0:0:0:0:
36,192,66625,1,0,0:0:0:0:
329,192,66782,1,0,0:0:0:0:
256,192,66782,1,0,0:0:0:50:big kick.wav
109,192,66782,1,0,0:0:0:0:
475,192,66782,1,0,0:0:0:0:
36,192,66782,1,0,0:0:0:0:
402,192,66939,1,0,0:0:0:0:
329,192,66939,1,0,0:0:0:0:
182,192,66939,1,0,0:0:0:0:
109,192,66939,1,0,0:0:0:0:
256,192,67096,1,0,0:0:0:50:big kick.wav
109,192,67096,1,0,0:0:0:0:
475,192,67096,1,8,0:0:0:0:
402,192,67096,1,0,0:0:0:0:
36,192,67096,1,0,0:0:0:0:
182,192,67253,1,0,0:0:0:0:
329,192,67253,1,0,0:0:0:0:
36,192,67253,1,0,0:0:0:0:
402,192,67253,1,0,0:0:0:0:
475,192,67410,1,0,0:0:0:0:
329,192,67410,1,0,0:0:0:0:
36,192,67410,1,0,0:0:0:0:
109,192,67410,1,0,0:0:0:0:
256,192,67410,1,0,0:0:0:50:big kick.wav
182,192,67568,1,0,0:0:0:0:
402,192,67568,1,0,0:0:0:0:
329,192,67568,1,0,0:0:0:0:
109,192,67568,1,0,0:0:0:0:
402,192,67725,1,0,0:0:0:0:
36,192,67725,1,0,0:0:0:0:
256,192,67725,1,0,0:0:0:50:big kick.wav
109,192,67725,1,0,0:0:0:0:
475,192,67725,1,8,0:0:0:0:
182,192,67882,1,0,0:0:0:0:
109,192,67882,1,0,0:0:0:0:
329,192,67882,1,0,0:0:0:0:
475,192,67882,1,0,0:0:0:0:
402,192,68039,1,0,0:0:0:0:
256,192,68039,1,0,0:0:0:50:big kick.wav
36,192,68039,1,0,0:0:0:0:
182,192,68039,1,0,0:0:0:0:
475,192,68039,1,0,0:0:0:0:
329,192,68196,1,0,0:0:0:0:
402,192,68196,1,0,0:0:0:0:
182,192,68196,1,0,0:0:0:0:
109,192,68196,1,0,0:0:0:0:
36,192,68353,1,0,0:0:0:0:
109,192,68353,1,0,0:0:0:0:
256,192,68353,1,0,0:0:0:50:big kick.wav
475,192,68353,1,8,0:0:0:0:
402,192,68353,1,0,0:0:0:0:
182,192,68510,1,0,0:0:0:0:
329,192,68510,1,0,0:0:0:0:
475,192,68510,1,0,0:0:0:0:
36,192,68510,1,0,0:0:0:0:
36,192,68667,1,0,0:0:0:0:
109,192,68667,1,0,0:0:0:0:
256,192,68667,1,0,0:0:0:50:big kick.wav
402,192,68667,1,0,0:0:0:0:
475,192,68667,1,0,0:0:0:0:
182,192,68824,1,0,0:0:0:0:
329,192,68824,1,0,0:0:0:0:
109,192,68824,1,0,0:0:0:0:
402,192,68824,1,0,0:0:0:0:
329,192,68981,1,0,0:0:0:0:
475,192,68981,1,0,0:0:0:0:
182,192,68981,1,0,0:0:0:0:
36,192,68981,1,8,0:0:0:0:
256,192,68981,1,0,0:0:0:50:big kick.wav
402,192,69138,1,0,0:0:0:0:
182,192,69138,1,0,0:0:0:0:
109,192,69138,1,0,0:0:0:0:
329,192,69138,1,0,0:0:0:0:
256,192,69295,1,0,0:0:0:50:big kick.wav
402,192,69295,1,0,0:0:0:0:
475,192,69295,1,0,0:0:0:0:
109,192,69295,1,0,0:0:0:0:
36,192,69295,1,0,0:0:0:0:
329,192,69452,1,0,0:0:0:0:
182,192,69452,1,0,0:0:0:0:
475,192,69452,1,0,0:0:0:0:
36,192,69452,1,0,0:0:0:0:
109,192,69609,1,0,0:0:0:0:
182,192,69609,1,0,0:0:0:50:big kick.wav
329,192,69609,1,0,0:0:0:0:
402,192,69609,1,0,0:0:0:0:
475,192,69609,1,8,0:0:0:0:
182,192,69767,1,0,0:0:0:0:
256,192,69767,1,0,0:0:0:50:big kick.wav
402,192,69767,1,0,0:0:0:0:
36,192,69767,1,0,0:0:0:0:
475,192,69767,1,0,0:0:0:0:
256,192,69924,1,0,0:0:0:0:
329,192,69924,1,0,0:0:0:50:big kick.wav
109,192,69924,1,0,0:0:0:0:
36,192,69924,1,0,0:0:0:0:
475,192,69924,1,0,0:0:0:0:
475,192,70081,1,8,0:0:0:0:
36,192,70081,1,0,0:0:0:0:
402,192,70081,1,0,0:0:0:50:big kick.wav
109,192,70081,1,0,0:0:0:0:
329,192,70159,1,8,0:0:0:0:
256,192,70159,1,2,0:0:0:0:
182,192,70159,1,2,0:0:0:50:big kick.wav
109,192,70238,1,0,0:0:0:0:
475,192,70238,1,8,0:0:0:0:
402,192,70238,1,0,0:0:0:50:big kick.wav
36,192,70238,1,0,0:0:0:0:
109,192,70395,1,0,0:0:0:0:
182,192,70395,1,0,0:0:0:0:
256,192,70395,1,0,0:0:0:50:big kick.wav
329,192,70395,1,0,0:0:0:0:
402,192,70395,1,0,0:0:0:0:
36,192,70552,1,8,0:0:0:0:
109,192,70552,1,0,0:0:0:50:big kick.wav
256,192,70552,1,2,0:0:0:0:
402,192,70552,1,2,0:0:0:0:
475,192,70552,1,0,0:0:0:0:
329,192,70709,1,2,0:0:0:0:
182,192,70709,1,0,0:0:0:50:big kick.wav
36,192,70709,1,8,0:0:0:0:
475,192,70709,1,0,0:0:0:0:
256,192,70709,1,2,0:0:0:0:
402,192,70866,1,0,0:0:0:0:
475,192,70866,1,8,0:0:0:0:
109,192,70866,1,2,0:0:0:0:
36,192,70866,1,2,0:0:0:0:
256,192,70866,1,0,0:0:0:50:big kick.wav
182,192,70945,1,0,0:0:0:0:
329,192,70945,1,0,0:0:0:0:
36,192,71023,1,2,0:0:0:0:
256,192,71023,1,0,0:0:0:0:
109,192,71023,1,2,0:0:0:0:
402,192,71102,1,0,0:0:0:0:
329,192,71102,1,0,0:0:0:0:
109,192,71180,1,2,0:0:0:0:
182,192,71180,1,0,0:0:0:50:big kick.wav
475,192,71180,1,0,0:0:0:0:
36,192,71180,1,2,0:0:0:0:
256,192,71259,1,0,0:0:0:0:
329,192,71259,1,0,0:0:0:0:
402,192,71337,1,0,0:0:0:0:
36,192,71337,1,2,0:0:0:0:
109,192,71337,1,2,0:0:0:0:
256,192,71416,1,0,0:0:0:0:
182,192,71416,1,0,0:0:0:0:
329,192,71494,1,0,0:0:0:50:big kick.wav
402,192,71494,1,2,0:0:0:0:
475,192,71494,1,8,0:0:0:0:
36,192,71494,1,2,0:0:0:0:
182,192,71573,1,0,0:0:0:0:
109,192,71573,1,0,0:0:0:0:
256,192,71651,1,2,0:0:0:0:
402,192,71651,1,2,0:0:0:0:
475,192,71651,1,0,0:0:0:0:
36,192,71730,1,0,0:0:0:0:
109,192,71730,1,0,0:0:0:0:
182,192,71808,1,2,0:0:0:0:
329,192,71808,1,0,0:0:0:50:big kick.wav
256,192,71808,1,0,0:0:0:0:
402,192,71808,1,2,0:0:0:0:
36,192,71887,1,0,0:0:0:0:
109,192,71887,1,0,0:0:0:0:
329,192,71965,1,2,0:0:0:0:
475,192,71965,1,0,0:0:0:0:
256,192,71965,1,2,0:0:0:0:
109,192,72044,1,0,0:0:0:0:
182,192,72044,1,0,0:0:0:0:
329,192,72123,1,0,0:0:0:50:big kick.wav
402,192,72123,1,2,0:0:0:0:
36,192,72123,1,2,0:0:0:0:
475,192,72123,1,8,0:0:0:0:
256,192,72201,1,0,0:0:0:0:
182,192,72201,1,0,0:0:0:0:
109,192,72280,1,2,0:0:0:0:
402,192,72280,1,2,0:0:0:0:
475,192,72280,1,0,0:0:0:0:
329,192,72358,1,0,0:0:0:0:
256,192,72358,1,0,0:0:0:0:
182,192,72437,1,0,0:0:0:50:big kick.wav
109,192,72437,1,2,0:0:0:0:
475,192,72437,1,0,0:0:0:0:
36,192,72437,1,2,0:0:0:0:
329,192,72515,1,0,0:0:0:0:
402,192,72515,1,0,0:0:0:0:
256,192,72594,1,0,0:0:0:0:
109,192,72594,1,2,0:0:0:0:
36,192,72594,1,2,0:0:0:0:
402,192,72672,1,0,0:0:0:0:
475,192,72672,1,0,0:0:0:0:
256,192,72751,1,0,0:0:0:50:big kick.wav
329,192,72751,1,8,0:0:0:0:
182,192,72751,1,2,0:0:0:0:
109,192,72751,1,2,0:0:0:0:
402,192,72829,1,0,0:0:0:0:
475,192,72829,1,0,0:0:0:0:
36,192,72908,1,2,0:0:0:0:
182,192,72908,1,2,0:0:0:0:
256,192,72908,1,0,0:0:0:0:
329,192,72986,1,0,0:0:0:0:
402,192,72986,1,0,0:0:0:0:
182,192,73065,1,0,0:0:0:50:big kick.wav
109,192,73065,1,2,0:0:0:0:
36,192,73065,1,2,0:0:0:0:
475,192,73065,1,0,0:0:0:0:
256,192,73143,1,0,0:0:0:0:
329,192,73143,1,0,0:0:0:0:
402,192,73222,1,0,0:0:0:0:
109,192,73222,1,2,0:0:0:0:
36,192,73222,1,2,0:0:0:0:
182,192,73301,1,0,0:0:0:0:
256,192,73301,1,0,0:0:0:0:
36,192,73379,1,0,0:0:0:50:big kick.wav
475,192,73379,1,8,0:0:0:0:
402,192,73379,1,2,0:0:0:0:
109,192,73458,1,0,0:0:0:0:
329,192,73458,1,0,0:0:0:0:
182,192,73536,1,0,0:0:0:0:
36,192,73536,1,2,0:0:0:0:
402,192,73536,1,2,0:0:0:0:
256,192,73615,1,0,0:0:0:0:
109,192,73615,1,0,0:0:0:0:
182,192,73693,1,2,0:0:0:0:
329,192,73693,1,0,0:0:0:50:big kick.wav
402,192,73693,1,2,0:0:0:0:
475,192,73693,1,0,0:0:0:0:
256,192,73772,1,0,0:0:0:0:
36,192,73772,1,0,0:0:0:0:
329,192,73850,1,2,0:0:0:0:
475,192,73850,1,0,0:0:0:0:
109,192,73850,1,2,0:0:0:0:
182,192,73929,1,0,0:0:0:0:
402,192,73929,1,0,0:0:0:0:
109,192,74007,1,0,0:0:0:50:big kick.wav
36,192,74007,1,2,0:0:0:0:
475,192,74007,1,8,0:0:0:0:
256,192,74007,1,2,0:0:0:0:
182,192,74086,1,0,0:0:0:0:
402,192,74086,1,0,0:0:0:0:
475,192,74164,1,0,0:0:0:0:
329,192,74164,1,2,0:0:0:0:
109,192,74164,1,2,0:0:0:0:
256,192,74243,1,0,0:0:0:0:
36,192,74243,1,0,0:0:0:0:
329,192,74321,1,2,0:0:0:0:
182,192,74321,1,2,0:0:0:0:
402,192,74321,1,0,0:0:0:50:big kick.wav
475,192,74321,1,0,0:0:0:0:
256,192,74400,1,0,0:0:0:0:
109,192,74400,1,0,0:0:0:0:
182,192,74479,1,0,0:0:0:0:
36,192,74479,1,2,0:0:0:0:
329,192,74479,1,2,0:0:0:0:
402,192,74557,1,0,0:0:0:0:
475,192,74557,1,0,0:0:0:0:
36,192,74636,1,2,0:0:0:0:
256,192,74636,1,8,0:0:0:0:
109,192,74636,1,0,0:0:0:50:big kick.wav
182,192,74636,1,2,0:0:0:0:
402,192,74714,1,0,0:0:0:0:
475,192,74714,1,0,0:0:0:0:
36,192,74793,1,2,0:0:0:0:
182,192,74793,1,2,0:0:0:0:
329,192,74793,1,0,0:0:0:0:
109,192,74871,1,0,0:0:0:0:
256,192,74871,1,0,0:0:0:0:
182,192,74950,1,2,0:0:0:0:
329,192,74950,1,2,0:0:0:0:
402,192,74950,1,0,0:0:0:50:big kick.wav
475,192,74950,1,0,0:0:0:0:
256,192,75028,1,0,0:0:0:0:
36,192,75028,1,0,0:0:0:0:
329,192,75107,1,2,0:0:0:0:
475,192,75107,1,0,0:0:0:0:
109,192,75107,1,2,0:0:0:0:
402,192,75185,1,0,0:0:0:0:
182,192,75185,1,0,0:0:0:0:
475,192,75264,1,8,0:0:0:0:
36,192,75264,1,2,0:0:0:0:
109,192,75264,1,0,0:0:0:50:big kick.wav
256,192,75264,1,2,0:0:0:0:
402,192,75342,1,0,0:0:0:0:
182,192,75342,1,0,0:0:0:0:
475,192,75421,1,0,0:0:0:0:
329,192,75421,1,2,0:0:0:0:
109,192,75421,1,2,0:0:0:0:
256,192,75499,1,2,0:0:0:0:
36,192,75499,1,0,0:0:0:50:big kick.wav
329,192,75578,1,2,0:0:0:0:
182,192,75578,1,2,0:0:0:0:
402,192,75578,1,0,0:0:0:50:big kick.wav
475,192,75578,1,0,0:0:0:0:
256,192,75657,1,0,0:0:0:0:
109,192,75657,1,0,0:0:0:0:
182,192,75735,1,0,0:0:0:50:big kick.wav
36,192,75735,1,2,0:0:0:0:
329,192,75735,1,2,0:0:0:0:
402,192,75814,1,0,0:0:0:0:
475,192,75814,1,0,0:0:0:0:
109,192,75892,1,0,0:0:0:50:big kick.wav
36,192,75892,1,0,0:0:0:0:
256,192,75892,1,8,0:0:0:0:
329,192,75971,1,0,0:0:0:0:
182,192,75971,1,0,0:0:0:0:
475,192,76049,1,2,0:0:0:0:
256,192,76049,1,0,0:0:0:0:
402,192,76049,1,2,0:0:0:0:
109,192,76128,1,0,0:0:0:0:
182,192,76128,1,0,0:0:0:0:
402,192,76206,1,2,0:0:0:0:
329,192,76206,1,0,0:0:0:50:big kick.wav
36,192,76206,1,0,0:0:0:0:
475,192,76206,1,2,0:0:0:0:
256,192,76285,1,0,0:0:0:0:
182,192,76285,1,0,0:0:0:0:
109,192,76363,1,0,0:0:0:0:
475,192,76363,1,2,0:0:0:0:
402,192,76363,1,2,0:0:0:0:
256,192,76442,1,0,0:0:0:0:
329,192,76442,1,0,0:0:0:0:
182,192,76520,1,0,0:0:0:50:big kick.wav
109,192,76520,1,2,0:0:0:0:
36,192,76520,1,8,0:0:0:0:
475,192,76520,1,2,0:0:0:0:
329,192,76599,1,0,0:0:0:0:
402,192,76599,1,0,0:0:0:0:
256,192,76678,1,2,0:0:0:0:
109,192,76678,1,2,0:0:0:0:
36,192,76678,1,0,0:0:0:0:
475,192,76756,1,0,0:0:0:0:
402,192,76756,1,0,0:0:0:0:
329,192,76835,1,2,0:0:0:0:
182,192,76835,1,0,0:0:0:0:
256,192,76835,1,0,0:0:0:50:big kick.wav
109,192,76835,1,2,0:0:0:0:
475,192,76913,1,0,0:0:0:0:
402,192,76913,1,0,0:0:0:0:
182,192,76992,1,2,0:0:0:0:
36,192,76992,1,0,0:0:0:0:
256,192,76992,1,2,0:0:0:0:
402,192,77070,1,0,0:0:0:0:
329,192,77070,1,0,0:0:0:0:
182,192,77149,1,2,0:0:0:0:
109,192,77149,1,0,0:0:0:50:big kick.wav
475,192,77149,1,2,0:0:0:0:
36,192,77149,1,8,0:0:0:0:
256,192,77227,1,0,0:0:0:0:
329,192,77227,1,0,0:0:0:0:
402,192,77306,1,2,0:0:0:0:
109,192,77306,1,2,0:0:0:0:
36,192,77306,1,0,0:0:0:0:
182,192,77384,1,0,0:0:0:0:
256,192,77384,1,0,0:0:0:0:
329,192,77463,1,2,0:0:0:0:
402,192,77463,1,0,0:0:0:50:big kick.wav
36,192,77463,1,0,0:0:0:0:
475,192,77463,1,2,0:0:0:0:
182,192,77541,1,0,0:0:0:0:
109,192,77541,1,0,0:0:0:0:
256,192,77620,1,2,0:0:0:0:
402,192,77620,1,0,0:0:0:0:
475,192,77620,1,2,0:0:0:0:
109,192,77698,1,0,0:0:0:0:
36,192,77698,1,0,0:0:0:0:
256,192,77777,1,2,0:0:0:0:
182,192,77777,1,8,0:0:0:0:
329,192,77777,1,0,0:0:0:50:big kick.wav
402,192,77777,1,2,0:0:0:0:
109,192,77856,1,0,0:0:0:0:
36,192,77856,1,0,0:0:0:0:
475,192,77934,1,2,0:0:0:0:
329,192,77934,1,2,0:0:0:0:
256,192,77934,1,0,0:0:0:0:
182,192,78013,1,0,0:0:0:0:
109,192,78013,1,0,0:0:0:0:
329,192,78091,1,2,0:0:0:0:
402,192,78091,1,0,0:0:0:50:big kick.wav
475,192,78091,1,2,0:0:0:0:
36,192,78091,1,0,0:0:0:0:
256,192,78170,1,0,0:0:0:0:
182,192,78170,1,0,0:0:0:0:
109,192,78248,1,2,0:0:0:0:
402,192,78248,1,0,0:0:0:0:
475,192,78248,1,2,0:0:0:0:
329,192,78327,1,0,0:0:0:0:
256,192,78327,1,0,0:0:0:0:
475,192,78405,1,2,0:0:0:50:big kick.wav
36,192,78405,1,8,0:0:0:0:
109,192,78405,1,2,0:0:0:0:
402,192,78484,1,0,0:0:0:0:
182,192,78484,1,0,0:0:0:0:
329,192,78562,1,2,0:0:0:0:
475,192,78562,1,2,0:0:0:0:
109,192,78562,1,0,0:0:0:0:
256,192,78641,1,0,0:0:0:0:
402,192,78641,1,0,0:0:0:0:
329,192,78719,1,2,0:0:0:0:
182,192,78719,1,2,0:0:0:0:
109,192,78719,1,0,0:0:0:50:big kick.wav
36,192,78719,1,0,0:0:0:0:
256,192,78798,1,0,0:0:0:0:
475,192,78798,1,0,0:0:0:0:
182,192,78876,1,2,0:0:0:0:
36,192,78876,1,0,0:0:0:0:
402,192,78876,1,2,0:0:0:0:
329,192,78955,1,0,0:0:0:0:
109,192,78955,1,0,0:0:0:0:
402,192,79034,1,0,0:0:0:50:big kick.wav
475,192,79034,1,2,0:0:0:0:
36,192,79034,1,8,0:0:0:0:
256,192,79034,1,2,0:0:0:0:
329,192,79112,1,0,0:0:0:0:
109,192,79112,1,0,0:0:0:0:
36,192,79191,1,0,0:0:0:0:
182,192,79191,1,2,0:0:0:0:
402,192,79191,1,2,0:0:0:0:
256,192,79269,1,0,0:0:0:0:
475,192,79269,1,0,0:0:0:0:
182,192,79348,1,2,0:0:0:0:
329,192,79348,1,2,0:0:0:0:
109,192,79348,1,0,0:0:0:50:big kick.wav
36,192,79348,1,0,0:0:0:0:
256,192,79426,1,0,0:0:0:0:
402,192,79426,1,0,0:0:0:0:
329,192,79505,1,0,0:0:0:0:
475,192,79505,1,2,0:0:0:0:
182,192,79505,1,2,0:0:0:0:
109,192,79583,1,0,0:0:0:0:
256,192,79583,1,0,0:0:0:0:
36,192,79662,1,0,0:0:0:50:big kick.wav
402,192,79662,1,2,0:0:0:0:
475,192,79662,1,4,0:0:0:0:
182,192,79662,1,2,0:0:0:0:
329,192,79740,1,0,0:0:0:0:
256,192,79740,1,0,0:0:0:0:
402,192,79819,1,2,0:0:0:0:
475,192,79819,1,0,0:0:0:0:
36,192,79819,1,0,0:0:0:50:big kick.wav
109,192,79819,1,2,0:0:0:0:
182,192,79897,1,0,0:0:0:0:
256,192,79897,1,0,0:0:0:0:
109,192,79976,1,2,0:0:0:0:
475,192,79976,1,4,0:0:0:0:
36,192,79976,1,0,0:0:0:50:big kick.wav
402,192,79976,1,2,0:0:0:0:
329,192,80054,1,0,0:0:0:0:
256,192,80054,1,0,0:0:0:0:
475,192,80133,1,4,0:0:0:0:
402,192,80133,1,2,0:0:0:0:
182,192,80133,1,2,0:0:0:0:
36,192,80133,1,0,0:0:0:50:big kick.wav
329,192,80212,1,2,0:0:0:0:
256,192,80212,1,2,0:0:0:0:
109,192,80212,1,0,0:0:0:50:big kick.wav
475,192,80290,1,4,0:0:0:0:
182,192,80290,1,2,0:0:0:0:
402,192,80290,1,2,0:0:0:0:
36,192,80290,1,0,0:0:0:50:big kick.wav
109,192,80369,1,0,0:0:0:0:
329,192,80369,1,0,0:0:0:0:
256,192,80447,1,2,0:0:0:0:
36,192,80447,1,0,0:0:0:50:big kick.wav
475,192,80447,1,0,0:0:0:0:
402,192,80447,1,2,0:0:0:0:
182,192,80526,1,0,0:0:0:0:
329,192,80526,1,0,0:0:0:0:
402,192,80604,1,2,0:0:0:0:
475,192,80604,1,4,0:0:0:0:
256,192,80604,1,2,0:0:0:0:
36,192,80604,1,0,0:0:0:50:big kick.wav
182,192,80683,1,0,0:0:0:0:
329,192,80683,1,0,0:0:0:0:
256,192,80761,1,2,0:0:0:0:
109,192,80761,1,2,0:0:0:0:
36,192,80761,1,0,0:0:0:50:big kick.wav
475,192,80761,1,0,0:0:0:0:
182,192,80840,1,0,0:0:0:0:
109,192,80918,1,2,0:0:0:0:
475,192,80918,1,8,0:0:0:0:
36,192,80918,1,2,0:0:0:0:
256,192,80918,1,0,0:0:0:50:big kick.wav
402,192,80918,1,0,0:0:0:0:
329,192,80997,1,0,0:0:0:0:
182,192,80997,1,0,0:0:0:0:
36,192,81075,1,2,0:0:0:0:
256,192,81075,1,0,0:0:0:0:
402,192,81075,1,2,0:0:0:0:
109,192,81154,1,0,0:0:0:0:
182,192,81154,1,0,0:0:0:0:
402,192,81232,1,2,0:0:0:0:
329,192,81232,1,0,0:0:0:50:big kick.wav
475,192,81232,1,0,0:0:0:0:
36,192,81232,1,2,0:0:0:0:
256,192,81311,1,0,0:0:0:0:
182,192,81311,1,0,0:0:0:0:
109,192,81390,1,0,0:0:0:0:
36,192,81390,1,2,0:0:0:0:
402,192,81390,1,2,0:0:0:0:
256,192,81468,1,0,0:0:0:0:
329,192,81468,1,0,0:0:0:0:
182,192,81547,1,0,0:0:0:50:big kick.wav
109,192,81547,1,2,0:0:0:0:
475,192,81547,1,8,0:0:0:0:
36,192,81547,1,2,0:0:0:0:
329,192,81625,1,0,0:0:0:0:
402,192,81625,1,0,0:0:0:0:
256,192,81704,1,2,0:0:0:0:
36,192,81704,1,2,0:0:0:0:
475,192,81704,1,0,0:0:0:0:
109,192,81782,1,0,0:0:0:0:
402,192,81782,1,0,0:0:0:0:
329,192,81861,1,0,0:0:0:0:
182,192,81861,1,2,0:0:0:0:
256,192,81861,1,0,0:0:0:50:big kick.wav
36,192,81861,1,2,0:0:0:0:
109,192,81939,1,0,0:0:0:0:
475,192,81939,1,0,0:0:0:0:
182,192,82018,1,2,0:0:0:0:
402,192,82018,1,0,0:0:0:0:
256,192,82018,1,2,0:0:0:0:
475,192,82096,1,0,0:0:0:0:
329,192,82096,1,0,0:0:0:0:
182,192,82175,1,2,0:0:0:0:
109,192,82175,1,0,0:0:0:50:big kick.wav
36,192,82175,1,2,0:0:0:0:
402,192,82175,1,8,0:0:0:0:
256,192,82253,1,0,0:0:0:0:
329,192,82253,1,0,0:0:0:0:
402,192,82332,1,2,0:0:0:0:
109,192,82332,1,2,0:0:0:0:
475,192,82332,1,0,0:0:0:0:
182,192,82410,1,0,0:0:0:0:
256,192,82410,1,0,0:0:0:0:
329,192,82489,1,2,0:0:0:0:
402,192,82489,1,0,0:0:0:50:big kick.wav
475,192,82489,1,0,0:0:0:0:
36,192,82489,1,2,0:0:0:0:
182,192,82568,1,0,0:0:0:0:
109,192,82568,1,0,0:0:0:0:
256,192,82646,1,2,0:0:0:0:
475,192,82646,1,0,0:0:0:0:
36,192,82646,1,2,0:0:0:0:
109,192,82725,1,0,0:0:0:0:
402,192,82725,1,0,0:0:0:0:
256,192,82803,1,0,0:0:0:50:big kick.wav
182,192,82803,1,2,0:0:0:0:
329,192,82803,1,2,0:0:0:0:
475,192,82803,1,8,0:0:0:0:
36,192,82882,1,0,0:0:0:0:
402,192,82882,1,0,0:0:0:0:
109,192,82960,1,2,0:0:0:0:
329,192,82960,1,0,0:0:0:0:
256,192,82960,1,2,0:0:0:0:
182,192,83039,1,0,0:0:0:0:
36,192,83039,1,0,0:0:0:0:
329,192,83117,1,0,0:0:0:50:big kick.wav
402,192,83117,1,2,0:0:0:0:
109,192,83117,1,2,0:0:0:0:
475,192,83117,1,0,0:0:0:0:
256,192,83196,1,0,0:0:0:0:
182,192,83196,1,0,0:0:0:0:
109,192,83274,1,2,0:0:0:0:
402,192,83274,1,0,0:0:0:0:
36,192,83274,1,2,0:0:0:0:
329,192,83353,1,0,0:0:0:0:
182,192,83353,1,0,0:0:0:0:
36,192,83431,1,2,0:0:0:0:
475,192,83431,1,8,0:0:0:0:
256,192,83431,1,2,0:0:0:50:big kick.wav
402,192,83510,1,0,0:0:0:0:
182,192,83510,1,0,0:0:0:0:
329,192,83589,1,2,0:0:0:0:
36,192,83589,1,2,0:0:0:0:
109,192,83589,1,0,0:0:0:0:
256,192,83667,1,0,0:0:0:0:
402,192,83667,1,0,0:0:0:0:
329,192,83746,1,0,0:0:0:50:big kick.wav
182,192,83746,1,2,0:0:0:0:
109,192,83746,1,2,0:0:0:0:
475,192,83746,1,0,0:0:0:0:
256,192,83824,1,0,0:0:0:0:
36,192,83824,1,0,0:0:0:0:
182,192,83903,1,2,0:0:0:0:
475,192,83903,1,0,0:0:0:0:
402,192,83903,1,2,0:0:0:0:
329,192,83981,1,0,0:0:0:0:
109,192,83981,1,0,0:0:0:0:
402,192,84060,1,0,0:0:0:50:big kick.wav
36,192,84060,1,2,0:0:0:0:
475,192,84060,1,8,0:0:0:0:
256,192,84060,1,2,0:0:0:0:
329,192,84138,1,0,0:0:0:0:
109,192,84138,1,0,0:0:0:0:
475,192,84217,1,0,0:0:0:0:
182,192,84217,1,2,0:0:0:0:
402,192,84217,1,2,0:0:0:0:
256,192,84295,1,0,0:0:0:0:
36,192,84295,1,0,0:0:0:0:
182,192,84374,1,2,0:0:0:0:
329,192,84374,1,0,0:0:0:50:big kick.wav
109,192,84374,1,2,0:0:0:0:
475,192,84374,1,0,0:0:0:0:
256,192,84452,1,0,0:0:0:0:
402,192,84452,1,0,0:0:0:0:
329,192,84531,1,0,0:0:0:0:
36,192,84531,1,2,0:0:0:0:
182,192,84531,1,2,0:0:0:0:
109,192,84609,1,0,0:0:0:0:
475,192,84609,1,0,0:0:0:0:
36,192,84688,1,2,0:0:0:0:
256,192,84688,1,2,0:0:0:0:
402,192,84688,1,8,0:0:0:0:
329,192,84688,1,0,0:0:0:50:big kick.wav
109,192,84767,1,0,0:0:0:0:
475,192,84767,1,0,0:0:0:0:
36,192,84845,1,2,0:0:0:0:
329,192,84845,1,2,0:0:0:0:
182,192,84845,1,0,0:0:0:0:
402,192,84924,1,0,0:0:0:0:
256,192,84924,1,0,0:0:0:0:
329,192,85002,1,0,0:0:0:50:big kick.wav
182,192,85002,1,2,0:0:0:0:
109,192,85002,1,2,0:0:0:0:
475,192,85002,1,0,0:0:0:0:
256,192,85081,1,0,0:0:0:0:
36,192,85081,1,0,0:0:0:0:
182,192,85159,1,2,0:0:0:0:
475,192,85159,1,0,0:0:0:0:
402,192,85159,1,2,0:0:0:0:
109,192,85238,1,0,0:0:0:0:
329,192,85238,1,0,0:0:0:0:
475,192,85316,1,8,0:0:0:0:
36,192,85316,1,2,0:0:0:0:
402,192,85316,1,0,0:0:0:50:big kick.wav
256,192,85316,1,2,0:0:0:0:
109,192,85395,1,0,0:0:0:0:
329,192,85395,1,0,0:0:0:0:
475,192,85473,1,0,0:0:0:0:
182,192,85473,1,2,0:0:0:0:
402,192,85473,1,2,0:0:0:0:
256,192,85552,1,2,0:0:0:0:
36,192,85552,1,0,0:0:0:50:big kick.wav
182,192,85630,1,2,0:0:0:0:
329,192,85630,1,0,0:0:0:50:big kick.wav
109,192,85630,1,2,0:0:0:0:
475,192,85630,1,0,0:0:0:0:
256,192,85709,1,0,0:0:0:0:
402,192,85709,1,0,0:0:0:0:
329,192,85787,1,0,0:0:0:50:big kick.wav
36,192,85787,1,2,0:0:0:0:
182,192,85787,1,2,0:0:0:0:
109,192,85866,1,0,0:0:0:0:
475,192,85866,1,0,0:0:0:0:
402,192,85945,1,8,0:0:0:0:
36,192,85945,1,2,0:0:0:0:
256,192,85945,1,2,0:0:0:50:big kick.wav
182,192,86023,1,0,0:0:0:0:
329,192,86023,1,0,0:0:0:0:
475,192,86102,1,0,0:0:0:0:
256,192,86102,1,2,0:0:0:0:
109,192,86102,1,2,0:0:0:0:
402,192,86180,1,0,0:0:0:0:
329,192,86180,1,0,0:0:0:0:
109,192,86259,1,2,0:0:0:0:
182,192,86259,1,0,0:0:0:50:big kick.wav
36,192,86259,1,2,0:0:0:0:
475,192,86259,1,0,0:0:0:0:
256,192,86337,1,0,0:0:0:0:
329,192,86337,1,0,0:0:0:0:
402,192,86416,1,2,0:0:0:0:
475,192,86416,1,0,0:0:0:0:
109,192,86416,1,2,0:0:0:0:
256,192,86494,1,0,0:0:0:0:
182,192,86494,1,0,0:0:0:0:
329,192,86573,1,0,0:0:0:50:big kick.wav
402,192,86573,1,2,0:0:0:0:
36,192,86573,1,2,0:0:0:0:
475,192,86573,1,8,0:0:0:0:
182,192,86651,1,0,0:0:0:0:
109,192,86651,1,0,0:0:0:0:
256,192,86730,1,2,0:0:0:0:
475,192,86730,1,0,0:0:0:0:
36,192,86730,1,2,0:0:0:0:
402,192,86808,1,0,0:0:0:0:
109,192,86808,1,0,0:0:0:0:
182,192,86887,1,2,0:0:0:0:
329,192,86887,1,0,0:0:0:50:big kick.wav
256,192,86887,1,2,0:0:0:0:
475,192,86887,1,0,0:0:0:0:
402,192,86965,1,0,0:0:0:0:
36,192,86965,1,0,0:0:0:0:
329,192,87044,1,0,0:0:0:0:
109,192,87044,1,2,0:0:0:0:
256,192,87044,1,2,0:0:0:0:
36,192,87123,1,0,0:0:0:0:
182,192,87123,1,0,0:0:0:0:
329,192,87201,1,0,0:0:0:50:big kick.wav
402,192,87201,1,2,0:0:0:0:
475,192,87201,1,8,0:0:0:0:
109,192,87201,1,2,0:0:0:0:
256,192,87280,1,0,0:0:0:0:
182,192,87280,1,0,0:0:0:0:
109,192,87358,1,2,0:0:0:0:
402,192,87358,1,0,0:0:0:0:
36,192,87358,1,2,0:0:0:0:
329,192,87437,1,0,0:0:0:0:
256,192,87437,1,0,0:0:0:0:
182,192,87515,1,0,0:0:0:50:big kick.wav
109,192,87515,1,2,0:0:0:0:
36,192,87515,1,2,0:0:0:0:
475,192,87515,1,0,0:0:0:0:
329,192,87594,1,0,0:0:0:0:
402,192,87594,1,0,0:0:0:0:
256,192,87672,1,2,0:0:0:0:
36,192,87672,1,2,0:0:0:0:
475,192,87672,1,0,0:0:0:0:
402,192,87751,1,0,0:0:0:0:
109,192,87751,1,0,0:0:0:0:
256,192,87829,1,2,0:0:0:0:
329,192,87829,1,8,0:0:0:0:
182,192,87829,1,0,0:0:0:50:big kick.wav
36,192,87829,1,2,0:0:0:0:
475,192,87908,1,0,0:0:0:0:
109,192,87908,1,0,0:0:0:0:
402,192,87986,1,0,0:0:0:0:
182,192,87986,1,2,0:0:0:0:
256,192,87986,1,2,0:0:0:0:
329,192,88065,1,0,0:0:0:0:
475,192,88065,1,0,0:0:0:0:
182,192,88143,1,0,0:0:0:50:big kick.wav
109,192,88143,1,2,0:0:0:0:
402,192,88143,1,0,0:0:0:0:
36,192,88143,1,2,0:0:0:0:
256,192,88222,1,0,0:0:0:0:
329,192,88222,1,0,0:0:0:0:
402,192,88301,1,2,0:0:0:0:
109,192,88301,1,2,0:0:0:0:
475,192,88301,1,0,0:0:0:0:
182,192,88379,1,0,0:0:0:0:
329,192,88379,1,0,0:0:0:0:
475,192,88458,1,8,0:0:0:0:
36,192,88458,1,2,0:0:0:50:big kick.wav
256,192,88458,1,2,0:0:0:0:
109,192,88536,1,0,0:0:0:0:
329,192,88536,1,0,0:0:0:0:
182,192,88615,1,2,0:0:0:0:
475,192,88615,1,0,0:0:0:0:
402,192,88615,1,2,0:0:0:0:
256,192,88693,1,0,0:0:0:0:
109,192,88693,1,0,0:0:0:0:
182,192,88772,1,0,0:0:0:50:big kick.wav
329,192,88772,1,2,0:0:0:0:
402,192,88772,1,0,0:0:0:0:
36,192,88772,1,2,0:0:0:0:
256,192,88850,1,0,0:0:0:0:
475,192,88850,1,0,0:0:0:0:
329,192,88929,1,0,0:0:0:0:
36,192,88929,1,2,0:0:0:0:
109,192,88929,1,2,0:0:0:0:
182,192,89007,1,0,0:0:0:0:
402,192,89007,1,0,0:0:0:0:
109,192,89086,1,0,0:0:0:50:big kick.wav
475,192,89086,1,8,0:0:0:0:
36,192,89086,1,2,0:0:0:0:
256,192,89086,1,2,0:0:0:0:
182,192,89164,1,0,0:0:0:0:
402,192,89164,1,0,0:0:0:0:
36,192,89243,1,2,0:0:0:0:
329,192,89243,1,2,0:0:0:0:
109,192,89243,1,0,0:0:0:0:
256,192,89321,1,0,0:0:0:0:
475,192,89321,1,0,0:0:0:0:
329,192,89400,1,2,0:0:0:0:
182,192,89400,1,0,0:0:0:50:big kick.wav
402,192,89400,1,0,0:0:0:0:
36,192,89400,1,2,0:0:0:0:
256,192,89479,1,0,0:0:0:0:
109,192,89479,1,0,0:0:0:0:
182,192,89557,1,2,0:0:0:0:
475,192,89557,1,2,0:0:0:0:
329,192,89557,1,0,0:0:0:0:
402,192,89636,1,0,0:0:0:0:
256,192,89636,1,0,0:0:0:0:
36,192,89714,1,2,0:0:0:0:
109,192,89714,1,2,0:0:0:0:
329,192,89714,1,0,0:0:0:0:
475,192,89714,1,8,0:0:0:0:
182,192,89793,1,0,0:0:0:0:
256,192,89871,1,0,0:0:0:0:
402,192,89871,1,0,0:0:0:0:
475,192,89871,1,0,0:0:0:0:
182,192,89950,1,0,0:0:0:0:
109,192,90028,1,0,0:0:0:0:
36,192,90028,1,0,0:0:0:0:
402,192,90028,1,0,0:0:0:0:
329,192,90107,1,0,0:0:0:0:
256,192,90185,1,0,0:0:0:0:
36,192,90185,1,0,0:0:0:0:
182,192,90185,1,0,0:0:0:0:
329,192,90264,1,0,0:0:0:0:
402,192,90342,1,0,0:0:0:0:
109,192,90342,1,0,0:0:0:0:
475,192,90342,1,0,0:0:0:0:
182,192,90421,1,0,0:0:0:0:
256,192,90499,1,0,0:0:0:0:
329,192,90499,1,0,0:0:0:0:
475,192,90499,1,0,0:0:0:0:
182,192,90578,1,0,0:0:0:0:
109,192,90657,1,0,0:0:0:0:
402,192,90657,1,0,0:0:0:0:
36,192,90657,1,0,0:0:0:0:
329,192,90735,1,0,0:0:0:0:
256,192,90814,1,0,0:0:0:0:
182,192,90814,1,0,0:0:0:0:
36,192,90814,1,0,0:0:0:0:
329,192,90892,1,0,0:0:0:0:
36,192,90971,1,0,0:0:0:0:
475,192,90971,1,2,0:0:0:0:
402,192,90971,1,0,0:0:0:0:
109,192,90971,1,0,0:0:0:0:
256,192,90971,1,2,0:0:0:0:
475,192,91128,1,2,0:0:0:0:
329,192,91128,1,2,0:0:0:0:
36,192,91128,1,0,0:0:0:0:
256,192,91206,1,2,0:0:0:0:
182,192,91206,1,0,0:0:0:0:
109,192,91206,1,2,0:0:0:0:
475,192,91285,1,2,0:0:0:0:
329,192,91285,1,2,0:0:0:0:
36,192,91285,1,0,0:0:0:0:
402,192,91285,1,0,0:0:0:50:big kick.wav
109,192,91442,1,0,0:0:0:0:
256,192,91442,1,2,0:0:0:0:
329,192,91442,1,0,0:0:0:0:
402,192,91442,1,2,0:0:0:0:
36,192,91599,1,0,0:0:0:0:
182,192,91599,1,2,0:0:0:0:
329,192,91599,1,2,0:0:0:0:
475,192,91599,1,0,0:0:0:0:
256,192,91599,1,0,0:0:0:50:big kick.wav
109,192,91756,1,2,0:0:0:0:
256,192,91756,1,2,0:0:0:0:
182,192,91756,1,0,0:0:0:0:
402,192,91756,1,0,0:0:0:0:
36,192,91913,1,0,0:0:0:0:
256,192,91913,1,0,0:0:0:50:big kick.wav
182,192,91913,1,2,0:0:0:0:
329,192,91913,1,2,0:0:0:0:
475,192,91913,1,0,0:0:0:0:
109,192,92070,1,0,0:0:0:0:
256,192,92070,1,2,0:0:0:0:
329,192,92070,1,0,0:0:0:0:
402,192,92070,1,2,0:0:0:0:
36,192,92227,1,0,0:0:0:0:
182,192,92227,1,0,0:0:0:0:
329,192,92227,1,2,0:0:0:0:
402,192,92227,1,0,0:0:0:50:big kick.wav
475,192,92227,1,2,0:0:0:0:
109,192,92384,1,2,0:0:0:0:
256,192,92384,1,2,0:0:0:0:
475,192,92384,1,0,0:0:0:0:
36,192,92463,1,2,0:0:0:0:
182,192,92463,1,2,0:0:0:0:
402,192,92463,1,0,0:0:0:0:
256,192,92541,1,2,0:0:0:0:
329,192,92541,1,0,0:0:0:50:big kick.wav
475,192,92541,1,0,0:0:0:0:
109,192,92541,1,2,0:0:0:0:
36,192,92698,1,2,0:0:0:0:
182,192,92698,1,2,0:0:0:0:
402,192,92698,1,0,0:0:0:0:
109,192,92777,1,2,0:0:0:0:
256,192,92777,1,2,0:0:0:0:
329,192,92777,1,0,0:0:0:0:
475,192,92856,1,0,0:0:0:0:
402,192,92856,1,0,0:0:0:50:big kick.wav
36,192,92856,1,2,0:0:0:0:
182,192,92856,1,2,0:0:0:0:
402,192,93013,1,2,0:0:0:0:
256,192,93013,1,2,0:0:0:0:
329,192,93013,1,0,0:0:0:0:
109,192,93013,1,0,0:0:0:0:
475,192,93170,1,0,0:0:0:0:
256,192,93170,1,0,0:0:0:50:big kick.wav
329,192,93170,1,2,0:0:0:0:
182,192,93170,1,2,0:0:0:0:
36,192,93170,1,0,0:0:0:0:
402,192,93327,1,0,0:0:0:0:
256,192,93327,1,2,0:0:0:0:
182,192,93327,1,0,0:0:0:0:
109,192,93327,1,2,0:0:0:0:
475,192,93484,1,0,0:0:0:0:
329,192,93484,1,0,0:0:0:0:
182,192,93484,1,2,0:0:0:0:
109,192,93484,1,0,0:0:0:50:big kick.wav
36,192,93484,1,2,0:0:0:0:
109,192,93641,1,2,0:0:0:0:
256,192,93641,1,2,0:0:0:0:
402,192,93641,1,0,0:0:0:0:
182,192,93719,1,2,0:0:0:0:
329,192,93719,1,2,0:0:0:0:
475,192,93719,1,0,0:0:0:0:
36,192,93798,1,2,0:0:0:0:
256,192,93798,1,2,0:0:0:0:
402,192,93798,1,0,0:0:0:0:
109,192,93798,1,0,0:0:0:50:big kick.wav
475,192,93955,1,0,0:0:0:0:
329,192,93955,1,2,0:0:0:0:
182,192,93955,1,0,0:0:0:0:
109,192,93955,1,2,0:0:0:0:
475,192,94112,1,0,0:0:0:0:
402,192,94112,1,0,0:0:0:0:
182,192,94112,1,0,0:0:0:50:big kick.wav
36,192,94112,1,2,0:0:0:0:
256,192,94112,1,2,0:0:0:0:
36,192,94269,1,0,0:0:0:0:
256,192,94269,1,0,0:0:0:0:
329,192,94269,1,2,0:0:0:0:
109,192,94269,1,2,0:0:0:0:
109,192,94426,1,0,0:0:0:0:
402,192,94426,1,2,0:0:0:0:
329,192,94426,1,0,0:0:0:50:big kick.wav
182,192,94426,1,2,0:0:0:0:
36,192,94426,1,0,0:0:0:0:
256,192,94583,1,2,0:0:0:0:
402,192,94583,1,0,0:0:0:0:
475,192,94583,1,2,0:0:0:0:
109,192,94583,1,0,0:0:0:0:
475,192,94740,1,0,0:0:0:0:
329,192,94740,1,2,0:0:0:0:
182,192,94740,1,0,0:0:0:50:big kick.wav
109,192,94740,1,2,0:0:0:0:
36,192,94740,1,0,0:0:0:0:
402,192,94897,1,2,0:0:0:0:
256,192,94897,1,0,0:0:0:0:
36,192,94897,1,0,0:0:0:0:
182,192,94897,1,2,0:0:0:0:
475,192,95054,1,8,0:0:0:0:
109,192,95054,1,0,0:0:0:0:
36,192,95054,1,0,0:0:0:0:
182,192,95054,1,0,0:0:0:50:big kick.wav
402,192,95133,1,2,0:0:0:0:
329,192,95133,1,0,0:0:0:0:
256,192,95133,1,2,0:0:0:0:
475,192,95212,1,8,0:0:0:0:
109,192,95212,1,0,0:0:0:0:
36,192,95212,1,0,0:0:0:0:
329,192,95290,1,2,0:0:0:0:
256,192,95290,1,0,0:0:0:0:
182,192,95290,1,2,0:0:0:0:
475,192,95369,1,8,0:0:0:0:
36,192,95369,1,0,0:0:0:0:
402,192,95369,1,0,0:0:0:50:big kick.wav
256,192,95447,1,2,0:0:0:0:
182,192,95447,1,0,0:0:0:0:
109,192,95447,1,2,0:0:0:0:
475,192,95526,1,8,0:0:0:0:
329,192,95526,1,0,0:0:0:0:
402,192,95526,1,0,0:0:0:0:
182,192,95604,1,2,0:0:0:0:
109,192,95604,1,0,0:0:0:50:big kick.wav
36,192,95604,1,2,0:0:0:0:
475,192,95683,1,8,0:0:0:0:
329,192,95683,1,0,0:0:0:0:
402,192,95683,1,0,0:0:0:50:big kick.wav
109,192,95761,1,2,0:0:0:0:
182,192,95761,1,0,0:0:0:0:
256,192,95761,1,2,0:0:0:0:
475,192,95840,1,8,0:0:0:0:
36,192,95840,1,0,0:0:0:0:
402,192,95840,1,0,0:0:0:50:big kick.wav
182,192,95918,1,2,0:0:0:0:
256,192,95918,1,0,0:0:0:0:
329,192,95918,1,2,0:0:0:0:
475,192,95997,1,2,0:0:0:0:
402,192,95997,1,0,0:0:0:50:big kick.wav
109,192,95997,1,2,0:0:0:0:
36,192,95997,1,0,0:0:0:0:
475,192,96154,1,0,0:0:0:0:
329,192,96154,1,2,0:0:0:0:
36,192,96154,1,2,0:0:0:0:
256,192,96232,1,2,0:0:0:0:
182,192,96232,1,0,0:0:0:0:
109,192,96232,1,2,0:0:0:0:
475,192,96311,1,0,0:0:0:0:
329,192,96311,1,2,0:0:0:0:
36,192,96311,1,2,0:0:0:0:
402,192,96311,1,0,0:0:0:50:big kick.wav
109,192,96468,1,2,0:0:0:0:
256,192,96468,1,2,0:0:0:0:
329,192,96468,1,0,0:0:0:0:
402,192,96468,1,0,0:0:0:0:
36,192,96625,1,2,0:0:0:0:
182,192,96625,1,2,0:0:0:0:
329,192,96625,1,0,0:0:0:0:
475,192,96625,1,0,0:0:0:0:
256,192,96625,1,0,0:0:0:50:big kick.wav
109,192,96782,1,2,0:0:0:0:
256,192,96782,1,2,0:0:0:0:
182,192,96782,1,0,0:0:0:0:
402,192,96782,1,0,0:0:0:0:
36,192,96939,1,0,0:0:0:0:
256,192,96939,1,0,0:0:0:50:big kick.wav
182,192,96939,1,2,0:0:0:0:
329,192,96939,1,2,0:0:0:0:
475,192,96939,1,0,0:0:0:0:
109,192,97096,1,0,0:0:0:0:
256,192,97096,1,2,0:0:0:0:
329,192,97096,1,0,0:0:0:0:
402,192,97096,1,2,0:0:0:0:
36,192,97253,1,0,0:0:0:0:
182,192,97253,1,0,0:0:0:0:
329,192,97253,1,2,0:0:0:0:
402,192,97253,1,0,0:0:0:50:big kick.wav
475,192,97253,1,2,0:0:0:0:
109,192,97410,1,2,0:0:0:0:
256,192,97410,1,2,0:0:0:0:
475,192,97410,1,0,0:0:0:0:
36,192,97489,1,2,0:0:0:0:
182,192,97489,1,2,0:0:0:0:
402,192,97489,1,0,0:0:0:0:
256,192,97568,1,2,0:0:0:0:
329,192,97568,1,0,0:0:0:50:big kick.wav
475,192,97568,1,0,0:0:0:0:
109,192,97568,1,2,0:0:0:0:
36,192,97725,1,0,0:0:0:0:
182,192,97725,1,2,0:0:0:0:
402,192,97725,1,2,0:0:0:0:
109,192,97803,1,0,0:0:0:0:
256,192,97803,1,2,0:0:0:0:
329,192,97803,1,2,0:0:0:0:
475,192,97882,1,0,0:0:0:0:
402,192,97882,1,2,0:0:0:0:
36,192,97882,1,0,0:0:0:50:big kick.wav
182,192,97882,1,2,0:0:0:0:
402,192,98039,1,2,0:0:0:0:
256,192,98039,1,2,0:0:0:0:
329,192,98039,1,0,0:0:0:0:
109,192,98039,1,0,0:0:0:0:
475,192,98196,1,0,0:0:0:0:
256,192,98196,1,0,0:0:0:50:big kick.wav
329,192,98196,1,2,0:0:0:0:
182,192,98196,1,2,0:0:0:0:
36,192,98196,1,0,0:0:0:0:
402,192,98353,1,0,0:0:0:0:
256,192,98353,1,2,0:0:0:0:
182,192,98353,1,0,0:0:0:0:
109,192,98353,1,2,0:0:0:0:
475,192,98510,1,0,0:0:0:0:
329,192,98510,1,2,0:0:0:0:
182,192,98510,1,2,0:0:0:0:
109,192,98510,1,0,0:0:0:50:big kick.wav
36,192,98510,1,0,0:0:0:0:
109,192,98667,1,2,0:0:0:0:
256,192,98667,1,2,0:0:0:0:
402,192,98667,1,0,0:0:0:0:
182,192,98746,1,0,0:0:0:0:
329,192,98746,1,2,0:0:0:0:
475,192,98746,1,0,0:0:0:0:
36,192,98824,1,0,0:0:0:0:
256,192,98824,1,2,0:0:0:0:
402,192,98824,1,2,0:0:0:0:
109,192,98824,1,0,0:0:0:50:big kick.wav
475,192,98981,1,0,0:0:0:0:
329,192,98981,1,2,0:0:0:0:
182,192,98981,1,2,0:0:0:0:
109,192,98981,1,0,0:0:0:0:
475,192,99138,1,0,0:0:0:0:
402,192,99138,1,2,0:0:0:0:
182,192,99138,1,2,0:0:0:0:
36,192,99138,1,0,0:0:0:0:
256,192,99138,1,0,0:0:0:50:big kick.wav
36,192,99295,1,0,0:0:0:0:
256,192,99295,1,0,0:0:0:0:
329,192,99295,1,2,0:0:0:0:
109,192,99295,1,2,0:0:0:0:
109,192,99452,1,0,0:0:0:0:
402,192,99452,1,2,0:0:0:0:
329,192,99452,1,0,0:0:0:50:big kick.wav
182,192,99452,1,2,0:0:0:0:
36,192,99452,1,0,0:0:0:0:
256,192,99609,1,2,0:0:0:0:
402,192,99609,1,0,0:0:0:0:
475,192,99609,1,2,0:0:0:0:
109,192,99609,1,0,0:0:0:0:
475,192,99767,1,2,0:0:0:0:
329,192,99767,1,2,0:0:0:0:
182,192,99767,1,0,0:0:0:0:
109,192,99767,1,0,0:0:0:50:big kick.wav
36,192,99767,1,4,0:0:0:0:
402,192,99924,1,2,0:0:0:0:
256,192,99924,1,2,0:0:0:0:
36,192,99924,1,0,0:0:0:0:
182,192,99924,1,0,0:0:0:50:big kick.wav
475,192,99924,1,0,0:0:0:0:
475,192,100081,1,0,0:0:0:0:
36,192,100081,1,4,0:0:0:0:
109,192,100081,1,0,0:0:0:50:big kick.wav
402,192,100081,1,2,0:0:0:0:
256,192,100081,1,2,0:0:0:0:
329,192,100159,1,2,0:0:0:0:
256,192,100238,1,2,0:0:0:0:
402,192,100238,1,2,0:0:0:0:
475,192,100238,1,0,0:0:0:0:
109,192,100238,1,0,0:0:0:50:big kick.wav
36,192,100238,1,4,0:0:0:0:
329,192,100316,1,2,0:0:0:0:
182,192,100316,1,0,0:0:0:50:big kick.wav
256,192,100395,1,2,0:0:0:0:
109,192,100395,1,0,0:0:0:50:big kick.wav
36,192,100395,1,4,0:0:0:0:
402,192,100395,1,2,0:0:0:0:
475,192,100395,1,0,0:0:0:0:
182,192,100473,1,0,0:0:0:0:
256,192,100552,1,2,0:0:0:0:
402,192,100552,1,2,0:0:0:0:
475,192,100552,1,0,0:0:0:0:
109,192,100552,1,0,0:0:0:50:big kick.wav
36,192,100552,1,0,0:0:0:0:
329,192,100630,1,2,0:0:0:0:
182,192,100709,1,0,0:0:0:0:
475,192,100709,1,2,0:0:0:0:
109,192,100709,1,0,0:0:0:50:big kick.wav
36,192,100709,1,4,0:0:0:0:
402,192,100709,1,2,0:0:0:0:
109,192,100866,1,0,0:0:0:50:big kick.wav
36,192,100866,1,0,0:0:0:0:
182,192,100866,1,2,0:0:0:0:
402,192,100866,1,2,0:0:0:0:
475,192,100866,1,0,0:0:0:0:
329,192,100945,1,2,0:0:0:0:
256,192,100945,1,0,0:0:0:0:
36,192,101023,1,0,0:0:0:0:
109,192,101023,1,2,0:0:0:0:
475,192,101023,1,0,0:0:0:50:big kick.wav
402,192,101023,1,2,0:0:0:0:
36,192,101180,1,0,0:0:0:0:
182,192,101180,1,2,0:0:0:0:
475,192,101180,1,2,0:0:0:0:
256,192,101259,1,2,0:0:0:0:
329,192,101259,1,0,0:0:0:0:
402,192,101259,1,2,0:0:0:0:
36,192,101337,1,0,0:0:0:0:
182,192,101337,1,2,0:0:0:0:
475,192,101337,1,2,0:0:0:0:
109,192,101337,1,0,0:0:0:50:big kick.wav
402,192,101494,1,2,0:0:0:0:
256,192,101494,1,2,0:0:0:0:
182,192,101494,1,0,0:0:0:0:
109,192,101494,1,0,0:0:0:0:
475,192,101651,1,2,0:0:0:0:
329,192,101651,1,2,0:0:0:0:
182,192,101651,1,0,0:0:0:0:
36,192,101651,1,0,0:0:0:0:
256,192,101651,1,0,0:0:0:50:big kick.wav
402,192,101808,1,2,0:0:0:0:
256,192,101808,1,2,0:0:0:0:
329,192,101808,1,0,0:0:0:0:
109,192,101808,1,0,0:0:0:0:
475,192,101965,1,0,0:0:0:0:
256,192,101965,1,0,0:0:0:50:big kick.wav
329,192,101965,1,2,0:0:0:0:
182,192,101965,1,2,0:0:0:0:
36,192,101965,1,0,0:0:0:0:
402,192,102123,1,0,0:0:0:0:
256,192,102123,1,2,0:0:0:0:
182,192,102123,1,0,0:0:0:0:
109,192,102123,1,2,0:0:0:0:
475,192,102280,1,0,0:0:0:0:
329,192,102280,1,0,0:0:0:0:
182,192,102280,1,2,0:0:0:0:
109,192,102280,1,0,0:0:0:50:big kick.wav
36,192,102280,1,2,0:0:0:0:
402,192,102437,1,2,0:0:0:0:
256,192,102437,1,0,0:0:0:0:
36,192,102437,1,2,0:0:0:0:
475,192,102515,1,0,0:0:0:0:
329,192,102515,1,2,0:0:0:0:
109,192,102515,1,2,0:0:0:0:
256,192,102594,1,0,0:0:0:0:
182,192,102594,1,0,0:0:0:50:big kick.wav
36,192,102594,1,2,0:0:0:0:
402,192,102594,1,2,0:0:0:0:
475,192,102751,1,0,0:0:0:0:
329,192,102751,1,2,0:0:0:0:
109,192,102751,1,2,0:0:0:0:
402,192,102829,1,2,0:0:0:0:
256,192,102829,1,0,0:0:0:0:
182,192,102829,1,2,0:0:0:0:
36,192,102908,1,0,0:0:0:0:
109,192,102908,1,2,0:0:0:0:
475,192,102908,1,0,0:0:0:50:big kick.wav
329,192,102908,1,2,0:0:0:0:
109,192,103065,1,0,0:0:0:0:
256,192,103065,1,0,0:0:0:0:
182,192,103065,1,2,0:0:0:0:
402,192,103065,1,2,0:0:0:0:
36,192,103222,1,0,0:0:0:0:
256,192,103222,1,2,0:0:0:0:
182,192,103222,1,0,0:0:0:0:
329,192,103222,1,0,0:0:0:50:big kick.wav
475,192,103222,1,2,0:0:0:0:
109,192,103379,1,2,0:0:0:0:
256,192,103379,1,0,0:0:0:0:
329,192,103379,1,2,0:0:0:0:
402,192,103379,1,0,0:0:0:0:
36,192,103536,1,0,0:0:0:0:
182,192,103536,1,2,0:0:0:0:
329,192,103536,1,0,0:0:0:50:big kick.wav
402,192,103536,1,2,0:0:0:0:
475,192,103536,1,0,0:0:0:0:
402,192,103693,1,2,0:0:0:0:
256,192,103693,1,2,0:0:0:0:
109,192,103693,1,0,0:0:0:0:
329,192,103772,1,2,0:0:0:0:
182,192,103772,1,2,0:0:0:0:
36,192,103772,1,0,0:0:0:0:
475,192,103850,1,0,0:0:0:0:
256,192,103850,1,2,0:0:0:0:
109,192,103850,1,0,0:0:0:50:big kick.wav
402,192,103850,1,2,0:0:0:0:
36,192,104007,1,0,0:0:0:0:
182,192,104007,1,2,0:0:0:0:
329,192,104007,1,2,0:0:0:0:
402,192,104007,1,0,0:0:0:0:
36,192,104164,1,0,0:0:0:0:
109,192,104164,1,2,0:0:0:0:
329,192,104164,1,0,0:0:0:50:big kick.wav
475,192,104164,1,0,0:0:0:0:
256,192,104164,1,2,0:0:0:0:
475,192,104321,1,0,0:0:0:0:
256,192,104321,1,0,0:0:0:0:
182,192,104321,1,2,0:0:0:0:
402,192,104321,1,2,0:0:0:0:
402,192,104479,1,0,0:0:0:0:
109,192,104479,1,2,0:0:0:0:
182,192,104479,1,0,0:0:0:50:big kick.wav
329,192,104479,1,2,0:0:0:0:
475,192,104479,1,0,0:0:0:0:
256,192,104636,1,2,0:0:0:0:
109,192,104636,1,0,0:0:0:0:
36,192,104636,1,2,0:0:0:0:
402,192,104636,1,0,0:0:0:0:
36,192,104793,1,0,0:0:0:0:
182,192,104793,1,2,0:0:0:0:
329,192,104793,1,2,0:0:0:0:
402,192,104793,1,0,0:0:0:50:big kick.wav
475,192,104793,1,0,0:0:0:0:
109,192,104950,1,2,0:0:0:0:
256,192,104950,1,2,0:0:0:0:
475,192,104950,1,0,0:0:0:0:
329,192,104950,1,0,0:0:0:0:
36,192,105107,1,8,0:0:0:0:
402,192,105107,1,0,0:0:0:50:big kick.wav
475,192,105107,1,0,0:0:0:0:
329,192,105107,1,0,0:0:0:0:
109,192,105185,1,2,0:0:0:0:
182,192,105185,1,0,0:0:0:0:
256,192,105185,1,2,0:0:0:0:
36,192,105264,1,8,0:0:0:0:
402,192,105264,1,0,0:0:0:0:
475,192,105264,1,0,0:0:0:0:
182,192,105342,1,2,0:0:0:0:
256,192,105342,1,0,0:0:0:0:
329,192,105342,1,2,0:0:0:0:
36,192,105421,1,8,0:0:0:0:
475,192,105421,1,0,0:0:0:0:
109,192,105421,1,0,0:0:0:50:big kick.wav
256,192,105499,1,2,0:0:0:0:
329,192,105499,1,0,0:0:0:0:
402,192,105499,1,2,0:0:0:0:
36,192,105578,1,8,0:0:0:0:
182,192,105578,1,0,0:0:0:0:
109,192,105578,1,0,0:0:0:0:
329,192,105657,1,2,0:0:0:0:
402,192,105657,1,0,0:0:0:50:big kick.wav
475,192,105657,1,2,0:0:0:0:
36,192,105735,1,8,0:0:0:0:
182,192,105735,1,0,0:0:0:0:
109,192,105735,1,0,0:0:0:50:big kick.wav
402,192,105814,1,2,0:0:0:0:
329,192,105814,1,0,0:0:0:0:
256,192,105814,1,2,0:0:0:0:
36,192,105892,1,8,0:0:0:0:
475,192,105892,1,0,0:0:0:0:
109,192,105892,1,0,0:0:0:50:big kick.wav
329,192,105971,1,2,0:0:0:0:
256,192,105971,1,0,0:0:0:0:
182,192,105971,1,2,0:0:0:0:
36,192,106049,1,2,0:0:0:0:
109,192,106049,1,0,0:0:0:50:big kick.wav
402,192,106049,1,2,0:0:0:0:
475,192,106049,1,0,0:0:0:0:
36,192,106206,1,0,0:0:0:0:
182,192,106206,1,2,0:0:0:0:
475,192,106206,1,2,0:0:0:0:
256,192,106285,1,2,0:0:0:0:
329,192,106285,1,0,0:0:0:0:
402,192,106285,1,2,0:0:0:0:
36,192,106363,1,0,0:0:0:0:
182,192,106363,1,2,0:0:0:0:
475,192,106363,1,2,0:0:0:0:
109,192,106363,1,0,0:0:0:50:big kick.wav
402,192,106520,1,2,0:0:0:0:
256,192,106520,1,2,0:0:0:0:
182,192,106520,1,0,0:0:0:0:
109,192,106520,1,0,0:0:0:0:
475,192,106678,1,2,0:0:0:0:
329,192,106678,1,2,0:0:0:0:
182,192,106678,1,0,0:0:0:0:
36,192,106678,1,0,0:0:0:0:
256,192,106678,1,0,0:0:0:50:big kick.wav
402,192,106835,1,2,0:0:0:0:
256,192,106835,1,0,0:0:0:0:
329,192,106835,1,0,0:0:0:0:
109,192,106835,1,2,0:0:0:0:
475,192,106992,1,0,0:0:0:0:
256,192,106992,1,0,0:0:0:50:big kick.wav
329,192,106992,1,2,0:0:0:0:
182,192,106992,1,2,0:0:0:0:
36,192,106992,1,0,0:0:0:0:
402,192,107149,1,0,0:0:0:0:
256,192,107149,1,2,0:0:0:0:
182,192,107149,1,0,0:0:0:0:
109,192,107149,1,2,0:0:0:0:
475,192,107306,1,0,0:0:0:0:
329,192,107306,1,0,0:0:0:0:
182,192,107306,1,2,0:0:0:0:
109,192,107306,1,0,0:0:0:50:big kick.wav
36,192,107306,1,2,0:0:0:0:
402,192,107463,1,2,0:0:0:0:
256,192,107463,1,0,0:0:0:0:
36,192,107463,1,2,0:0:0:0:
475,192,107541,1,0,0:0:0:0:
329,192,107541,1,2,0:0:0:0:
109,192,107541,1,2,0:0:0:0:
256,192,107620,1,0,0:0:0:0:
182,192,107620,1,0,0:0:0:50:big kick.wav
36,192,107620,1,2,0:0:0:0:
402,192,107620,1,2,0:0:0:0:
475,192,107777,1,2,0:0:0:0:
329,192,107777,1,0,0:0:0:0:
109,192,107777,1,2,0:0:0:0:
402,192,107856,1,2,0:0:0:0:
256,192,107856,1,0,0:0:0:0:
182,192,107856,1,2,0:0:0:0:
36,192,107934,1,0,0:0:0:0:
109,192,107934,1,2,0:0:0:0:
475,192,107934,1,2,0:0:0:0:
329,192,107934,1,0,0:0:0:50:big kick.wav
109,192,108091,1,0,0:0:0:0:
256,192,108091,1,0,0:0:0:0:
182,192,108091,1,2,0:0:0:0:
402,192,108091,1,2,0:0:0:0:
36,192,108248,1,0,0:0:0:0:
256,192,108248,1,2,0:0:0:0:
182,192,108248,1,0,0:0:0:0:
329,192,108248,1,0,0:0:0:50:big kick.wav
475,192,108248,1,2,0:0:0:0:
109,192,108405,1,2,0:0:0:0:
256,192,108405,1,0,0:0:0:0:
329,192,108405,1,2,0:0:0:0:
402,192,108405,1,0,0:0:0:0:
36,192,108562,1,0,0:0:0:0:
182,192,108562,1,2,0:0:0:0:
329,192,108562,1,0,0:0:0:50:big kick.wav
402,192,108562,1,2,0:0:0:0:
475,192,108562,1,0,0:0:0:0:
402,192,108719,1,2,0:0:0:0:
256,192,108719,1,2,0:0:0:0:
109,192,108719,1,0,0:0:0:0:
329,192,108798,1,2,0:0:0:0:
182,192,108798,1,2,0:0:0:0:
36,192,108798,1,0,0:0:0:0:
475,192,108876,1,0,0:0:0:50:big kick.wav
256,192,108876,1,2,0:0:0:0:
109,192,108876,1,0,0:0:0:0:
402,192,108876,1,2,0:0:0:0:
36,192,109034,1,0,0:0:0:0:
182,192,109034,1,2,0:0:0:0:
329,192,109034,1,2,0:0:0:0:
402,192,109034,1,0,0:0:0:0:
36,192,109191,1,0,0:0:0:0:
109,192,109191,1,0,0:0:0:0:
329,192,109191,1,0,0:0:0:50:big kick.wav
475,192,109191,1,2,0:0:0:0:
256,192,109191,1,2,0:0:0:0:
475,192,109348,1,0,0:0:0:0:
256,192,109348,1,0,0:0:0:0:
182,192,109348,1,2,0:0:0:0:
402,192,109348,1,2,0:0:0:0:
402,192,109505,1,0,0:0:0:0:
109,192,109505,1,2,0:0:0:0:
182,192,109505,1,0,0:0:0:50:big kick.wav
329,192,109505,1,2,0:0:0:0:
475,192,109505,1,0,0:0:0:0:
256,192,109662,1,2,0:0:0:0:
109,192,109662,1,0,0:0:0:0:
36,192,109662,1,2,0:0:0:0:
402,192,109662,1,0,0:0:0:0:
36,192,109819,1,4,0:0:0:0:
182,192,109819,1,2,0:0:0:0:
329,192,109819,1,2,0:0:0:0:
402,192,109819,1,0,0:0:0:50:big kick.wav
475,192,109819,1,0,0:0:0:0:
109,192,109976,1,2,0:0:0:0:
256,192,109976,1,2,0:0:0:0:
475,192,109976,1,0,0:0:0:50:big kick.wav
329,192,109976,1,0,0:0:0:0:
36,192,109976,1,0,0:0:0:0:
36,192,110133,1,4,0:0:0:0:
475,192,110133,1,0,0:0:0:50:big kick.wav
109,192,110133,1,0,0:0:0:0:
182,192,110133,1,2,0:0:0:0:
402,192,110133,1,2,0:0:0:0:
256,192,110212,1,2,0:0:0:0:
402,192,110290,1,2,0:0:0:0:
109,192,110290,1,0,0:0:0:0:
475,192,110290,1,0,0:0:0:50:big kick.wav
329,192,110290,1,2,0:0:0:0:
36,192,110290,1,4,0:0:0:0:
182,192,110369,1,0,0:0:0:50:big kick.wav
256,192,110369,1,2,0:0:0:0:
402,192,110447,1,2,0:0:0:0:
329,192,110447,1,2,0:0:0:0:
36,192,110447,1,4,0:0:0:0:
109,192,110447,1,0,0:0:0:0:
475,192,110447,1,0,0:0:0:50:big kick.wav
182,192,110526,1,0,0:0:0:0:
402,192,110604,1,2,0:0:0:0:
256,192,110604,1,2,0:0:0:0:
475,192,110604,1,0,0:0:0:50:big kick.wav
109,192,110604,1,0,0:0:0:0:
36,192,110604,1,0,0:0:0:0:
329,192,110683,1,2,0:0:0:0:
256,192,110761,1,2,0:0:0:0:
475,192,110761,1,0,0:0:0:50:big kick.wav
109,192,110761,1,0,0:0:0:0:
36,192,110761,1,4,0:0:0:0:
402,192,110761,1,2,0:0:0:0:
402,192,110918,1,2,0:0:0:0:
475,192,110918,1,0,0:0:0:50:big kick.wav
256,192,110918,1,2,0:0:0:0:
109,192,110918,1,0,0:0:0:0:
36,192,110918,1,0,0:0:0:0:
182,192,110997,1,2,0:0:0:0:
329,192,110997,1,0,0:0:0:0:
475,192,111075,1,4,0:0:0:0:
402,192,111075,1,4,0:0:0:0:
36,192,111075,1,0,0:0:0:50:big kick.wav
109,192,111075,1,2,0:0:0:0:
256,192,111075,1,2,0:0:0:0:
182,192,111232,1,2,0:0:0:0:
329,192,111232,1,2,0:0:0:0:
36,192,111232,1,0,0:0:0:50:big kick.wav
475,192,111311,1,0,0:0:0:50:big kick.wav
256,192,111311,1,2,0:0:0:0:
109,192,111311,1,2,0:0:0:0:
329,192,111390,1,2,0:0:0:0:
36,192,111390,1,8,0:0:0:0:
402,192,111390,1,0,0:0:0:50:big kick.wav
182,192,111390,1,2,0:0:0:0:
329,192,111547,1,0,0:0:0:50:big kick.wav
475,192,111547,1,0,0:0:0:0:
109,192,111547,1,8,0:0:0:0:
256,192,111547,1,0,0:0:0:0:
402,192,111704,1,4,0:0:0:0:
256,192,111704,1,2,0:0:0:0:
475,192,111704,1,4,0:0:0:0:
36,192,111704,1,0,0:0:0:50:big kick.wav
109,192,111704,1,2,0:0:0:0:
329,192,111861,1,2,0:0:0:0:
475,192,111861,1,0,0:0:0:50:big kick.wav
182,192,111861,1,2,0:0:0:0:
256,192,111939,1,2,0:0:0:0:
402,192,111939,1,2,0:0:0:0:
36,192,111939,1,0,0:0:0:50:big kick.wav
109,192,112018,1,0,0:0:0:50:big kick.wav
182,192,112018,1,2,0:0:0:0:
329,192,112018,1,2,0:0:0:0:
475,192,112018,1,8,0:0:0:0:
402,192,112175,1,8,0:0:0:0:
182,192,112175,1,0,0:0:0:50:big kick.wav
256,192,112175,1,0,0:0:0:0:
36,192,112175,1,0,0:0:0:0:
256,192,112332,1,2,0:0:0:0:
36,192,112332,1,0,0:0:0:50:big kick.wav
402,192,112332,1,4,0:0:0:0:
109,192,112332,1,2,0:0:0:0:
475,192,112332,1,4,0:0:0:0:
329,192,112489,1,2,0:0:0:0:
36,192,112489,1,0,0:0:0:50:big kick.wav
182,192,112489,1,2,0:0:0:0:
475,192,112568,1,0,0:0:0:50:big kick.wav
109,192,112568,1,2,0:0:0:0:
256,192,112568,1,2,0:0:0:0:
182,192,112646,1,2,0:0:0:0:
36,192,112646,1,8,0:0:0:0:
402,192,112646,1,0,0:0:0:50:big kick.wav
329,192,112646,1,2,0:0:0:0:
256,192,112803,1,0,0:0:0:0:
475,192,112803,1,0,0:0:0:50:big kick.wav
109,192,112803,1,8,0:0:0:0:
329,192,112803,1,0,0:0:0:0:
109,192,112960,1,2,0:0:0:0:
475,192,112960,1,4,0:0:0:0:
402,192,112960,1,4,0:0:0:0:
256,192,112960,1,2,0:0:0:0:
36,192,112960,1,0,0:0:0:50:big kick.wav
329,192,113117,1,2,0:0:0:0:
475,192,113117,1,0,0:0:0:50:big kick.wav
182,192,113117,1,2,0:0:0:0:
256,192,113196,1,2,0:0:0:0:
402,192,113196,1,2,0:0:0:0:
36,192,113196,1,0,0:0:0:50:big kick.wav
109,192,113274,1,0,0:0:0:50:big kick.wav
182,192,113274,1,2,0:0:0:0:
329,192,113274,1,2,0:0:0:0:
475,192,113274,1,8,0:0:0:0:
402,192,113431,1,8,0:0:0:0:
182,192,113431,1,0,0:0:0:50:big kick.wav
256,192,113431,1,0,0:0:0:0:
36,192,113431,1,0,0:0:0:0:
256,192,113589,1,2,0:0:0:0:
36,192,113589,1,0,0:0:0:50:big kick.wav
402,192,113589,1,4,0:0:0:0:
109,192,113589,1,2,0:0:0:0:
475,192,113589,1,4,0:0:0:0:
329,192,113746,1,2,0:0:0:0:
36,192,113746,1,0,0:0:0:50:big kick.wav
182,192,113746,1,2,0:0:0:0:
475,192,113824,1,0,0:0:0:50:big kick.wav
109,192,113824,1,2,0:0:0:0:
256,192,113824,1,2,0:0:0:0:
182,192,113903,1,2,0:0:0:0:
36,192,113903,1,8,0:0:0:0:
402,192,113903,1,0,0:0:0:50:big kick.wav
329,192,113903,1,2,0:0:0:0:
256,192,114060,1,0,0:0:0:0:
475,192,114060,1,0,0:0:0:50:big kick.wav
109,192,114060,1,8,0:0:0:0:
329,192,114060,1,0,0:0:0:0:
109,192,114217,1,2,0:0:0:0:
475,192,114217,1,4,0:0:0:0:
402,192,114217,1,4,0:0:0:0:
256,192,114217,1,2,0:0:0:0:
36,192,114217,1,0,0:0:0:50:big kick.wav
475,192,114374,1,0,0:0:0:50:big kick.wav
329,192,114374,1,2,0:0:0:0:
182,192,114374,1,2,0:0:0:0:
256,192,114452,1,2,0:0:0:0:
402,192,114452,1,2,0:0:0:0:
36,192,114452,1,0,0:0:0:50:big kick.wav
475,192,114531,1,8,0:0:0:0:
182,192,114531,1,2,0:0:0:0:
109,192,114531,1,0,0:0:0:50:big kick.wav
329,192,114531,1,2,0:0:0:0:
402,192,114688,1,8,0:0:0:0:
256,192,114688,1,0,0:0:0:0:
109,192,114688,1,0,0:0:0:0:
36,192,114688,1,0,0:0:0:50:big kick.wav
329,192,114845,1,4,0:0:0:0:
36,192,114845,1,0,0:0:0:50:big kick.wav
256,192,114845,1,2,0:0:0:0:
182,192,114845,1,2,0:0:0:0:
475,192,114845,1,4,0:0:0:0:
402,192,115002,1,2,0:0:0:0:
475,192,115002,1,0,0:0:0:0:
36,192,115002,1,0,0:0:0:50:big kick.wav
109,192,115002,1,2,0:0:0:0:
329,192,115081,1,2,0:0:0:0:
182,192,115081,1,2,0:0:0:0:
256,192,115081,1,0,0:0:0:50:big kick.wav
402,192,115159,1,2,0:0:0:0:
475,192,115159,1,0,0:0:0:50:big kick.wav
109,192,115159,1,2,0:0:0:0:
36,192,115159,1,8,0:0:0:0:
182,192,115316,1,0,0:0:0:50:big kick.wav
109,192,115316,1,8,0:0:0:0:
329,192,115316,1,0,0:0:0:0:
402,192,115316,1,0,0:0:0:0:
36,192,115473,1,0,0:0:0:50:big kick.wav
182,192,115473,1,2,0:0:0:0:
256,192,115473,1,2,0:0:0:0:
329,192,115473,1,4,0:0:0:0:
475,192,115473,1,4,0:0:0:0:
36,192,115630,1,0,0:0:0:50:big kick.wav
109,192,115630,1,2,0:0:0:0:
402,192,115630,1,2,0:0:0:0:
475,192,115630,1,0,0:0:0:0:
182,192,115709,1,2,0:0:0:0:
256,192,115709,1,0,0:0:0:50:big kick.wav
329,192,115709,1,2,0:0:0:0:
402,192,115787,1,2,0:0:0:0:
475,192,115787,1,8,0:0:0:0:
109,192,115787,1,2,0:0:0:0:
36,192,115787,1,0,0:0:0:50:big kick.wav
182,192,115945,1,0,0:0:0:50:big kick.wav
109,192,115945,1,0,0:0:0:0:
329,192,115945,1,0,0:0:0:0:
402,192,115945,1,8,0:0:0:0:
475,192,116102,1,0,0:0:0:50:big kick.wav
329,192,116102,1,2,0:0:0:0:
36,192,116102,1,4,0:0:0:0:
182,192,116102,1,4,0:0:0:0:
256,192,116102,1,2,0:0:0:0:
109,192,116259,1,2,0:0:0:0:
475,192,116259,1,0,0:0:0:50:big kick.wav
402,192,116259,1,2,0:0:0:0:
36,192,116337,1,0,0:0:0:50:big kick.wav
182,192,116337,1,2,0:0:0:0:
329,192,116337,1,2,0:0:0:0:
109,192,116416,1,8,0:0:0:0:
256,192,116416,1,2,0:0:0:0:
402,192,116416,1,2,0:0:0:0:
475,192,116416,1,0,0:0:0:50:big kick.wav
36,192,116573,1,8,0:0:0:0:
182,192,116573,1,0,0:0:0:0:
402,192,116573,1,0,0:0:0:50:big kick.wav
329,192,116573,1,0,0:0:0:0:
109,192,116730,1,4,0:0:0:0:
256,192,116730,1,2,0:0:0:0:
36,192,116730,1,4,0:0:0:0:
475,192,116730,1,0,0:0:0:50:big kick.wav
329,192,116730,1,2,0:0:0:0:
36,192,116887,1,0,0:0:0:50:big kick.wav
402,192,116887,1,2,0:0:0:0:
109,192,116887,1,2,0:0:0:0:
329,192,116965,1,2,0:0:0:0:
475,192,116965,1,0,0:0:0:50:big kick.wav
182,192,116965,1,2,0:0:0:0:
109,192,117044,1,0,0:0:0:50:big kick.wav
256,192,117044,1,2,0:0:0:0:
402,192,117044,1,2,0:0:0:0:
36,192,117044,1,8,0:0:0:0:
109,192,117201,1,8,0:0:0:0:
329,192,117201,1,0,0:0:0:0:
182,192,117201,1,0,0:0:0:50:big kick.wav
475,192,117201,1,0,0:0:0:0:
256,192,117358,1,2,0:0:0:0:
475,192,117358,1,0,0:0:0:50:big kick.wav
182,192,117358,1,4,0:0:0:0:
402,192,117358,1,2,0:0:0:0:
36,192,117358,1,4,0:0:0:0:
109,192,117515,1,2,0:0:0:0:
475,192,117515,1,0,0:0:0:50:big kick.wav
402,192,117515,1,2,0:0:0:0:
36,192,117594,1,0,0:0:0:50:big kick.wav
182,192,117594,1,2,0:0:0:0:
329,192,117594,1,2,0:0:0:0:
109,192,117672,1,8,0:0:0:0:
256,192,117672,1,2,0:0:0:0:
402,192,117672,1,2,0:0:0:0:
475,192,117672,1,0,0:0:0:50:big kick.wav
36,192,117829,1,8,0:0:0:0:
182,192,117829,1,0,0:0:0:0:
402,192,117829,1,0,0:0:0:50:big kick.wav
329,192,117829,1,0,0:0:0:0:
109,192,117986,1,4,0:0:0:0:
256,192,117986,1,2,0:0:0:0:
36,192,117986,1,4,0:0:0:0:
475,192,117986,1,0,0:0:0:50:big kick.wav
329,192,117986,1,2,0:0:0:0:
36,192,118143,1,0,0:0:0:50:big kick.wav
402,192,118143,1,2,0:0:0:0:
109,192,118143,1,2,0:0:0:0:
329,192,118222,1,2,0:0:0:0:
475,192,118222,1,0,0:0:0:50:big kick.wav
182,192,118222,1,2,0:0:0:0:
109,192,118301,1,0,0:0:0:50:big kick.wav
256,192,118301,1,2,0:0:0:0:
402,192,118301,1,2,0:0:0:0:
36,192,118301,1,8,0:0:0:0:
109,192,118458,1,8,0:0:0:0:
329,192,118458,1,0,0:0:0:0:
182,192,118458,1,0,0:0:0:50:big kick.wav
475,192,118458,1,0,0:0:0:0:
256,192,118615,1,2,0:0:0:0:
475,192,118615,1,0,0:0:0:50:big kick.wav
182,192,118615,1,4,0:0:0:0:
402,192,118615,1,2,0:0:0:0:
36,192,118615,1,4,0:0:0:0:
402,192,118772,1,2,0:0:0:0:
475,192,118772,1,0,0:0:0:50:big kick.wav
109,192,118772,1,2,0:0:0:0:
329,192,118850,1,2,0:0:0:0:
182,192,118850,1,2,0:0:0:0:
36,192,118850,1,0,0:0:0:50:big kick.wav
402,192,118929,1,2,0:0:0:0:
475,192,118929,1,0,0:0:0:50:big kick.wav
109,192,118929,1,8,0:0:0:0:
256,192,118929,1,2,0:0:0:0:
402,192,119086,1,0,0:0:0:0:
329,192,119086,1,0,0:0:0:0:
36,192,119086,1,8,0:0:0:0:
182,192,119086,1,0,0:0:0:50:big kick.wav
475,192,119243,1,0,0:0:0:50:big kick.wav
329,192,119243,1,2,0:0:0:0:
36,192,119243,1,4,0:0:0:0:
109,192,119243,1,4,0:0:0:0:
256,192,119243,1,2,0:0:0:0:
109,192,119400,1,2,0:0:0:0:
402,192,119400,1,2,0:0:0:0:
36,192,119400,1,0,0:0:0:50:big kick.wav
182,192,119479,1,2,0:0:0:0:
475,192,119479,1,0,0:0:0:50:big kick.wav
329,192,119479,1,2,0:0:0:0:
402,192,119557,1,2,0:0:0:0:
36,192,119557,1,8,0:0:0:0:
109,192,119557,1,0,0:0:0:50:big kick.wav
256,192,119557,1,2,0:0:0:0:
182,192,119714,1,0,0:0:0:50:big kick.wav
475,192,119714,1,0,0:0:0:0:
109,192,119714,1,8,0:0:0:0:
329,192,119714,1,0,0:0:0:0:
402,192,119871,1,2,0:0:0:0:
36,192,119871,1,4,0:0:0:0:
182,192,119871,1,4,0:0:0:0:
256,192,119871,1,2,0:0:0:0:
475,192,119871,1,0,0:0:0:50:big kick.wav
402,192,120028,1,2,0:0:0:0:
475,192,120028,1,0,0:0:0:50:big kick.wav
36,192,120028,1,0,0:0:0:0:
109,192,120028,1,2,0:0:0:0:
256,192,120107,1,0,0:0:0:50:big kick.wav
329,192,120107,1,2,0:0:0:0:
182,192,120107,1,2,0:0:0:0:
402,192,120185,1,2,0:0:0:0:
475,192,120185,1,0,0:0:0:50:big kick.wav
109,192,120185,1,2,0:0:0:0:
36,192,120185,1,8,0:0:0:0:
329,192,120342,1,0,0:0:0:0:
182,192,120342,1,0,0:0:0:0:
475,192,120342,1,0,0:0:0:50:big kick.wav
36,192,120342,1,8,0:0:0:0:
475,192,120499,1,0,0:0:0:50:big kick.wav
402,192,120499,1,2,0:0:0:0:
256,192,120499,1,2,0:0:0:0:
109,192,120499,1,4,0:0:0:0:
36,192,120499,1,4,0:0:0:0:
475,192,120657,1,0,0:0:0:50:big kick.wav
402,192,120657,1,2,0:0:0:0:
36,192,120657,1,0,0:0:0:0:
109,192,120657,1,2,0:0:0:0:
329,192,120735,1,2,0:0:0:0:
256,192,120735,1,0,0:0:0:50:big kick.wav
182,192,120735,1,2,0:0:0:0:
109,192,120814,1,2,0:0:0:0:
36,192,120814,1,0,0:0:0:50:big kick.wav
402,192,120814,1,2,0:0:0:0:
475,192,120814,1,8,0:0:0:0:
329,192,120971,1,0,0:0:0:0:
182,192,120971,1,0,0:0:0:0:
36,192,120971,1,0,0:0:0:50:big kick.wav
475,192,120971,1,8,0:0:0:0:
36,192,121128,1,4,0:0:0:0:
256,192,121128,1,0,0:0:0:0:
109,192,121128,1,0,0:0:0:0:
402,192,121128,1,0,0:0:0:50:big kick.wav
475,192,121128,1,0,0:0:0:0:
182,192,121206,1,0,0:0:0:0:
329,192,121285,1,2,0:0:0:0:
402,192,121285,1,2,0:0:0:0:
475,192,121285,1,0,0:0:0:50:big kick.wav
36,192,121285,1,0,0:0:0:0:
109,192,121363,1,2,0:0:0:0:
182,192,121363,1,0,0:0:0:50:big kick.wav
256,192,121363,1,2,0:0:0:0:
475,192,121442,1,0,0:0:0:50:big kick.wav
329,192,121442,1,2,0:0:0:0:
402,192,121442,1,2,0:0:0:0:
36,192,121442,1,4,0:0:0:0:
182,192,121520,1,0,0:0:0:0:
36,192,121599,1,0,0:0:0:0:
329,192,121599,1,2,0:0:0:0:
256,192,121599,1,0,0:0:0:50:big kick.wav
109,192,121599,1,2,0:0:0:0:
402,192,121678,1,2,0:0:0:0:
182,192,121678,1,2,0:0:0:0:
475,192,121678,1,0,0:0:0:50:big kick.wav
329,192,121756,1,2,0:0:0:0:
109,192,121756,1,2,0:0:0:0:
36,192,121756,1,4,0:0:0:0:
256,192,121756,1,0,0:0:0:50:big kick.wav
402,192,121835,1,0,0:0:0:0:
109,192,121913,1,2,0:0:0:0:
36,192,121913,1,0,0:0:0:50:big kick.wav
182,192,121913,1,2,0:0:0:0:
475,192,121913,1,0,0:0:0:0:
256,192,121992,1,2,0:0:0:0:
402,192,121992,1,2,0:0:0:0:
329,192,121992,1,0,0:0:0:50:big kick.wav
109,192,122070,1,2,0:0:0:0:
475,192,122070,1,0,0:0:0:50:big kick.wav
36,192,122070,1,4,0:0:0:0:
182,192,122070,1,2,0:0:0:0:
329,192,122149,1,0,0:0:0:0:
256,192,122227,1,0,0:0:0:0:
182,192,122227,1,2,0:0:0:0:
402,192,122227,1,2,0:0:0:0:
475,192,122227,1,0,0:0:0:50:big kick.wav
109,192,122306,1,2,0:0:0:0:
329,192,122306,1,2,0:0:0:0:
36,192,122306,1,0,0:0:0:50:big kick.wav
475,192,122384,1,0,0:0:0:50:big kick.wav
182,192,122384,1,4,0:0:0:0:
256,192,122384,1,2,0:0:0:0:
402,192,122384,1,2,0:0:0:0:
109,192,122463,1,0,0:0:0:0:
329,192,122541,1,2,0:0:0:0:
402,192,122541,1,2,0:0:0:0:
475,192,122541,1,0,0:0:0:50:big kick.wav
36,192,122541,1,0,0:0:0:0:
109,192,122620,1,2,0:0:0:0:
182,192,122620,1,0,0:0:0:50:big kick.wav
256,192,122620,1,2,0:0:0:0:
475,192,122698,1,0,0:0:0:50:big kick.wav
329,192,122698,1,2,0:0:0:0:
402,192,122698,1,2,0:0:0:0:
36,192,122698,1,4,0:0:0:0:
182,192,122777,1,0,0:0:0:0:
36,192,122856,1,0,0:0:0:0:
329,192,122856,1,2,0:0:0:0:
256,192,122856,1,0,0:0:0:50:big kick.wav
109,192,122856,1,2,0:0:0:0:
402,192,122934,1,2,0:0:0:0:
182,192,122934,1,2,0:0:0:0:
475,192,122934,1,0,0:0:0:50:big kick.wav
329,192,123013,1,2,0:0:0:0:
109,192,123013,1,2,0:0:0:0:
36,192,123013,1,4,0:0:0:0:
256,192,123013,1,0,0:0:0:50:big kick.wav
402,192,123091,1,0,0:0:0:0:
109,192,123170,1,2,0:0:0:0:
36,192,123170,1,0,0:0:0:50:big kick.wav
182,192,123170,1,2,0:0:0:0:
475,192,123170,1,0,0:0:0:0:
256,192,123248,1,2,0:0:0:0:
402,192,123248,1,2,0:0:0:0:
329,192,123248,1,0,0:0:0:50:big kick.wav
109,192,123327,1,2,0:0:0:0:
475,192,123327,1,0,0:0:0:50:big kick.wav
36,192,123327,1,4,0:0:0:0:
182,192,123327,1,2,0:0:0:0:
329,192,123405,1,0,0:0:0:0:
256,192,123484,1,0,0:0:0:0:
182,192,123484,1,2,0:0:0:0:
402,192,123484,1,2,0:0:0:0:
475,192,123484,1,0,0:0:0:50:big kick.wav
109,192,123562,1,2,0:0:0:0:
329,192,123562,1,2,0:0:0:0:
36,192,123562,1,0,0:0:0:50:big kick.wav
475,192,123641,1,0,0:0:0:50:big kick.wav
182,192,123641,1,4,0:0:0:0:
256,192,123641,1,2,0:0:0:0:
402,192,123641,1,2,0:0:0:0:
109,192,123719,1,0,0:0:0:0:
475,192,123798,1,0,0:0:0:50:big kick.wav
36,192,123798,1,0,0:0:0:0:
329,192,123798,1,2,0:0:0:0:
402,192,123798,1,2,0:0:0:0:
256,192,123876,1,2,0:0:0:0:
182,192,123876,1,0,0:0:0:50:big kick.wav
109,192,123876,1,2,0:0:0:0:
402,192,123955,1,2,0:0:0:0:
36,192,123955,1,4,0:0:0:0:
475,192,123955,1,0,0:0:0:50:big kick.wav
329,192,123955,1,2,0:0:0:0:
182,192,124034,1,0,0:0:0:0:
256,192,124112,1,0,0:0:0:50:big kick.wav
109,192,124112,1,2,0:0:0:0:
36,192,124112,1,0,0:0:0:0:
329,192,124112,1,2,0:0:0:0:
475,192,124191,1,0,0:0:0:50:big kick.wav
182,192,124191,1,2,0:0:0:0:
402,192,124191,1,2,0:0:0:0:
36,192,124269,1,4,0:0:0:0:
256,192,124269,1,0,0:0:0:50:big kick.wav
329,192,124269,1,2,0:0:0:0:
109,192,124269,1,2,0:0:0:0:
402,192,124348,1,0,0:0:0:0:
182,192,124426,1,2,0:0:0:0:
475,192,124426,1,0,0:0:0:50:big kick.wav
109,192,124426,1,2,0:0:0:0:
36,192,124426,1,0,0:0:0:0:
329,192,124505,1,0,0:0:0:50:big kick.wav
402,192,124505,1,2,0:0:0:0:
256,192,124505,1,2,0:0:0:0:
36,192,124583,1,4,0:0:0:0:
182,192,124583,1,2,0:0:0:0:
109,192,124583,1,2,0:0:0:0:
475,192,124583,1,0,0:0:0:50:big kick.wav
329,192,124662,1,0,0:0:0:0:
402,192,124740,1,2,0:0:0:0:
475,192,124740,1,0,0:0:0:0:
256,192,124740,1,0,0:0:0:50:big kick.wav
182,192,124740,1,2,0:0:0:0:
36,192,124819,1,0,0:0:0:50:big kick.wav
329,192,124819,1,2,0:0:0:0:
109,192,124819,1,2,0:0:0:0:
256,192,124897,1,2,0:0:0:0:
402,192,124897,1,2,0:0:0:0:
475,192,124897,1,0,0:0:0:50:big kick.wav
182,192,124897,1,4,0:0:0:0:
109,192,124976,1,0,0:0:0:0:
329,192,125054,1,2,0:0:0:0:
402,192,125054,1,2,0:0:0:0:
475,192,125054,1,0,0:0:0:0:
36,192,125054,1,0,0:0:0:50:big kick.wav
109,192,125133,1,2,0:0:0:0:
182,192,125133,1,0,0:0:0:50:big kick.wav
256,192,125133,1,2,0:0:0:0:
475,192,125212,1,0,0:0:0:50:big kick.wav
329,192,125212,1,2,0:0:0:0:
402,192,125212,1,2,0:0:0:0:
36,192,125212,1,4,0:0:0:0:
182,192,125290,1,0,0:0:0:0:
36,192,125369,1,0,0:0:0:0:
329,192,125369,1,2,0:0:0:0:
256,192,125369,1,0,0:0:0:50:big kick.wav
109,192,125369,1,2,0:0:0:0:
402,192,125447,1,2,0:0:0:0:
182,192,125447,1,0,0:0:0:50:big kick.wav
475,192,125447,1,0,0:0:0:0:
329,192,125526,1,2,0:0:0:0:
109,192,125526,1,2,0:0:0:0:
36,192,125526,1,4,0:0:0:0:
256,192,125526,1,0,0:0:0:50:big kick.wav
402,192,125604,1,0,0:0:0:0:
109,192,125683,1,2,0:0:0:0:
36,192,125683,1,0,0:0:0:50:big kick.wav
182,192,125683,1,2,0:0:0:0:
475,192,125683,1,0,0:0:0:0:
256,192,125761,1,2,0:0:0:0:
402,192,125761,1,2,0:0:0:0:
329,192,125761,1,0,0:0:0:50:big kick.wav
109,192,125840,1,2,0:0:0:0:
475,192,125840,1,0,0:0:0:50:big kick.wav
36,192,125840,1,4,0:0:0:0:
182,192,125840,1,2,0:0:0:0:
329,192,125918,1,0,0:0:0:0:
256,192,125997,1,0,0:0:0:0:
182,192,125997,1,2,0:0:0:0:
402,192,125997,1,2,0:0:0:0:
475,192,125997,1,0,0:0:0:50:big kick.wav
36,192,126075,1,2,0:0:0:50:big kick.wav
329,192,126154,1,0,0:0:0:50:big kick.wav
109,192,126154,1,4,0:0:0:0:
182,192,126154,1,0,0:0:0:0:
402,192,126154,1,0,0:0:0:0:
109,192,126311,1,0,0:0:0:0:
182,192,126311,1,0,0:0:0:0:
329,192,126311,1,0,0:0:0:50:big kick.wav
402,192,126311,1,0,0:0:0:0:
182,192,126468,1,0,0:0:0:0:
109,192,126468,1,0,0:0:0:0:
329,192,126468,1,0,0:0:0:50:big kick.wav
402,192,126468,1,0,0:0:0:0:
182,192,126625,1,0,0:0:0:0:
109,192,126625,1,0,0:0:0:0:
402,192,126625,1,0,0:0:0:0:
329,192,126625,1,0,0:0:0:50:big kick.wav
402,192,126782,1,0,0:0:0:0:
109,192,126782,1,0,0:0:0:0:
329,192,126782,1,0,0:0:0:50:big kick.wav
182,192,126782,1,0,0:0:0:0:
182,192,126939,1,0,0:0:0:0:
109,192,126939,1,0,0:0:0:0:
402,192,126939,1,0,0:0:0:0:
329,192,126939,1,0,0:0:0:50:big kick.wav
402,192,127096,1,0,0:0:0:0:
329,192,127096,1,0,0:0:0:50:big kick.wav
109,192,127096,1,0,0:0:0:0:
182,192,127096,1,0,0:0:0:0:
329,192,127253,1,0,0:0:0:50:big kick.wav
182,192,127253,1,0,0:0:0:0:
109,192,127253,1,0,0:0:0:0:
402,192,127253,1,0,0:0:0:0:
402,192,127410,1,0,0:0:0:0:
329,192,127410,1,0,0:0:0:50:big kick.wav
109,192,127410,1,0,0:0:0:0:
182,192,127410,1,0,0:0:0:0:
182,192,127568,1,0,0:0:0:0:
109,192,127568,1,0,0:0:0:0:
402,192,127568,1,0,0:0:0:0:
329,192,127568,1,0,0:0:0:50:big kick.wav
402,192,127725,1,0,0:0:0:0:
109,192,127725,1,0,0:0:0:0:
329,192,127725,1,0,0:0:0:50:big kick.wav
182,192,127725,1,0,0:0:0:0:
182,192,127882,1,0,0:0:0:0:
109,192,127882,1,0,0:0:0:0:
402,192,127882,1,0,0:0:0:0:
329,192,127882,1,0,0:0:0:50:big kick.wav
402,192,128039,1,0,0:0:0:0:
329,192,128039,1,0,0:0:0:50:big kick.wav
109,192,128039,1,0,0:0:0:0:
182,192,128039,1,0,0:0:0:0:
329,192,128196,1,0,0:0:0:50:big kick.wav
182,192,128196,1,0,0:0:0:0:
109,192,128196,1,0,0:0:0:0:
402,192,128196,1,0,0:0:0:0:
402,192,128353,1,0,0:0:0:0:
329,192,128353,1,0,0:0:0:50:big kick.wav
109,192,128353,1,0,0:0:0:0:
182,192,128353,1,0,0:0:0:0:
182,192,128510,1,0,0:0:0:0:
109,192,128510,1,0,0:0:0:0:
402,192,128510,1,0,0:0:0:0:
329,192,128510,1,0,0:0:0:50:big kick.wav
402,192,128667,1,0,0:0:0:0:
109,192,128667,1,0,0:0:0:0:
329,192,128667,1,0,0:0:0:50:big kick.wav
182,192,128667,1,0,0:0:0:0:
182,192,128824,1,0,0:0:0:0:
109,192,128824,1,0,0:0:0:0:
402,192,128824,1,0,0:0:0:0:
329,192,128824,1,0,0:0:0:50:big kick.wav
402,192,128981,1,0,0:0:0:0:
329,192,128981,1,0,0:0:0:50:big kick.wav
109,192,128981,1,0,0:0:0:0:
182,192,128981,1,0,0:0:0:0:
329,192,129138,1,0,0:0:0:50:big kick.wav
182,192,129138,1,0,0:0:0:0:
109,192,129138,1,0,0:0:0:0:
402,192,129138,1,0,0:0:0:0:
402,192,129295,1,0,0:0:0:0:
329,192,129295,1,0,0:0:0:50:big kick.wav
109,192,129295,1,0,0:0:0:0:
182,192,129295,1,0,0:0:0:0:
182,192,129452,1,0,0:0:0:0:
109,192,129452,1,0,0:0:0:0:
402,192,129452,1,0,0:0:0:0:
329,192,129452,1,0,0:0:0:50:big kick.wav
402,192,129609,1,0,0:0:0:0:
109,192,129609,1,0,0:0:0:0:
329,192,129609,1,0,0:0:0:50:big kick.wav
182,192,129609,1,0,0:0:0:0:
182,192,129767,1,0,0:0:0:0:
109,192,129767,1,0,0:0:0:0:
402,192,129767,1,0,0:0:0:0:
329,192,129767,1,0,0:0:0:50:big kick.wav
402,192,129924,1,0,0:0:0:0:
329,192,129924,1,0,0:0:0:50:big kick.wav
109,192,129924,1,0,0:0:0:0:
182,192,129924,1,0,0:0:0:0:
329,192,130081,1,0,0:0:0:50:big kick.wav
182,192,130081,1,0,0:0:0:0:
109,192,130081,1,0,0:0:0:0:
402,192,130081,1,0,0:0:0:0:
402,192,130238,1,0,0:0:0:0:
329,192,130238,1,0,0:0:0:50:big kick.wav
109,192,130238,1,0,0:0:0:0:
182,192,130238,1,0,0:0:0:0:
182,192,130395,1,0,0:0:0:0:
109,192,130395,1,0,0:0:0:0:
402,192,130395,1,0,0:0:0:0:
329,192,130395,1,0,0:0:0:50:big kick.wav
402,192,130552,1,0,0:0:0:0:
109,192,130552,1,0,0:0:0:0:
329,192,130552,1,0,0:0:0:50:big kick.wav
182,192,130552,1,0,0:0:0:0:
182,192,130709,1,0,0:0:0:0:
109,192,130709,1,0,0:0:0:0:
402,192,130709,1,0,0:0:0:0:
329,192,130709,1,0,0:0:0:50:big kick.wav
109,192,130866,1,0,0:0:0:0:
182,192,130866,1,0,0:0:0:0:
329,192,130866,1,0,0:0:0:50:big kick.wav
402,192,130866,1,0,0:0:0:0:
109,192,131023,1,0,0:0:0:0:
182,192,131023,1,0,0:0:0:0:
329,192,131023,1,0,0:0:0:50:big kick.wav
402,192,131023,1,0,0:0:0:0:
182,192,131180,1,0,0:0:0:0:
109,192,131180,1,0,0:0:0:0:
402,192,131180,1,0,0:0:0:0:
329,192,131180,1,0,0:0:0:50:big kick.wav
182,192,131285,1,0,0:0:0:0:
109,192,131285,1,0,0:0:0:0:
402,192,131285,1,0,0:0:0:0:
329,192,131285,1,0,0:0:0:50:big kick.wav
402,192,131390,1,0,0:0:0:0:
329,192,131390,1,0,0:0:0:50:big kick.wav
182,192,131390,1,0,0:0:0:0:
109,192,131390,1,0,0:0:0:0:
109,192,131494,1,0,0:0:0:0:
182,192,131494,1,0,0:0:0:0:
329,192,131494,1,0,0:0:0:50:big kick.wav
402,192,131494,1,0,0:0:0:0:
109,192,131599,1,0,0:0:0:0:
182,192,131599,1,0,0:0:0:0:
329,192,131599,1,0,0:0:0:50:big kick.wav
402,192,131599,1,0,0:0:0:0:
109,192,131704,1,0,0:0:0:0:
182,192,131704,1,0,0:0:0:0:
329,192,131704,1,0,0:0:0:50:big kick.wav
402,192,131704,1,0,0:0:0:0:
182,192,131808,1,0,0:0:0:0:
329,192,131808,1,0,0:0:0:50:big kick.wav
109,192,131808,1,0,0:0:0:0:
402,192,131808,1,0,0:0:0:0:
402,192,131913,1,0,0:0:0:0:
182,192,131913,1,0,0:0:0:0:
329,192,131913,1,0,0:0:0:50:big kick.wav
109,192,131913,1,0,0:0:0:0:
109,192,132018,1,0,0:0:0:0:
402,192,132018,1,0,0:0:0:0:
182,192,132018,1,0,0:0:0:0:
329,192,132018,1,0,0:0:0:50:big kick.wav
109,192,132123,1,0,0:0:0:0:
402,192,132123,1,0,0:0:0:0:
182,192,132123,1,0,0:0:0:0:
329,192,132123,1,0,0:0:0:50:big kick.wav
109,192,132227,1,0,0:0:0:0:
402,192,132227,1,0,0:0:0:0:
329,192,132227,1,0,0:0:0:50:big kick.wav
182,192,132227,1,0,0:0:0:0:
182,192,132332,1,0,0:0:0:0:
329,192,132332,1,0,0:0:0:50:big kick.wav
109,192,132332,1,0,0:0:0:0:
402,192,132332,1,0,0:0:0:0:
109,192,132437,1,0,0:0:0:0:
402,192,132437,1,0,0:0:0:0:
182,192,132437,1,0,0:0:0:0:
329,192,132437,1,0,0:0:0:50:big kick.wav
329,192,132541,1,0,0:0:0:50:big kick.wav
109,192,132541,1,0,0:0:0:0:
182,192,132541,1,0,0:0:0:0:
402,192,132541,1,0,0:0:0:0:
182,192,132646,1,0,0:0:0:0:
329,192,132646,1,0,0:0:0:50:big kick.wav
402,192,132646,1,0,0:0:0:0:
109,192,132646,1,0,0:0:0:0:
182,192,132751,1,0,0:0:0:0:
329,192,132751,1,0,0:0:0:50:big kick.wav
109,192,132751,1,0,0:0:0:0:
402,192,132751,1,0,0:0:0:0:
329,192,132856,1,0,0:0:0:50:big kick.wav
182,192,132856,1,0,0:0:0:0:
109,192,132856,1,0,0:0:0:0:
402,192,132856,1,0,0:0:0:0:
109,192,132960,1,0,0:0:0:0:
402,192,132960,1,0,0:0:0:0:
182,192,132960,1,0,0:0:0:0:
329,192,132960,1,0,0:0:0:50:big kick.wav
329,192,133065,1,0,0:0:0:50:big kick.wav
109,192,133065,1,0,0:0:0:0:
182,192,133065,1,0,0:0:0:0:
402,192,133065,1,0,0:0:0:0:
182,192,133170,1,0,0:0:0:0:
329,192,133170,1,0,0:0:0:50:big kick.wav
402,192,133170,1,0,0:0:0:0:
109,192,133170,1,0,0:0:0:0:
182,192,133274,1,0,0:0:0:0:
329,192,133274,1,0,0:0:0:50:big kick.wav
109,192,133274,1,0,0:0:0:0:
402,192,133274,1,0,0:0:0:0:
402,192,133379,1,0,0:0:0:0:
109,192,133379,1,0,0:0:0:0:
36,192,133379,1,0,0:0:0:0:
256,192,133379,1,0,0:0:0:50:big kick.wav
475,192,133484,1,0,0:0:0:0:
329,192,133484,1,0,0:0:0:50:big kick.wav
109,192,133484,1,0,0:0:0:0:
182,192,133484,1,0,0:0:0:0:
475,192,133589,1,0,0:0:0:0:
182,192,133589,1,0,0:0:0:0:
402,192,133589,1,0,0:0:0:50:big kick.wav
256,192,133589,1,0,0:0:0:0:
109,192,133693,1,0,0:0:0:70:small kick.wav
36,192,133693,1,0,0:0:0:70:small kick.wav
182,192,133732,1,0,0:0:0:70:small kick.wav
329,192,133772,1,0,0:0:0:70:small kick.wav
402,192,133811,1,0,0:0:0:70:small kick.wav
36,192,133850,1,0,0:0:0:70:small kick.wav
475,192,133850,1,0,0:0:0:70:small kick.wav
256,192,133890,1,0,0:0:0:70:small kick.wav
182,192,133929,1,0,0:0:0:70:small kick.wav
109,192,133968,1,0,0:0:0:70:small kick.wav
475,192,134007,1,0,0:0:0:70:small kick.wav
402,192,134007,1,0,0:0:0:70:small kick.wav
329,192,134047,1,0,0:0:0:70:small kick.wav
182,192,134086,1,0,0:0:0:70:small kick.wav
109,192,134125,1,0,0:0:0:70:small kick.wav
36,192,134164,1,0,0:0:0:70:small kick.wav
475,192,134164,1,0,0:0:0:70:small kick.wav
256,192,134204,1,0,0:0:0:70:small kick.wav
329,192,134243,1,0,0:0:0:70:small kick.wav
402,192,134282,1,0,0:0:0:70:small kick.wav
36,192,134321,1,0,0:0:0:70:small kick.wav
109,192,134321,1,0,0:0:0:70:small kick.wav
182,192,134361,1,0,0:0:0:70:small kick.wav
329,192,134400,1,0,0:0:0:70:small kick.wav
402,192,134439,1,0,0:0:0:70:small kick.wav
475,192,134479,1,0,0:0:0:70:small kick.wav
36,192,134479,1,0,0:0:0:70:small kick.wav
256,192,134518,1,0,0:0:0:70:small kick.wav
182,192,134557,1,0,0:0:0:70:small kick.wav
109,192,134596,1,0,0:0:0:70:small kick.wav
475,192,134636,1,0,0:0:0:70:small kick.wav
402,192,134636,1,0,0:0:0:70:small kick.wav
329,192,134675,1,0,0:0:0:70:small kick.wav
182,192,134714,1,0,0:0:0:70:small kick.wav
109,192,134753,1,0,0:0:0:70:small kick.wav
36,192,134793,1,0,0:0:0:70:small kick.wav
475,192,134793,1,0,0:0:0:70:small kick.wav
256,192,134832,1,0,0:0:0:70:small kick.wav
329,192,134871,1,0,0:0:0:70:small kick.wav
402,192,134910,1,0,0:0:0:70:small kick.wav
36,192,134950,1,0,0:0:0:70:small kick.wav
109,192,134950,1,0,0:0:0:70:small kick.wav
182,192,134989,1,0,0:0:0:70:small kick.wav
329,192,135028,1,0,0:0:0:70:small kick.wav
402,192,135068,1,0,0:0:0:70:small kick.wav
475,192,135107,1,0,0:0:0:70:small kick.wav
36,192,135107,1,0,0:0:0:70:small kick.wav
256,192,135146,1,0,0:0:0:70:small kick.wav
182,192,135185,1,0,0:0:0:70:small kick.wav
109,192,135225,1,0,0:0:0:70:small kick.wav
475,192,135264,1,0,0:0:0:70:small kick.wav
402,192,135264,1,0,0:0:0:70:small kick.wav
329,192,135303,1,0,0:0:0:70:small kick.wav
182,192,135342,1,0,0:0:0:70:small kick.wav
109,192,135382,1,0,0:0:0:70:small kick.wav
36,192,135421,1,0,0:0:0:70:small kick.wav
475,192,135421,1,0,0:0:0:70:small kick.wav
256,192,135460,1,0,0:0:0:70:small kick.wav
329,192,135499,1,0,0:0:0:70:small kick.wav
402,192,135539,1,0,0:0:0:70:small kick.wav
36,192,135578,1,0,0:0:0:70:small kick.wav
109,192,135578,1,0,0:0:0:70:small kick.wav
182,192,135617,1,0,0:0:0:70:small kick.wav
329,192,135657,1,0,0:0:0:70:small kick.wav
402,192,135696,1,0,0:0:0:70:small kick.wav
475,192,135735,1,0,0:0:0:70:small kick.wav
36,192,135735,1,0,0:0:0:70:small kick.wav
256,192,135774,1,0,0:0:0:70:small kick.wav
182,192,135814,1,0,0:0:0:70:small kick.wav
109,192,135853,1,0,0:0:0:70:small kick.wav
36,192,135892,1,0,0:0:0:0:
475,192,135892,1,4,0:0:0:0:
402,192,135892,1,0,0:0:0:0:
329,192,135892,1,0,0:0:0:70:small kick.wav
36,192,136206,1,2,0:0:0:0:
109,192,136206,1,0,0:0:0:50:big kick.wav
256,192,136206,1,0,0:0:0:0:
402,192,136206,1,2,0:0:0:0:
475,192,136206,1,8,0:0:0:0:
182,192,136285,1,0,0:0:0:0:
329,192,136285,1,0,0:0:0:0:
256,192,136363,1,0,0:0:0:0:
402,192,136363,1,2,0:0:0:0:
36,192,136363,1,2,0:0:0:0:
109,192,136442,1,0,0:0:0:0:
329,192,136442,1,0,0:0:0:0:
182,192,136520,1,0,0:0:0:50:big kick.wav
36,192,136520,1,2,0:0:0:0:
475,192,136520,1,0,0:0:0:0:
402,192,136520,1,2,0:0:0:0:
256,192,136599,1,0,0:0:0:0:
109,192,136599,1,0,0:0:0:0:
402,192,136678,1,2,0:0:0:0:
182,192,136678,1,2,0:0:0:0:
329,192,136678,1,0,0:0:0:0:
475,192,136756,1,0,0:0:0:0:
256,192,136756,1,0,0:0:0:0:
36,192,136835,1,2,0:0:0:0:
109,192,136835,1,2,0:0:0:0:
329,192,136835,1,8,0:0:0:0:
182,192,136835,1,0,0:0:0:50:big kick.wav
475,192,136913,1,0,0:0:0:0:
402,192,136913,1,0,0:0:0:0:
109,192,136992,1,2,0:0:0:0:
256,192,136992,1,0,0:0:0:0:
36,192,136992,1,2,0:0:0:0:
329,192,137070,1,0,0:0:0:0:
402,192,137070,1,0,0:0:0:0:
109,192,137149,1,2,0:0:0:0:
36,192,137149,1,2,0:0:0:0:
475,192,137149,1,0,0:0:0:0:
182,192,137149,1,0,0:0:0:50:big kick.wav
329,192,137227,1,0,0:0:0:0:
256,192,137227,1,0,0:0:0:0:
182,192,137306,1,2,0:0:0:0:
402,192,137306,1,0,0:0:0:0:
36,192,137306,1,2,0:0:0:0:
109,192,137384,1,0,0:0:0:0:
329,192,137384,1,0,0:0:0:0:
402,192,137463,1,2,0:0:0:0:
256,192,137463,1,0,0:0:0:50:big kick.wav
36,192,137463,1,2,0:0:0:0:
475,192,137463,1,8,0:0:0:0:
329,192,137541,1,0,0:0:0:0:
182,192,137541,1,0,0:0:0:0:
256,192,137620,1,2,0:0:0:0:
109,192,137620,1,2,0:0:0:0:
475,192,137620,1,0,0:0:0:0:
402,192,137698,1,0,0:0:0:0:
182,192,137698,1,0,0:0:0:0:
329,192,137777,1,0,0:0:0:50:big kick.wav
475,192,137777,1,0,0:0:0:0:
36,192,137777,1,2,0:0:0:0:
109,192,137777,1,2,0:0:0:0:
256,192,137856,1,0,0:0:0:0:
402,192,137856,1,0,0:0:0:0:
109,192,137934,1,2,0:0:0:0:
329,192,137934,1,0,0:0:0:0:
182,192,137934,1,2,0:0:0:0:
36,192,138013,1,0,0:0:0:0:
256,192,138013,1,0,0:0:0:0:
475,192,138091,1,8,0:0:0:0:
402,192,138091,1,0,0:0:0:50:big kick.wav
182,192,138091,1,2,0:0:0:0:
329,192,138091,1,2,0:0:0:0:
36,192,138170,1,0,0:0:0:0:
109,192,138170,1,0,0:0:0:0:
402,192,138248,1,2,0:0:0:0:
256,192,138248,1,2,0:0:0:0:
475,192,138248,1,0,0:0:0:0:
182,192,138327,1,0,0:0:0:0:
109,192,138327,1,0,0:0:0:0:
402,192,138405,1,0,0:0:0:0:
475,192,138405,1,2,0:0:0:0:
36,192,138405,1,2,0:0:0:0:
329,192,138405,1,0,0:0:0:50:big kick.wav
182,192,138484,1,0,0:0:0:0:
256,192,138484,1,0,0:0:0:0:
329,192,138562,1,2,0:0:0:0:
109,192,138562,1,2,0:0:0:0:
475,192,138562,1,0,0:0:0:0:
402,192,138641,1,0,0:0:0:0:
182,192,138641,1,0,0:0:0:0:
109,192,138719,1,0,0:0:0:50:big kick.wav
256,192,138719,1,2,0:0:0:0:
475,192,138719,1,8,0:0:0:0:
36,192,138719,1,2,0:0:0:0:
329,192,138798,1,0,0:0:0:0:
402,192,138798,1,0,0:0:0:0:
182,192,138876,1,2,0:0:0:0:
109,192,138876,1,0,0:0:0:0:
36,192,138876,1,2,0:0:0:0:
329,192,138955,1,0,0:0:0:0:
475,192,138955,1,0,0:0:0:0:
256,192,139034,1,2,0:0:0:0:
182,192,139034,1,0,0:0:0:0:
109,192,139034,1,0,0:0:0:50:big kick.wav
36,192,139034,1,2,0:0:0:0:
402,192,139112,1,0,0:0:0:0:
475,192,139112,1,0,0:0:0:0:
182,192,139191,1,2,0:0:0:0:
109,192,139191,1,0,0:0:0:0:
36,192,139191,1,2,0:0:0:0:
329,192,139269,1,0,0:0:0:0:
256,192,139269,1,0,0:0:0:0:
475,192,139348,1,8,0:0:0:0:
402,192,139348,1,2,0:0:0:0:
109,192,139348,1,0,0:0:0:50:big kick.wav
36,192,139348,1,2,0:0:0:0:
182,192,139426,1,0,0:0:0:0:
256,192,139426,1,0,0:0:0:0:
329,192,139505,1,2,0:0:0:0:
402,192,139505,1,2,0:0:0:0:
475,192,139505,1,0,0:0:0:0:
109,192,139583,1,0,0:0:0:0:
36,192,139583,1,0,0:0:0:0:
256,192,139662,1,2,0:0:0:0:
329,192,139662,1,0,0:0:0:50:big kick.wav
402,192,139662,1,2,0:0:0:0:
475,192,139662,1,0,0:0:0:0:
182,192,139740,1,0,0:0:0:0:
36,192,139740,1,0,0:0:0:0:
329,192,139819,1,2,0:0:0:0:
402,192,139819,1,2,0:0:0:0:
475,192,139819,1,0,0:0:0:0:
182,192,139897,1,0,0:0:0:0:
109,192,139897,1,0,0:0:0:0:
256,192,139976,1,0,0:0:0:50:big kick.wav
36,192,139976,1,2,0:0:0:0:
402,192,139976,1,2,0:0:0:0:
475,192,139976,1,8,0:0:0:0:
329,192,140054,1,0,0:0:0:0:
109,192,140054,1,0,0:0:0:0:
182,192,140133,1,2,0:0:0:0:
402,192,140133,1,2,0:0:0:0:
475,192,140133,1,0,0:0:0:0:
256,192,140212,1,0,0:0:0:0:
36,192,140212,1,0,0:0:0:0:
109,192,140290,1,2,0:0:0:0:
329,192,140290,1,2,0:0:0:0:
182,192,140290,1,0,0:0:0:50:big kick.wav
475,192,140290,1,0,0:0:0:0:
256,192,140369,1,0,0:0:0:0:
36,192,140369,1,0,0:0:0:0:
402,192,140447,1,2,0:0:0:0:
475,192,140447,1,0,0:0:0:0:
182,192,140447,1,2,0:0:0:0:
329,192,140526,1,0,0:0:0:0:
109,192,140526,1,0,0:0:0:0:
256,192,140604,1,0,0:0:0:50:big kick.wav
36,192,140604,1,2,0:0:0:0:
402,192,140604,1,2,0:0:0:0:
475,192,140604,1,8,0:0:0:0:
182,192,140683,1,0,0:0:0:0:
329,192,140683,1,0,0:0:0:0:
256,192,140761,1,2,0:0:0:0:
109,192,140761,1,0,0:0:0:0:
36,192,140761,1,2,0:0:0:0:
182,192,140840,1,2,0:0:0:0:
475,192,140840,1,0,0:0:0:50:big kick.wav
402,192,140840,1,2,0:0:0:0:
36,192,140918,1,2,0:0:0:0:
109,192,140918,1,0,0:0:0:0:
329,192,140918,1,0,0:0:0:50:big kick.wav
256,192,140918,1,2,0:0:0:0:
475,192,140997,1,0,0:0:0:0:
402,192,140997,1,0,0:0:0:0:
182,192,141075,1,2,0:0:0:0:
36,192,141075,1,2,0:0:0:0:
109,192,141075,1,0,0:0:0:50:big kick.wav
329,192,141154,1,0,0:0:0:0:
475,192,141154,1,0,0:0:0:0:
36,192,141232,1,2,0:0:0:0:
256,192,141232,1,2,0:0:0:0:
402,192,141232,1,8,0:0:0:0:
109,192,141232,1,0,0:0:0:50:big kick.wav
329,192,141311,1,0,0:0:0:0:
182,192,141311,1,0,0:0:0:0:
256,192,141390,1,2,0:0:0:0:
475,192,141390,1,0,0:0:0:0:
109,192,141390,1,2,0:0:0:0:
402,192,141468,1,0,0:0:0:0:
182,192,141468,1,0,0:0:0:0:
329,192,141547,1,2,0:0:0:0:
36,192,141547,1,2,0:0:0:0:
109,192,141547,1,0,0:0:0:50:big kick.wav
475,192,141547,1,0,0:0:0:0:
256,192,141625,1,0,0:0:0:0:
402,192,141625,1,0,0:0:0:0:
36,192,141704,1,2,0:0:0:0:
182,192,141704,1,2,0:0:0:0:
109,192,141704,1,0,0:0:0:0:
329,192,141782,1,0,0:0:0:0:
475,192,141782,1,0,0:0:0:0:
402,192,141861,1,8,0:0:0:0:
256,192,141861,1,2,0:0:0:0:
182,192,141861,1,0,0:0:0:50:big kick.wav
109,192,141861,1,2,0:0:0:0:
36,192,141939,1,0,0:0:0:0:
475,192,141939,1,0,0:0:0:0:
329,192,142018,1,2,0:0:0:0:
182,192,142018,1,2,0:0:0:0:
256,192,142018,1,0,0:0:0:0:
36,192,142096,1,0,0:0:0:0:
109,192,142096,1,0,0:0:0:0:
402,192,142175,1,2,0:0:0:0:
329,192,142175,1,0,0:0:0:50:big kick.wav
475,192,142175,1,0,0:0:0:0:
256,192,142175,1,2,0:0:0:0:
109,192,142253,1,0,0:0:0:0:
182,192,142253,1,0,0:0:0:0:
329,192,142332,1,2,0:0:0:0:
475,192,142332,1,2,0:0:0:0:
402,192,142332,1,0,0:0:0:0:
36,192,142410,1,0,0:0:0:0:
182,192,142410,1,0,0:0:0:0:
475,192,142489,1,8,0:0:0:0:
402,192,142489,1,2,0:0:0:0:
256,192,142489,1,0,0:0:0:50:big kick.wav
109,192,142489,1,2,0:0:0:0:
182,192,142568,1,0,0:0:0:0:
329,192,142568,1,0,0:0:0:0:
256,192,142646,1,0,0:0:0:0:
36,192,142646,1,2,0:0:0:0:
402,192,142646,1,2,0:0:0:0:
109,192,142725,1,0,0:0:0:0:
329,192,142725,1,0,0:0:0:0:
182,192,142803,1,0,0:0:0:50:big kick.wav
475,192,142803,1,0,0:0:0:0:
402,192,142803,1,2,0:0:0:0:
36,192,142803,1,2,0:0:0:0:
256,192,142882,1,0,0:0:0:0:
109,192,142882,1,0,0:0:0:0:
475,192,142960,1,0,0:0:0:0:
329,192,142960,1,2,0:0:0:0:
402,192,142960,1,2,0:0:0:0:
182,192,143039,1,0,0:0:0:0:
36,192,143039,1,0,0:0:0:0:
109,192,143117,1,2,0:0:0:0:
256,192,143117,1,2,0:0:0:0:
329,192,143117,1,0,0:0:0:50:big kick.wav
402,192,143117,1,8,0:0:0:0:
475,192,143196,1,0,0:0:0:0:
36,192,143196,1,0,0:0:0:0:
182,192,143274,1,2,0:0:0:0:
329,192,143274,1,0,0:0:0:0:
256,192,143274,1,2,0:0:0:0:
475,192,143353,1,0,0:0:0:0:
402,192,143353,1,0,0:0:0:0:
109,192,143431,1,0,0:0:0:0:
182,192,143431,1,0,0:0:0:50:big kick.wav
36,192,143431,1,2,0:0:0:0:
256,192,143431,1,2,0:0:0:0:
402,192,143510,1,0,0:0:0:0:
329,192,143510,1,0,0:0:0:0:
182,192,143589,1,2,0:0:0:0:
36,192,143589,1,2,0:0:0:0:
109,192,143589,1,0,0:0:0:0:
475,192,143667,1,0,0:0:0:0:
329,192,143667,1,0,0:0:0:0:
36,192,143746,1,2,0:0:0:0:
109,192,143746,1,0,0:0:0:50:big kick.wav
256,192,143746,1,2,0:0:0:0:
402,192,143746,1,8,0:0:0:0:
329,192,143824,1,0,0:0:0:0:
182,192,143824,1,0,0:0:0:0:
256,192,143903,1,2,0:0:0:0:
475,192,143903,1,0,0:0:0:0:
402,192,143903,1,2,0:0:0:0:
36,192,143981,1,0,0:0:0:0:
109,192,143981,1,0,0:0:0:0:
402,192,144060,1,2,0:0:0:0:
475,192,144060,1,0,0:0:0:0:
182,192,144060,1,2,0:0:0:0:
329,192,144060,1,0,0:0:0:50:big kick.wav
109,192,144138,1,0,0:0:0:0:
36,192,144138,1,0,0:0:0:0:
475,192,144217,1,0,0:0:0:0:
329,192,144217,1,2,0:0:0:0:
256,192,144217,1,2,0:0:0:0:
402,192,144295,1,0,0:0:0:0:
182,192,144295,1,0,0:0:0:0:
329,192,144374,1,2,0:0:0:0:
475,192,144374,1,8,0:0:0:0:
109,192,144374,1,0,0:0:0:50:big kick.wav
36,192,144374,1,2,0:0:0:0:
256,192,144452,1,0,0:0:0:0:
182,192,144452,1,0,0:0:0:0:
36,192,144531,1,2,0:0:0:0:
109,192,144531,1,0,0:0:0:0:
329,192,144531,1,2,0:0:0:0:
475,192,144609,1,0,0:0:0:0:
402,192,144609,1,0,0:0:0:0:
109,192,144688,1,0,0:0:0:50:big kick.wav
36,192,144688,1,2,0:0:0:0:
329,192,144688,1,0,0:0:0:0:
182,192,144688,1,2,0:0:0:0:
475,192,144767,1,0,0:0:0:0:
402,192,144767,1,0,0:0:0:0:
36,192,144845,1,2,0:0:0:0:
109,192,144845,1,0,0:0:0:0:
256,192,144845,1,2,0:0:0:0:
329,192,144924,1,0,0:0:0:0:
182,192,144924,1,0,0:0:0:0:
475,192,145002,1,4,0:0:0:0:
109,192,145002,1,2,0:0:0:0:
36,192,145002,1,0,0:0:0:50:big kick.wav
402,192,145002,1,2,0:0:0:0:
182,192,145081,1,0,0:0:0:0:
256,192,145081,1,0,0:0:0:0:
36,192,145159,1,0,0:0:0:50:big kick.wav
109,192,145159,1,2,0:0:0:0:
475,192,145159,1,0,0:0:0:0:
402,192,145159,1,2,0:0:0:0:
182,192,145238,1,0,0:0:0:0:
329,192,145238,1,0,0:0:0:0:
36,192,145316,1,0,0:0:0:50:big kick.wav
475,192,145316,1,4,0:0:0:0:
402,192,145316,1,2,0:0:0:0:
109,192,145316,1,2,0:0:0:0:
329,192,145395,1,0,0:0:0:0:
256,192,145395,1,0,0:0:0:0:
36,192,145473,1,0,0:0:0:50:big kick.wav
475,192,145473,1,4,0:0:0:0:
109,192,145473,1,2,0:0:0:0:
402,192,145473,1,2,0:0:0:0:
256,192,145552,1,0,0:0:0:50:big kick.wav
329,192,145552,1,2,0:0:0:0:
182,192,145552,1,2,0:0:0:0:
36,192,145630,1,0,0:0:0:50:big kick.wav
475,192,145630,1,4,0:0:0:0:
402,192,145630,1,2,0:0:0:0:
109,192,145630,1,2,0:0:0:0:
329,192,145709,1,0,0:0:0:0:
182,192,145709,1,0,0:0:0:0:
36,192,145787,1,0,0:0:0:50:big kick.wav
475,192,145787,1,0,0:0:0:0:
256,192,145787,1,2,0:0:0:0:
402,192,145787,1,2,0:0:0:0:
109,192,145866,1,0,0:0:0:0:
182,192,145866,1,0,0:0:0:0:
475,192,145945,1,4,0:0:0:0:
36,192,145945,1,0,0:0:0:50:big kick.wav
329,192,145945,1,2,0:0:0:0:
402,192,145945,1,2,0:0:0:0:
182,192,146023,1,0,0:0:0:0:
256,192,146023,1,0,0:0:0:0:
475,192,146102,1,0,0:0:0:0:
36,192,146102,1,0,0:0:0:50:big kick.wav
109,192,146102,1,2,0:0:0:0:
402,192,146102,1,2,0:0:0:0:
329,192,146180,1,2,0:0:0:0:
256,192,146180,1,0,0:0:0:0:
109,192,146259,1,2,0:0:0:0:
36,192,146259,1,0,0:0:0:50:big kick.wav
182,192,146259,1,0,0:0:0:0:
402,192,146259,1,2,0:0:0:0:
475,192,146259,1,8,0:0:0:0:
329,192,146337,1,0,0:0:0:0:
256,192,146416,1,0,0:0:0:0:
402,192,146416,1,0,0:0:0:50:big kick.wav
475,192,146416,1,2,0:0:0:0:
109,192,146416,1,2,0:0:0:0:
182,192,146494,1,0,0:0:0:0:
475,192,146573,1,2,0:0:0:0:
36,192,146573,1,2,0:0:0:0:
109,192,146573,1,0,0:0:0:0:
329,192,146573,1,0,0:0:0:50:big kick.wav
256,192,146651,1,0,0:0:0:0:
36,192,146730,1,2,0:0:0:0:
402,192,146730,1,0,0:0:0:0:
475,192,146730,1,2,0:0:0:0:
182,192,146730,1,0,0:0:0:50:big kick.wav
256,192,146808,1,0,0:0:0:0:
109,192,146887,1,0,0:0:0:50:big kick.wav
36,192,146887,1,2,0:0:0:0:
329,192,146887,1,0,0:0:0:0:
402,192,146887,1,2,0:0:0:0:
475,192,146887,1,8,0:0:0:0:
182,192,146965,1,0,0:0:0:0:
109,192,147044,1,0,0:0:0:50:big kick.wav
36,192,147044,1,2,0:0:0:0:
256,192,147044,1,0,0:0:0:0:
402,192,147044,1,2,0:0:0:0:
329,192,147123,1,0,0:0:0:0:
182,192,147201,1,0,0:0:0:50:big kick.wav
475,192,147201,1,0,0:0:0:0:
36,192,147201,1,2,0:0:0:0:
402,192,147201,1,2,0:0:0:0:
256,192,147280,1,0,0:0:0:0:
109,192,147358,1,0,0:0:0:50:big kick.wav
329,192,147358,1,2,0:0:0:0:
36,192,147358,1,2,0:0:0:0:
475,192,147358,1,0,0:0:0:0:
182,192,147437,1,0,0:0:0:0:
256,192,147515,1,2,0:0:0:0:
402,192,147515,1,0,0:0:0:50:big kick.wav
475,192,147515,1,8,0:0:0:0:
36,192,147515,1,2,0:0:0:0:
109,192,147515,1,0,0:0:0:0:
329,192,147594,1,0,0:0:0:0:
256,192,147672,1,0,0:0:0:50:big kick.wav
36,192,147672,1,2,0:0:0:0:
475,192,147672,1,0,0:0:0:0:
182,192,147672,1,2,0:0:0:0:
402,192,147751,1,0,0:0:0:0:
329,192,147829,1,0,0:0:0:50:big kick.wav
109,192,147829,1,2,0:0:0:0:
182,192,147829,1,2,0:0:0:0:
475,192,147829,1,0,0:0:0:0:
256,192,147908,1,0,0:0:0:0:
36,192,147986,1,2,0:0:0:0:
182,192,147986,1,2,0:0:0:0:
402,192,147986,1,0,0:0:0:50:big kick.wav
475,192,147986,1,0,0:0:0:0:
329,192,148065,1,0,0:0:0:0:
36,192,148143,1,2,0:0:0:0:
109,192,148143,1,0,0:0:0:0:
256,192,148143,1,2,0:0:0:0:
402,192,148143,1,0,0:0:0:50:big kick.wav
475,192,148143,1,8,0:0:0:0:
182,192,148222,1,0,0:0:0:0:
475,192,148301,1,0,0:0:0:0:
36,192,148301,1,2,0:0:0:0:
256,192,148301,1,0,0:0:0:50:big kick.wav
329,192,148301,1,2,0:0:0:0:
109,192,148379,1,0,0:0:0:0:
182,192,148458,1,0,0:0:0:50:big kick.wav
36,192,148458,1,2,0:0:0:0:
329,192,148458,1,0,0:0:0:0:
402,192,148458,1,2,0:0:0:0:
256,192,148536,1,0,0:0:0:0:
109,192,148615,1,0,0:0:0:50:big kick.wav
475,192,148615,1,2,0:0:0:0:
36,192,148615,1,2,0:0:0:0:
329,192,148615,1,0,0:0:0:0:
182,192,148693,1,0,0:0:0:0:
475,192,148772,1,8,0:0:0:0:
256,192,148772,1,0,0:0:0:50:big kick.wav
402,192,148772,1,0,0:0:0:0:
36,192,148772,1,2,0:0:0:0:
109,192,148772,1,2,0:0:0:0:
329,192,148850,1,0,0:0:0:0:
182,192,148929,1,0,0:0:0:50:big kick.wav
402,192,148929,1,0,0:0:0:0:
109,192,148929,1,2,0:0:0:0:
36,192,148929,1,2,0:0:0:0:
256,192,149007,1,0,0:0:0:0:
329,192,149086,1,0,0:0:0:50:big kick.wav
475,192,149086,1,0,0:0:0:0:
109,192,149086,1,2,0:0:0:0:
36,192,149086,1,2,0:0:0:0:
256,192,149164,1,0,0:0:0:0:
182,192,149243,1,2,0:0:0:0:
402,192,149243,1,0,0:0:0:50:big kick.wav
475,192,149243,1,0,0:0:0:0:
36,192,149243,1,2,0:0:0:0:
329,192,149321,1,0,0:0:0:0:
256,192,149400,1,0,0:0:0:50:big kick.wav
109,192,149400,1,0,0:0:0:0:
36,192,149400,1,2,0:0:0:0:
402,192,149400,1,2,0:0:0:0:
475,192,149400,1,8,0:0:0:0:
182,192,149479,1,0,0:0:0:0:
475,192,149557,1,0,0:0:0:0:
109,192,149557,1,2,0:0:0:0:
329,192,149557,1,0,0:0:0:50:big kick.wav
402,192,149557,1,2,0:0:0:0:
256,192,149636,1,0,0:0:0:0:
36,192,149714,1,2,0:0:0:0:
402,192,149714,1,2,0:0:0:0:
182,192,149714,1,0,0:0:0:50:big kick.wav
475,192,149714,1,0,0:0:0:0:
256,192,149793,1,0,0:0:0:0:
109,192,149871,1,0,0:0:0:50:big kick.wav
475,192,149871,1,0,0:0:0:0:
329,192,149871,1,2,0:0:0:0:
36,192,149871,1,2,0:0:0:0:
182,192,149950,1,0,0:0:0:0:
109,192,150028,1,0,0:0:0:0:
36,192,150028,1,2,0:0:0:0:
475,192,150028,1,8,0:0:0:0:
402,192,150028,1,2,0:0:0:0:
329,192,150028,1,0,0:0:0:50:big kick.wav
256,192,150107,1,0,0:0:0:0:
36,192,150185,1,2,0:0:0:0:
109,192,150185,1,0,0:0:0:0:
182,192,150185,1,0,0:0:0:50:big kick.wav
402,192,150185,1,2,0:0:0:0:
329,192,150264,1,0,0:0:0:0:
475,192,150342,1,0,0:0:0:0:
182,192,150342,1,2,0:0:0:0:
256,192,150342,1,0,0:0:0:50:big kick.wav
109,192,150342,1,2,0:0:0:0:
402,192,150421,1,0,0:0:0:0:
36,192,150499,1,2,0:0:0:0:
329,192,150499,1,0,0:0:0:50:big kick.wav
109,192,150499,1,2,0:0:0:0:
475,192,150499,1,0,0:0:0:0:
256,192,150578,1,0,0:0:0:0:
36,192,150657,1,2,0:0:0:0:
109,192,150657,1,2,0:0:0:0:
402,192,150657,1,0,0:0:0:50:big kick.wav
475,192,150657,1,8,0:0:0:0:
182,192,150657,1,0,0:0:0:0:
256,192,150735,1,0,0:0:0:0:
402,192,150814,1,2,0:0:0:0:
329,192,150814,1,0,0:0:0:50:big kick.wav
475,192,150814,1,0,0:0:0:0:
109,192,150814,1,2,0:0:0:0:
182,192,150892,1,0,0:0:0:0:
36,192,150971,1,2,0:0:0:0:
402,192,150971,1,0,0:0:0:0:
256,192,150971,1,0,0:0:0:50:big kick.wav
329,192,150971,1,2,0:0:0:0:
109,192,151049,1,0,0:0:0:0:
402,192,151128,1,2,0:0:0:0:
475,192,151128,1,0,0:0:0:0:
36,192,151128,1,2,0:0:0:0:
182,192,151128,1,0,0:0:0:50:big kick.wav
256,192,151206,1,0,0:0:0:0:
475,192,151285,1,8,0:0:0:0:
109,192,151285,1,2,0:0:0:0:
402,192,151285,1,2,0:0:0:0:
329,192,151285,1,0,0:0:0:0:
36,192,151285,1,0,0:0:0:50:big kick.wav
109,192,151442,1,0,0:0:0:0:
36,192,151442,1,0,0:0:0:50:big kick.wav
182,192,151442,1,2,0:0:0:0:
256,192,151442,1,2,0:0:0:0:
402,192,151520,1,2,0:0:0:0:
475,192,151520,1,0,0:0:0:50:big kick.wav
182,192,151599,1,0,0:0:0:0:
109,192,151599,1,0,0:0:0:0:
36,192,151599,1,0,0:0:0:50:big kick.wav
256,192,151599,1,2,0:0:0:0:
329,192,151599,1,2,0:0:0:0:
329,192,151756,1,2,0:0:0:0:
402,192,151756,1,2,0:0:0:0:
182,192,151756,1,0,0:0:0:0:
256,192,151756,1,0,0:0:0:50:big kick.wav
109,192,151835,1,2,0:0:0:0:
36,192,151835,1,0,0:0:0:50:big kick.wav
329,192,151913,1,2,0:0:0:0:
402,192,151913,1,2,0:0:0:0:
475,192,151913,1,8,0:0:0:0:
256,192,151913,1,0,0:0:0:50:big kick.wav
182,192,151913,1,0,0:0:0:0:
402,192,152070,1,0,0:0:0:50:big kick.wav
329,192,152070,1,2,0:0:0:0:
475,192,152070,1,0,0:0:0:0:
256,192,152070,1,2,0:0:0:0:
109,192,152149,1,2,0:0:0:0:
36,192,152149,1,0,0:0:0:50:big kick.wav
329,192,152227,1,0,0:0:0:0:
475,192,152227,1,0,0:0:0:0:
182,192,152227,1,2,0:0:0:0:
256,192,152227,1,2,0:0:0:0:
402,192,152227,1,0,0:0:0:50:big kick.wav
402,192,152384,1,2,0:0:0:0:
36,192,152384,1,0,0:0:0:50:big kick.wav
182,192,152384,1,2,0:0:0:0:
475,192,152384,1,0,0:0:0:0:
109,192,152463,1,0,0:0:0:50:big kick.wav
329,192,152463,1,2,0:0:0:0:
36,192,152541,1,0,0:0:0:50:big kick.wav
475,192,152541,1,8,0:0:0:0:
402,192,152541,1,2,0:0:0:0:
256,192,152541,1,0,0:0:0:0:
182,192,152541,1,0,0:0:0:0:
475,192,152698,1,0,0:0:0:0:
109,192,152698,1,2,0:0:0:0:
36,192,152698,1,0,0:0:0:50:big kick.wav
329,192,152698,1,2,0:0:0:0:
402,192,152777,1,2,0:0:0:0:
182,192,152777,1,0,0:0:0:50:big kick.wav
256,192,152856,1,0,0:0:0:0:
329,192,152856,1,2,0:0:0:0:
475,192,152856,1,0,0:0:0:0:
109,192,152856,1,2,0:0:0:0:
36,192,152856,1,0,0:0:0:50:big kick.wav
475,192,153013,1,0,0:0:0:0:
36,192,153013,1,0,0:0:0:50:big kick.wav
402,192,153013,1,2,0:0:0:0:
182,192,153013,1,2,0:0:0:0:
109,192,153091,1,0,0:0:0:50:big kick.wav
329,192,153091,1,2,0:0:0:0:
36,192,153170,1,0,0:0:0:50:big kick.wav
475,192,153170,1,8,0:0:0:0:
182,192,153170,1,2,0:0:0:0:
402,192,153170,1,2,0:0:0:0:
256,192,153170,1,0,0:0:0:0:
36,192,153327,1,0,0:0:0:50:big kick.wav
475,192,153327,1,0,0:0:0:0:
329,192,153327,1,2,0:0:0:0:
109,192,153327,1,2,0:0:0:0:
402,192,153405,1,2,0:0:0:0:
182,192,153405,1,0,0:0:0:50:big kick.wav
329,192,153484,1,2,0:0:0:0:
109,192,153484,1,2,0:0:0:0:
256,192,153484,1,0,0:0:0:0:
36,192,153484,1,0,0:0:0:50:big kick.wav
475,192,153484,1,0,0:0:0:0:
36,192,153641,1,0,0:0:0:50:big kick.wav
109,192,153641,1,0,0:0:0:0:
475,192,153641,1,2,0:0:0:0:
182,192,153641,1,2,0:0:0:0:
402,192,153719,1,2,0:0:0:0:
329,192,153719,1,0,0:0:0:50:big kick.wav
475,192,153798,1,2,0:0:0:0:
256,192,153798,1,8,0:0:0:0:
182,192,153798,1,2,0:0:0:0:
36,192,153798,1,0,0:0:0:50:big kick.wav
109,192,153798,1,0,0:0:0:0:
402,192,153955,1,2,0:0:0:0:
36,192,153955,1,2,0:0:0:0:
475,192,153955,1,0,0:0:0:50:big kick.wav
329,192,153955,1,0,0:0:0:0:
182,192,154034,1,0,0:0:0:50:big kick.wav
109,192,154034,1,2,0:0:0:0:
402,192,154112,1,2,0:0:0:0:
475,192,154112,1,0,0:0:0:50:big kick.wav
256,192,154112,1,0,0:0:0:0:
36,192,154112,1,2,0:0:0:0:
329,192,154112,1,0,0:0:0:0:
36,192,154269,1,0,0:0:0:50:big kick.wav
475,192,154269,1,2,0:0:0:0:
182,192,154269,1,0,0:0:0:0:
109,192,154269,1,2,0:0:0:0:
329,192,154348,1,0,0:0:0:50:big kick.wav
402,192,154348,1,2,0:0:0:0:
182,192,154426,1,0,0:0:0:0:
36,192,154426,1,0,0:0:0:50:big kick.wav
109,192,154426,1,2,0:0:0:0:
475,192,154426,1,2,0:0:0:0:
256,192,154426,1,8,0:0:0:0:
402,192,154583,1,0,0:0:0:0:
182,192,154583,1,2,0:0:0:0:
109,192,154583,1,2,0:0:0:0:
36,192,154583,1,0,0:0:0:50:big kick.wav
256,192,154662,1,2,0:0:0:0:
329,192,154662,1,0,0:0:0:50:big kick.wav
182,192,154740,1,2,0:0:0:0:
109,192,154740,1,2,0:0:0:0:
402,192,154740,1,0,0:0:0:0:
475,192,154740,1,0,0:0:0:0:
36,192,154740,1,0,0:0:0:50:big kick.wav
329,192,154897,1,2,0:0:0:0:
475,192,154897,1,0,0:0:0:0:
109,192,154897,1,2,0:0:0:0:
36,192,154897,1,0,0:0:0:50:big kick.wav
256,192,154976,1,0,0:0:0:50:big kick.wav
182,192,154976,1,2,0:0:0:0:
109,192,155054,1,2,0:0:0:0:
36,192,155054,1,0,0:0:0:50:big kick.wav
329,192,155054,1,2,0:0:0:0:
402,192,155054,1,4,0:0:0:0:
475,192,155054,1,0,0:0:0:0:
182,192,155133,1,0,0:0:0:0:
256,192,155212,1,0,0:0:0:0:
329,192,155212,1,2,0:0:0:0:
402,192,155212,1,2,0:0:0:0:
475,192,155212,1,0,0:0:0:0:
36,192,155212,1,0,0:0:0:50:big kick.wav
109,192,155290,1,0,0:0:0:50:big kick.wav
36,192,155369,1,0,0:0:0:50:big kick.wav
256,192,155369,1,0,0:0:0:0:
329,192,155369,1,2,0:0:0:0:
402,192,155369,1,4,0:0:0:0:
182,192,155369,1,2,0:0:0:0:
109,192,155447,1,0,0:0:0:50:big kick.wav
256,192,155526,1,0,0:0:0:50:big kick.wav
402,192,155526,1,4,0:0:0:0:
475,192,155526,1,0,0:0:0:0:
36,192,155526,1,2,0:0:0:0:
329,192,155526,1,2,0:0:0:0:
182,192,155604,1,0,0:0:0:50:big kick.wav
109,192,155683,1,2,0:0:0:0:
329,192,155683,1,2,0:0:0:0:
402,192,155683,1,4,0:0:0:0:
475,192,155683,1,0,0:0:0:50:big kick.wav
256,192,155761,1,0,0:0:0:0:
36,192,155840,1,0,0:0:0:0:
182,192,155840,1,2,0:0:0:0:
402,192,155840,1,2,0:0:0:0:
475,192,155840,1,0,0:0:0:0:
109,192,155840,1,0,0:0:0:50:big kick.wav
329,192,155918,1,0,0:0:0:0:
256,192,155997,1,0,0:0:0:50:big kick.wav
475,192,155997,1,2,0:0:0:0:
182,192,155997,1,2,0:0:0:0:
109,192,155997,1,4,0:0:0:0:
36,192,155997,1,0,0:0:0:0:
402,192,156075,1,0,0:0:0:0:
329,192,156154,1,2,0:0:0:0:
256,192,156154,1,0,0:0:0:50:big kick.wav
182,192,156154,1,2,0:0:0:0:
109,192,156154,1,0,0:0:0:0:
36,192,156154,1,0,0:0:0:0:
402,192,156232,1,0,0:0:0:0:
475,192,156311,1,0,0:0:0:0:
109,192,156311,1,2,0:0:0:0:
36,192,156311,1,0,0:0:0:0:
256,192,156311,1,2,0:0:0:0:
182,192,156390,1,0,0:0:0:0:
329,192,156390,1,0,0:0:0:0:
109,192,156468,1,0,0:0:0:0:
402,192,156468,1,0,0:0:0:0:
475,192,156547,1,0,0:0:0:0:
256,192,156547,1,0,0:0:0:0:
329,192,156625,1,0,0:0:0:0:
36,192,156625,1,0,0:0:0:0:
402,192,156704,1,0,0:0:0:0:
109,192,156704,1,0,0:0:0:0:
182,192,156782,1,0,0:0:0:0:
329,192,156782,1,0,0:0:0:0:
256,192,156861,1,0,0:0:0:0:
475,192,156861,1,0,0:0:0:0:
109,192,156939,1,0,0:0:0:0:
36,192,156939,1,0,0:0:0:0:
182,192,157018,1,0,0:0:0:0:
329,192,157018,1,0,0:0:0:0:
402,192,157096,1,0,0:0:0:0:
475,192,157096,1,0,0:0:0:0:
256,192,157175,1,0,0:0:0:0:
109,192,157175,1,0,0:0:0:0:
329,192,157253,1,0,0:0:0:0:
475,192,157253,1,0,0:0:0:0:
182,192,157332,1,0,0:0:0:0:
36,192,157332,1,0,0:0:0:0:
402,192,157410,1,0,0:0:0:0:
256,192,157410,1,0,0:0:0:0:
182,192,157489,1,0,0:0:0:0:
36,192,157489,1,0,0:0:0:0:
109,192,157568,1,0,0:0:0:0:
329,192,157568,1,0,0:0:0:0:
402,192,157646,1,0,0:0:0:0:
256,192,157646,1,0,0:0:0:0:
182,192,157725,1,0,0:0:0:0:
475,192,157725,1,0,0:0:0:0:
109,192,157803,1,0,0:0:0:0:
329,192,157803,1,0,0:0:0:0:
402,192,157882,1,0,0:0:0:0:
36,192,157882,1,0,0:0:0:0:
475,192,157960,1,0,0:0:0:0:
256,192,157960,1,0,0:0:0:0:
329,192,158039,1,0,0:0:0:0:
109,192,158039,1,0,0:0:0:0:
182,192,158117,1,0,0:0:0:0:
402,192,158117,1,0,0:0:0:0:
256,192,158196,1,0,0:0:0:0:
475,192,158196,1,0,0:0:0:0:
109,192,158274,1,0,0:0:0:0:
36,192,158274,1,0,0:0:0:0:
402,192,158353,1,0,0:0:0:0:
329,192,158353,1,0,0:0:0:0:
109,192,158431,1,0,0:0:0:0:
182,192,158431,1,0,0:0:0:0:
402,192,158510,1,0,0:0:0:0:
475,192,158510,1,0,0:0:0:0:
182,192,158589,1,0,0:0:0:0:
256,192,158589,1,0,0:0:0:0:
475,192,158667,1,0,0:0:0:0:
36,192,158667,1,0,0:0:0:0:
256,192,158746,1,0,0:0:0:0:
329,192,158746,1,0,0:0:0:0:
402,192,158824,1,0,0:0:0:0:
109,192,158824,1,0,0:0:0:0:
475,192,158903,1,0,0:0:0:0:
182,192,158903,1,0,0:0:0:0:
402,192,158981,1,0,0:0:0:0:
109,192,158981,1,0,0:0:0:0:
36,192,159060,1,0,0:0:0:0:
256,192,159060,1,0,0:0:0:0:
182,192,159138,1,0,0:0:0:0:
475,192,159138,1,0,0:0:0:0:
109,192,159217,1,0,0:0:0:0:
402,192,159217,1,0,0:0:0:0:
329,192,159295,1,0,0:0:0:0:
182,192,159295,1,0,0:0:0:0:
256,192,159374,1,0,0:0:0:0:
36,192,159374,1,0,0:0:0:0:
402,192,159452,1,0,0:0:0:0:
475,192,159452,1,0,0:0:0:0:
329,192,159531,1,0,0:0:0:0:
182,192,159531,1,0,0:0:0:0:
109,192,159609,1,0,0:0:0:0:
36,192,159609,1,0,0:0:0:0:
256,192,159688,1,0,0:0:0:0:
402,192,159688,1,0,0:0:0:0:
182,192,159767,1,0,0:0:0:0:
36,192,159767,1,0,0:0:0:0:
329,192,159845,1,0,0:0:0:0:
475,192,159845,1,0,0:0:0:0:
109,192,159924,1,0,0:0:0:0:
256,192,159924,1,0,0:0:0:0:
329,192,160002,1,0,0:0:0:0:
475,192,160002,1,0,0:0:0:0:
402,192,160081,1,0,0:0:0:0:
182,192,160081,1,0,0:0:0:0:
109,192,160159,1,0,0:0:0:0:
256,192,160159,1,0,0:0:0:0:
329,192,160238,1,0,0:0:0:0:
36,192,160238,1,0,0:0:0:0:
402,192,160316,1,0,0:0:0:0:
182,192,160316,1,0,0:0:0:0:
109,192,160395,1,0,0:0:0:0:
475,192,160395,1,0,0:0:0:0:
36,192,160473,1,0,0:0:0:0:
256,192,160473,1,0,0:0:0:0:
182,192,160552,1,0,0:0:0:0:
402,192,160552,1,0,0:0:0:0:
329,192,160630,1,0,0:0:0:0:
109,192,160630,1,0,0:0:0:0:
256,192,160709,1,0,0:0:0:0:
36,192,160709,1,0,0:0:0:0:
402,192,160787,1,0,0:0:0:0:
475,192,160787,1,0,0:0:0:0:
109,192,160866,1,0,0:0:0:0:
182,192,160866,1,0,0:0:0:0:
402,192,160945,1,0,0:0:0:0:
329,192,160945,1,0,0:0:0:0:
109,192,161023,1,0,0:0:0:0:
36,192,161023,1,0,0:0:0:0:
329,192,161102,1,0,0:0:0:0:
256,192,161102,1,0,0:0:0:0:
36,192,161180,1,0,0:0:0:0:
475,192,161180,1,0,0:0:0:0:
256,192,161259,1,0,0:0:0:0:
182,192,161259,1,0,0:0:0:0:
109,192,161337,1,0,0:0:0:0:
402,192,161337,1,2,0:0:0:0:
329,192,161416,1,2,0:0:0:0:
36,192,161416,1,0,0:0:0:0:
256,192,161494,1,2,0:0:0:0:
475,192,161494,1,0,0:0:0:0:
182,192,161573,1,0,0:0:0:0:
36,192,161573,1,0,0:0:0:0:
109,192,161651,1,2,0:0:0:0:
402,192,161651,1,0,0:0:0:0:
182,192,161730,1,2,0:0:0:0:
475,192,161730,1,0,0:0:0:0:
256,192,161808,1,2,0:0:0:0:
36,192,161808,1,0,0:0:0:0:
329,192,161887,1,0,0:0:0:0:
475,192,161887,1,0,0:0:0:0:
109,192,161965,1,0,0:0:0:0:
402,192,161965,1,2,0:0:0:0:
36,192,162044,1,0,0:0:0:0:
329,192,162044,1,2,0:0:0:0:
256,192,162123,1,2,0:0:0:0:
475,192,162123,1,0,0:0:0:0:
36,192,162201,1,0,0:0:0:0:
182,192,162201,1,0,0:0:0:0:
109,192,162280,1,2,0:0:0:0:
402,192,162280,1,0,0:0:0:0:
475,192,162358,1,0,0:0:0:0:
182,192,162358,1,2,0:0:0:0:
256,192,162437,1,2,0:0:0:0:
36,192,162437,1,0,0:0:0:0:
475,192,162515,1,0,0:0:0:0:
329,192,162515,1,0,0:0:0:0:
109,192,162594,1,0,0:0:0:0:
402,192,162594,1,2,0:0:0:0:
329,192,162672,1,2,0:0:0:0:
36,192,162672,1,0,0:0:0:0:
256,192,162751,1,2,0:0:0:0:
475,192,162751,1,0,0:0:0:0:
182,192,162829,1,0,0:0:0:0:
36,192,162829,1,0,0:0:0:0:
109,192,162908,1,2,0:0:0:0:
402,192,162908,1,0,0:0:0:0:
182,192,162986,1,2,0:0:0:0:
475,192,162986,1,0,0:0:0:0:
256,192,163065,1,2,0:0:0:0:
36,192,163065,1,0,0:0:0:0:
329,192,163143,1,0,0:0:0:0:
475,192,163143,1,0,0:0:0:0:
109,192,163222,1,0,0:0:0:0:
402,192,163222,1,2,0:0:0:0:
36,192,163301,1,0,0:0:0:0:
329,192,163301,1,2,0:0:0:0:
256,192,163379,1,2,0:0:0:0:
475,192,163379,1,0,0:0:0:0:
36,192,163458,1,0,0:0:0:0:
182,192,163458,1,0,0:0:0:0:
109,192,163536,1,2,0:0:0:0:
402,192,163536,1,0,0:0:0:0:
475,192,163615,1,0,0:0:0:0:
182,192,163615,1,2,0:0:0:0:
256,192,163693,1,2,0:0:0:0:
36,192,163693,1,0,0:0:0:0:
475,192,163772,1,0,0:0:0:0:
329,192,163772,1,0,0:0:0:0:
109,192,163850,1,2,0:0:0:0:
402,192,163850,1,0,0:0:0:0:
182,192,163929,1,2,0:0:0:0:
36,192,163929,1,0,0:0:0:0:
256,192,164007,1,2,0:0:0:0:
475,192,164007,1,0,0:0:0:0:
182,192,164086,1,0,0:0:0:0:
329,192,164086,1,0,0:0:0:0:
109,192,164164,1,0,0:0:0:0:
402,192,164164,1,2,0:0:0:0:
329,192,164243,1,2,0:0:0:0:
475,192,164243,1,0,0:0:0:0:
256,192,164321,1,2,0:0:0:0:
36,192,164321,1,0,0:0:0:0:
329,192,164400,1,0,0:0:0:0:
182,192,164400,1,0,0:0:0:0:
402,192,164479,1,0,0:0:0:0:
109,192,164479,1,2,0:0:0:0:
182,192,164557,1,2,0:0:0:0:
36,192,164557,1,0,0:0:0:0:
256,192,164636,1,2,0:0:0:0:
475,192,164636,1,0,0:0:0:0:
182,192,164714,1,0,0:0:0:0:
329,192,164714,1,0,0:0:0:0:
109,192,164793,1,0,0:0:0:0:
402,192,164793,1,2,0:0:0:0:
329,192,164871,1,2,0:0:0:0:
475,192,164871,1,0,0:0:0:0:
256,192,164950,1,2,0:0:0:0:
36,192,164950,1,0,0:0:0:0:
329,192,165028,1,0,0:0:0:0:
109,192,165028,1,0,0:0:0:0:
402,192,165107,1,0,0:0:0:0:
182,192,165107,1,2,0:0:0:0:
109,192,165185,1,2,0:0:0:0:
475,192,165185,1,0,0:0:0:0:
36,192,165264,1,2,0:0:0:0:
256,192,165264,1,0,0:0:0:0:
109,192,165342,1,0,0:0:0:0:
402,192,165342,1,0,0:0:0:0:
182,192,165421,1,0,0:0:0:0:
329,192,165421,1,2,0:0:0:0:
402,192,165499,1,2,0:0:0:0:
36,192,165499,1,0,0:0:0:0:
475,192,165578,1,2,0:0:0:0:
256,192,165578,1,0,0:0:0:0:
402,192,165657,1,0,0:0:0:0:
109,192,165657,1,0,0:0:0:0:
329,192,165735,1,0,0:0:0:0:
182,192,165735,1,2,0:0:0:0:
109,192,165814,1,2,0:0:0:0:
475,192,165814,1,0,0:0:0:0:
36,192,165892,1,2,0:0:0:0:
256,192,165892,1,0,0:0:0:0:
109,192,165971,1,0,0:0:0:0:
402,192,165971,1,0,0:0:0:0:
182,192,166049,1,0,0:0:0:0:
329,192,166049,1,2,0:0:0:0:
402,192,166128,1,2,0:0:0:0:
36,192,166128,1,0,0:0:0:0:
475,192,166206,1,2,0:0:0:0:
256,192,166206,1,0,0:0:0:0:
402,192,166285,1,0,0:0:0:0:
109,192,166285,1,0,0:0:0:0:
329,192,166363,1,0,0:0:0:0:
182,192,166363,1,2,0:0:0:0:
256,192,166442,1,0,0:0:0:0:
36,192,166520,1,2,0:0:0:0:
475,192,166520,1,2,0:0:0:0:
402,192,166520,1,0,0:0:0:0:
109,192,166599,1,0,0:0:0:0:
182,192,166678,1,2,0:0:0:0:
402,192,166678,1,2,0:0:0:0:
329,192,166678,1,0,0:0:0:0:
109,192,166756,1,0,0:0:0:0:
36,192,166835,1,2,0:0:0:0:
256,192,166835,1,0,0:0:0:0:
329,192,166835,1,2,0:0:0:0:
109,192,166913,1,0,0:0:0:0:
182,192,166992,1,2,0:0:0:0:
256,192,166992,1,2,0:0:0:0:
402,192,166992,1,0,0:0:0:0:
109,192,167070,1,0,0:0:0:0:
36,192,167149,1,2,0:0:0:0:
329,192,167149,1,2,0:0:0:0:
475,192,167149,1,0,0:0:0:0:
109,192,167227,1,0,0:0:0:0:
182,192,167306,1,2,0:0:0:0:
329,192,167306,1,0,0:0:0:0:
256,192,167306,1,2,0:0:0:0:
109,192,167384,1,0,0:0:0:0:
36,192,167463,1,2,0:0:0:0:
402,192,167463,1,0,0:0:0:0:
329,192,167463,1,2,0:0:0:0:
109,192,167541,1,0,0:0:0:0:
182,192,167620,1,2,0:0:0:0:
402,192,167620,1,2,0:0:0:0:
475,192,167620,1,0,0:0:0:0:
36,192,167698,1,0,0:0:0:0:
182,192,167777,1,2,0:0:0:0:
329,192,167777,1,2,0:0:0:0:
475,192,167777,1,0,0:0:0:0:
109,192,167856,1,0,0:0:0:0:
182,192,167934,1,2,0:0:0:0:
402,192,167934,1,2,0:0:0:0:
256,192,167934,1,0,0:0:0:0:
36,192,168013,1,0,0:0:0:0:
109,192,168091,1,2,0:0:0:0:
329,192,168091,1,2,0:0:0:0:
475,192,168091,1,0,0:0:0:0:
36,192,168170,1,0,0:0:0:0:
182,192,168248,1,2,0:0:0:0:
256,192,168248,1,0,0:0:0:0:
475,192,168248,1,2,0:0:0:0:
36,192,168327,1,0,0:0:0:0:
182,192,168405,1,2,0:0:0:0:
329,192,168405,1,0,0:0:0:0:
402,192,168405,1,2,0:0:0:0:
109,192,168484,1,0,0:0:0:0:
182,192,168562,1,2,0:0:0:0:
402,192,168562,1,0,0:0:0:0:
475,192,168562,1,2,0:0:0:0:
36,192,168641,1,0,0:0:0:0:
109,192,168719,1,2,0:0:0:0:
329,192,168719,1,2,0:0:0:0:
256,192,168719,1,0,0:0:0:0:
36,192,168798,1,0,0:0:0:0:
182,192,168876,1,0,0:0:0:0:
402,192,168876,1,0,0:0:0:0:
256,192,168955,1,0,0:0:0:0:
475,192,169034,1,2,0:0:0:0:
36,192,169034,1,0,0:0:0:0:
109,192,169034,1,2,0:0:0:0:
402,192,169112,1,0,0:0:0:0:
329,192,169191,1,2,0:0:0:0:
109,192,169191,1,2,0:0:0:0:
182,192,169191,1,0,0:0:0:0:
402,192,169269,1,0,0:0:0:0:
475,192,169348,1,2,0:0:0:0:
256,192,169348,1,0,0:0:0:0:
182,192,169348,1,2,0:0:0:0:
402,192,169426,1,0,0:0:0:0:
329,192,169505,1,2,0:0:0:0:
256,192,169505,1,0,0:0:0:0:
109,192,169505,1,2,0:0:0:0:
402,192,169583,1,0,0:0:0:0:
475,192,169662,1,2,0:0:0:0:
182,192,169662,1,2,0:0:0:0:
36,192,169662,1,0,0:0:0:0:
402,192,169740,1,0,0:0:0:0:
329,192,169819,1,2,0:0:0:0:
182,192,169819,1,2,0:0:0:0:
256,192,169819,1,0,0:0:0:0:
402,192,169897,1,0,0:0:0:0:
475,192,169976,1,2,0:0:0:0:
109,192,169976,1,0,0:0:0:0:
182,192,169976,1,2,0:0:0:0:
402,192,170054,1,0,0:0:0:0:
329,192,170133,1,2,0:0:0:0:
109,192,170133,1,2,0:0:0:0:
36,192,170133,1,0,0:0:0:0:
475,192,170212,1,0,0:0:0:0:
329,192,170290,1,2,0:0:0:0:
182,192,170290,1,2,0:0:0:0:
36,192,170290,1,0,0:0:0:0:
402,192,170369,1,0,0:0:0:0:
329,192,170447,1,2,0:0:0:0:
109,192,170447,1,2,0:0:0:0:
256,192,170447,1,0,0:0:0:0:
475,192,170526,1,0,0:0:0:0:
402,192,170604,1,2,0:0:0:0:
182,192,170604,1,2,0:0:0:0:
36,192,170604,1,0,0:0:0:0:
475,192,170683,1,0,0:0:0:0:
329,192,170761,1,2,0:0:0:0:
256,192,170761,1,0,0:0:0:0:
36,192,170761,1,2,0:0:0:0:
475,192,170840,1,0,0:0:0:0:
329,192,170918,1,2,0:0:0:0:
182,192,170918,1,0,0:0:0:0:
109,192,170918,1,2,0:0:0:0:
402,192,170997,1,0,0:0:0:0:
329,192,171075,1,2,0:0:0:0:
109,192,171075,1,0,0:0:0:0:
36,192,171075,1,2,0:0:0:0:
475,192,171154,1,0,0:0:0:0:
402,192,171232,1,2,0:0:0:0:
182,192,171232,1,2,0:0:0:0:
256,192,171232,1,0,0:0:0:0:
475,192,171311,1,0,0:0:0:0:
329,192,171390,1,0,0:0:0:0:
36,192,171390,1,0,0:0:0:0:
256,192,171468,1,0,0:0:0:0:
109,192,171547,1,2,0:0:0:0:
402,192,171547,1,2,0:0:0:0:
475,192,171547,1,0,0:0:0:0:
182,192,171625,1,0,0:0:0:0:
256,192,171704,1,2,0:0:0:0:
36,192,171704,1,0,0:0:0:0:
329,192,171704,1,2,0:0:0:0:
182,192,171782,1,0,0:0:0:0:
109,192,171861,1,2,0:0:0:0:
402,192,171861,1,2,0:0:0:0:
475,192,171861,1,0,0:0:0:0:
182,192,171939,1,0,0:0:0:0:
256,192,172018,1,2,0:0:0:0:
36,192,172018,1,0,0:0:0:0:
402,192,172018,1,2,0:0:0:0:
182,192,172096,1,0,0:0:0:0:
109,192,172175,1,2,0:0:0:0:
329,192,172175,1,2,0:0:0:0:
475,192,172175,1,0,0:0:0:0:
182,192,172253,1,0,0:0:0:0:
256,192,172332,1,2,0:0:0:0:
36,192,172332,1,0,0:0:0:0:
402,192,172332,1,2,0:0:0:0:
182,192,172410,1,0,0:0:0:0:
109,192,172489,1,2,0:0:0:0:
402,192,172489,1,0,0:0:0:0:
329,192,172489,1,2,0:0:0:0:
182,192,172568,1,0,0:0:0:0:
256,192,172646,1,2,0:0:0:0:
36,192,172646,1,0,0:0:0:0:
329,192,172646,1,2,0:0:0:0:
109,192,172725,1,0,0:0:0:0:
256,192,172803,1,2,0:0:0:0:
402,192,172803,1,2,0:0:0:0:
475,192,172803,1,0,0:0:0:0:
182,192,172882,1,0,0:0:0:0:
256,192,172960,1,2,0:0:0:0:
36,192,172960,1,0,0:0:0:0:
329,192,172960,1,2,0:0:0:0:
109,192,173039,1,0,0:0:0:0:
182,192,173117,1,2,0:0:0:0:
329,192,173117,1,0,0:0:0:0:
402,192,173117,1,2,0:0:0:0:
109,192,173196,1,0,0:0:0:0:
256,192,173274,1,2,0:0:0:0:
402,192,173274,1,2,0:0:0:0:
475,192,173274,1,0,0:0:0:0:
109,192,173353,1,0,0:0:0:0:
256,192,173431,1,2,0:0:0:0:
329,192,173431,1,2,0:0:0:0:
475,192,173431,1,0,0:0:0:0:
182,192,173510,1,0,0:0:0:0:
256,192,173589,1,2,0:0:0:0:
402,192,173589,1,2,0:0:0:0:
36,192,173589,1,0,0:0:0:0:
109,192,173667,1,0,0:0:0:0:
182,192,173746,1,2,0:0:0:0:
329,192,173746,1,2,0:0:0:0:
475,192,173746,1,0,0:0:0:0:
109,192,173824,1,0,0:0:0:0:
256,192,173903,1,0,0:0:0:0:
36,192,173903,1,0,0:0:0:0:
182,192,173981,1,0,0:0:0:0:
402,192,174060,1,2,0:0:0:0:
109,192,174060,1,2,0:0:0:0:
36,192,174060,1,0,0:0:0:0:
329,192,174138,1,0,0:0:0:0:
256,192,174217,1,2,0:0:0:0:
475,192,174217,1,0,0:0:0:0:
182,192,174217,1,2,0:0:0:0:
329,192,174295,1,0,0:0:0:0:
402,192,174374,1,2,0:0:0:0:
109,192,174374,1,2,0:0:0:0:
36,192,174374,1,0,0:0:0:0:
329,192,174452,1,0,0:0:0:0:
256,192,174531,1,2,0:0:0:0:
475,192,174531,1,0,0:0:0:0:
109,192,174531,1,2,0:0:0:0:
329,192,174609,1,0,0:0:0:0:
402,192,174688,1,2,0:0:0:0:
182,192,174688,1,2,0:0:0:0:
36,192,174688,1,0,0:0:0:0:
329,192,174767,1,0,0:0:0:0:
256,192,174845,1,2,0:0:0:0:
475,192,174845,1,0,0:0:0:0:
109,192,174845,1,2,0:0:0:0:
329,192,174924,1,0,0:0:0:0:
402,192,175002,1,2,0:0:0:0:
109,192,175002,1,0,0:0:0:0:
182,192,175002,1,2,0:0:0:0:
329,192,175081,1,0,0:0:0:0:
256,192,175159,1,2,0:0:0:0:
475,192,175159,1,0,0:0:0:0:
182,192,175159,1,2,0:0:0:0:
402,192,175238,1,0,0:0:0:0:
256,192,175316,1,2,0:0:0:0:
109,192,175316,1,2,0:0:0:0:
36,192,175316,1,0,0:0:0:0:
329,192,175395,1,0,0:0:0:0:
256,192,175473,1,2,0:0:0:0:
475,192,175473,1,0,0:0:0:0:
182,192,175473,1,2,0:0:0:0:
402,192,175552,1,0,0:0:0:0:
329,192,175630,1,2,0:0:0:0:
182,192,175630,1,0,0:0:0:0:
109,192,175630,1,2,0:0:0:0:
402,192,175709,1,0,0:0:0:0:
256,192,175787,1,2,0:0:0:0:
109,192,175787,1,0,0:0:0:0:
36,192,175787,1,2,0:0:0:0:
402,192,175866,1,0,0:0:0:0:
256,192,175945,1,2,0:0:0:0:
182,192,175945,1,2,0:0:0:0:
36,192,175945,1,0,0:0:0:0:
329,192,176023,1,0,0:0:0:0:
256,192,176102,1,2,0:0:0:0:
109,192,176102,1,2,0:0:0:0:
475,192,176102,1,0,0:0:0:0:
402,192,176180,1,0,0:0:0:0:
329,192,176259,1,2,0:0:0:0:
182,192,176259,1,2,0:0:0:0:
36,192,176259,1,0,0:0:0:0:
402,192,176337,1,0,0:0:0:0:
475,192,176416,1,0,0:0:0:0:
109,192,176416,1,0,0:0:0:0:
182,192,176494,1,0,0:0:0:0:
36,192,176573,1,2,0:0:0:0:
256,192,176573,1,2,0:0:0:0:
109,192,176573,1,0,0:0:0:0:
329,192,176651,1,0,0:0:0:0:
36,192,176730,1,2,0:0:0:0:
402,192,176730,1,2,0:0:0:0:
182,192,176730,1,0,0:0:0:0:
256,192,176808,1,0,0:0:0:0:
36,192,176887,1,2,0:0:0:0:
329,192,176887,1,2,0:0:0:0:
475,192,176887,1,0,0:0:0:0:
109,192,176965,1,0,0:0:0:0:
36,192,177044,1,2,0:0:0:0:
182,192,177044,1,0,0:0:0:0:
402,192,177044,1,2,0:0:0:0:
256,192,177123,1,0,0:0:0:0:
36,192,177201,1,2,0:0:0:0:
329,192,177201,1,2,0:0:0:0:
475,192,177201,1,0,0:0:0:0:
182,192,177280,1,0,0:0:0:0:
36,192,177358,1,2,0:0:0:0:
256,192,177358,1,0,0:0:0:0:
402,192,177358,1,2,0:0:0:0:
475,192,177437,1,0,0:0:0:0:
36,192,177515,1,2,0:0:0:0:
329,192,177515,1,2,0:0:0:0:
182,192,177515,1,0,0:0:0:0:
256,192,177594,1,0,0:0:0:0:
36,192,177672,1,2,0:0:0:0:
109,192,177672,1,0,0:0:0:0:
402,192,177672,1,2,0:0:0:0:
256,192,177751,1,0,0:0:0:0:
36,192,177829,1,2,0:0:0:0:
182,192,177829,1,0,0:0:0:0:
329,192,177829,1,2,0:0:0:0:
475,192,177908,1,0,0:0:0:0:
36,192,177986,1,2,0:0:0:0:
256,192,177986,1,0,0:0:0:0:
402,192,177986,1,2,0:0:0:0:
109,192,178065,1,0,0:0:0:0:
36,192,178143,1,2,0:0:0:0:
329,192,178143,1,2,0:0:0:0:
475,192,178143,1,0,0:0:0:0:
256,192,178222,1,0,0:0:0:0:
36,192,178301,1,2,0:0:0:0:
402,192,178301,1,2,0:0:0:0:
182,192,178301,1,0,0:0:0:0:
329,192,178379,1,0,0:0:0:0:
36,192,178458,1,2,0:0:0:0:
256,192,178458,1,2,0:0:0:0:
475,192,178458,1,0,0:0:0:0:
182,192,178536,1,0,0:0:0:0:
36,192,178615,1,2,0:0:0:0:
402,192,178615,1,2,0:0:0:0:
109,192,178615,1,0,0:0:0:0:
329,192,178693,1,0,0:0:0:0:
36,192,178772,1,2,0:0:0:0:
475,192,178772,1,0,0:0:0:0:
256,192,178772,1,2,0:0:0:0:
402,192,178850,1,0,0:0:0:0:
329,192,178929,1,0,0:0:0:0:
109,192,178929,1,0,0:0:0:0:
182,192,179007,1,0,0:0:0:0:
475,192,179086,1,2,0:0:0:0:
256,192,179086,1,2,0:0:0:0:
402,192,179086,1,0,0:0:0:0:
182,192,179164,1,0,0:0:0:0:
475,192,179243,1,2,0:0:0:0:
109,192,179243,1,0,0:0:0:0:
329,192,179243,1,2,0:0:0:0:
256,192,179321,1,0,0:0:0:0:
475,192,179400,1,2,0:0:0:0:
182,192,179400,1,2,0:0:0:0:
36,192,179400,1,0,0:0:0:0:
402,192,179479,1,0,0:0:0:0:
475,192,179557,1,2,0:0:0:0:
329,192,179557,1,2,0:0:0:0:
109,192,179557,1,0,0:0:0:0:
256,192,179636,1,0,0:0:0:0:
475,192,179714,1,2,0:0:0:0:
182,192,179714,1,2,0:0:0:0:
36,192,179714,1,0,0:0:0:0:
329,192,179793,1,0,0:0:0:0:
475,192,179871,1,2,0:0:0:0:
256,192,179871,1,2,0:0:0:0:
109,192,179871,1,0,0:0:0:0:
36,192,179950,1,0,0:0:0:0:
475,192,180028,1,2,0:0:0:0:
182,192,180028,1,2,0:0:0:0:
329,192,180028,1,0,0:0:0:0:
256,192,180107,1,0,0:0:0:0:
475,192,180185,1,2,0:0:0:0:
402,192,180185,1,2,0:0:0:0:
109,192,180185,1,0,0:0:0:0:
256,192,180264,1,0,0:0:0:0:
475,192,180342,1,2,0:0:0:0:
329,192,180342,1,2,0:0:0:0:
182,192,180342,1,0,0:0:0:0:
36,192,180421,1,0,0:0:0:0:
475,192,180499,1,2,0:0:0:0:
256,192,180499,1,2,0:0:0:0:
109,192,180499,1,0,0:0:0:0:
402,192,180578,1,0,0:0:0:0:
475,192,180657,1,2,0:0:0:0:
182,192,180657,1,2,0:0:0:0:
36,192,180657,1,0,0:0:0:0:
256,192,180735,1,0,0:0:0:0:
475,192,180814,1,2,0:0:0:0:
109,192,180814,1,0,0:0:0:0:
329,192,180814,1,2,0:0:0:0:
182,192,180892,1,0,0:0:0:0:
475,192,180971,1,2,0:0:0:0:
256,192,180971,1,2,0:0:0:0:
36,192,180971,1,0,0:0:0:0:
329,192,181049,1,0,0:0:0:0:
475,192,181128,1,2,0:0:0:0:
109,192,181128,1,0,0:0:0:0:
402,192,181128,1,2,0:0:0:0:
182,192,181206,1,0,0:0:0:0:
475,192,181285,1,2,0:0:0:0:
36,192,181285,1,0,0:0:0:0:
256,192,181285,1,2,0:0:0:0:
109,192,181363,1,0,0:0:0:0:
182,192,181442,1,0,0:0:0:0:
402,192,181442,1,0,0:0:0:0:
329,192,181520,1,0,0:0:0:0:
109,192,181599,1,2,0:0:0:0:
256,192,181599,1,2,0:0:0:0:
475,192,181599,1,0,0:0:0:0:
182,192,181678,1,0,0:0:0:0:
109,192,181756,1,2,0:0:0:0:
329,192,181756,1,2,0:0:0:0:
402,192,181756,1,0,0:0:0:0:
256,192,181835,1,0,0:0:0:0:
109,192,181913,1,2,0:0:0:0:
402,192,181913,1,2,0:0:0:0:
475,192,181913,1,0,0:0:0:0:
329,192,181992,1,0,0:0:0:0:
109,192,182070,1,2,0:0:0:0:
182,192,182070,1,2,0:0:0:0:
36,192,182070,1,0,0:0:0:0:
329,192,182149,1,0,0:0:0:0:
109,192,182227,1,2,0:0:0:0:
475,192,182227,1,0,0:0:0:0:
402,192,182227,1,2,0:0:0:0:
256,192,182306,1,0,0:0:0:0:
109,192,182384,1,2,0:0:0:0:
329,192,182384,1,2,0:0:0:0:
402,192,182384,1,0,0:0:0:0:
182,192,182463,1,0,0:0:0:0:
109,192,182541,1,2,0:0:0:0:
256,192,182541,1,2,0:0:0:0:
329,192,182541,1,0,0:0:0:0:
36,192,182620,1,0,0:0:0:0:
109,192,182698,1,2,0:0:0:0:
182,192,182698,1,2,0:0:0:0:
475,192,182698,1,0,0:0:0:0:
402,192,182777,1,0,0:0:0:0:
109,192,182856,1,2,0:0:0:0:
329,192,182856,1,0,0:0:0:0:
256,192,182856,1,2,0:0:0:0:
402,192,182934,1,0,0:0:0:0:
109,192,183013,1,2,0:0:0:0:
475,192,183013,1,0,0:0:0:0:
182,192,183013,1,2,0:0:0:0:
256,192,183091,1,0,0:0:0:0:
109,192,183170,1,2,0:0:0:0:
329,192,183170,1,2,0:0:0:0:
475,192,183170,1,0,0:0:0:0:
256,192,183248,1,0,0:0:0:0:
109,192,183327,1,2,0:0:0:0:
182,192,183327,1,0,0:0:0:0:
402,192,183327,1,2,0:0:0:0:
475,192,183405,1,0,0:0:0:0:
109,192,183484,1,2,0:0:0:0:
329,192,183484,1,2,0:0:0:0:
256,192,183484,1,0,0:0:0:0:
402,192,183562,1,0,0:0:0:0:
109,192,183641,1,2,0:0:0:0:
256,192,183641,1,2,0:0:0:0:
36,192,183641,1,0,0:0:0:0:
329,192,183719,1,0,0:0:0:0:
109,192,183798,1,2,0:0:0:0:
182,192,183798,1,2,0:0:0:0:
36,192,183798,1,0,0:0:0:0:
256,192,183876,1,0,0:0:0:0:
329,192,183955,1,0,0:0:0:0:
475,192,183955,1,0,0:0:0:0:
36,192,184034,1,0,0:0:0:0:
402,192,184112,1,2,0:0:0:0:
256,192,184112,1,2,0:0:0:0:
182,192,184112,1,0,0:0:0:0:
329,192,184191,1,0,0:0:0:0:
402,192,184269,1,2,0:0:0:0:
182,192,184269,1,2,0:0:0:0:
109,192,184269,1,0,0:0:0:0:
256,192,184348,1,0,0:0:0:0:
402,192,184426,1,2,0:0:0:0:
109,192,184426,1,2,0:0:0:0:
36,192,184426,1,0,0:0:0:0:
182,192,184505,1,0,0:0:0:0:
402,192,184583,1,2,0:0:0:0:
329,192,184583,1,2,0:0:0:0:
475,192,184583,1,0,0:0:0:0:
182,192,184662,1,0,0:0:0:0:
402,192,184740,1,2,0:0:0:0:
36,192,184740,1,0,0:0:0:0:
109,192,184740,1,2,0:0:0:0:
256,192,184819,1,0,0:0:0:0:
402,192,184897,1,2,0:0:0:0:
182,192,184897,1,2,0:0:0:0:
109,192,184897,1,0,0:0:0:0:
329,192,184976,1,0,0:0:0:0:
402,192,185054,1,2,0:0:0:0:
256,192,185054,1,2,0:0:0:0:
182,192,185054,1,0,0:0:0:0:
475,192,185133,1,0,0:0:0:0:
36,192,185212,1,0,0:0:0:0:
109,192,185212,1,0,0:0:0:50:big kick.wav
329,192,185212,1,4,0:0:0:0:
402,192,185369,1,2,0:0:0:0:
256,192,185369,1,4,0:0:0:0:
329,192,185369,1,2,0:0:0:50:big kick.wav
182,192,185447,1,4,0:0:0:0:
109,192,185447,1,2,0:0:0:50:big kick.wav
36,192,185447,1,2,0:0:0:0:
475,192,185526,1,2,0:0:0:0:
402,192,185526,1,2,0:0:0:50:big kick.wav
329,192,185526,1,4,0:0:0:0:
256,192,185604,1,0,0:0:0:50:big kick.wav
182,192,185604,1,2,0:0:0:0:
109,192,185604,1,2,0:0:0:0:
475,192,185683,1,2,0:0:0:0:
402,192,185683,1,2,0:0:0:50:big kick.wav
329,192,185683,1,4,0:0:0:0:
182,192,185761,1,2,0:0:0:50:big kick.wav
36,192,185761,1,0,0:0:0:0:
109,192,185761,1,2,0:0:0:0:
402,192,185840,1,2,0:0:0:50:big kick.wav
256,192,185840,1,2,0:0:0:0:
329,192,185840,1,4,0:0:0:0:
475,192,185997,1,2,0:0:0:0:
256,192,185997,1,2,0:0:0:0:
36,192,185997,1,0,0:0:0:50:big kick.wav
182,192,186154,1,2,0:0:0:0:
329,192,186154,1,2,0:0:0:0:
475,192,186154,1,4,0:0:0:0:
36,192,186154,1,0,0:0:0:50:big kick.wav
402,192,186311,1,2,0:0:0:0:
36,192,186311,1,0,0:0:0:50:big kick.wav
109,192,186311,1,2,0:0:0:0:
475,192,186311,1,4,0:0:0:0:
182,192,186468,1,2,0:0:0:0:
36,192,186468,1,2,0:0:0:0:
256,192,186468,1,0,0:0:0:50:big kick.wav
329,192,186468,1,0,0:0:0:0:
475,192,186468,1,0,0:0:0:0:
402,192,186547,1,0,0:0:0:0:
36,192,186625,1,0,0:0:0:0:
109,192,186625,1,2,0:0:0:0:
256,192,186625,1,2,0:0:0:0:
402,192,186704,1,0,0:0:0:0:
475,192,186704,1,2,0:0:0:0:
329,192,186704,1,2,0:0:0:0:
182,192,186782,1,2,0:0:0:0:
109,192,186782,1,2,0:0:0:0:
36,192,186782,1,0,0:0:0:50:big kick.wav
256,192,186861,1,0,0:0:0:0:
475,192,186939,1,2,0:0:0:0:
402,192,186939,1,0,0:0:0:0:
329,192,186939,1,2,0:0:0:0:
182,192,187018,1,0,0:0:0:0:
36,192,187096,1,0,0:0:0:50:big kick.wav
109,192,187096,1,2,0:0:0:0:
256,192,187096,1,2,0:0:0:0:
329,192,187175,1,2,0:0:0:0:
402,192,187175,1,0,0:0:0:0:
475,192,187175,1,2,0:0:0:0:
182,192,187253,1,2,0:0:0:0:
109,192,187253,1,2,0:0:0:0:
36,192,187253,1,0,0:0:0:0:
256,192,187332,1,0,0:0:0:0:
329,192,187410,128,8,187489:0:0:0:0:
109,192,187410,128,2,187489:0:0:0:0:
402,192,187410,128,2,187489:0:0:0:0:
475,192,187410,128,0,187489:0:0:0:50:big kick.wav
182,192,187489,1,0,0:0:0:0:
36,192,187568,128,2,187646:0:0:0:0:
256,192,187568,128,8,187646:0:0:0:0:
402,192,187568,128,2,187646:0:0:0:0:
475,192,187568,128,0,187646:0:0:0:0:
182,192,187646,1,0,0:0:0:0:
109,192,187725,1,2,0:0:0:0:
402,192,187725,1,2,0:0:0:0:
475,192,187725,1,0,0:0:0:50:big kick.wav
36,192,187725,1,0,0:0:0:0:
329,192,187803,1,0,0:0:0:0:
475,192,187882,1,0,0:0:0:0:
402,192,187882,1,2,0:0:0:0:
256,192,187882,1,2,0:0:0:0:
182,192,187960,1,2,0:0:0:0:
109,192,187960,1,2,0:0:0:0:
36,192,187960,1,0,0:0:0:0:
475,192,188039,1,0,0:0:0:50:big kick.wav
402,192,188039,1,2,0:0:0:0:
329,192,188039,1,2,0:0:0:0:
36,192,188117,1,0,0:0:0:0:
109,192,188196,1,2,0:0:0:0:
182,192,188196,1,0,0:0:0:0:
256,192,188196,1,2,0:0:0:0:
329,192,188274,1,0,0:0:0:0:
256,192,188353,1,2,0:0:0:0:
402,192,188353,1,2,0:0:0:0:
475,192,188353,1,0,0:0:0:50:big kick.wav
109,192,188431,1,2,0:0:0:0:
182,192,188431,1,2,0:0:0:0:
36,192,188431,1,0,0:0:0:0:
329,192,188510,1,2,0:0:0:0:
475,192,188510,1,0,0:0:0:0:
402,192,188510,1,2,0:0:0:0:
256,192,188589,1,0,0:0:0:0:
36,192,188667,128,2,188746:0:0:0:0:
109,192,188667,128,0,188746:0:0:0:50:big kick.wav
182,192,188667,128,2,188746:0:0:0:0:
402,192,188667,128,8,188746:0:0:0:0:
329,192,188746,1,0,0:0:0:0:
256,192,188824,128,8,188903:0:0:0:0:
475,192,188824,128,0,188903:0:0:0:0:
109,192,188824,128,2,188903:0:0:0:0:
36,192,188824,128,2,188903:0:0:0:0:
329,192,188903,1,0,0:0:0:0:
109,192,188981,1,2,0:0:0:0:
402,192,188981,1,2,0:0:0:0:
36,192,188981,1,0,0:0:0:50:big kick.wav
475,192,188981,1,0,0:0:0:0:
182,192,189060,1,0,0:0:0:0:
36,192,189138,1,0,0:0:0:0:
109,192,189138,1,2,0:0:0:0:
256,192,189138,1,2,0:0:0:0:
475,192,189217,1,0,0:0:0:0:
402,192,189217,1,2,0:0:0:0:
329,192,189217,1,2,0:0:0:0:
36,192,189295,1,0,0:0:0:50:big kick.wav
109,192,189295,1,2,0:0:0:0:
182,192,189295,1,2,0:0:0:0:
256,192,189374,1,0,0:0:0:0:
475,192,189452,1,0,0:0:0:0:
402,192,189452,1,2,0:0:0:0:
329,192,189452,1,2,0:0:0:0:
182,192,189531,1,0,0:0:0:0:
256,192,189609,1,2,0:0:0:0:
36,192,189609,1,0,0:0:0:50:big kick.wav
109,192,189609,1,2,0:0:0:0:
475,192,189688,1,0,0:0:0:0:
402,192,189688,1,2,0:0:0:0:
329,192,189688,1,2,0:0:0:0:
36,192,189767,1,0,0:0:0:0:
109,192,189767,1,2,0:0:0:0:
182,192,189767,1,2,0:0:0:0:
256,192,189845,1,0,0:0:0:0:
109,192,189924,128,2,190002:0:0:0:0:
329,192,189924,128,8,190002:0:0:0:0:
402,192,189924,128,2,190002:0:0:0:0:
475,192,189924,128,0,190002:0:0:0:50:big kick.wav
182,192,190002,1,0,0:0:0:0:
36,192,190081,128,2,190159:0:0:0:0:
256,192,190081,128,8,190159:0:0:0:0:
402,192,190081,128,2,190159:0:0:0:0:
475,192,190081,128,0,190159:0:0:0:0:
182,192,190159,1,0,0:0:0:0:
109,192,190238,1,0,0:0:0:50:big kick.wav
402,192,190238,1,2,0:0:0:0:
475,192,190238,1,2,0:0:0:0:
36,192,190238,1,0,0:0:0:0:
329,192,190316,1,0,0:0:0:0:
475,192,190395,1,0,0:0:0:0:
402,192,190395,1,2,0:0:0:0:
256,192,190395,1,2,0:0:0:0:
182,192,190473,1,2,0:0:0:0:
109,192,190473,1,2,0:0:0:0:
36,192,190473,1,0,0:0:0:0:
475,192,190552,1,0,0:0:0:50:big kick.wav
402,192,190552,1,2,0:0:0:0:
329,192,190552,1,2,0:0:0:0:
36,192,190630,1,0,0:0:0:0:
109,192,190709,1,2,0:0:0:0:
182,192,190709,1,0,0:0:0:0:
256,192,190709,1,2,0:0:0:0:
329,192,190787,1,0,0:0:0:0:
256,192,190866,1,2,0:0:0:0:
402,192,190866,1,2,0:0:0:0:
475,192,190866,1,0,0:0:0:50:big kick.wav
109,192,190945,1,2,0:0:0:0:
182,192,190945,1,2,0:0:0:0:
36,192,190945,1,0,0:0:0:0:
329,192,191023,128,2,191102:0:0:0:0:
402,192,191023,128,2,191102:0:0:0:0:
475,192,191023,128,8,191102:0:0:0:0:
256,192,191102,1,0,0:0:0:0:
109,192,191102,1,0,0:0:0:50:big kick.wav
36,192,191102,1,0,0:0:0:0:
182,192,191180,128,2,191259:0:0:0:0:
329,192,191180,128,2,191259:0:0:0:0:
402,192,191180,128,8,191259:0:0:0:0:
475,192,191180,128,0,191259:0:0:0:50:big kick.wav
256,192,191259,1,0,0:0:0:0:
109,192,191337,128,0,191416:0:0:0:50:big kick.wav
36,192,191337,128,2,191416:0:0:0:0:
182,192,191337,128,2,191416:0:0:0:0:
329,192,191337,128,8,191416:0:0:0:0:
402,192,191416,1,0,0:0:0:0:
36,192,191494,1,2,0:0:0:0:
475,192,191494,1,0,0:0:0:0:
256,192,191494,1,0,0:0:0:50:big kick.wav
109,192,191494,1,2,0:0:0:0:
329,192,191573,1,0,0:0:0:0:
109,192,191651,1,2,0:0:0:0:
36,192,191651,1,2,0:0:0:0:
402,192,191651,1,0,0:0:0:0:
182,192,191730,1,2,0:0:0:0:
256,192,191730,1,2,0:0:0:0:
475,192,191730,1,0,0:0:0:0:
109,192,191808,1,2,0:0:0:0:
36,192,191808,1,2,0:0:0:0:
402,192,191808,1,0,0:0:0:50:big kick.wav
329,192,191887,1,0,0:0:0:0:
256,192,191965,1,2,0:0:0:0:
182,192,191965,1,2,0:0:0:0:
475,192,191965,1,0,0:0:0:0:
329,192,192044,1,0,0:0:0:0:
109,192,192123,1,2,0:0:0:0:
36,192,192123,1,0,0:0:0:50:big kick.wav
402,192,192123,1,2,0:0:0:0:
182,192,192201,1,2,0:0:0:0:
256,192,192201,1,0,0:0:0:0:
475,192,192201,1,2,0:0:0:0:
109,192,192280,1,2,0:0:0:0:
36,192,192280,1,0,0:0:0:0:
402,192,192280,1,2,0:0:0:0:
329,192,192358,1,0,0:0:0:0:
36,192,192437,128,2,192515:0:0:0:0:
182,192,192437,128,2,192515:0:0:0:0:
256,192,192437,128,0,192515:0:0:0:50:big kick.wav
475,192,192437,128,8,192515:0:0:0:0:
402,192,192515,1,0,0:0:0:0:
475,192,192594,128,0,192672:0:0:0:0:
329,192,192594,128,8,192672:0:0:0:0:
109,192,192594,128,2,192672:0:0:0:0:
36,192,192594,128,2,192672:0:0:0:0:
182,192,192672,1,0,0:0:0:0:
475,192,192751,1,0,0:0:0:0:
36,192,192751,1,0,0:0:0:50:big kick.wav
256,192,192751,1,2,0:0:0:0:
402,192,192751,1,2,0:0:0:0:
182,192,192829,1,0,0:0:0:0:
402,192,192908,1,2,0:0:0:0:
475,192,192908,1,0,0:0:0:0:
109,192,192908,1,2,0:0:0:0:
329,192,192986,1,2,0:0:0:0:
256,192,192986,1,0,0:0:0:0:
36,192,192986,1,2,0:0:0:0:
402,192,193065,1,2,0:0:0:0:
475,192,193065,1,0,0:0:0:50:big kick.wav
109,192,193065,1,2,0:0:0:0:
182,192,193143,1,0,0:0:0:0:
256,192,193222,1,0,0:0:0:0:
329,192,193222,1,2,0:0:0:0:
36,192,193222,1,2,0:0:0:0:
182,192,193301,1,0,0:0:0:0:
402,192,193379,1,2,0:0:0:0:
475,192,193379,1,0,0:0:0:50:big kick.wav
109,192,193379,1,2,0:0:0:0:
329,192,193458,1,2,0:0:0:0:
256,192,193458,1,0,0:0:0:0:
36,192,193458,1,2,0:0:0:0:
402,192,193536,1,2,0:0:0:0:
475,192,193536,1,0,0:0:0:0:
109,192,193536,1,2,0:0:0:0:
182,192,193615,1,0,0:0:0:0:
36,192,193693,128,2,193772:0:0:0:0:
256,192,193693,128,0,193772:0:0:0:50:big kick.wav
329,192,193693,128,2,193772:0:0:0:0:
475,192,193693,128,8,193772:0:0:0:0:
109,192,193772,1,0,0:0:0:0:
36,192,193850,128,2,193929:0:0:0:0:
182,192,193850,128,0,193929:0:0:0:0:
402,192,193850,128,2,193929:0:0:0:0:
475,192,193850,128,8,193929:0:0:0:0:
329,192,193929,1,0,0:0:0:0:
36,192,194007,1,2,0:0:0:0:
475,192,194007,1,0,0:0:0:0:
256,192,194007,1,2,0:0:0:0:
109,192,194007,1,0,0:0:0:50:big kick.wav
329,192,194086,1,0,0:0:0:0:
109,192,194164,1,2,0:0:0:0:
36,192,194164,1,0,0:0:0:0:
402,192,194164,1,2,0:0:0:0:
182,192,194243,1,2,0:0:0:0:
256,192,194243,1,0,0:0:0:0:
475,192,194243,1,2,0:0:0:0:
109,192,194321,1,2,0:0:0:0:
36,192,194321,1,0,0:0:0:50:big kick.wav
402,192,194321,1,2,0:0:0:0:
329,192,194400,1,0,0:0:0:0:
256,192,194479,1,2,0:0:0:0:
182,192,194479,1,0,0:0:0:0:
475,192,194479,1,2,0:0:0:0:
329,192,194557,1,0,0:0:0:0:
109,192,194636,1,2,0:0:0:0:
36,192,194636,1,0,0:0:0:50:big kick.wav
402,192,194636,1,2,0:0:0:0:
182,192,194714,1,2,0:0:0:0:
256,192,194714,1,0,0:0:0:0:
475,192,194714,1,2,0:0:0:0:
109,192,194793,1,2,0:0:0:0:
36,192,194793,1,0,0:0:0:0:
402,192,194793,1,2,0:0:0:0:
329,192,194871,1,0,0:0:0:0:
36,192,194950,128,2,195028:0:0:0:0:
182,192,194950,128,0,195028:0:0:0:50:big kick.wav
256,192,194950,128,2,195028:0:0:0:0:
475,192,194950,128,8,195028:0:0:0:0:
402,192,195028,1,0,0:0:0:0:
475,192,195107,128,8,195185:0:0:0:0:
329,192,195107,128,2,195185:0:0:0:0:
109,192,195107,128,2,195185:0:0:0:0:
36,192,195107,128,0,195185:0:0:0:0:
182,192,195185,1,0,0:0:0:0:
256,192,195264,1,0,0:0:0:50:big kick.wav
36,192,195264,1,2,0:0:0:0:
402,192,195264,1,0,0:0:0:0:
475,192,195264,1,4,0:0:0:0:
329,192,195264,1,2,0:0:0:0:
109,192,195342,1,0,0:0:0:0:
182,192,195421,1,0,0:0:0:0:
36,192,195421,1,2,0:0:0:0:
256,192,195421,1,0,0:0:0:50:big kick.wav
329,192,195421,1,2,0:0:0:0:
475,192,195421,1,0,0:0:0:0:
402,192,195499,1,0,0:0:0:0:
256,192,195578,1,2,0:0:0:0:
182,192,195578,1,0,0:0:0:50:big kick.wav
109,192,195578,1,0,0:0:0:0:
36,192,195578,1,2,0:0:0:0:
475,192,195578,1,4,0:0:0:0:
329,192,195657,1,0,0:0:0:0:
402,192,195735,1,2,0:0:0:0:
475,192,195735,1,4,0:0:0:0:
109,192,195735,1,0,0:0:0:50:big kick.wav
36,192,195735,1,2,0:0:0:0:
182,192,195814,1,2,0:0:0:0:
256,192,195814,1,0,0:0:0:50:big kick.wav
329,192,195814,1,2,0:0:0:0:
402,192,195892,1,2,0:0:0:0:
475,192,195892,1,4,0:0:0:0:
109,192,195892,1,0,0:0:0:50:big kick.wav
36,192,195892,1,2,0:0:0:0:
182,192,195971,1,0,0:0:0:0:
256,192,195971,1,0,0:0:0:0:
109,192,196049,1,0,0:0:0:50:big kick.wav
402,192,196049,1,2,0:0:0:0:
475,192,196049,1,0,0:0:0:0:
36,192,196049,1,2,0:0:0:0:
329,192,196128,1,0,0:0:0:0:
256,192,196128,1,0,0:0:0:0:
109,192,196206,1,0,0:0:0:50:big kick.wav
36,192,196206,1,2,0:0:0:0:
182,192,196206,1,2,0:0:0:0:
475,192,196206,1,4,0:0:0:0:
329,192,196285,1,0,0:0:0:0:
402,192,196285,1,0,0:0:0:0:
182,192,196363,1,2,0:0:0:0:
256,192,196363,1,0,0:0:0:0:
36,192,196363,1,2,0:0:0:0:
109,192,196363,1,0,0:0:0:50:big kick.wav
402,192,196442,1,0,0:0:0:0:
475,192,196442,1,2,0:0:0:0:
329,192,196442,1,2,0:0:0:0:
36,192,196520,1,2,0:0:0:0:
182,192,196520,1,2,0:0:0:0:
109,192,196520,1,0,0:0:0:50:big kick.wav
256,192,196520,1,0,0:0:0:0:
475,192,196599,1,0,0:0:0:0:
329,192,196678,1,2,0:0:0:0:
402,192,196678,1,2,0:0:0:0:
182,192,196678,1,0,0:0:0:0:
109,192,196756,1,2,0:0:0:0:
36,192,196756,1,0,0:0:0:0:
256,192,196756,1,2,0:0:0:0:
475,192,196835,1,0,0:0:0:50:big kick.wav
402,192,196835,1,2,0:0:0:0:
329,192,196835,1,2,0:0:0:0:
182,192,196913,1,0,0:0:0:0:
475,192,196992,1,0,0:0:0:0:
256,192,196992,1,2,0:0:0:0:
109,192,196992,1,2,0:0:0:0:
36,192,197070,1,0,0:0:0:0:
182,192,197149,1,0,0:0:0:50:big kick.wav
329,192,197149,1,2,0:0:0:0:
402,192,197149,1,2,0:0:0:0:
36,192,197227,1,0,0:0:0:0:
109,192,197227,1,2,0:0:0:0:
256,192,197227,1,2,0:0:0:0:
475,192,197306,1,0,0:0:0:0:
402,192,197306,1,2,0:0:0:0:
329,192,197306,1,2,0:0:0:0:
182,192,197384,1,0,0:0:0:0:
256,192,197463,128,0,197541:0:0:0:50:big kick.wav
475,192,197463,128,2,197541:0:0:0:0:
402,192,197463,128,2,197541:0:0:0:0:
109,192,197463,128,8,197541:0:0:0:0:
329,192,197541,1,0,0:0:0:0:
182,192,197620,128,0,197698:0:0:0:0:
402,192,197620,128,2,197698:0:0:0:0:
475,192,197620,128,2,197698:0:0:0:0:
36,192,197620,128,8,197698:0:0:0:0:
109,192,197698,1,0,0:0:0:0:
402,192,197777,1,2,0:0:0:0:
36,192,197777,1,0,0:0:0:0:
475,192,197777,1,0,0:0:0:50:big kick.wav
329,192,197777,1,2,0:0:0:0:
256,192,197856,1,0,0:0:0:0:
182,192,197934,1,2,0:0:0:0:
329,192,197934,1,2,0:0:0:0:
109,192,197934,1,0,0:0:0:0:
475,192,198013,1,0,0:0:0:0:
256,192,198013,1,2,0:0:0:0:
402,192,198013,1,2,0:0:0:0:
36,192,198091,1,0,0:0:0:50:big kick.wav
109,192,198091,1,2,0:0:0:0:
182,192,198091,1,2,0:0:0:0:
329,192,198170,1,0,0:0:0:0:
36,192,198248,1,0,0:0:0:0:
256,192,198248,1,2,0:0:0:0:
402,192,198248,1,2,0:0:0:0:
475,192,198327,1,0,0:0:0:0:
329,192,198405,1,2,0:0:0:0:
182,192,198405,1,2,0:0:0:0:
109,192,198405,1,0,0:0:0:50:big kick.wav
475,192,198484,1,0,0:0:0:0:
402,192,198484,1,2,0:0:0:0:
256,192,198484,1,2,0:0:0:0:
36,192,198562,1,0,0:0:0:0:
109,192,198562,1,2,0:0:0:0:
182,192,198562,1,2,0:0:0:0:
329,192,198641,1,0,0:0:0:0:
36,192,198719,128,2,198798:0:0:0:0:
256,192,198719,128,0,198798:0:0:0:50:big kick.wav
402,192,198719,128,2,198798:0:0:0:0:
109,192,198719,128,8,198798:0:0:0:0:
182,192,198798,1,0,0:0:0:0:
36,192,198876,128,2,198955:0:0:0:0:
329,192,198876,128,2,198955:0:0:0:0:
475,192,198876,128,0,198955:0:0:0:0:
109,192,198876,128,8,198955:0:0:0:0:
256,192,198955,1,0,0:0:0:0:
36,192,199034,1,0,0:0:0:0:
109,192,199034,1,2,0:0:0:0:
182,192,199034,1,0,0:0:0:50:big kick.wav
402,192,199034,1,2,0:0:0:0:
256,192,199112,1,0,0:0:0:0:
329,192,199191,1,2,0:0:0:0:
402,192,199191,1,2,0:0:0:0:
182,192,199191,1,0,0:0:0:0:
109,192,199269,1,2,0:0:0:0:
36,192,199269,1,0,0:0:0:0:
256,192,199269,1,2,0:0:0:0:
475,192,199348,1,0,0:0:0:50:big kick.wav
402,192,199348,1,2,0:0:0:0:
329,192,199348,1,2,0:0:0:0:
182,192,199426,1,0,0:0:0:0:
475,192,199505,1,0,0:0:0:0:
256,192,199505,1,2,0:0:0:0:
109,192,199505,1,2,0:0:0:0:
36,192,199583,1,0,0:0:0:0:
182,192,199662,1,0,0:0:0:50:big kick.wav
329,192,199662,1,2,0:0:0:0:
402,192,199662,1,2,0:0:0:0:
36,192,199740,1,0,0:0:0:0:
109,192,199740,1,2,0:0:0:0:
256,192,199740,1,2,0:0:0:0:
475,192,199819,1,0,0:0:0:0:
402,192,199819,1,2,0:0:0:0:
329,192,199819,1,2,0:0:0:0:
182,192,199897,1,0,0:0:0:0:
109,192,199976,128,0,200054:0:0:0:50:big kick.wav
256,192,199976,128,2,200054:0:0:0:0:
475,192,199976,128,2,200054:0:0:0:0:
402,192,199976,128,8,200054:0:0:0:0:
329,192,200054,1,0,0:0:0:0:
475,192,200133,128,2,200212:0:0:0:0:
182,192,200133,128,2,200212:0:0:0:0:
36,192,200133,128,0,200212:0:0:0:0:
402,192,200133,128,8,200212:0:0:0:0:
109,192,200212,1,0,0:0:0:0:
402,192,200290,1,2,0:0:0:0:
36,192,200290,1,0,0:0:0:0:
475,192,200290,1,0,0:0:0:50:big kick.wav
329,192,200290,1,2,0:0:0:0:
256,192,200369,1,0,0:0:0:0:
182,192,200447,1,2,0:0:0:0:
329,192,200447,1,2,0:0:0:0:
109,192,200447,1,0,0:0:0:0:
475,192,200526,1,0,0:0:0:0:
256,192,200526,1,2,0:0:0:0:
402,192,200526,1,2,0:0:0:0:
36,192,200604,1,0,0:0:0:50:big kick.wav
109,192,200604,1,2,0:0:0:0:
182,192,200604,1,2,0:0:0:0:
329,192,200683,1,0,0:0:0:0:
36,192,200761,1,0,0:0:0:0:
256,192,200761,1,2,0:0:0:0:
402,192,200761,1,2,0:0:0:0:
475,192,200840,1,0,0:0:0:0:
329,192,200918,1,2,0:0:0:0:
182,192,200918,1,2,0:0:0:0:
109,192,200918,1,0,0:0:0:50:big kick.wav
475,192,200997,1,0,0:0:0:0:
402,192,200997,1,2,0:0:0:0:
256,192,200997,1,2,0:0:0:0:
36,192,201075,128,2,201154:0:0:0:0:
182,192,201075,128,2,201154:0:0:0:0:
109,192,201075,128,8,201154:0:0:0:0:
329,192,201154,1,0,0:0:0:50:big kick.wav
256,192,201154,1,0,0:0:0:0:
402,192,201154,1,0,0:0:0:0:
475,192,201232,128,0,201311:0:0:0:50:big kick.wav
36,192,201232,128,2,201311:0:0:0:0:
182,192,201232,128,2,201311:0:0:0:0:
109,192,201232,128,8,201311:0:0:0:0:
329,192,201311,1,0,0:0:0:0:
402,192,201390,128,2,201468:0:0:0:0:
475,192,201390,128,2,201468:0:0:0:0:
36,192,201390,128,0,201468:0:0:0:50:big kick.wav
256,192,201390,128,8,201468:0:0:0:0:
182,192,201468,1,0,0:0:0:0:
36,192,201547,1,0,0:0:0:50:big kick.wav
475,192,201547,1,2,0:0:0:0:
329,192,201547,1,2,0:0:0:0:
402,192,201547,1,0,0:0:0:0:
109,192,201625,1,0,0:0:0:0:
182,192,201704,1,2,0:0:0:0:
256,192,201704,1,0,0:0:0:0:
402,192,201704,1,2,0:0:0:0:
329,192,201782,1,2,0:0:0:0:
36,192,201782,1,0,0:0:0:0:
109,192,201782,1,2,0:0:0:0:
256,192,201861,1,0,0:0:0:50:big kick.wav
182,192,201861,1,2,0:0:0:0:
402,192,201861,1,2,0:0:0:0:
329,192,201939,1,0,0:0:0:0:
36,192,202018,1,2,0:0:0:0:
182,192,202018,1,2,0:0:0:0:
109,192,202018,1,0,0:0:0:0:
475,192,202018,1,0,0:0:0:0:
402,192,202096,1,0,0:0:0:0:
329,192,202175,1,2,0:0:0:0:
256,192,202175,1,0,0:0:0:50:big kick.wav
109,192,202175,1,2,0:0:0:0:
182,192,202253,1,2,0:0:0:0:
402,192,202253,1,2,0:0:0:0:
475,192,202253,1,0,0:0:0:0:
109,192,202332,1,2,0:0:0:0:
256,192,202332,1,0,0:0:0:0:
329,192,202332,1,2,0:0:0:0:
36,192,202410,1,0,0:0:0:0:
182,192,202489,128,8,202568:0:0:0:0:
256,192,202489,128,2,202568:0:0:0:0:
402,192,202489,128,0,202568:0:0:0:50:big kick.wav
475,192,202489,128,2,202568:0:0:0:0:
36,192,202568,1,0,0:0:0:0:
182,192,202646,128,8,202725:0:0:0:0:
109,192,202646,128,2,202725:0:0:0:0:
329,192,202646,128,0,202725:0:0:0:0:
402,192,202646,128,2,202725:0:0:0:0:
256,192,202725,1,0,0:0:0:0:
475,192,202803,1,2,0:0:0:0:
36,192,202803,1,0,0:0:0:0:
182,192,202803,1,2,0:0:0:0:
109,192,202803,1,0,0:0:0:50:big kick.wav
402,192,202882,1,0,0:0:0:0:
329,192,202960,1,2,0:0:0:0:
256,192,202960,1,0,0:0:0:0:
109,192,202960,1,2,0:0:0:0:
182,192,203039,1,2,0:0:0:0:
475,192,203039,1,0,0:0:0:0:
402,192,203039,1,2,0:0:0:0:
256,192,203117,1,0,0:0:0:50:big kick.wav
329,192,203117,1,2,0:0:0:0:
109,192,203117,1,2,0:0:0:0:
182,192,203196,1,0,0:0:0:0:
475,192,203274,1,2,0:0:0:0:
329,192,203274,1,2,0:0:0:0:
402,192,203274,1,0,0:0:0:0:
36,192,203274,1,0,0:0:0:0:
109,192,203353,1,0,0:0:0:0:
182,192,203431,1,0,0:0:0:50:big kick.wav
256,192,203431,1,2,0:0:0:0:
402,192,203431,1,2,0:0:0:0:
329,192,203510,1,2,0:0:0:0:
109,192,203510,1,2,0:0:0:0:
36,192,203510,1,0,0:0:0:0:
402,192,203589,1,2,0:0:0:0:
256,192,203589,1,2,0:0:0:0:
182,192,203589,1,0,0:0:0:0:
475,192,203667,1,0,0:0:0:0:
36,192,203746,128,2,203824:0:0:0:0:
109,192,203746,128,2,203824:0:0:0:0:
256,192,203746,128,0,203824:0:0:0:50:big kick.wav
329,192,203746,128,8,203824:0:0:0:0:
475,192,203824,1,0,0:0:0:0:
402,192,203903,128,0,203981:0:0:0:0:
329,192,203903,128,8,203981:0:0:0:0:
182,192,203903,128,2,203981:0:0:0:0:
109,192,203903,128,2,203981:0:0:0:0:
256,192,203981,1,0,0:0:0:0:
109,192,204060,1,2,0:0:0:0:
475,192,204060,1,8,0:0:0:0:
402,192,204060,1,2,0:0:0:0:
36,192,204060,1,0,0:0:0:0:
329,192,204060,1,0,0:0:0:50:big kick.wav
182,192,204138,1,0,0:0:0:0:
256,192,204217,1,2,0:0:0:0:
329,192,204217,1,0,0:0:0:0:
402,192,204217,1,2,0:0:0:0:
36,192,204217,1,0,0:0:0:0:
182,192,204295,1,2,0:0:0:0:
109,192,204295,1,0,0:0:0:0:
402,192,204374,1,8,0:0:0:0:
36,192,204374,1,0,0:0:0:50:big kick.wav
329,192,204374,1,2,0:0:0:0:
256,192,204374,1,2,0:0:0:0:
109,192,204452,1,0,0:0:0:0:
182,192,204531,1,2,0:0:0:0:
402,192,204531,1,0,0:0:0:0:
329,192,204531,1,0,0:0:0:0:
256,192,204531,1,2,0:0:0:0:
475,192,204531,1,0,0:0:0:0:
36,192,204609,1,0,0:0:0:0:
182,192,204688,1,0,0:0:0:50:big kick.wav
256,192,204688,1,2,0:0:0:0:
109,192,204688,1,2,0:0:0:0:
475,192,204688,1,8,0:0:0:0:
402,192,204767,1,0,0:0:0:0:
329,192,204767,1,2,0:0:0:0:
475,192,204845,1,0,0:0:0:0:
256,192,204845,1,2,0:0:0:0:
109,192,204845,1,2,0:0:0:0:
182,192,204845,1,0,0:0:0:0:
402,192,204924,1,0,0:0:0:0:
36,192,205002,128,2,205081:0:0:0:0:
109,192,205002,128,0,205081:0:0:0:50:big kick.wav
182,192,205002,128,0,205081:0:0:0:0:
256,192,205002,128,2,205081:0:0:0:0:
329,192,205002,128,8,205081:0:0:0:0:
402,192,205081,1,0,0:0:0:0:
475,192,205159,128,0,205238:0:0:0:0:
36,192,205159,128,2,205238:0:0:0:0:
109,192,205159,128,0,205238:0:0:0:0:
182,192,205159,128,2,205238:0:0:0:0:
329,192,205238,1,0,0:0:0:0:
256,192,205238,1,0,0:0:0:0:
36,192,205316,128,0,205395:0:0:0:0:
402,192,205316,128,0,205395:0:0:0:0:
475,192,205316,128,0,205395:0:0:0:0:
182,192,205316,128,0,205395:0:0:0:0:
109,192,205316,128,0,205395:0:0:0:0:
329,192,205473,128,0,205552:0:0:0:0:
475,192,205473,128,0,205552:0:0:0:0:
36,192,205552,128,0,205630:0:0:0:0:
182,192,205552,128,0,205630:0:0:0:0:
256,192,205630,128,0,205709:0:0:0:0:
402,192,205630,128,0,205709:0:0:0:0:
182,192,205787,128,0,205866:0:0:0:0:
329,192,205787,128,0,205866:0:0:0:0:
109,192,205945,128,0,206023:0:0:0:0:
256,192,205945,128,0,206023:0:0:0:0:
182,192,206023,128,0,206102:0:0:0:0:
329,192,206023,128,0,206102:0:0:0:0:
402,192,206102,128,0,206180:0:0:0:0:
256,192,206102,128,0,206180:0:0:0:0:
36,192,206180,1,2,0:0:0:0:
109,192,206180,1,0,0:0:0:50:big kick.wav
329,192,206259,128,2,206337:0:0:0:0:
475,192,206259,128,0,206337:0:0:0:0:
109,192,206259,128,0,206337:0:0:0:50:big kick.wav
36,192,206259,128,2,206337:0:0:0:0:
256,192,206416,128,2,206494:0:0:0:0:
36,192,206416,128,2,206494:0:0:0:0:
109,192,206416,128,0,206494:0:0:0:50:big kick.wav
402,192,206416,128,0,206494:0:0:0:0:
182,192,206494,128,2,206573:0:0:0:0:
329,192,206494,128,0,206573:0:0:0:0:
402,192,206573,1,2,0:0:0:0:
36,192,206573,1,0,0:0:0:0:
475,192,206573,1,2,0:0:0:0:
109,192,206573,1,0,0:0:0:0:
256,192,206573,1,0,0:0:0:50:big kick.wav
182,192,206651,1,0,0:0:0:0:
402,192,206730,1,2,0:0:0:0:
475,192,206730,1,2,0:0:0:0:
329,192,206730,1,0,0:0:0:0:
36,192,206730,1,0,0:0:0:0:
109,192,206808,1,2,0:0:0:0:
256,192,206808,1,2,0:0:0:0:
182,192,206808,1,0,0:0:0:0:
402,192,206887,1,2,0:0:0:0:
475,192,206887,1,2,0:0:0:0:
329,192,206887,1,0,0:0:0:50:big kick.wav
36,192,206887,1,0,0:0:0:0:
182,192,206965,1,0,0:0:0:0:
329,192,207044,1,2,0:0:0:0:
256,192,207044,1,0,0:0:0:0:
475,192,207044,1,2,0:0:0:0:
109,192,207123,1,0,0:0:0:0:
256,192,207201,1,2,0:0:0:0:
182,192,207201,1,0,0:0:0:0:
402,192,207201,1,0,0:0:0:50:big kick.wav
475,192,207201,1,2,0:0:0:0:
36,192,207280,1,0,0:0:0:0:
182,192,207358,1,2,0:0:0:0:
109,192,207358,1,0,0:0:0:0:
329,192,207358,1,2,0:0:0:0:
36,192,207437,1,0,0:0:0:0:
256,192,207515,1,2,0:0:0:0:
182,192,207515,1,0,0:0:0:0:
402,192,207515,1,0,0:0:0:50:big kick.wav
475,192,207515,1,2,0:0:0:0:
109,192,207594,1,0,0:0:0:0:
329,192,207672,1,2,0:0:0:0:
256,192,207672,1,0,0:0:0:0:
475,192,207672,1,2,0:0:0:0:
182,192,207751,1,0,0:0:0:0:
109,192,207829,1,2,0:0:0:0:
36,192,207829,1,0,0:0:0:0:
329,192,207829,1,0,0:0:0:0:
402,192,207829,1,0,0:0:0:50:big kick.wav
475,192,207829,1,2,0:0:0:0:
256,192,207908,1,0,0:0:0:0:
182,192,207986,1,2,0:0:0:0:
109,192,207986,1,0,0:0:0:0:
475,192,207986,1,2,0:0:0:0:
36,192,207986,1,0,0:0:0:0:
256,192,208065,1,2,0:0:0:0:
329,192,208065,1,0,0:0:0:0:
402,192,208065,1,2,0:0:0:0:
182,192,208143,1,2,0:0:0:0:
36,192,208143,1,0,0:0:0:0:
475,192,208143,1,2,0:0:0:0:
109,192,208143,1,0,0:0:0:50:big kick.wav
402,192,208222,1,0,0:0:0:0:
182,192,208301,128,0,208379:0:0:0:0:
329,192,208301,128,8,208379:0:0:0:0:
36,192,208301,128,0,208379:0:0:0:0:
109,192,208379,128,0,208458:0:0:0:0:
256,192,208379,128,2,208458:0:0:0:0:
402,192,208379,128,2,208458:0:0:0:0:
329,192,208458,128,8,208536:0:0:0:0:
475,192,208458,128,0,208536:0:0:0:0:
182,192,208458,128,0,208536:0:0:0:50:big kick.wav
36,192,208536,128,0,208615:0:0:0:0:
256,192,208536,128,2,208615:0:0:0:0:
402,192,208536,128,2,208615:0:0:0:0:
182,192,208615,128,0,208693:0:0:0:0:
329,192,208615,128,8,208693:0:0:0:0:
475,192,208615,128,0,208693:0:0:0:0:
402,192,208693,128,2,208772:0:0:0:0:
256,192,208693,128,2,208772:0:0:0:0:
109,192,208693,128,0,208772:0:0:0:0:
36,192,208772,128,0,208850:0:0:0:0:
182,192,208772,128,0,208850:0:0:0:50:big kick.wav
329,192,208772,128,8,208850:0:0:0:0:
475,192,208850,128,0,208929:0:0:0:0:
402,192,208850,128,2,208929:0:0:0:0:
256,192,208850,128,2,208929:0:0:0:0:
109,192,208929,128,0,209007:0:0:0:0:
36,192,208929,128,0,209007:0:0:0:0:
329,192,208929,128,8,209007:0:0:0:0:
256,192,209007,128,2,209086:0:0:0:0:
182,192,209007,128,0,209086:0:0:0:0:
475,192,209007,128,0,209086:0:0:0:0:
36,192,209086,1,0,0:0:0:0:
109,192,209086,1,0,0:0:0:50:big kick.wav
329,192,209086,1,2,0:0:0:0:
402,192,209086,1,2,0:0:0:0:
182,192,209164,1,0,0:0:0:0:
109,192,209243,1,0,0:0:0:0:
256,192,209243,1,2,0:0:0:0:
402,192,209243,1,2,0:0:0:0:
182,192,209321,1,2,0:0:0:0:
329,192,209321,1,2,0:0:0:0:
475,192,209321,1,0,0:0:0:0:
36,192,209400,1,0,0:0:0:0:
256,192,209400,1,2,0:0:0:0:
402,192,209400,1,2,0:0:0:0:
109,192,209400,1,0,0:0:0:50:big kick.wav
475,192,209479,1,0,0:0:0:0:
329,192,209557,1,2,0:0:0:0:
182,192,209557,1,2,0:0:0:0:
109,192,209557,1,0,0:0:0:0:
475,192,209636,1,0,0:0:0:0:
182,192,209714,1,0,0:0:0:50:big kick.wav
36,192,209714,1,0,0:0:0:0:
256,192,209714,1,2,0:0:0:0:
402,192,209714,1,2,0:0:0:0:
475,192,209793,1,0,0:0:0:0:
256,192,209871,1,2,0:0:0:0:
329,192,209871,1,2,0:0:0:0:
109,192,209871,1,0,0:0:0:0:
36,192,209950,1,0,0:0:0:0:
475,192,210028,1,0,0:0:0:0:
402,192,210028,1,2,0:0:0:0:
329,192,210028,1,2,0:0:0:0:
182,192,210028,1,0,0:0:0:50:big kick.wav
36,192,210107,1,0,0:0:0:0:
256,192,210185,1,2,0:0:0:0:
402,192,210185,1,2,0:0:0:0:
475,192,210185,1,0,0:0:0:0:
109,192,210264,1,0,0:0:0:0:
475,192,210342,1,0,0:0:0:0:
182,192,210342,1,2,0:0:0:0:
329,192,210342,1,2,0:0:0:0:
36,192,210342,1,0,0:0:0:50:big kick.wav
402,192,210421,1,0,0:0:0:0:
329,192,210499,1,2,0:0:0:0:
109,192,210499,1,2,0:0:0:0:
36,192,210499,1,0,0:0:0:0:
256,192,210499,1,0,0:0:0:0:
182,192,210578,1,0,0:0:0:0:
36,192,210657,1,8,0:0:0:0:
402,192,210657,1,0,0:0:0:0:
475,192,210657,1,0,0:0:0:0:
329,192,210657,1,0,0:0:0:50:big kick.wav
109,192,210735,128,2,210814:0:0:0:0:
182,192,210735,128,0,210814:0:0:0:0:
256,192,210735,128,2,210814:0:0:0:0:
36,192,210814,1,8,0:0:0:0:
402,192,210814,1,0,0:0:0:0:
475,192,210814,1,0,0:0:0:0:
182,192,210892,128,2,210971:0:0:0:0:
256,192,210892,128,0,210971:0:0:0:0:
329,192,210892,128,2,210971:0:0:0:0:
36,192,210971,1,8,0:0:0:0:
475,192,210971,1,0,0:0:0:0:
109,192,210971,1,0,0:0:0:50:big kick.wav
256,192,211049,128,2,211128:0:0:0:0:
329,192,211049,128,0,211128:0:0:0:0:
402,192,211049,128,2,211128:0:0:0:0:
36,192,211128,1,8,0:0:0:0:
182,192,211128,1,0,0:0:0:0:
109,192,211128,1,0,0:0:0:0:
329,192,211206,128,2,211285:0:0:0:0:
402,192,211206,128,0,211285:0:0:0:50:big kick.wav
475,192,211206,128,2,211285:0:0:0:0:
36,192,211285,1,8,0:0:0:0:
182,192,211285,1,0,0:0:0:0:
109,192,211285,1,0,0:0:0:50:big kick.wav
402,192,211363,128,2,211442:0:0:0:0:
329,192,211363,128,0,211442:0:0:0:0:
256,192,211363,128,2,211442:0:0:0:0:
36,192,211442,1,8,0:0:0:0:
475,192,211442,1,0,0:0:0:0:
109,192,211442,1,0,0:0:0:50:big kick.wav
182,192,211520,128,2,211599:0:0:0:0:
256,192,211520,128,0,211599:0:0:0:0:
329,192,211520,128,2,211599:0:0:0:0:
36,192,211599,1,2,0:0:0:0:
475,192,211599,1,0,0:0:0:0:
402,192,211599,1,0,0:0:0:50:big kick.wav
109,192,211599,1,2,0:0:0:0:
256,192,211678,1,0,0:0:0:0:
36,192,211756,1,2,0:0:0:0:
182,192,211756,1,2,0:0:0:0:
475,192,211756,1,0,0:0:0:0:
109,192,211756,1,0,0:0:0:0:
256,192,211835,1,2,0:0:0:0:
329,192,211835,1,0,0:0:0:0:
402,192,211835,1,2,0:0:0:0:
36,192,211913,1,2,0:0:0:0:
182,192,211913,1,2,0:0:0:0:
475,192,211913,1,0,0:0:0:0:
109,192,211913,1,0,0:0:0:50:big kick.wav
329,192,211992,1,0,0:0:0:0:
256,192,212070,1,2,0:0:0:0:
182,192,212070,1,0,0:0:0:0:
36,192,212070,1,2,0:0:0:0:
402,192,212149,1,0,0:0:0:0:
329,192,212227,1,2,0:0:0:0:
109,192,212227,1,0,0:0:0:50:big kick.wav
36,192,212227,1,2,0:0:0:0:
256,192,212227,1,0,0:0:0:0:
475,192,212306,1,0,0:0:0:0:
402,192,212384,1,2,0:0:0:0:
182,192,212384,1,2,0:0:0:0:
329,192,212384,1,0,0:0:0:0:
475,192,212463,1,0,0:0:0:0:
256,192,212541,1,0,0:0:0:0:
329,192,212541,1,2,0:0:0:0:
109,192,212541,1,0,0:0:0:50:big kick.wav
36,192,212541,1,2,0:0:0:0:
402,192,212620,1,0,0:0:0:0:
256,192,212698,1,2,0:0:0:0:
182,192,212698,1,0,0:0:0:0:
36,192,212698,1,2,0:0:0:0:
329,192,212777,1,0,0:0:0:0:
475,192,212856,1,0,0:0:0:0:
182,192,212856,1,2,0:0:0:0:
109,192,212856,1,0,0:0:0:50:big kick.wav
36,192,212856,1,2,0:0:0:0:
402,192,212856,1,0,0:0:0:0:
256,192,212934,1,0,0:0:0:0:
402,192,213013,1,2,0:0:0:0:
329,192,213013,1,0,0:0:0:0:
36,192,213013,1,2,0:0:0:0:
475,192,213013,1,0,0:0:0:0:
256,192,213091,1,2,0:0:0:0:
182,192,213091,1,2,0:0:0:0:
109,192,213091,1,0,0:0:0:0:
329,192,213170,1,0,0:0:0:0:
475,192,213170,1,0,0:0:0:50:big kick.wav
36,192,213170,1,2,0:0:0:0:
402,192,213170,1,2,0:0:0:0:
109,192,213248,1,0,0:0:0:0:
475,192,213327,128,0,213405:0:0:0:0:
329,192,213327,128,0,213405:0:0:0:0:
182,192,213327,128,8,213405:0:0:0:0:
109,192,213405,128,0,213484:0:0:0:0:
256,192,213405,128,2,213484:0:0:0:0:
402,192,213405,128,2,213484:0:0:0:0:
329,192,213484,128,0,213562:0:0:0:50:big kick.wav
182,192,213484,128,8,213562:0:0:0:0:
36,192,213484,128,0,213562:0:0:0:0:
109,192,213562,128,0,213641:0:0:0:0:
256,192,213562,128,2,213641:0:0:0:0:
475,192,213562,128,2,213641:0:0:0:0:
329,192,213641,128,0,213719:0:0:0:0:
182,192,213641,128,8,213719:0:0:0:0:
36,192,213641,128,0,213719:0:0:0:0:
109,192,213719,128,0,213798:0:0:0:0:
256,192,213719,128,2,213798:0:0:0:0:
402,192,213719,128,2,213798:0:0:0:0:
475,192,213798,128,0,213876:0:0:0:0:
329,192,213798,128,0,213876:0:0:0:50:big kick.wav
182,192,213798,128,8,213876:0:0:0:0:
36,192,213876,128,0,213955:0:0:0:0:
109,192,213876,128,2,213955:0:0:0:0:
256,192,213876,128,2,213955:0:0:0:0:
402,192,213955,128,0,214034:0:0:0:0:
475,192,213955,128,0,214034:0:0:0:0:
182,192,213955,128,8,214034:0:0:0:0:
36,192,214034,128,0,214112:0:0:0:0:
256,192,214034,128,2,214112:0:0:0:0:
329,192,214034,128,2,214112:0:0:0:0:
475,192,214112,1,0,0:0:0:0:
402,192,214112,1,0,0:0:0:50:big kick.wav
182,192,214112,1,2,0:0:0:0:
109,192,214112,1,2,0:0:0:0:
329,192,214191,1,0,0:0:0:0:
402,192,214269,1,0,0:0:0:0:
256,192,214269,1,2,0:0:0:0:
109,192,214269,1,2,0:0:0:0:
329,192,214348,1,0,0:0:0:0:
182,192,214348,1,2,0:0:0:0:
36,192,214348,1,2,0:0:0:0:
475,192,214426,1,0,0:0:0:0:
256,192,214426,1,2,0:0:0:0:
109,192,214426,1,2,0:0:0:0:
402,192,214426,1,0,0:0:0:50:big kick.wav
36,192,214505,1,0,0:0:0:0:
182,192,214583,1,2,0:0:0:0:
329,192,214583,1,2,0:0:0:0:
402,192,214583,1,0,0:0:0:0:
36,192,214662,1,0,0:0:0:0:
329,192,214740,1,0,0:0:0:50:big kick.wav
475,192,214740,1,0,0:0:0:0:
256,192,214740,1,2,0:0:0:0:
109,192,214740,1,2,0:0:0:0:
36,192,214819,1,0,0:0:0:0:
256,192,214897,1,2,0:0:0:0:
182,192,214897,1,2,0:0:0:0:
402,192,214897,1,0,0:0:0:0:
475,192,214976,1,0,0:0:0:0:
36,192,215054,1,0,0:0:0:0:
109,192,215054,1,2,0:0:0:0:
182,192,215054,1,0,0:0:0:50:big kick.wav
329,192,215054,1,2,0:0:0:0:
475,192,215133,1,0,0:0:0:0:
256,192,215212,1,2,0:0:0:0:
109,192,215212,1,2,0:0:0:0:
36,192,215212,1,0,0:0:0:0:
329,192,215290,1,0,0:0:0:0:
36,192,215369,1,2,0:0:0:0:
182,192,215369,1,2,0:0:0:0:
475,192,215369,1,4,0:0:0:0:
402,192,215369,1,0,0:0:0:0:
109,192,215369,1,0,0:0:0:50:big kick.wav
256,192,215447,1,0,0:0:0:0:
329,192,215526,1,2,0:0:0:0:
402,192,215526,1,0,0:0:0:0:
475,192,215526,1,0,0:0:0:0:
109,192,215526,1,0,0:0:0:50:big kick.wav
36,192,215526,1,2,0:0:0:0:
182,192,215604,1,0,0:0:0:0:
109,192,215683,1,0,0:0:0:50:big kick.wav
36,192,215683,1,2,0:0:0:0:
475,192,215683,1,4,0:0:0:0:
402,192,215683,1,0,0:0:0:0:
256,192,215683,1,2,0:0:0:0:
329,192,215761,1,2,0:0:0:0:
475,192,215840,1,4,0:0:0:0:
36,192,215840,1,2,0:0:0:0:
402,192,215840,1,0,0:0:0:0:
109,192,215840,1,0,0:0:0:50:big kick.wav
256,192,215840,1,2,0:0:0:0:
182,192,215918,1,0,0:0:0:50:big kick.wav
329,192,215918,1,2,0:0:0:0:
109,192,215997,1,0,0:0:0:50:big kick.wav
36,192,215997,1,2,0:0:0:0:
475,192,215997,1,4,0:0:0:0:
402,192,215997,1,0,0:0:0:0:
256,192,215997,1,2,0:0:0:0:
182,192,216075,1,0,0:0:0:0:
36,192,216154,1,2,0:0:0:0:
402,192,216154,1,0,0:0:0:0:
475,192,216154,1,0,0:0:0:0:
109,192,216154,1,0,0:0:0:50:big kick.wav
256,192,216154,1,2,0:0:0:0:
329,192,216232,1,2,0:0:0:0:
36,192,216311,1,2,0:0:0:0:
402,192,216311,1,0,0:0:0:0:
475,192,216311,1,4,0:0:0:0:
182,192,216311,1,2,0:0:0:0:
109,192,216311,1,0,0:0:0:50:big kick.wav
256,192,216350,1,0,0:0:0:0:
329,192,216390,1,0,0:0:0:0:
402,192,216468,1,0,0:0:0:0:
475,192,216468,1,0,0:0:0:0:
36,192,216468,1,2,0:0:0:0:
182,192,216468,1,2,0:0:0:0:
109,192,216468,1,0,0:0:0:50:big kick.wav
256,192,216547,1,2,0:0:0:0:
329,192,216547,1,0,0:0:0:0:
36,192,216625,1,2,0:0:0:0:
475,192,216625,1,0,0:0:0:0:
402,192,216625,1,2,0:0:0:0:
109,192,216625,1,0,0:0:0:50:big kick.wav
182,192,216704,1,0,0:0:0:0:
475,192,216782,1,0,0:0:0:0:
256,192,216782,1,0,0:0:0:0:
36,192,216782,1,2,0:0:0:0:
402,192,216782,1,2,0:0:0:0:
329,192,216861,1,2,0:0:0:0:
182,192,216861,1,0,0:0:0:0:
109,192,216861,1,2,0:0:0:0:
475,192,216939,1,0,0:0:0:50:big kick.wav
256,192,216939,1,0,0:0:0:0:
36,192,216939,1,2,0:0:0:0:
402,192,216939,1,2,0:0:0:0:
182,192,217018,1,0,0:0:0:0:
109,192,217096,1,2,0:0:0:0:
329,192,217096,1,2,0:0:0:0:
475,192,217096,1,0,0:0:0:0:
36,192,217175,1,0,0:0:0:0:
182,192,217253,1,2,0:0:0:0:
402,192,217253,1,2,0:0:0:0:
475,192,217253,1,0,0:0:0:50:big kick.wav
256,192,217253,1,0,0:0:0:0:
36,192,217332,1,0,0:0:0:0:
109,192,217410,1,2,0:0:0:0:
329,192,217410,1,2,0:0:0:0:
182,192,217410,1,0,0:0:0:0:
36,192,217489,1,0,0:0:0:0:
256,192,217568,1,0,0:0:0:0:
182,192,217568,1,2,0:0:0:0:
402,192,217568,1,2,0:0:0:0:
475,192,217568,1,0,0:0:0:50:big kick.wav
109,192,217646,1,0,0:0:0:0:
256,192,217725,1,2,0:0:0:0:
329,192,217725,1,2,0:0:0:0:
475,192,217725,1,0,0:0:0:0:
182,192,217803,1,0,0:0:0:0:
36,192,217882,1,0,0:0:0:0:
329,192,217882,1,0,0:0:0:50:big kick.wav
402,192,217882,1,2,0:0:0:0:
475,192,217882,1,2,0:0:0:0:
109,192,217882,1,0,0:0:0:0:
182,192,217960,1,0,0:0:0:0:
109,192,218039,1,2,0:0:0:0:
256,192,218039,1,0,0:0:0:0:
475,192,218039,1,2,0:0:0:0:
36,192,218039,1,0,0:0:0:0:
182,192,218117,1,2,0:0:0:0:
329,192,218117,1,0,0:0:0:0:
402,192,218117,1,2,0:0:0:0:
256,192,218196,1,0,0:0:0:50:big kick.wav
36,192,218196,1,0,0:0:0:0:
475,192,218196,1,2,0:0:0:0:
109,192,218196,1,2,0:0:0:0:
402,192,218274,1,0,0:0:0:0:
36,192,218353,128,0,218431:0:0:0:0:
182,192,218353,128,8,218431:0:0:0:0:
329,192,218353,128,0,218431:0:0:0:0:
109,192,218431,128,2,218510:0:0:0:0:
256,192,218431,128,2,218510:0:0:0:0:
402,192,218431,128,0,218510:0:0:0:0:
475,192,218510,128,0,218589:0:0:0:0:
329,192,218510,128,0,218589:0:0:0:50:big kick.wav
182,192,218510,128,8,218589:0:0:0:0:
256,192,218589,128,2,218667:0:0:0:0:
109,192,218589,128,2,218667:0:0:0:0:
36,192,218589,128,0,218667:0:0:0:0:
182,192,218667,128,8,218746:0:0:0:0:
329,192,218667,128,0,218746:0:0:0:0:
475,192,218667,128,0,218746:0:0:0:0:
402,192,218746,128,0,218824:0:0:0:0:
256,192,218746,128,2,218824:0:0:0:0:
109,192,218746,128,2,218824:0:0:0:0:
36,192,218824,128,0,218903:0:0:0:0:
182,192,218824,128,8,218903:0:0:0:0:
329,192,218824,128,0,218903:0:0:0:50:big kick.wav
109,192,218903,128,2,218981:0:0:0:0:
256,192,218903,128,2,218981:0:0:0:0:
402,192,218903,128,0,218981:0:0:0:0:
475,192,218981,128,0,219060:0:0:0:0:
329,192,218981,128,0,219060:0:0:0:0:
182,192,218981,128,8,219060:0:0:0:0:
256,192,219060,128,2,219138:0:0:0:0:
109,192,219060,128,2,219138:0:0:0:0:
36,192,219060,128,0,219138:0:0:0:0:
475,192,219138,1,2,0:0:0:0:
182,192,219138,1,2,0:0:0:0:
329,192,219138,1,0,0:0:0:0:
402,192,219138,1,0,0:0:0:50:big kick.wav
36,192,219217,1,0,0:0:0:0:
109,192,219295,1,0,0:0:0:0:
256,192,219295,1,2,0:0:0:0:
475,192,219295,1,2,0:0:0:0:
182,192,219374,1,2,0:0:0:0:
329,192,219374,1,0,0:0:0:0:
402,192,219374,1,2,0:0:0:0:
36,192,219452,1,0,0:0:0:0:
256,192,219452,1,2,0:0:0:0:
475,192,219452,1,2,0:0:0:0:
109,192,219452,1,0,0:0:0:50:big kick.wav
402,192,219531,1,0,0:0:0:0:
329,192,219609,1,2,0:0:0:0:
182,192,219609,1,2,0:0:0:0:
109,192,219609,1,0,0:0:0:0:
475,192,219688,1,0,0:0:0:0:
182,192,219767,1,0,0:0:0:50:big kick.wav
36,192,219767,1,0,0:0:0:0:
256,192,219767,1,2,0:0:0:0:
402,192,219767,1,2,0:0:0:0:
475,192,219845,1,0,0:0:0:0:
256,192,219924,1,2,0:0:0:0:
329,192,219924,1,2,0:0:0:0:
109,192,219924,1,0,0:0:0:0:
36,192,220002,1,0,0:0:0:0:
475,192,220081,1,0,0:0:0:0:
402,192,220081,1,2,0:0:0:0:
329,192,220081,1,0,0:0:0:50:big kick.wav
182,192,220081,1,2,0:0:0:0:
36,192,220159,1,0,0:0:0:0:
256,192,220238,1,2,0:0:0:0:
402,192,220238,1,0,0:0:0:0:
475,192,220238,1,2,0:0:0:0:
109,192,220316,1,0,0:0:0:0:
475,192,220395,1,2,0:0:0:0:
182,192,220395,1,2,0:0:0:0:
329,192,220395,1,0,0:0:0:50:big kick.wav
36,192,220395,1,0,0:0:0:0:
402,192,220473,1,0,0:0:0:0:
329,192,220552,1,2,0:0:0:0:
109,192,220552,1,2,0:0:0:0:
36,192,220552,1,0,0:0:0:0:
256,192,220552,1,0,0:0:0:0:
182,192,220630,1,0,0:0:0:0:
36,192,220709,1,8,0:0:0:0:
402,192,220709,1,0,0:0:0:50:big kick.wav
475,192,220709,1,0,0:0:0:0:
109,192,220787,128,2,220866:0:0:0:0:
182,192,220787,128,0,220866:0:0:0:0:
256,192,220787,128,2,220866:0:0:0:0:
36,192,220866,1,8,0:0:0:0:
402,192,220866,1,0,0:0:0:0:
475,192,220866,1,0,0:0:0:0:
182,192,220945,128,2,221023:0:0:0:0:
256,192,220945,128,0,221023:0:0:0:0:
329,192,220945,128,2,221023:0:0:0:0:
36,192,221023,1,8,0:0:0:0:
475,192,221023,1,0,0:0:0:0:
109,192,221023,1,0,0:0:0:50:big kick.wav
329,192,221102,128,0,221180:0:0:0:0:
256,192,221102,128,2,221180:0:0:0:0:
402,192,221102,128,2,221180:0:0:0:0:
36,192,221180,1,8,0:0:0:0:
182,192,221180,1,0,0:0:0:0:
109,192,221180,1,0,0:0:0:0:
329,192,221259,128,2,221337:0:0:0:0:
402,192,221259,128,0,221337:0:0:0:50:big kick.wav
475,192,221259,128,2,221337:0:0:0:0:
36,192,221337,1,8,0:0:0:0:
182,192,221337,1,0,0:0:0:0:
109,192,221337,1,0,0:0:0:50:big kick.wav
402,192,221416,128,2,221494:0:0:0:0:
256,192,221416,128,2,221494:0:0:0:0:
329,192,221416,128,0,221494:0:0:0:0:
36,192,221494,1,8,0:0:0:0:
475,192,221494,1,0,0:0:0:0:
109,192,221494,1,0,0:0:0:50:big kick.wav
329,192,221573,128,2,221651:0:0:0:0:
256,192,221573,128,0,221651:0:0:0:0:
182,192,221573,128,2,221651:0:0:0:0:
36,192,221651,1,2,0:0:0:0:
475,192,221651,1,0,0:0:0:0:
402,192,221651,1,0,0:0:0:0:
109,192,221651,1,0,0:0:0:50:big kick.wav
329,192,221730,1,0,0:0:0:0:
36,192,221808,1,2,0:0:0:0:
256,192,221808,1,2,0:0:0:0:
475,192,221808,1,0,0:0:0:0:
109,192,221808,1,0,0:0:0:0:
182,192,221887,1,2,0:0:0:0:
329,192,221887,1,0,0:0:0:0:
402,192,221887,1,0,0:0:0:0:
36,192,221965,1,2,0:0:0:0:
256,192,221965,1,2,0:0:0:0:
475,192,221965,1,0,0:0:0:0:
109,192,221965,1,0,0:0:0:50:big kick.wav
329,192,222044,1,0,0:0:0:0:
402,192,222123,1,2,0:0:0:0:
182,192,222123,1,0,0:0:0:0:
36,192,222123,1,2,0:0:0:0:
475,192,222201,1,0,0:0:0:0:
329,192,222280,1,2,0:0:0:0:
109,192,222280,1,0,0:0:0:0:
36,192,222280,1,2,0:0:0:0:
256,192,222280,1,0,0:0:0:50:big kick.wav
475,192,222358,1,0,0:0:0:0:
402,192,222437,1,2,0:0:0:0:
182,192,222437,1,2,0:0:0:0:
329,192,222437,1,0,0:0:0:0:
475,192,222515,1,0,0:0:0:0:
256,192,222594,1,0,0:0:0:50:big kick.wav
329,192,222594,1,2,0:0:0:0:
109,192,222594,1,0,0:0:0:0:
36,192,222594,1,2,0:0:0:0:
402,192,222672,1,0,0:0:0:0:
256,192,222751,1,2,0:0:0:0:
182,192,222751,1,0,0:0:0:0:
36,192,222751,1,2,0:0:0:0:
329,192,222829,1,0,0:0:0:0:
475,192,222908,1,0,0:0:0:0:
182,192,222908,1,2,0:0:0:0:
109,192,222908,1,0,0:0:0:50:big kick.wav
36,192,222908,1,2,0:0:0:0:
402,192,222908,1,0,0:0:0:0:
329,192,222986,1,0,0:0:0:0:
402,192,223065,1,2,0:0:0:0:
256,192,223065,1,0,0:0:0:0:
36,192,223065,1,2,0:0:0:0:
475,192,223065,1,0,0:0:0:0:
329,192,223143,1,2,0:0:0:0:
182,192,223143,1,0,0:0:0:0:
109,192,223143,1,2,0:0:0:0:
256,192,223222,1,0,0:0:0:50:big kick.wav
475,192,223222,1,0,0:0:0:0:
36,192,223222,1,2,0:0:0:0:
402,192,223222,1,2,0:0:0:0:
109,192,223301,1,0,0:0:0:0:
182,192,223379,128,8,223458:0:0:0:0:
329,192,223379,128,0,223458:0:0:0:0:
475,192,223379,128,0,223458:0:0:0:0:
402,192,223458,128,2,223536:0:0:0:0:
256,192,223458,128,2,223536:0:0:0:0:
109,192,223458,128,0,223536:0:0:0:0:
36,192,223536,128,0,223615:0:0:0:0:
182,192,223536,128,8,223615:0:0:0:0:
329,192,223536,128,0,223615:0:0:0:50:big kick.wav
256,192,223615,128,2,223693:0:0:0:0:
402,192,223615,128,2,223693:0:0:0:0:
475,192,223615,128,0,223693:0:0:0:0:
329,192,223693,128,0,223772:0:0:0:0:
182,192,223693,128,8,223772:0:0:0:0:
36,192,223693,128,0,223772:0:0:0:0:
109,192,223772,128,0,223850:0:0:0:0:
256,192,223772,128,2,223850:0:0:0:0:
402,192,223772,128,2,223850:0:0:0:0:
475,192,223850,128,0,223929:0:0:0:0:
329,192,223850,128,0,223929:0:0:0:50:big kick.wav
182,192,223850,128,8,223929:0:0:0:0:
109,192,223929,128,0,224007:0:0:0:0:
256,192,223929,128,2,224007:0:0:0:0:
402,192,223929,128,2,224007:0:0:0:0:
329,192,224007,128,0,224086:0:0:0:0:
182,192,224007,128,8,224086:0:0:0:0:
36,192,224007,128,0,224086:0:0:0:0:
256,192,224086,128,2,224164:0:0:0:0:
402,192,224086,128,2,224164:0:0:0:0:
475,192,224086,128,0,224164:0:0:0:0:
36,192,224164,1,2,0:0:0:0:
329,192,224164,1,2,0:0:0:0:
182,192,224164,1,0,0:0:0:0:
109,192,224164,1,0,0:0:0:50:big kick.wav
475,192,224243,1,0,0:0:0:0:
402,192,224321,1,0,0:0:0:0:
256,192,224321,1,2,0:0:0:0:
36,192,224321,1,2,0:0:0:0:
329,192,224400,1,2,0:0:0:0:
182,192,224400,1,2,0:0:0:0:
109,192,224400,1,0,0:0:0:0:
475,192,224479,1,0,0:0:0:0:
256,192,224479,1,2,0:0:0:0:
36,192,224479,1,2,0:0:0:0:
402,192,224479,1,0,0:0:0:50:big kick.wav
109,192,224557,1,0,0:0:0:0:
182,192,224636,1,2,0:0:0:0:
329,192,224636,1,2,0:0:0:0:
402,192,224636,1,0,0:0:0:0:
36,192,224714,1,0,0:0:0:0:
329,192,224793,1,0,0:0:0:50:big kick.wav
475,192,224793,1,0,0:0:0:0:
256,192,224793,1,2,0:0:0:0:
109,192,224793,1,2,0:0:0:0:
36,192,224871,1,0,0:0:0:0:
256,192,224950,1,0,0:0:0:0:
182,192,224950,1,2,0:0:0:0:
402,192,224950,1,2,0:0:0:0:
475,192,225028,1,0,0:0:0:0:
36,192,225107,1,2,0:0:0:0:
109,192,225107,1,0,0:0:0:0:
182,192,225107,1,2,0:0:0:0:
329,192,225107,1,0,0:0:0:50:big kick.wav
475,192,225185,1,0,0:0:0:0:
256,192,225264,1,2,0:0:0:0:
109,192,225264,1,0,0:0:0:0:
36,192,225264,1,2,0:0:0:0:
329,192,225342,1,0,0:0:0:0:
36,192,225421,1,0,0:0:0:50:big kick.wav
182,192,225421,1,0,0:0:0:0:
475,192,225421,1,4,0:0:0:0:
402,192,225421,1,2,0:0:0:0:
109,192,225421,1,2,0:0:0:0:
256,192,225499,1,0,0:0:0:0:
329,192,225578,1,2,0:0:0:0:
402,192,225578,1,0,0:0:0:0:
475,192,225578,1,0,0:0:0:0:
109,192,225578,1,2,0:0:0:0:
36,192,225578,1,0,0:0:0:50:big kick.wav
182,192,225657,1,0,0:0:0:0:
256,192,225735,1,2,0:0:0:0:
402,192,225735,1,0,0:0:0:0:
475,192,225735,1,4,0:0:0:0:
36,192,225735,1,0,0:0:0:50:big kick.wav
109,192,225735,1,2,0:0:0:0:
329,192,225814,1,2,0:0:0:0:
36,192,225892,1,0,0:0:0:50:big kick.wav
475,192,225892,1,4,0:0:0:0:
109,192,225892,1,2,0:0:0:0:
182,192,225892,1,2,0:0:0:0:
402,192,225892,1,0,0:0:0:0:
329,192,225971,1,2,0:0:0:0:
256,192,225971,1,0,0:0:0:50:big kick.wav
402,192,226049,1,0,0:0:0:0:
182,192,226049,1,2,0:0:0:0:
475,192,226049,1,4,0:0:0:0:
36,192,226049,1,0,0:0:0:50:big kick.wav
109,192,226049,1,2,0:0:0:0:
329,192,226128,1,0,0:0:0:0:
475,192,226206,1,0,0:0:0:0:
109,192,226206,1,2,0:0:0:0:
36,192,226206,1,0,0:0:0:50:big kick.wav
402,192,226206,1,0,0:0:0:0:
256,192,226206,1,2,0:0:0:0:
182,192,226285,1,2,0:0:0:0:
475,192,226363,1,4,0:0:0:0:
109,192,226363,1,2,0:0:0:0:
36,192,226363,1,0,0:0:0:50:big kick.wav
329,192,226363,1,2,0:0:0:0:
402,192,226363,1,0,0:0:0:0:
256,192,226403,1,0,0:0:0:0:
182,192,226442,1,0,0:0:0:0:
109,192,226520,1,2,0:0:0:0:
36,192,226520,1,0,0:0:0:50:big kick.wav
475,192,226520,1,0,0:0:0:0:
329,192,226520,1,2,0:0:0:0:
402,192,226520,1,0,0:0:0:0:
256,192,226599,1,0,0:0:0:0:
182,192,226599,1,2,0:0:0:0:
109,192,226678,1,2,0:0:0:0:
475,192,226678,1,0,0:0:0:0:
36,192,226678,1,0,0:0:0:50:big kick.wav
402,192,226678,1,0,0:0:0:0:
329,192,226678,1,2,0:0:0:0:
256,192,226835,1,0,0:0:0:0:
36,192,226835,1,0,0:0:0:0:
475,192,226835,1,0,0:0:0:0:
182,192,226913,1,0,0:0:0:0:
329,192,226913,1,0,0:0:0:0:
109,192,226992,128,0,227070:0:0:0:0:
256,192,226992,128,0,227070:0:0:0:0:
402,192,226992,128,8,227070:0:0:0:0:
475,192,227149,128,8,227227:0:0:0:0:
329,192,227149,128,0,227227:0:0:0:0:
182,192,227149,128,0,227227:0:0:0:0:
109,192,227306,1,0,0:0:0:0:
256,192,227306,1,0,0:0:0:0:
402,192,227306,1,0,0:0:0:0:
256,192,227463,1,0,0:0:0:0:
475,192,227463,1,0,0:0:0:0:
36,192,227463,1,0,0:0:0:0:
182,192,227541,1,0,0:0:0:0:
329,192,227541,1,0,0:0:0:0:
109,192,227620,128,0,227698:0:0:0:0:
256,192,227620,128,0,227698:0:0:0:0:
402,192,227620,128,8,227698:0:0:0:0:
329,192,227777,128,8,227856:0:0:0:0:
182,192,227777,128,0,227856:0:0:0:0:
36,192,227777,128,0,227856:0:0:0:0:
109,192,227934,1,0,0:0:0:0:
402,192,227934,1,0,0:0:0:0:
256,192,227934,1,0,0:0:0:0:
36,192,228091,1,0,0:0:0:0:
256,192,228091,1,0,0:0:0:0:
475,192,228091,1,0,0:0:0:0:
182,192,228170,1,0,0:0:0:0:
329,192,228170,1,0,0:0:0:0:
109,192,228248,128,0,228327:0:0:0:0:
256,192,228248,128,0,228327:0:0:0:0:
402,192,228248,128,8,228327:0:0:0:0:
475,192,228405,128,8,228484:0:0:0:0:
329,192,228405,128,0,228484:0:0:0:0:
182,192,228405,128,0,228484:0:0:0:0:
256,192,228562,1,0,0:0:0:0:
402,192,228562,1,0,0:0:0:0:
109,192,228562,1,0,0:0:0:0:
475,192,228719,1,0,0:0:0:0:
256,192,228719,1,0,0:0:0:0:
36,192,228719,1,0,0:0:0:0:
329,192,228798,1,0,0:0:0:0:
182,192,228798,1,0,0:0:0:0:
256,192,228876,128,0,228955:0:0:0:0:
402,192,228876,128,8,228955:0:0:0:0:
109,192,228876,128,0,228955:0:0:0:0:
36,192,229034,128,0,229112:0:0:0:0:
182,192,229034,128,0,229112:0:0:0:0:
329,192,229034,128,8,229112:0:0:0:0:
109,192,229191,1,0,0:0:0:0:
402,192,229191,1,0,0:0:0:0:
256,192,229191,1,0,0:0:0:0:
36,192,229348,1,0,0:0:0:0:
256,192,229348,1,0,0:0:0:0:
475,192,229348,1,0,0:0:0:0:
182,192,229426,1,0,0:0:0:0:
329,192,229426,1,0,0:0:0:0:
109,192,229505,128,0,229583:0:0:0:0:
256,192,229505,128,0,229583:0:0:0:0:
402,192,229505,128,8,229583:0:0:0:0:
475,192,229662,128,8,229740:0:0:0:0:
329,192,229662,128,0,229740:0:0:0:0:
182,192,229662,128,0,229740:0:0:0:0:
256,192,229819,1,0,0:0:0:0:
402,192,229819,1,0,0:0:0:0:
109,192,229819,1,0,0:0:0:0:
475,192,229976,1,0,0:0:0:0:
256,192,229976,1,0,0:0:0:0:
36,192,229976,1,0,0:0:0:0:
329,192,230054,1,0,0:0:0:0:
182,192,230054,1,0,0:0:0:0:
109,192,230133,128,0,230212:0:0:0:0:
256,192,230133,128,0,230212:0:0:0:0:
402,192,230133,128,8,230212:0:0:0:0:
329,192,230290,128,8,230369:0:0:0:0:
182,192,230290,128,0,230369:0:0:0:0:
36,192,230290,128,0,230369:0:0:0:0:
402,192,230447,1,0,0:0:0:0:
475,192,230447,1,0,0:0:0:0:
256,192,230447,1,0,0:0:0:0:
182,192,230604,1,0,0:0:0:0:
36,192,230604,1,0,0:0:0:0:
109,192,230604,1,0,0:0:0:0:
402,192,230683,1,0,0:0:0:0:
475,192,230683,1,0,0:0:0:0:
329,192,230683,1,0,0:0:0:0:
36,192,230761,128,8,230840:0:0:0:0:
109,192,230761,128,0,230840:0:0:0:0:
256,192,230761,128,0,230840:0:0:0:0:
36,192,230918,128,8,230997:0:0:0:0:
182,192,230918,128,0,230997:0:0:0:0:
329,192,230918,128,0,230997:0:0:0:0:
256,192,231075,1,0,0:0:0:0:
402,192,231075,1,0,0:0:0:0:
475,192,231075,1,0,0:0:0:0:
182,192,231232,1,0,0:0:0:0:
109,192,231232,1,0,0:0:0:0:
36,192,231232,1,0,0:0:0:0:
402,192,231311,1,0,0:0:0:0:
475,192,231311,1,0,0:0:0:0:
329,192,231311,1,0,0:0:0:0:
36,192,231390,128,8,231468:0:0:0:0:
109,192,231390,128,0,231468:0:0:0:0:
256,192,231390,128,0,231468:0:0:0:0:
329,192,231547,128,0,231625:0:0:0:0:
182,192,231547,128,0,231625:0:0:0:0:
36,192,231547,128,8,231625:0:0:0:0:
475,192,231704,1,0,0:0:0:0:
402,192,231704,1,0,0:0:0:0:
256,192,231704,1,0,0:0:0:50:big kick.wav
109,192,231704,1,0,0:0:0:0:
36,192,231704,1,0,0:0:0:0:
329,192,231861,1,0,0:0:0:0:
402,192,231861,1,0,0:0:0:0:
475,192,231861,1,0,0:0:0:0:
109,192,231939,1,0,0:0:0:0:
182,192,231939,1,0,0:0:0:0:
256,192,232018,128,0,232096:0:0:0:0:
329,192,232018,128,0,232096:0:0:0:0:
402,192,232018,128,8,232096:0:0:0:0:
475,192,232175,128,8,232253:0:0:0:0:
182,192,232175,128,0,232253:0:0:0:0:
36,192,232175,128,0,232253:0:0:0:0:
109,192,232332,1,0,0:0:0:0:
402,192,232332,1,0,0:0:0:0:
256,192,232332,1,0,0:0:0:0:
36,192,232489,1,0,0:0:0:0:
109,192,232489,1,0,0:0:0:0:
182,192,232489,1,0,0:0:0:0:
329,192,232568,1,0,0:0:0:0:
402,192,232568,1,0,0:0:0:0:
109,192,232646,128,8,232725:0:0:0:0:
182,192,232646,128,0,232725:0:0:0:0:
256,192,232646,128,0,232725:0:0:0:0:
329,192,232803,128,0,232882:0:0:0:0:
475,192,232803,128,0,232882:0:0:0:0:
36,192,232803,128,8,232882:0:0:0:0:
109,192,232960,1,0,0:0:0:0:
256,192,232960,1,0,0:0:0:0:
402,192,232960,1,0,0:0:0:0:
329,192,233117,1,0,0:0:0:0:
402,192,233117,1,0,0:0:0:0:
475,192,233117,1,0,0:0:0:0:
109,192,233196,1,0,0:0:0:0:
182,192,233196,1,0,0:0:0:0:
256,192,233274,128,0,233353:0:0:0:0:
329,192,233274,128,0,233353:0:0:0:0:
402,192,233274,128,8,233353:0:0:0:0:
475,192,233431,128,8,233510:0:0:0:0:
182,192,233431,128,0,233510:0:0:0:0:
36,192,233431,128,0,233510:0:0:0:0:
109,192,233589,1,0,0:0:0:0:
402,192,233589,1,0,0:0:0:0:
256,192,233589,1,0,0:0:0:0:
36,192,233746,1,0,0:0:0:0:
109,192,233746,1,0,0:0:0:0:
182,192,233746,1,0,0:0:0:0:
329,192,233824,1,0,0:0:0:0:
402,192,233824,1,0,0:0:0:0:
109,192,233903,128,8,233981:0:0:0:0:
182,192,233903,128,0,233981:0:0:0:0:
256,192,233903,128,0,233981:0:0:0:0:
36,192,234060,128,8,234138:0:0:0:0:
329,192,234060,128,0,234138:0:0:0:0:
475,192,234060,128,0,234138:0:0:0:0:
109,192,234217,1,0,0:0:0:0:
256,192,234217,1,0,0:0:0:0:
402,192,234217,1,0,0:0:0:0:
475,192,234374,1,0,0:0:0:0:
402,192,234374,1,0,0:0:0:0:
329,192,234374,1,0,0:0:0:0:
182,192,234452,1,0,0:0:0:0:
109,192,234452,1,0,0:0:0:0:
256,192,234531,128,0,234609:0:0:0:0:
329,192,234531,128,0,234609:0:0:0:0:
402,192,234531,128,8,234609:0:0:0:0:
475,192,234688,128,8,234767:0:0:0:0:
182,192,234688,128,0,234767:0:0:0:0:
36,192,234688,128,0,234767:0:0:0:0:
256,192,234845,1,0,0:0:0:0:
402,192,234845,1,0,0:0:0:0:
109,192,234845,1,0,0:0:0:0:
182,192,235002,1,0,0:0:0:0:
109,192,235002,1,0,0:0:0:0:
36,192,235002,1,0,0:0:0:0:
402,192,235081,1,0,0:0:0:0:
329,192,235081,1,0,0:0:0:0:
109,192,235159,128,8,235238:0:0:0:0:
182,192,235159,128,0,235238:0:0:0:0:
256,192,235159,128,0,235238:0:0:0:0:
329,192,235316,128,0,235395:0:0:0:0:
475,192,235316,128,0,235395:0:0:0:0:
36,192,235316,128,8,235395:0:0:0:0:
402,192,235473,1,0,0:0:0:0:
256,192,235473,1,0,0:0:0:0:
475,192,235473,1,0,0:0:0:0:
36,192,235630,1,0,0:0:0:0:
182,192,235630,1,0,0:0:0:0:
329,192,235630,1,0,0:0:0:0:
109,192,235709,1,0,0:0:0:0:
256,192,235709,1,0,0:0:0:0:
402,192,235709,1,0,0:0:0:0:
182,192,235787,128,8,235866:0:0:0:0:
329,192,235787,128,0,235866:0:0:0:0:
475,192,235787,128,0,235866:0:0:0:0:
256,192,235945,128,0,236023:0:0:0:0:
109,192,235945,128,0,236023:0:0:0:0:
36,192,235945,128,8,236023:0:0:0:0:
475,192,236102,1,0,0:0:0:0:
402,192,236102,1,0,0:0:0:0:
256,192,236102,1,0,0:0:0:0:
329,192,236259,1,0,0:0:0:0:
182,192,236259,1,0,0:0:0:0:
36,192,236259,1,0,0:0:0:0:
109,192,236337,1,0,0:0:0:0:
256,192,236337,1,0,0:0:0:0:
402,192,236337,1,0,0:0:0:0:
182,192,236416,128,8,236494:0:0:0:0:
329,192,236416,128,0,236494:0:0:0:0:
475,192,236416,128,0,236494:0:0:0:0:
256,192,236573,128,0,236651:0:0:0:0:
109,192,236573,128,0,236651:0:0:0:0:
36,192,236573,128,8,236651:0:0:0:0:
36,192,236730,1,2,0:0:0:0:
182,192,236730,1,0,0:0:0:0:
402,192,236730,1,0,0:0:0:50:big kick.wav
475,192,236730,1,2,0:0:0:0:
329,192,236730,1,0,0:0:0:0:
256,192,236808,1,0,0:0:0:0:
109,192,236887,1,0,0:0:0:0:
36,192,236887,1,2,0:0:0:0:
402,192,236887,1,2,0:0:0:0:
182,192,236965,1,2,0:0:0:0:
256,192,236965,1,0,0:0:0:0:
329,192,236965,1,2,0:0:0:0:
402,192,237044,1,2,0:0:0:0:
475,192,237044,1,0,0:0:0:50:big kick.wav
109,192,237044,1,8,0:0:0:0:
36,192,237044,1,2,0:0:0:0:
182,192,237123,1,0,0:0:0:0:
256,192,237201,1,8,0:0:0:0:
329,192,237201,1,2,0:0:0:0:
109,192,237201,1,2,0:0:0:0:
182,192,237280,1,0,0:0:0:0:
109,192,237358,1,0,0:0:0:0:
402,192,237358,1,2,0:0:0:0:
475,192,237358,1,0,0:0:0:50:big kick.wav
329,192,237358,1,0,0:0:0:0:
36,192,237358,1,2,0:0:0:0:
256,192,237437,1,0,0:0:0:0:
402,192,237515,1,0,0:0:0:0:
475,192,237515,1,2,0:0:0:0:
36,192,237515,1,2,0:0:0:0:
182,192,237594,1,2,0:0:0:0:
256,192,237594,1,0,0:0:0:0:
329,192,237594,1,2,0:0:0:0:
109,192,237672,1,0,0:0:0:50:big kick.wav
36,192,237672,1,2,0:0:0:0:
402,192,237672,1,8,0:0:0:0:
475,192,237672,1,2,0:0:0:0:
329,192,237751,1,0,0:0:0:0:
256,192,237829,1,8,0:0:0:0:
182,192,237829,1,2,0:0:0:0:
402,192,237829,1,2,0:0:0:0:
329,192,237908,1,0,0:0:0:0:
36,192,237986,1,2,0:0:0:0:
109,192,237986,1,0,0:0:0:50:big kick.wav
182,192,237986,1,2,0:0:0:0:
402,192,237986,1,0,0:0:0:0:
475,192,237986,1,0,0:0:0:0:
256,192,238065,1,0,0:0:0:0:
109,192,238143,1,0,0:0:0:0:
36,192,238143,1,2,0:0:0:0:
402,192,238143,1,2,0:0:0:0:
182,192,238222,1,2,0:0:0:0:
256,192,238222,1,0,0:0:0:0:
329,192,238222,1,2,0:0:0:0:
402,192,238301,1,2,0:0:0:0:
475,192,238301,1,0,0:0:0:50:big kick.wav
109,192,238301,1,8,0:0:0:0:
36,192,238301,1,2,0:0:0:0:
182,192,238379,1,0,0:0:0:0:
256,192,238458,1,8,0:0:0:0:
329,192,238458,1,2,0:0:0:0:
109,192,238458,1,2,0:0:0:0:
182,192,238536,1,0,0:0:0:0:
109,192,238615,1,0,0:0:0:0:
402,192,238615,1,2,0:0:0:0:
475,192,238615,1,0,0:0:0:50:big kick.wav
329,192,238615,1,0,0:0:0:0:
36,192,238615,1,2,0:0:0:0:
256,192,238693,1,0,0:0:0:0:
402,192,238772,1,2,0:0:0:0:
475,192,238772,1,0,0:0:0:0:
36,192,238772,1,2,0:0:0:0:
182,192,238850,1,2,0:0:0:0:
256,192,238850,1,0,0:0:0:0:
329,192,238850,1,2,0:0:0:0:
109,192,238929,1,2,0:0:0:0:
36,192,238929,1,2,0:0:0:0:
402,192,238929,1,8,0:0:0:0:
475,192,238929,1,0,0:0:0:50:big kick.wav
329,192,239007,1,0,0:0:0:0:
256,192,239086,1,8,0:0:0:0:
182,192,239086,1,2,0:0:0:0:
402,192,239086,1,2,0:0:0:0:
329,192,239164,1,0,0:0:0:0:
36,192,239243,1,2,0:0:0:0:
109,192,239243,1,0,0:0:0:50:big kick.wav
182,192,239243,1,0,0:0:0:0:
402,192,239243,1,0,0:0:0:0:
475,192,239243,1,2,0:0:0:0:
256,192,239321,1,0,0:0:0:0:
402,192,239400,1,2,0:0:0:0:
36,192,239400,1,2,0:0:0:0:
109,192,239400,1,0,0:0:0:0:
329,192,239479,1,2,0:0:0:0:
256,192,239479,1,0,0:0:0:0:
182,192,239479,1,2,0:0:0:0:
109,192,239557,1,8,0:0:0:0:
36,192,239557,1,2,0:0:0:0:
402,192,239557,1,2,0:0:0:0:
475,192,239557,1,0,0:0:0:50:big kick.wav
182,192,239636,1,0,0:0:0:0:
109,192,239714,1,2,0:0:0:0:
329,192,239714,1,2,0:0:0:0:
256,192,239714,1,8,0:0:0:0:
182,192,239793,1,0,0:0:0:0:
475,192,239871,1,0,0:0:0:50:big kick.wav
329,192,239871,1,0,0:0:0:0:
109,192,239871,1,0,0:0:0:0:
402,192,239871,1,2,0:0:0:0:
36,192,239871,1,2,0:0:0:0:
256,192,239950,1,0,0:0:0:0:
36,192,240028,1,2,0:0:0:0:
475,192,240028,1,0,0:0:0:0:
402,192,240028,1,2,0:0:0:0:
329,192,240107,1,2,0:0:0:0:
256,192,240107,1,0,0:0:0:0:
182,192,240107,1,2,0:0:0:0:
402,192,240185,1,8,0:0:0:0:
36,192,240185,1,2,0:0:0:0:
109,192,240185,1,2,0:0:0:0:
475,192,240185,1,0,0:0:0:50:big kick.wav
329,192,240264,1,0,0:0:0:0:
402,192,240342,1,2,0:0:0:0:
182,192,240342,1,2,0:0:0:0:
256,192,240342,1,8,0:0:0:0:
329,192,240421,1,0,0:0:0:0:
182,192,240499,1,2,0:0:0:0:
402,192,240499,1,0,0:0:0:0:
36,192,240499,1,2,0:0:0:0:
109,192,240499,1,0,0:0:0:0:
475,192,240499,1,0,0:0:0:50:big kick.wav
256,192,240578,1,0,0:0:0:0:
329,192,240657,1,2,0:0:0:0:
402,192,240657,1,0,0:0:0:50:big kick.wav
109,192,240657,1,0,0:0:0:0:
36,192,240657,1,2,0:0:0:0:
182,192,240735,1,2,0:0:0:0:
256,192,240735,1,0,0:0:0:50:big kick.wav
475,192,240735,1,2,0:0:0:0:
36,192,240814,1,2,0:0:0:0:
109,192,240814,1,2,0:0:0:0:
329,192,240814,1,8,0:0:0:0:
402,192,240814,1,0,0:0:0:50:big kick.wav
256,192,240892,1,0,0:0:0:0:
182,192,240971,1,8,0:0:0:0:
109,192,240971,1,2,0:0:0:0:
475,192,240971,1,0,0:0:0:50:big kick.wav
402,192,240971,1,2,0:0:0:0:
329,192,241049,1,0,0:0:0:0:
36,192,241128,1,2,0:0:0:0:
109,192,241128,1,2,0:0:0:0:
182,192,241128,1,0,0:0:0:0:
402,192,241128,1,0,0:0:0:50:big kick.wav
475,192,241128,1,0,0:0:0:0:
256,192,241206,1,0,0:0:0:0:
402,192,241285,1,2,0:0:0:0:
109,192,241285,1,0,0:0:0:0:
329,192,241285,1,0,0:0:0:50:big kick.wav
36,192,241285,1,2,0:0:0:0:
182,192,241363,1,2,0:0:0:0:
256,192,241363,1,0,0:0:0:50:big kick.wav
475,192,241363,1,2,0:0:0:0:
109,192,241442,1,0,0:0:0:50:big kick.wav
36,192,241442,1,2,0:0:0:0:
329,192,241442,1,8,0:0:0:0:
402,192,241442,1,2,0:0:0:0:
256,192,241520,1,0,0:0:0:0:
182,192,241599,1,8,0:0:0:0:
402,192,241599,1,2,0:0:0:0:
109,192,241599,1,2,0:0:0:0:
475,192,241599,1,0,0:0:0:50:big kick.wav
329,192,241678,1,0,0:0:0:0:
36,192,241756,1,0,0:0:0:0:
402,192,241756,1,0,0:0:0:50:big kick.wav
109,192,241756,1,2,0:0:0:0:
256,192,241756,1,0,0:0:0:0:
475,192,241756,1,2,0:0:0:0:
182,192,241835,1,0,0:0:0:0:
329,192,241913,1,2,0:0:0:0:
475,192,241913,1,2,0:0:0:0:
36,192,241913,1,0,0:0:0:0:
109,192,241992,1,2,0:0:0:0:
256,192,241992,1,2,0:0:0:0:
182,192,241992,1,0,0:0:0:0:
402,192,242070,1,8,0:0:0:0:
475,192,242070,1,2,0:0:0:0:
329,192,242070,1,2,0:0:0:0:
36,192,242070,1,0,0:0:0:50:big kick.wav
109,192,242149,1,0,0:0:0:0:
182,192,242227,1,2,0:0:0:0:
402,192,242227,1,2,0:0:0:0:
256,192,242227,1,8,0:0:0:0:
329,192,242306,1,0,0:0:0:0:
256,192,242384,1,0,0:0:0:0:
109,192,242384,1,2,0:0:0:0:
475,192,242384,1,2,0:0:0:0:
402,192,242384,1,0,0:0:0:0:
36,192,242384,1,0,0:0:0:50:big kick.wav
329,192,242463,1,0,0:0:0:0:
36,192,242541,1,0,0:0:0:0:
182,192,242541,1,2,0:0:0:0:
475,192,242541,1,2,0:0:0:0:
256,192,242620,1,2,0:0:0:0:
329,192,242620,1,2,0:0:0:0:
402,192,242620,1,0,0:0:0:0:
182,192,242698,1,2,0:0:0:0:
36,192,242698,1,0,0:0:0:50:big kick.wav
109,192,242698,1,8,0:0:0:0:
475,192,242698,1,2,0:0:0:0:
402,192,242777,1,0,0:0:0:0:
329,192,242856,1,2,0:0:0:0:
256,192,242856,1,8,0:0:0:0:
109,192,242856,1,2,0:0:0:0:
182,192,242934,1,0,0:0:0:0:
36,192,243013,1,0,0:0:0:50:big kick.wav
402,192,243013,1,0,0:0:0:0:
109,192,243013,1,2,0:0:0:0:
256,192,243013,1,0,0:0:0:0:
475,192,243013,1,2,0:0:0:0:
182,192,243091,1,0,0:0:0:0:
329,192,243170,1,2,0:0:0:0:
475,192,243170,1,2,0:0:0:0:
36,192,243170,1,0,0:0:0:0:
109,192,243248,1,2,0:0:0:0:
256,192,243248,1,2,0:0:0:0:
182,192,243248,1,0,0:0:0:0:
402,192,243327,1,8,0:0:0:0:
475,192,243327,1,2,0:0:0:0:
329,192,243327,1,2,0:0:0:0:
36,192,243327,1,0,0:0:0:50:big kick.wav
109,192,243405,1,0,0:0:0:0:
182,192,243484,1,2,0:0:0:0:
402,192,243484,1,2,0:0:0:0:
256,192,243484,1,8,0:0:0:0:
329,192,243562,1,0,0:0:0:0:
256,192,243641,1,2,0:0:0:0:
109,192,243641,1,0,0:0:0:0:
475,192,243641,1,2,0:0:0:0:
402,192,243641,1,0,0:0:0:0:
36,192,243641,1,0,0:0:0:50:big kick.wav
329,192,243719,1,0,0:0:0:0:
36,192,243798,1,0,0:0:0:0:
182,192,243798,1,2,0:0:0:0:
475,192,243798,1,2,0:0:0:0:
256,192,243876,1,2,0:0:0:0:
329,192,243876,1,2,0:0:0:0:
402,192,243876,1,0,0:0:0:0:
182,192,243955,1,2,0:0:0:0:
36,192,243955,1,0,0:0:0:50:big kick.wav
109,192,243955,1,8,0:0:0:0:
475,192,243955,1,2,0:0:0:0:
402,192,244034,1,0,0:0:0:0:
329,192,244112,1,2,0:0:0:0:
256,192,244112,1,8,0:0:0:0:
109,192,244112,1,2,0:0:0:0:
182,192,244191,1,0,0:0:0:0:
109,192,244269,1,0,0:0:0:0:
256,192,244269,1,2,0:0:0:0:
36,192,244269,1,0,0:0:0:50:big kick.wav
402,192,244269,1,0,0:0:0:0:
475,192,244269,1,2,0:0:0:0:
182,192,244348,1,0,0:0:0:0:
36,192,244426,1,0,0:0:0:0:
475,192,244426,1,2,0:0:0:0:
329,192,244426,1,2,0:0:0:0:
182,192,244505,1,0,0:0:0:0:
256,192,244505,1,2,0:0:0:0:
109,192,244505,1,2,0:0:0:0:
329,192,244583,1,2,0:0:0:0:
36,192,244583,1,0,0:0:0:50:big kick.wav
402,192,244583,1,8,0:0:0:0:
475,192,244583,1,2,0:0:0:0:
109,192,244662,1,0,0:0:0:0:
256,192,244740,1,8,0:0:0:0:
402,192,244740,1,2,0:0:0:0:
182,192,244740,1,2,0:0:0:0:
329,192,244819,1,0,0:0:0:0:
475,192,244897,1,2,0:0:0:0:
402,192,244897,1,0,0:0:0:0:
256,192,244897,1,0,0:0:0:0:
109,192,244897,1,2,0:0:0:0:
36,192,244897,1,0,0:0:0:50:big kick.wav
329,192,244976,1,0,0:0:0:0:
475,192,245054,1,2,0:0:0:0:
182,192,245054,1,2,0:0:0:0:
36,192,245054,1,0,0:0:0:0:
402,192,245133,1,2,0:0:0:0:
329,192,245133,1,0,0:0:0:0:
256,192,245133,1,2,0:0:0:0:
109,192,245212,1,8,0:0:0:0:
475,192,245212,1,2,0:0:0:0:
182,192,245212,1,2,0:0:0:0:
36,192,245212,1,0,0:0:0:50:big kick.wav
402,192,245290,1,0,0:0:0:0:
109,192,245369,1,2,0:0:0:0:
256,192,245369,1,8,0:0:0:0:
329,192,245369,1,2,0:0:0:0:
182,192,245447,1,0,0:0:0:0:
256,192,245526,1,2,0:0:0:0:
36,192,245526,1,0,0:0:0:50:big kick.wav
109,192,245526,1,0,0:0:0:0:
402,192,245526,1,0,0:0:0:0:
475,192,245526,1,2,0:0:0:0:
182,192,245604,1,0,0:0:0:0:
36,192,245683,1,0,0:0:0:50:big kick.wav
402,192,245683,1,0,0:0:0:0:
329,192,245683,1,2,0:0:0:0:
475,192,245683,1,2,0:0:0:0:
256,192,245761,1,2,0:0:0:0:
182,192,245761,1,2,0:0:0:0:
109,192,245761,1,0,0:0:0:50:big kick.wav
36,192,245840,1,0,0:0:0:50:big kick.wav
329,192,245840,1,2,0:0:0:0:
402,192,245840,1,8,0:0:0:0:
475,192,245840,1,2,0:0:0:0:
109,192,245918,1,0,0:0:0:0:
256,192,245997,1,8,0:0:0:0:
182,192,245997,1,2,0:0:0:0:
402,192,245997,1,0,0:0:0:50:big kick.wav
475,192,245997,1,2,0:0:0:0:
329,192,246075,1,0,0:0:0:0:
36,192,246154,1,0,0:0:0:0:
109,192,246154,1,2,0:0:0:0:
256,192,246154,1,0,0:0:0:0:
402,192,246154,1,0,0:0:0:50:big kick.wav
475,192,246154,1,2,0:0:0:0:
182,192,246232,1,0,0:0:0:0:
475,192,246311,1,2,0:0:0:0:
36,192,246311,1,0,0:0:0:0:
402,192,246311,1,0,0:0:0:50:big kick.wav
329,192,246311,1,2,0:0:0:0:
256,192,246390,1,2,0:0:0:0:
182,192,246390,1,0,0:0:0:50:big kick.wav
109,192,246390,1,2,0:0:0:0:
36,192,246468,1,0,0:0:0:50:big kick.wav
329,192,246468,1,2,0:0:0:0:
402,192,246468,1,8,0:0:0:0:
475,192,246468,1,2,0:0:0:0:
109,192,246547,1,0,0:0:0:0:
182,192,246625,1,2,0:0:0:0:
256,192,246625,1,8,0:0:0:0:
402,192,246625,1,0,0:0:0:50:big kick.wav
475,192,246625,1,2,0:0:0:0:
329,192,246704,1,0,0:0:0:0:
109,192,246782,128,0,246861:0:0:0:50:big kick.wav
182,192,246782,128,2,246861:0:0:0:0:
402,192,246782,128,2,246861:0:0:0:0:
475,192,246782,128,4,246861:0:0:0:0:
256,192,246861,1,0,0:0:0:0:
329,192,246939,1,2,0:0:0:0:
402,192,246939,1,0,0:0:0:0:
109,192,246939,1,0,0:0:0:50:big kick.wav
36,192,246939,1,2,0:0:0:0:
182,192,247018,1,2,0:0:0:0:
475,192,247018,1,0,0:0:0:50:big kick.wav
329,192,247096,128,2,247175:0:0:0:0:
402,192,247096,128,4,247175:0:0:0:0:
109,192,247096,128,0,247175:0:0:0:50:big kick.wav
36,192,247096,128,2,247175:0:0:0:0:
256,192,247175,1,0,0:0:0:0:
475,192,247253,1,2,0:0:0:0:
402,192,247253,1,0,0:0:0:0:
182,192,247253,1,2,0:0:0:0:
109,192,247253,1,0,0:0:0:50:big kick.wav
329,192,247332,1,2,0:0:0:0:
36,192,247332,1,0,0:0:0:50:big kick.wav
109,192,247410,128,0,247489:0:0:0:50:big kick.wav
182,192,247410,128,2,247489:0:0:0:0:
402,192,247410,128,4,247489:0:0:0:0:
475,192,247410,128,2,247489:0:0:0:0:
256,192,247489,1,0,0:0:0:0:
36,192,247568,1,2,0:0:0:0:
109,192,247568,1,0,0:0:0:50:big kick.wav
329,192,247568,1,2,0:0:0:0:
402,192,247568,1,0,0:0:0:0:
475,192,247646,1,0,0:0:0:50:big kick.wav
182,192,247646,1,2,0:0:0:0:
36,192,247725,128,2,247803:0:0:0:0:
109,192,247725,128,0,247803:0:0:0:50:big kick.wav
329,192,247725,128,2,247803:0:0:0:0:
402,192,247725,128,4,247803:0:0:0:0:
256,192,247803,1,0,0:0:0:0:
402,192,247882,1,0,0:0:0:0:
182,192,247882,1,2,0:0:0:0:
475,192,247882,1,2,0:0:0:0:
109,192,247882,1,0,0:0:0:50:big kick.wav
329,192,247960,1,2,0:0:0:0:
36,192,247960,1,0,0:0:0:50:big kick.wav
109,192,248039,128,0,248117:0:0:0:50:big kick.wav
182,192,248039,128,2,248117:0:0:0:0:
402,192,248039,128,4,248117:0:0:0:0:
475,192,248039,128,2,248117:0:0:0:0:
256,192,248117,1,0,0:0:0:0:
109,192,248196,1,0,0:0:0:50:big kick.wav
329,192,248196,1,2,0:0:0:0:
36,192,248196,1,2,0:0:0:0:
402,192,248196,1,0,0:0:0:0:
475,192,248274,1,0,0:0:0:50:big kick.wav
182,192,248274,1,2,0:0:0:0:
36,192,248353,128,2,248431:0:0:0:0:
109,192,248353,128,0,248431:0:0:0:50:big kick.wav
329,192,248353,128,2,248431:0:0:0:0:
402,192,248353,128,4,248431:0:0:0:0:
256,192,248431,1,0,0:0:0:0:
109,192,248510,1,2,0:0:0:0:
475,192,248510,1,2,0:0:0:0:
182,192,248510,1,0,0:0:0:50:big kick.wav
402,192,248510,1,0,0:0:0:0:
36,192,248589,1,0,0:0:0:50:big kick.wav
329,192,248589,1,2,0:0:0:0:
109,192,248667,128,2,248746:0:0:0:0:
182,192,248667,128,0,248746:0:0:0:50:big kick.wav
402,192,248667,128,4,248746:0:0:0:0:
475,192,248667,128,2,248746:0:0:0:0:
256,192,248746,1,0,0:0:0:0:
36,192,248824,1,2,0:0:0:0:
402,192,248824,1,0,0:0:0:0:
109,192,248824,1,2,0:0:0:0:
329,192,248824,1,0,0:0:0:50:big kick.wav
182,192,248903,1,2,0:0:0:0:
475,192,248903,1,0,0:0:0:50:big kick.wav
36,192,248981,128,2,249060:0:0:0:0:
109,192,248981,128,2,249060:0:0:0:0:
329,192,248981,128,0,249060:0:0:0:50:big kick.wav
402,192,248981,128,4,249060:0:0:0:0:
256,192,249060,1,0,0:0:0:0:
109,192,249138,1,2,0:0:0:0:
475,192,249138,1,2,0:0:0:0:
182,192,249138,1,0,0:0:0:50:big kick.wav
36,192,249138,1,0,0:0:0:0:
256,192,249217,1,0,0:0:0:50:big kick.wav
329,192,249217,1,2,0:0:0:0:
402,192,249295,128,4,249374:0:0:0:0:
475,192,249295,128,2,249374:0:0:0:0:
109,192,249295,128,2,249374:0:0:0:0:
36,192,249295,128,0,249374:0:0:0:50:big kick.wav
182,192,249374,1,0,0:0:0:0:
329,192,249452,1,0,0:0:0:50:big kick.wav
402,192,249452,1,0,0:0:0:0:
475,192,249452,1,0,0:0:0:0:
36,192,249452,1,2,0:0:0:0:
182,192,249531,1,2,0:0:0:0:
256,192,249531,1,0,0:0:0:50:big kick.wav
402,192,249609,128,4,249688:0:0:0:0:
475,192,249609,128,0,249688:0:0:0:50:big kick.wav
36,192,249609,128,2,249688:0:0:0:0:
109,192,249609,128,2,249688:0:0:0:0:
329,192,249688,1,0,0:0:0:0:
36,192,249767,1,0,0:0:0:0:
475,192,249767,1,2,0:0:0:0:
109,192,249767,1,2,0:0:0:0:
182,192,249767,1,0,0:0:0:50:big kick.wav
256,192,249845,1,0,0:0:0:50:big kick.wav
329,192,249845,1,2,0:0:0:0:
36,192,249924,128,0,250002:0:0:0:50:big kick.wav
109,192,249924,128,2,250002:0:0:0:0:
402,192,249924,128,4,250002:0:0:0:0:
475,192,249924,128,2,250002:0:0:0:0:
182,192,250002,1,0,0:0:0:0:
329,192,250081,1,0,0:0:0:50:big kick.wav
402,192,250081,1,2,0:0:0:0:
475,192,250081,1,0,0:0:0:0:
36,192,250081,1,2,0:0:0:0:
256,192,250159,1,0,0:0:0:50:big kick.wav
182,192,250159,1,2,0:0:0:0:
475,192,250238,128,0,250316:0:0:0:50:big kick.wav
402,192,250238,128,4,250316:0:0:0:0:
109,192,250238,128,2,250316:0:0:0:0:
36,192,250238,128,2,250316:0:0:0:0:
329,192,250316,1,0,0:0:0:0:
109,192,250395,1,2,0:0:0:0:
182,192,250395,1,0,0:0:0:50:big kick.wav
36,192,250395,1,0,0:0:0:0:
475,192,250395,1,2,0:0:0:0:
329,192,250473,1,2,0:0:0:0:
256,192,250473,1,0,0:0:0:50:big kick.wav
36,192,250552,128,0,250630:0:0:0:50:big kick.wav
109,192,250552,128,2,250630:0:0:0:0:
402,192,250552,128,4,250630:0:0:0:0:
475,192,250552,128,2,250630:0:0:0:0:
182,192,250630,1,0,0:0:0:0:
475,192,250709,1,0,0:0:0:0:
402,192,250709,1,2,0:0:0:0:
329,192,250709,1,0,0:0:0:50:big kick.wav
36,192,250709,1,2,0:0:0:0:
182,192,250787,1,2,0:0:0:0:
256,192,250787,1,0,0:0:0:50:big kick.wav
36,192,250866,128,2,250945:0:0:0:0:
109,192,250866,128,2,250945:0:0:0:0:
402,192,250866,128,4,250945:0:0:0:0:
475,192,250866,128,0,250945:0:0:0:50:big kick.wav
329,192,250945,1,0,0:0:0:0:
36,192,251023,1,0,0:0:0:0:
475,192,251023,1,2,0:0:0:0:
109,192,251023,1,2,0:0:0:0:
182,192,251023,1,0,0:0:0:50:big kick.wav
256,192,251102,1,0,0:0:0:50:big kick.wav
329,192,251102,1,2,0:0:0:0:
475,192,251180,128,2,251259:0:0:0:0:
402,192,251180,128,4,251259:0:0:0:0:
109,192,251180,128,2,251259:0:0:0:0:
36,192,251180,128,0,251259:0:0:0:50:big kick.wav
182,192,251259,1,0,0:0:0:0:
329,192,251337,1,0,0:0:0:50:big kick.wav
402,192,251337,1,2,0:0:0:0:
475,192,251337,1,0,0:0:0:0:
36,192,251337,1,2,0:0:0:0:
256,192,251416,1,0,0:0:0:50:big kick.wav
182,192,251416,1,2,0:0:0:0:
475,192,251494,128,0,251573:0:0:0:50:big kick.wav
402,192,251494,128,4,251573:0:0:0:0:
109,192,251494,128,2,251573:0:0:0:0:
36,192,251494,128,2,251573:0:0:0:0:
329,192,251573,1,0,0:0:0:0:
256,192,251651,1,0,0:0:0:50:big kick.wav
109,192,251651,1,2,0:0:0:0:
36,192,251651,1,0,0:0:0:0:
402,192,251651,1,2,0:0:0:0:
182,192,251730,1,0,0:0:0:50:big kick.wav
329,192,251730,1,2,0:0:0:0:
475,192,251808,128,4,251887:0:0:0:0:
402,192,251808,128,2,251887:0:0:0:0:
256,192,251808,128,2,251887:0:0:0:0:
36,192,251808,128,0,251887:0:0:0:50:big kick.wav
182,192,251887,1,0,0:0:0:0:
402,192,251965,1,0,0:0:0:50:big kick.wav
475,192,251965,1,0,0:0:0:0:
256,192,251965,1,2,0:0:0:0:
109,192,251965,1,2,0:0:0:0:
182,192,252044,1,2,0:0:0:0:
329,192,252044,1,0,0:0:0:50:big kick.wav
36,192,252123,128,0,252201:0:0:0:50:big kick.wav
109,192,252123,128,2,252201:0:0:0:0:
256,192,252123,128,2,252201:0:0:0:0:
475,192,252123,128,4,252201:0:0:0:0:
329,192,252201,1,0,0:0:0:0:
109,192,252280,1,0,0:0:0:50:big kick.wav
402,192,252280,1,2,0:0:0:0:
256,192,252280,1,2,0:0:0:0:
36,192,252280,1,0,0:0:0:0:
329,192,252358,1,2,0:0:0:0:
182,192,252358,1,0,0:0:0:50:big kick.wav
475,192,252437,128,4,252515:0:0:0:0:
402,192,252437,128,2,252515:0:0:0:0:
256,192,252437,128,2,252515:0:0:0:0:
36,192,252437,128,0,252515:0:0:0:50:big kick.wav
182,192,252515,1,0,0:0:0:0:
402,192,252594,1,0,0:0:0:50:big kick.wav
256,192,252594,1,2,0:0:0:0:
475,192,252594,1,0,0:0:0:0:
109,192,252594,1,2,0:0:0:0:
329,192,252672,1,0,0:0:0:50:big kick.wav
182,192,252672,1,2,0:0:0:0:
36,192,252751,128,0,252829:0:0:0:50:big kick.wav
109,192,252751,128,2,252829:0:0:0:0:
256,192,252751,128,2,252829:0:0:0:0:
475,192,252751,128,4,252829:0:0:0:0:
329,192,252829,1,0,0:0:0:0:
182,192,252908,1,0,0:0:0:50:big kick.wav
109,192,252908,1,2,0:0:0:0:
36,192,252908,1,0,0:0:0:0:
402,192,252908,1,2,0:0:0:0:
256,192,252986,1,2,0:0:0:0:
475,192,252986,1,0,0:0:0:50:big kick.wav
36,192,253065,128,0,253143:0:0:0:50:big kick.wav
109,192,253065,128,2,253143:0:0:0:0:
182,192,253065,128,4,253143:0:0:0:0:
329,192,253065,128,2,253143:0:0:0:0:
475,192,253143,1,0,0:0:0:0:
109,192,253222,1,0,0:0:0:50:big kick.wav
182,192,253222,1,2,0:0:0:0:
256,192,253222,1,2,0:0:0:0:
402,192,253222,1,0,0:0:0:0:
329,192,253301,1,2,0:0:0:0:
36,192,253301,1,0,0:0:0:50:big kick.wav
109,192,253379,128,0,253458:0:0:0:50:big kick.wav
182,192,253379,128,2,253458:0:0:0:0:
256,192,253379,128,4,253458:0:0:0:0:
402,192,253379,128,2,253458:0:0:0:0:
36,192,253458,1,0,0:0:0:0:
182,192,253536,1,0,0:0:0:50:big kick.wav
256,192,253536,1,2,0:0:0:0:
329,192,253536,1,2,0:0:0:0:
475,192,253536,1,0,0:0:0:0:
402,192,253615,1,2,0:0:0:0:
109,192,253615,1,0,0:0:0:50:big kick.wav
182,192,253693,128,0,253772:0:0:0:50:big kick.wav
256,192,253693,128,2,253772:0:0:0:0:
329,192,253693,128,4,253772:0:0:0:0:
475,192,253693,128,2,253772:0:0:0:0:
36,192,253772,1,0,0:0:0:0:
256,192,253850,1,0,0:0:0:0:
182,192,253850,1,2,0:0:0:0:
402,192,253850,1,0,0:0:0:50:big kick.wav
109,192,253850,1,2,0:0:0:0:
36,192,253929,1,2,0:0:0:0:
329,192,253929,1,0,0:0:0:50:big kick.wav
256,192,254007,128,2,254086:0:0:0:0:
182,192,254007,128,2,254086:0:0:0:0:
402,192,254007,128,4,254086:0:0:0:0:
109,192,254007,128,0,254086:0:0:0:50:big kick.wav
475,192,254086,1,0,0:0:0:0:
256,192,254164,1,0,0:0:0:0:
109,192,254164,1,2,0:0:0:0:
36,192,254164,1,2,0:0:0:0:
329,192,254164,1,0,0:0:0:50:big kick.wav
182,192,254243,1,2,0:0:0:0:
402,192,254243,1,0,0:0:0:50:big kick.wav
36,192,254321,128,2,254400:0:0:0:0:
109,192,254321,128,0,254400:0:0:0:50:big kick.wav
256,192,254321,128,2,254400:0:0:0:0:
329,192,254321,128,4,254400:0:0:0:0:
475,192,254400,1,0,0:0:0:0:
109,192,254479,1,2,0:0:0:0:
182,192,254479,1,2,0:0:0:0:
329,192,254479,1,0,0:0:0:0:
402,192,254479,1,0,0:0:0:50:big kick.wav
256,192,254557,1,2,0:0:0:0:
475,192,254557,1,0,0:0:0:50:big kick.wav
109,192,254636,128,2,254714:0:0:0:0:
182,192,254636,128,0,254714:0:0:0:50:big kick.wav
329,192,254636,128,2,254714:0:0:0:0:
402,192,254636,128,4,254714:0:0:0:0:
36,192,254714,1,0,0:0:0:0:
475,192,254793,1,0,0:0:0:0:
402,192,254793,1,0,0:0:0:50:big kick.wav
256,192,254793,1,2,0:0:0:0:
182,192,254793,1,2,0:0:0:0:
329,192,254871,1,2,0:0:0:0:
109,192,254871,1,0,0:0:0:50:big kick.wav
182,192,254950,128,2,255028:0:0:0:0:
256,192,254950,128,0,255028:0:0:0:50:big kick.wav
402,192,254950,128,2,255028:0:0:0:0:
475,192,254950,128,4,255028:0:0:0:0:
36,192,255028,1,0,0:0:0:0:
109,192,255107,1,2,0:0:0:0:
182,192,255107,1,2,0:0:0:0:
329,192,255107,1,0,0:0:0:50:big kick.wav
402,192,255107,1,0,0:0:0:0:
256,192,255185,1,2,0:0:0:0:
36,192,255185,1,0,0:0:0:50:big kick.wav
109,192,255264,128,2,255342:0:0:0:0:
182,192,255264,128,0,255342:0:0:0:50:big kick.wav
329,192,255264,128,2,255342:0:0:0:0:
402,192,255264,128,4,255342:0:0:0:0:
475,192,255342,1,0,0:0:0:0:
36,192,255421,1,0,0:0:0:0:
109,192,255421,1,2,0:0:0:0:
182,192,255421,1,0,0:0:0:50:big kick.wav
256,192,255421,1,2,0:0:0:0:
329,192,255499,1,2,0:0:0:0:
475,192,255499,1,0,0:0:0:50:big kick.wav
36,192,255578,128,0,255657:0:0:0:50:big kick.wav
109,192,255578,128,2,255657:0:0:0:0:
182,192,255578,128,4,255657:0:0:0:0:
256,192,255578,128,2,255657:0:0:0:0:
402,192,255657,1,0,0:0:0:0:
109,192,255735,1,2,0:0:0:0:
182,192,255735,1,0,0:0:0:0:
36,192,255735,1,2,0:0:0:0:
329,192,255735,1,0,0:0:0:50:big kick.wav
402,192,255814,1,0,0:0:0:50:big kick.wav
475,192,255814,1,2,0:0:0:0:
182,192,255892,128,2,255971:0:0:0:0:
256,192,255892,128,4,255971:0:0:0:0:
329,192,255892,128,0,255971:0:0:0:50:big kick.wav
109,192,255892,128,2,255971:0:0:0:0:
475,192,255971,1,0,0:0:0:0:
109,192,256049,1,2,0:0:0:0:
182,192,256049,1,0,0:0:0:0:
256,192,256049,1,2,0:0:0:0:
402,192,256049,1,0,0:0:0:50:big kick.wav
475,192,256128,1,0,0:0:0:50:big kick.wav
36,192,256128,1,2,0:0:0:0:
402,192,256206,128,2,256285:0:0:0:0:
182,192,256206,128,4,256285:0:0:0:0:
256,192,256206,128,2,256285:0:0:0:0:
329,192,256206,128,0,256285:0:0:0:50:big kick.wav
109,192,256285,1,0,0:0:0:50:big kick.wav
36,192,256285,1,0,0:0:0:0:
402,192,256363,1,2,0:0:0:0:
475,192,256363,1,0,0:0:0:0:
329,192,256363,1,0,0:0:0:50:big kick.wav
256,192,256363,1,2,0:0:0:0:
36,192,256442,1,2,0:0:0:0:
109,192,256442,1,2,0:0:0:0:
182,192,256442,1,0,0:0:0:50:big kick.wav
475,192,256520,128,2,256599:0:0:0:0:
256,192,256520,128,0,256599:0:0:0:50:big kick.wav
329,192,256520,128,4,256599:0:0:0:0:
402,192,256520,128,2,256599:0:0:0:0:
182,192,256599,1,2,0:0:0:0:
109,192,256599,1,2,0:0:0:0:
36,192,256599,1,0,0:0:0:50:big kick.wav
402,192,256678,1,2,0:0:0:0:
329,192,256678,1,0,0:0:0:50:big kick.wav
256,192,256678,1,0,0:0:0:0:
475,192,256678,1,2,0:0:0:0:
36,192,256756,1,2,0:0:0:0:
109,192,256756,1,2,0:0:0:0:
182,192,256756,1,0,0:0:0:50:big kick.wav
36,192,256835,1,0,0:0:0:50:big kick.wav
182,192,256835,1,0,0:0:0:0:
329,192,256835,1,0,0:0:0:0:
475,192,256835,1,0,0:0:0:0:
36,192,256992,1,0,0:0:0:50:big kick.wav
182,192,256992,1,0,0:0:0:0:
329,192,256992,1,0,0:0:0:0:
475,192,256992,1,0,0:0:0:0:
182,192,257149,1,0,0:0:0:0:
36,192,257149,1,0,0:0:0:50:big kick.wav
329,192,257149,1,0,0:0:0:0:
475,192,257149,1,0,0:0:0:0:
475,192,257306,1,0,0:0:0:0:
329,192,257306,1,0,0:0:0:0:
182,192,257306,1,0,0:0:0:0:
36,192,257306,1,0,0:0:0:50:big kick.wav
475,192,257463,1,0,0:0:0:0:
182,192,257463,1,0,0:0:0:0:
36,192,257463,1,0,0:0:0:50:big kick.wav
329,192,257463,1,0,0:0:0:0:
36,192,257620,1,0,0:0:0:50:big kick.wav
475,192,257620,1,0,0:0:0:0:
182,192,257620,1,0,0:0:0:0:
329,192,257620,1,0,0:0:0:0:
36,192,257777,1,0,0:0:0:50:big kick.wav
475,192,257777,1,0,0:0:0:0:
329,192,257777,1,0,0:0:0:0:
182,192,257777,1,0,0:0:0:0:
182,192,257934,1,0,0:0:0:0:
475,192,257934,1,0,0:0:0:0:
36,192,257934,1,0,0:0:0:50:big kick.wav
329,192,257934,1,0,0:0:0:0:
36,192,258091,1,0,0:0:0:50:big kick.wav
329,192,258091,1,0,0:0:0:0:
475,192,258091,1,0,0:0:0:0:
182,192,258091,1,0,0:0:0:0:
182,192,258248,1,0,0:0:0:0:
329,192,258248,1,0,0:0:0:0:
36,192,258248,1,0,0:0:0:50:big kick.wav
475,192,258248,1,0,0:0:0:0:
329,192,258405,1,0,0:0:0:0:
182,192,258405,1,0,0:0:0:0:
36,192,258405,1,0,0:0:0:50:big kick.wav
475,192,258405,1,0,0:0:0:0:
36,192,258562,1,0,0:0:0:50:big kick.wav
329,192,258562,1,0,0:0:0:0:
182,192,258562,1,0,0:0:0:0:
475,192,258562,1,0,0:0:0:0:
475,192,258719,1,0,0:0:0:0:
182,192,258719,1,0,0:0:0:0:
36,192,258719,1,0,0:0:0:50:big kick.wav
329,192,258719,1,0,0:0:0:0:
36,192,258876,1,0,0:0:0:50:big kick.wav
475,192,258876,1,0,0:0:0:0:
182,192,258876,1,0,0:0:0:0:
329,192,258876,1,0,0:0:0:0:
36,192,259034,1,0,0:0:0:50:big kick.wav
475,192,259034,1,0,0:0:0:0:
329,192,259034,1,0,0:0:0:0:
182,192,259034,1,0,0:0:0:0:
182,192,259191,1,0,0:0:0:0:
475,192,259191,1,0,0:0:0:0:
36,192,259191,1,0,0:0:0:50:big kick.wav
329,192,259191,1,0,0:0:0:0:
36,192,259348,1,0,0:0:0:50:big kick.wav
329,192,259348,1,0,0:0:0:0:
475,192,259348,1,0,0:0:0:0:
182,192,259348,1,0,0:0:0:0:
182,192,259505,1,0,0:0:0:0:
329,192,259505,1,0,0:0:0:0:
36,192,259505,1,0,0:0:0:50:big kick.wav
475,192,259505,1,0,0:0:0:0:
329,192,259662,1,0,0:0:0:0:
182,192,259662,1,0,0:0:0:0:
36,192,259662,1,0,0:0:0:50:big kick.wav
475,192,259662,1,0,0:0:0:0:
36,192,259819,1,0,0:0:0:50:big kick.wav
329,192,259819,1,0,0:0:0:0:
182,192,259819,1,0,0:0:0:0:
475,192,259819,1,0,0:0:0:0:
475,192,259976,1,0,0:0:0:0:
182,192,259976,1,0,0:0:0:0:
36,192,259976,1,0,0:0:0:50:big kick.wav
329,192,259976,1,0,0:0:0:0:
36,192,260133,1,0,0:0:0:50:big kick.wav
475,192,260133,1,0,0:0:0:0:
182,192,260133,1,0,0:0:0:0:
329,192,260133,1,0,0:0:0:0:
36,192,260290,1,0,0:0:0:50:big kick.wav
475,192,260290,1,0,0:0:0:0:
329,192,260290,1,0,0:0:0:0:
182,192,260290,1,0,0:0:0:0:
182,192,260447,1,0,0:0:0:0:
475,192,260447,1,0,0:0:0:0:
36,192,260447,1,0,0:0:0:50:big kick.wav
329,192,260447,1,0,0:0:0:0:
36,192,260604,1,0,0:0:0:50:big kick.wav
329,192,260604,1,0,0:0:0:0:
475,192,260604,1,0,0:0:0:0:
182,192,260604,1,0,0:0:0:0:
182,192,260761,1,0,0:0:0:0:
329,192,260761,1,0,0:0:0:0:
36,192,260761,1,0,0:0:0:50:big kick.wav
475,192,260761,1,0,0:0:0:0:
329,192,260918,1,0,0:0:0:0:
182,192,260918,1,0,0:0:0:0:
36,192,260918,1,0,0:0:0:50:big kick.wav
475,192,260918,1,0,0:0:0:0:
36,192,261075,1,0,0:0:0:50:big kick.wav
329,192,261075,1,0,0:0:0:0:
182,192,261075,1,0,0:0:0:0:
475,192,261075,1,0,0:0:0:0:
475,192,261232,1,0,0:0:0:0:
182,192,261232,1,0,0:0:0:0:
36,192,261232,1,0,0:0:0:50:big kick.wav
329,192,261232,1,0,0:0:0:0:
36,192,261390,1,0,0:0:0:50:big kick.wav
475,192,261390,1,0,0:0:0:0:
182,192,261390,1,0,0:0:0:0:
329,192,261390,1,0,0:0:0:0:
36,192,261547,1,0,0:0:0:50:big kick.wav
475,192,261547,1,0,0:0:0:0:
329,192,261547,1,0,0:0:0:0:
182,192,261547,1,0,0:0:0:0:
182,192,261704,1,0,0:0:0:0:
475,192,261704,1,0,0:0:0:0:
36,192,261704,1,0,0:0:0:50:big kick.wav
329,192,261704,1,0,0:0:0:0:
36,192,261861,1,0,0:0:0:50:big kick.wav
329,192,261861,1,0,0:0:0:0:
475,192,261861,1,0,0:0:0:0:
182,192,261861,1,0,0:0:0:0:
182,192,262018,1,0,0:0:0:0:
329,192,262018,1,0,0:0:0:0:
36,192,262018,1,0,0:0:0:50:big kick.wav
475,192,262018,1,0,0:0:0:0:
329,192,262175,1,0,0:0:0:0:
182,192,262175,1,0,0:0:0:0:
36,192,262175,1,0,0:0:0:50:big kick.wav
475,192,262175,1,0,0:0:0:0:
36,192,262332,1,0,0:0:0:50:big kick.wav
329,192,262332,1,0,0:0:0:0:
182,192,262332,1,0,0:0:0:0:
475,192,262332,1,0,0:0:0:0:
475,192,262489,1,0,0:0:0:0:
182,192,262489,1,0,0:0:0:0:
36,192,262489,1,0,0:0:0:50:big kick.wav
329,192,262489,1,0,0:0:0:0:
36,192,262646,1,0,0:0:0:50:big kick.wav
475,192,262646,1,0,0:0:0:0:
182,192,262646,1,0,0:0:0:0:
329,192,262646,1,0,0:0:0:0:
36,192,262803,1,0,0:0:0:50:big kick.wav
475,192,262803,1,0,0:0:0:0:
329,192,262803,1,0,0:0:0:0:
182,192,262803,1,0,0:0:0:0:
182,192,262960,1,0,0:0:0:0:
475,192,262960,1,0,0:0:0:0:
36,192,262960,1,0,0:0:0:50:big kick.wav
329,192,262960,1,0,0:0:0:0:
36,192,263117,1,0,0:0:0:50:big kick.wav
329,192,263117,1,0,0:0:0:0:
475,192,263117,1,0,0:0:0:0:
182,192,263117,1,0,0:0:0:0:
182,192,263274,1,0,0:0:0:0:
329,192,263274,1,0,0:0:0:0:
36,192,263274,1,0,0:0:0:50:big kick.wav
475,192,263274,1,0,0:0:0:0:
329,192,263431,1,0,0:0:0:0:
182,192,263431,1,0,0:0:0:0:
36,192,263431,1,0,0:0:0:50:big kick.wav
475,192,263431,1,0,0:0:0:0:
36,192,263589,1,0,0:0:0:50:big kick.wav
329,192,263589,1,0,0:0:0:0:
182,192,263589,1,0,0:0:0:0:
475,192,263589,1,0,0:0:0:0:
475,192,263746,1,0,0:0:0:0:
182,192,263746,1,0,0:0:0:0:
36,192,263746,1,0,0:0:0:50:big kick.wav
329,192,263746,1,0,0:0:0:0:
36,192,263903,1,0,0:0:0:50:big kick.wav
475,192,263903,1,0,0:0:0:0:
182,192,263903,1,0,0:0:0:0:
329,192,263903,1,0,0:0:0:0:
36,192,264060,1,0,0:0:0:50:big kick.wav
475,192,264060,1,0,0:0:0:0:
329,192,264060,1,0,0:0:0:0:
182,192,264060,1,0,0:0:0:0:
182,192,264217,1,0,0:0:0:0:
475,192,264217,1,0,0:0:0:0:
36,192,264217,1,0,0:0:0:50:big kick.wav
329,192,264217,1,0,0:0:0:0:
36,192,264374,1,0,0:0:0:50:big kick.wav
329,192,264374,1,0,0:0:0:0:
475,192,264374,1,0,0:0:0:0:
182,192,264374,1,0,0:0:0:0:
182,192,264531,1,0,0:0:0:0:
329,192,264531,1,0,0:0:0:0:
36,192,264531,1,0,0:0:0:50:big kick.wav
475,192,264531,1,0,0:0:0:0:
329,192,264688,1,0,0:0:0:0:
182,192,264688,1,0,0:0:0:0:
36,192,264688,1,0,0:0:0:50:big kick.wav
475,192,264688,1,0,0:0:0:0:
36,192,264845,1,0,0:0:0:50:big kick.wav
329,192,264845,1,0,0:0:0:0:
182,192,264845,1,0,0:0:0:0:
475,192,264845,1,0,0:0:0:0:
475,192,265002,1,0,0:0:0:0:
182,192,265002,1,0,0:0:0:0:
36,192,265002,1,0,0:0:0:50:big kick.wav
329,192,265002,1,0,0:0:0:0:
36,192,265159,1,0,0:0:0:50:big kick.wav
475,192,265159,1,0,0:0:0:0:
182,192,265159,1,0,0:0:0:0:
329,192,265159,1,0,0:0:0:0:
36,192,265316,1,0,0:0:0:50:big kick.wav
475,192,265316,1,0,0:0:0:0:
329,192,265316,1,0,0:0:0:0:
182,192,265316,1,0,0:0:0:0:
182,192,265473,1,0,0:0:0:0:
475,192,265473,1,0,0:0:0:0:
36,192,265473,1,0,0:0:0:50:big kick.wav
329,192,265473,1,0,0:0:0:0:
36,192,265630,1,0,0:0:0:50:big kick.wav
329,192,265630,1,0,0:0:0:0:
475,192,265630,1,0,0:0:0:0:
182,192,265630,1,0,0:0:0:0:
182,192,265787,1,0,0:0:0:0:
329,192,265787,1,0,0:0:0:0:
36,192,265787,1,0,0:0:0:50:big kick.wav
475,192,265787,1,0,0:0:0:0:
329,192,265945,1,0,0:0:0:0:
182,192,265945,1,0,0:0:0:0:
36,192,265945,1,0,0:0:0:50:big kick.wav
475,192,265945,1,0,0:0:0:0:
36,192,266102,1,0,0:0:0:50:big kick.wav
329,192,266102,1,0,0:0:0:0:
182,192,266102,1,0,0:0:0:0:
475,192,266102,1,0,0:0:0:0:
475,192,266259,1,0,0:0:0:0:
182,192,266259,1,0,0:0:0:0:
36,192,266259,1,0,0:0:0:50:big kick.wav
329,192,266259,1,0,0:0:0:0:
36,192,266416,1,0,0:0:0:50:big kick.wav
475,192,266416,1,0,0:0:0:0:
182,192,266416,1,0,0:0:0:0:
329,192,266416,1,0,0:0:0:0:
36,192,266573,1,0,0:0:0:50:big kick.wav
475,192,266573,1,0,0:0:0:0:
329,192,266573,1,0,0:0:0:0:
182,192,266573,1,0,0:0:0:0:
182,192,266730,1,0,0:0:0:0:
475,192,266730,1,0,0:0:0:0:
36,192,266730,1,0,0:0:0:50:big kick.wav
329,192,266730,1,0,0:0:0:0:
36,192,266887,5,0,0:0:0:50:big kick.wav
182,192,266887,1,0,0:0:0:0:
329,192,266887,1,0,0:0:0:0:
475,192,266887,1,0,0:0:0:0:
475,192,266992,1,0,0:0:0:0:
329,192,266992,1,0,0:0:0:0:
182,192,266992,1,0,0:0:0:0:
36,192,266992,1,0,0:0:0:50:big kick.wav
36,192,267096,1,0,0:0:0:50:big kick.wav
182,192,267096,1,0,0:0:0:0:
329,192,267096,1,0,0:0:0:0:
475,192,267096,1,0,0:0:0:0:
36,192,267201,1,0,0:0:0:50:big kick.wav
182,192,267201,1,0,0:0:0:0:
329,192,267201,1,0,0:0:0:0:
475,192,267201,1,0,0:0:0:0:
475,192,267306,1,0,0:0:0:0:
329,192,267306,1,0,0:0:0:0:
182,192,267306,1,0,0:0:0:0:
36,192,267306,1,0,0:0:0:50:big kick.wav
475,192,267410,1,0,0:0:0:0:
182,192,267410,1,0,0:0:0:0:
36,192,267410,1,0,0:0:0:50:big kick.wav
329,192,267410,1,0,0:0:0:0:
36,192,267515,1,0,0:0:0:50:big kick.wav
329,192,267515,1,0,0:0:0:0:
182,192,267515,1,0,0:0:0:0:
475,192,267515,1,0,0:0:0:0:
36,192,267620,1,0,0:0:0:50:big kick.wav
182,192,267620,1,0,0:0:0:0:
475,192,267620,1,0,0:0:0:0:
329,192,267620,1,0,0:0:0:0:
475,192,267725,1,0,0:0:0:0:
329,192,267725,1,0,0:0:0:0:
36,192,267725,1,0,0:0:0:50:big kick.wav
182,192,267725,1,0,0:0:0:0:
329,192,267829,1,0,0:0:0:0:
36,192,267829,1,0,0:0:0:50:big kick.wav
475,192,267829,1,0,0:0:0:0:
182,192,267829,1,0,0:0:0:0:
36,192,267934,1,0,0:0:0:50:big kick.wav
329,192,267934,1,0,0:0:0:0:
182,192,267934,1,0,0:0:0:0:
475,192,267934,1,0,0:0:0:0:
182,192,268039,1,0,0:0:0:0:
475,192,268039,1,0,0:0:0:0:
329,192,268039,1,0,0:0:0:0:
36,192,268039,1,0,0:0:0:50:big kick.wav
475,192,268143,1,0,0:0:0:0:
329,192,268143,1,0,0:0:0:0:
182,192,268143,1,0,0:0:0:0:
36,192,268143,1,0,0:0:0:50:big kick.wav
36,192,268248,1,0,0:0:0:50:big kick.wav
182,192,268248,1,0,0:0:0:0:
329,192,268248,1,0,0:0:0:0:
475,192,268248,1,0,0:0:0:0:
182,192,268353,1,0,0:0:0:0:
475,192,268353,1,0,0:0:0:0:
329,192,268353,1,0,0:0:0:0:
36,192,268353,1,0,0:0:0:50:big kick.wav
475,192,268458,1,0,0:0:0:0:
182,192,268458,1,0,0:0:0:0:
36,192,268458,1,0,0:0:0:50:big kick.wav
329,192,268458,1,0,0:0:0:0:
36,192,268562,1,0,0:0:0:50:big kick.wav
329,192,268562,1,0,0:0:0:0:
182,192,268562,1,0,0:0:0:0:
475,192,268562,1,0,0:0:0:0:
36,192,268667,1,0,0:0:0:50:big kick.wav
182,192,268667,1,0,0:0:0:0:
475,192,268667,1,0,0:0:0:0:
329,192,268667,1,0,0:0:0:0:
475,192,268772,1,0,0:0:0:0:
329,192,268772,1,0,0:0:0:0:
36,192,268772,1,0,0:0:0:50:big kick.wav
182,192,268772,1,0,0:0:0:0:
329,192,268876,1,0,0:0:0:0:
36,192,268876,1,0,0:0:0:50:big kick.wav
475,192,268876,1,0,0:0:0:0:
182,192,268876,1,0,0:0:0:0:
36,192,268981,1,0,0:0:0:50:big kick.wav
329,192,268981,1,0,0:0:0:0:
182,192,268981,1,0,0:0:0:0:
475,192,268981,1,0,0:0:0:0:
182,192,269086,1,0,0:0:0:0:
475,192,269086,1,0,0:0:0:0:
329,192,269086,1,0,0:0:0:0:
36,192,269086,1,0,0:0:0:50:big kick.wav
475,192,269191,1,0,0:0:0:0:
329,192,269191,1,0,0:0:0:0:
182,192,269191,1,0,0:0:0:0:
36,192,269191,1,0,0:0:0:50:big kick.wav
36,192,269295,1,0,0:0:0:50:big kick.wav
182,192,269295,1,0,0:0:0:0:
329,192,269295,1,0,0:0:0:0:
475,192,269295,1,0,0:0:0:0:
182,192,269400,1,0,0:0:0:0:
475,192,269400,1,0,0:0:0:0:
329,192,269400,1,0,0:0:0:0:
36,192,269400,1,0,0:0:0:50:big kick.wav
475,192,269505,1,0,0:0:0:0:
182,192,269505,1,0,0:0:0:0:
36,192,269505,1,0,0:0:0:50:big kick.wav
329,192,269505,1,0,0:0:0:0:
36,192,269609,1,0,0:0:0:50:big kick.wav
329,192,269609,1,0,0:0:0:0:
182,192,269609,1,0,0:0:0:0:
475,192,269609,1,0,0:0:0:0:
36,192,269714,1,0,0:0:0:50:big kick.wav
182,192,269714,1,0,0:0:0:0:
475,192,269714,1,0,0:0:0:0:
329,192,269714,1,0,0:0:0:0:
475,192,269819,1,0,0:0:0:0:
329,192,269819,1,0,0:0:0:0:
36,192,269819,1,0,0:0:0:50:big kick.wav
182,192,269819,1,0,0:0:0:0:
329,192,269924,1,0,0:0:0:0:
36,192,269924,1,0,0:0:0:50:big kick.wav
475,192,269924,1,0,0:0:0:0:
182,192,269924,1,0,0:0:0:0:
36,192,270028,1,0,0:0:0:50:big kick.wav
329,192,270028,1,0,0:0:0:0:
182,192,270028,1,0,0:0:0:0:
475,192,270028,1,0,0:0:0:0:
182,192,270133,1,0,0:0:0:0:
475,192,270133,1,0,0:0:0:0:
329,192,270133,1,0,0:0:0:0:
36,192,270133,1,0,0:0:0:50:big kick.wav
475,192,270238,1,0,0:0:0:0:
329,192,270238,1,0,0:0:0:0:
182,192,270238,1,0,0:0:0:0:
36,192,270238,1,0,0:0:0:50:big kick.wav
36,192,270342,1,0,0:0:0:50:big kick.wav
182,192,270342,1,0,0:0:0:0:
329,192,270342,1,0,0:0:0:0:
475,192,270342,1,0,0:0:0:0:
182,192,270447,1,0,0:0:0:0:
475,192,270447,1,0,0:0:0:0:
329,192,270447,1,0,0:0:0:0:
36,192,270447,1,0,0:0:0:50:big kick.wav
475,192,270552,1,0,0:0:0:0:
182,192,270552,1,0,0:0:0:0:
36,192,270552,1,0,0:0:0:50:big kick.wav
329,192,270552,1,0,0:0:0:0:
36,192,270657,1,0,0:0:0:50:big kick.wav
329,192,270657,1,0,0:0:0:0:
182,192,270657,1,0,0:0:0:0:
475,192,270657,1,0,0:0:0:0:
36,192,270761,1,0,0:0:0:50:big kick.wav
182,192,270761,1,0,0:0:0:0:
475,192,270761,1,0,0:0:0:0:
329,192,270761,1,0,0:0:0:0:
475,192,270866,1,0,0:0:0:0:
329,192,270866,1,0,0:0:0:0:
36,192,270866,1,0,0:0:0:50:big kick.wav
182,192,270866,1,0,0:0:0:0:
329,192,270971,1,0,0:0:0:0:
36,192,270971,1,0,0:0:0:50:big kick.wav
475,192,270971,1,0,0:0:0:0:
182,192,270971,1,0,0:0:0:0:
36,192,271075,1,0,0:0:0:50:big kick.wav
329,192,271075,1,0,0:0:0:0:
182,192,271075,1,0,0:0:0:0:
475,192,271075,1,0,0:0:0:0:
182,192,271180,1,0,0:0:0:0:
475,192,271180,1,0,0:0:0:0:
329,192,271180,1,0,0:0:0:0:
36,192,271180,1,0,0:0:0:50:big kick.wav
475,192,271285,1,0,0:0:0:0:
329,192,271285,1,0,0:0:0:0:
182,192,271285,1,0,0:0:0:0:
36,192,271285,1,0,0:0:0:50:big kick.wav
36,192,271390,1,0,0:0:0:50:big kick.wav
182,192,271390,1,0,0:0:0:0:
329,192,271390,1,0,0:0:0:0:
475,192,271390,1,0,0:0:0:0:
182,192,271494,1,0,0:0:0:0:
475,192,271494,1,0,0:0:0:0:
329,192,271494,1,0,0:0:0:0:
36,192,271494,1,0,0:0:0:50:big kick.wav
402,192,271599,1,0,0:0:0:0:
36,192,271599,1,0,0:0:0:50:big kick.wav
256,192,271599,1,0,0:0:0:0:
109,192,271599,1,0,0:0:0:0:
329,192,271704,1,0,0:0:0:0:
182,192,271704,1,0,0:0:0:0:
475,192,271704,1,0,0:0:0:0:
36,192,271704,1,0,0:0:0:50:big kick.wav
475,192,271808,1,0,0:0:0:0:
402,192,271808,1,0,0:0:0:0:
256,192,271808,1,0,0:0:0:0:
109,192,271808,1,0,0:0:0:50:big kick.wav
182,192,271913,1,0,0:0:0:50:small kick.wav
36,192,271913,1,0,0:0:0:50:small kick.wav
402,192,271952,1,0,0:0:0:50:small kick.wav
329,192,271992,1,0,0:0:0:50:small kick.wav
256,192,272031,1,0,0:0:0:50:small kick.wav
109,192,272070,1,0,0:0:0:50:small kick.wav
475,192,272070,1,0,0:0:0:50:small kick.wav
402,192,272109,1,0,0:0:0:50:small kick.wav
329,192,272149,1,0,0:0:0:50:small kick.wav
182,192,272188,1,0,0:0:0:50:small kick.wav
36,192,272227,1,0,0:0:0:50:small kick.wav
109,192,272227,1,0,0:0:0:50:small kick.wav
256,192,272267,1,0,0:0:0:50:small kick.wav
402,192,272306,1,0,0:0:0:50:small kick.wav
475,192,272345,1,0,0:0:0:50:small kick.wav
329,192,272384,1,0,0:0:0:50:small kick.wav
182,192,272384,1,0,0:0:0:50:small kick.wav
109,192,272424,1,0,0:0:0:50:small kick.wav
36,192,272463,1,0,0:0:0:50:small kick.wav
256,192,272502,1,0,0:0:0:50:small kick.wav
475,192,272541,1,0,0:0:0:50:small kick.wav
329,192,272541,1,0,0:0:0:50:small kick.wav
109,192,272581,1,0,0:0:0:50:small kick.wav
182,192,272620,1,0,0:0:0:50:small kick.wav
256,192,272659,1,0,0:0:0:50:small kick.wav
402,192,272698,1,0,0:0:0:50:small kick.wav
36,192,272698,1,0,0:0:0:50:small kick.wav
109,192,272738,1,0,0:0:0:50:small kick.wav
182,192,272777,1,0,0:0:0:50:small kick.wav
329,192,272816,1,0,0:0:0:50:small kick.wav
475,192,272856,1,0,0:0:0:50:small kick.wav
402,192,272856,1,0,0:0:0:50:small kick.wav
256,192,272895,1,0,0:0:0:50:small kick.wav
109,192,272934,1,0,0:0:0:50:small kick.wav
36,192,272973,1,0,0:0:0:50:small kick.wav
182,192,273013,1,0,0:0:0:50:small kick.wav
329,192,273013,1,0,0:0:0:50:small kick.wav
402,192,273052,1,0,0:0:0:50:small kick.wav
475,192,273091,1,0,0:0:0:50:small kick.wav
256,192,273130,1,0,0:0:0:50:small kick.wav
182,192,273170,1,0,0:0:0:50:small kick.wav
36,192,273170,1,0,0:0:0:50:small kick.wav
402,192,273209,1,0,0:0:0:50:small kick.wav
329,192,273248,1,0,0:0:0:50:small kick.wav
256,192,273287,1,0,0:0:0:50:small kick.wav
109,192,273327,1,0,0:0:0:50:small kick.wav
475,192,273327,1,0,0:0:0:50:small kick.wav
402,192,273366,1,0,0:0:0:50:small kick.wav
329,192,273405,1,0,0:0:0:50:small kick.wav
182,192,273445,1,0,0:0:0:50:small kick.wav
36,192,273484,1,0,0:0:0:50:small kick.wav
109,192,273484,1,0,0:0:0:50:small kick.wav
256,192,273523,1,0,0:0:0:50:small kick.wav
402,192,273562,1,0,0:0:0:50:small kick.wav
475,192,273602,1,0,0:0:0:50:small kick.wav
329,192,273641,1,0,0:0:0:50:small kick.wav
182,192,273641,1,0,0:0:0:50:small kick.wav
109,192,273680,1,0,0:0:0:50:small kick.wav
36,192,273719,1,0,0:0:0:50:small kick.wav
256,192,273759,1,0,0:0:0:50:small kick.wav
475,192,273798,1,0,0:0:0:50:small kick.wav
329,192,273798,1,0,0:0:0:50:small kick.wav
109,192,273837,1,0,0:0:0:50:small kick.wav
182,192,273876,1,0,0:0:0:50:small kick.wav
256,192,273916,1,0,0:0:0:50:small kick.wav
402,192,273955,1,0,0:0:0:50:small kick.wav
36,192,273955,1,0,0:0:0:50:small kick.wav
109,192,273994,1,0,0:0:0:50:small kick.wav
182,192,274034,1,0,0:0:0:50:small kick.wav
329,192,274073,1,0,0:0:0:50:small kick.wav
475,192,274112,1,0,0:0:0:50:small kick.wav
402,192,274112,1,0,0:0:0:50:small kick.wav
256,192,274151,1,0,0:0:0:50:small kick.wav
109,192,274191,1,0,0:0:0:50:small kick.wav
36,192,274230,1,0,0:0:0:50:small kick.wav
182,192,274269,1,0,0:0:0:50:small kick.wav
329,192,274269,1,0,0:0:0:50:small kick.wav
402,192,274308,1,0,0:0:0:50:small kick.wav
475,192,274348,1,0,0:0:0:50:small kick.wav
256,192,274387,1,0,0:0:0:50:small kick.wav
36,192,274426,1,0,0:0:0:50:small kick.wav
182,192,274426,1,0,0:0:0:50:small kick.wav
402,192,274465,1,0,0:0:0:50:small kick.wav
329,192,274505,1,0,0:0:0:50:small kick.wav
256,192,274544,1,0,0:0:0:50:small kick.wav
475,192,274583,1,0,0:0:0:50:small kick.wav
109,192,274583,1,0,0:0:0:50:small kick.wav
402,192,274623,1,0,0:0:0:50:small kick.wav
329,192,274662,1,0,0:0:0:50:small kick.wav
182,192,274701,1,0,0:0:0:50:small kick.wav
109,192,274740,1,0,0:0:0:50:small kick.wav
36,192,274740,1,0,0:0:0:50:small kick.wav
256,192,274780,1,0,0:0:0:50:small kick.wav
402,192,274819,1,0,0:0:0:50:small kick.wav
475,192,274858,1,0,0:0:0:50:small kick.wav
182,192,274897,1,0,0:0:0:50:small kick.wav
329,192,274897,1,0,0:0:0:50:small kick.wav
109,192,274937,1,0,0:0:0:50:small kick.wav
36,192,274976,1,0,0:0:0:50:small kick.wav
256,192,275015,1,0,0:0:0:50:small kick.wav
329,192,275054,1,0,0:0:0:50:small kick.wav
475,192,275054,1,0,0:0:0:50:small kick.wav
109,192,275094,1,0,0:0:0:50:small kick.wav
182,192,275133,1,0,0:0:0:50:small kick.wav
256,192,275172,1,0,0:0:0:50:small kick.wav
36,192,275212,1,0,0:0:0:50:small kick.wav
402,192,275212,1,0,0:0:0:50:small kick.wav
109,192,275251,1,0,0:0:0:50:small kick.wav
182,192,275290,1,0,0:0:0:50:small kick.wav
329,192,275329,1,0,0:0:0:50:small kick.wav
402,192,275369,1,0,0:0:0:50:small kick.wav
475,192,275369,1,0,0:0:0:50:small kick.wav
256,192,275408,1,0,0:0:0:50:small kick.wav
109,192,275447,1,0,0:0:0:50:small kick.wav
36,192,275486,1,0,0:0:0:50:small kick.wav
329,192,275526,1,0,0:0:0:50:small kick.wav
182,192,275526,1,0,0:0:0:50:small kick.wav
402,192,275565,1,0,0:0:0:50:small kick.wav
475,192,275604,1,0,0:0:0:50:small kick.wav
256,192,275643,1,0,0:0:0:50:small kick.wav
182,192,275683,1,0,0:0:0:50:small kick.wav
36,192,275683,1,0,0:0:0:50:small kick.wav
402,192,275722,1,0,0:0:0:50:small kick.wav
329,192,275761,1,0,0:0:0:50:small kick.wav
256,192,275801,1,0,0:0:0:50:small kick.wav
475,192,275840,1,0,0:0:0:50:small kick.wav
109,192,275840,1,0,0:0:0:50:small kick.wav
402,192,275879,1,0,0:0:0:50:small kick.wav
329,192,275918,1,0,0:0:0:50:small kick.wav
182,192,275958,1,0,0:0:0:50:small kick.wav
109,192,275997,1,0,0:0:0:50:small kick.wav
36,192,275997,1,0,0:0:0:50:small kick.wav
256,192,276036,1,0,0:0:0:50:small kick.wav
402,192,276075,1,0,0:0:0:50:small kick.wav
475,192,276115,1,0,0:0:0:50:small kick.wav
182,192,276154,1,0,0:0:0:50:small kick.wav
329,192,276154,1,0,0:0:0:50:small kick.wav
109,192,276193,1,0,0:0:0:50:small kick.wav
36,192,276232,1,0,0:0:0:50:small kick.wav
256,192,276272,1,0,0:0:0:50:small kick.wav
329,192,276311,1,0,0:0:0:50:small kick.wav
475,192,276311,1,0,0:0:0:50:small kick.wav
109,192,276350,1,0,0:0:0:50:small kick.wav
182,192,276390,1,0,0:0:0:50:small kick.wav
256,192,276429,1,0,0:0:0:50:small kick.wav
36,192,276468,1,0,0:0:0:50:small kick.wav
402,192,276468,1,0,0:0:0:50:small kick.wav
109,192,276507,1,0,0:0:0:50:small kick.wav
182,192,276547,1,0,0:0:0:50:small kick.wav
329,192,276586,1,0,0:0:0:50:small kick.wav
256,192,276625,1,0,0:0:0:70:small kick.wav
402,192,276625,1,0,0:0:0:0:
475,192,276625,1,4,0:0:0:0:
36,192,276625,1,0,0:0:0:0:
36,192,276939,1,2,0:0:0:0:
109,192,276939,1,0,0:0:0:0:
256,192,276939,1,0,0:0:0:50:big kick.wav
402,192,276939,1,2,0:0:0:0:
475,192,276939,1,8,0:0:0:0:
182,192,277018,1,0,0:0:0:0:
329,192,277018,1,0,0:0:0:0:
36,192,277096,1,2,0:0:0:0:
402,192,277096,1,2,0:0:0:0:
256,192,277096,1,0,0:0:0:0:
182,192,277175,1,0,0:0:0:0:
109,192,277175,1,0,0:0:0:0:
475,192,277253,1,0,0:0:0:0:
402,192,277253,1,2,0:0:0:0:
329,192,277253,1,0,0:0:0:50:big kick.wav
36,192,277253,1,2,0:0:0:0:
109,192,277332,1,0,0:0:0:0:
256,192,277332,1,0,0:0:0:0:
182,192,277410,1,2,0:0:0:0:
329,192,277410,1,0,0:0:0:0:
402,192,277410,1,2,0:0:0:0:
256,192,277489,1,0,0:0:0:0:
475,192,277489,1,0,0:0:0:0:
182,192,277568,1,0,0:0:0:50:big kick.wav
329,192,277568,1,8,0:0:0:0:
36,192,277568,1,2,0:0:0:0:
109,192,277568,1,2,0:0:0:0:
402,192,277646,1,0,0:0:0:0:
475,192,277646,1,0,0:0:0:0:
36,192,277725,1,2,0:0:0:0:
256,192,277725,1,0,0:0:0:0:
109,192,277725,1,2,0:0:0:0:
402,192,277803,1,0,0:0:0:0:
182,192,277803,1,0,0:0:0:0:
475,192,277882,1,0,0:0:0:0:
329,192,277882,1,0,0:0:0:50:big kick.wav
109,192,277882,1,2,0:0:0:0:
36,192,277882,1,2,0:0:0:0:
256,192,277960,1,0,0:0:0:0:
182,192,277960,1,0,0:0:0:0:
36,192,278039,1,2,0:0:0:0:
402,192,278039,1,2,0:0:0:0:
329,192,278039,1,0,0:0:0:0:
182,192,278117,1,0,0:0:0:0:
109,192,278117,1,0,0:0:0:0:
36,192,278196,1,2,0:0:0:0:
475,192,278196,1,8,0:0:0:0:
402,192,278196,1,2,0:0:0:0:
256,192,278196,1,0,0:0:0:50:big kick.wav
329,192,278274,1,0,0:0:0:0:
182,192,278274,1,0,0:0:0:0:
475,192,278353,1,0,0:0:0:0:
109,192,278353,1,2,0:0:0:0:
256,192,278353,1,2,0:0:0:0:
329,192,278431,1,0,0:0:0:0:
402,192,278431,1,0,0:0:0:0:
36,192,278510,1,2,0:0:0:0:
109,192,278510,1,0,0:0:0:50:big kick.wav
182,192,278510,1,2,0:0:0:0:
475,192,278510,1,0,0:0:0:0:
402,192,278589,1,0,0:0:0:0:
256,192,278589,1,0,0:0:0:0:
329,192,278667,1,0,0:0:0:0:
182,192,278667,1,2,0:0:0:0:
109,192,278667,1,2,0:0:0:0:
256,192,278746,1,0,0:0:0:0:
36,192,278746,1,0,0:0:0:0:
329,192,278824,1,2,0:0:0:0:
182,192,278824,1,2,0:0:0:0:
475,192,278824,1,8,0:0:0:0:
402,192,278824,1,0,0:0:0:50:big kick.wav
109,192,278903,1,0,0:0:0:0:
36,192,278903,1,0,0:0:0:0:
475,192,278981,1,0,0:0:0:0:
256,192,278981,1,2,0:0:0:0:
402,192,278981,1,2,0:0:0:0:
109,192,279060,1,0,0:0:0:0:
329,192,279060,1,0,0:0:0:0:
36,192,279138,1,0,0:0:0:0:
182,192,279138,1,2,0:0:0:0:
402,192,279138,1,2,0:0:0:0:
475,192,279138,1,0,0:0:0:50:big kick.wav
256,192,279217,1,0,0:0:0:0:
329,192,279217,1,0,0:0:0:0:
475,192,279295,1,0,0:0:0:0:
109,192,279295,1,2,0:0:0:0:
182,192,279295,1,2,0:0:0:0:
329,192,279374,1,0,0:0:0:0:
402,192,279374,1,0,0:0:0:0:
475,192,279452,1,8,0:0:0:0:
36,192,279452,1,2,0:0:0:0:
109,192,279452,1,2,0:0:0:0:
256,192,279452,1,0,0:0:0:50:big kick.wav
402,192,279531,1,0,0:0:0:0:
182,192,279531,1,0,0:0:0:0:
36,192,279609,1,2,0:0:0:0:
109,192,279609,1,0,0:0:0:0:
329,192,279609,1,2,0:0:0:0:
475,192,279688,1,0,0:0:0:0:
182,192,279688,1,0,0:0:0:0:
109,192,279767,1,0,0:0:0:0:
36,192,279767,1,2,0:0:0:0:
256,192,279767,1,2,0:0:0:0:
329,192,279767,1,0,0:0:0:50:big kick.wav
475,192,279845,1,0,0:0:0:0:
402,192,279845,1,0,0:0:0:0:
36,192,279924,1,2,0:0:0:0:
109,192,279924,1,0,0:0:0:0:
329,192,279924,1,2,0:0:0:0:
256,192,280002,1,0,0:0:0:0:
182,192,280002,1,0,0:0:0:0:
109,192,280081,1,0,0:0:0:50:big kick.wav
36,192,280081,1,2,0:0:0:0:
475,192,280081,1,8,0:0:0:0:
402,192,280081,1,2,0:0:0:0:
256,192,280159,1,0,0:0:0:0:
329,192,280159,1,0,0:0:0:0:
475,192,280238,1,0,0:0:0:0:
402,192,280238,1,2,0:0:0:0:
182,192,280238,1,2,0:0:0:0:
36,192,280316,1,0,0:0:0:0:
109,192,280316,1,0,0:0:0:0:
402,192,280395,1,2,0:0:0:0:
475,192,280395,1,0,0:0:0:0:
256,192,280395,1,0,0:0:0:50:big kick.wav
182,192,280395,1,2,0:0:0:0:
36,192,280473,1,0,0:0:0:0:
329,192,280473,1,0,0:0:0:0:
475,192,280552,1,0,0:0:0:0:
402,192,280552,1,2,0:0:0:0:
182,192,280552,1,2,0:0:0:0:
109,192,280630,1,0,0:0:0:0:
329,192,280630,1,0,0:0:0:0:
402,192,280709,1,2,0:0:0:0:
475,192,280709,1,8,0:0:0:0:
256,192,280709,1,0,0:0:0:50:big kick.wav
36,192,280709,1,2,0:0:0:0:
109,192,280787,1,0,0:0:0:0:
182,192,280787,1,0,0:0:0:0:
475,192,280866,1,0,0:0:0:0:
402,192,280866,1,2,0:0:0:0:
329,192,280866,1,2,0:0:0:0:
36,192,280945,1,0,0:0:0:0:
256,192,280945,1,0,0:0:0:0:
329,192,281023,1,2,0:0:0:0:
475,192,281023,1,0,0:0:0:0:
109,192,281023,1,2,0:0:0:0:
182,192,281023,1,0,0:0:0:50:big kick.wav
36,192,281102,1,0,0:0:0:0:
256,192,281102,1,0,0:0:0:0:
329,192,281180,1,2,0:0:0:0:
475,192,281180,1,0,0:0:0:0:
402,192,281180,1,2,0:0:0:0:
109,192,281259,1,0,0:0:0:0:
182,192,281259,1,0,0:0:0:0:
402,192,281337,1,0,0:0:0:50:big kick.wav
475,192,281337,1,8,0:0:0:0:
256,192,281337,1,2,0:0:0:0:
36,192,281337,1,2,0:0:0:0:
182,192,281416,1,0,0:0:0:0:
329,192,281416,1,0,0:0:0:0:
36,192,281494,1,2,0:0:0:0:
109,192,281494,1,2,0:0:0:0:
256,192,281494,1,0,0:0:0:0:
402,192,281573,1,2,0:0:0:0:
475,192,281573,1,0,0:0:0:50:big kick.wav
329,192,281573,1,2,0:0:0:0:
182,192,281651,1,0,0:0:0:50:big kick.wav
256,192,281651,1,0,0:0:0:0:
36,192,281651,1,2,0:0:0:0:
109,192,281651,1,2,0:0:0:0:
402,192,281730,1,0,0:0:0:0:
475,192,281730,1,0,0:0:0:0:
109,192,281808,1,2,0:0:0:0:
36,192,281808,1,2,0:0:0:0:
329,192,281808,1,0,0:0:0:50:big kick.wav
475,192,281887,1,0,0:0:0:0:
182,192,281887,1,0,0:0:0:0:
402,192,281965,1,8,0:0:0:0:
109,192,281965,1,2,0:0:0:0:
36,192,281965,1,2,0:0:0:0:
256,192,281965,1,0,0:0:0:50:big kick.wav
329,192,282044,1,0,0:0:0:0:
182,192,282044,1,0,0:0:0:0:
109,192,282123,1,2,0:0:0:0:
475,192,282123,1,0,0:0:0:0:
256,192,282123,1,2,0:0:0:0:
329,192,282201,1,0,0:0:0:0:
402,192,282201,1,0,0:0:0:0:
109,192,282280,1,2,0:0:0:0:
475,192,282280,1,0,0:0:0:0:
182,192,282280,1,0,0:0:0:50:big kick.wav
36,192,282280,1,2,0:0:0:0:
402,192,282358,1,0,0:0:0:0:
256,192,282358,1,0,0:0:0:0:
109,192,282437,1,2,0:0:0:0:
329,192,282437,1,0,0:0:0:0:
36,192,282437,1,2,0:0:0:0:
475,192,282515,1,0,0:0:0:0:
182,192,282515,1,0,0:0:0:0:
329,192,282594,1,2,0:0:0:0:
109,192,282594,1,2,0:0:0:0:
402,192,282594,1,8,0:0:0:0:
256,192,282594,1,0,0:0:0:50:big kick.wav
475,192,282672,1,0,0:0:0:0:
36,192,282672,1,0,0:0:0:0:
256,192,282751,1,2,0:0:0:0:
329,192,282751,1,0,0:0:0:0:
182,192,282751,1,2,0:0:0:0:
109,192,282829,1,0,0:0:0:0:
36,192,282829,1,0,0:0:0:0:
475,192,282908,1,0,0:0:0:0:
256,192,282908,1,0,0:0:0:50:big kick.wav
402,192,282908,1,2,0:0:0:0:
182,192,282908,1,2,0:0:0:0:
329,192,282986,1,0,0:0:0:0:
109,192,282986,1,0,0:0:0:0:
402,192,283065,1,2,0:0:0:0:
475,192,283065,1,0,0:0:0:0:
182,192,283065,1,2,0:0:0:0:
329,192,283143,1,0,0:0:0:0:
36,192,283143,1,0,0:0:0:0:
256,192,283222,1,2,0:0:0:0:
109,192,283222,1,2,0:0:0:0:
475,192,283222,1,8,0:0:0:0:
402,192,283222,1,0,0:0:0:50:big kick.wav
182,192,283301,1,0,0:0:0:0:
329,192,283301,1,0,0:0:0:0:
402,192,283379,1,0,0:0:0:0:
36,192,283379,1,2,0:0:0:0:
256,192,283379,1,2,0:0:0:0:
182,192,283458,1,0,0:0:0:0:
109,192,283458,1,0,0:0:0:0:
402,192,283536,1,2,0:0:0:0:
36,192,283536,1,2,0:0:0:0:
329,192,283536,1,0,0:0:0:50:big kick.wav
475,192,283536,1,0,0:0:0:0:
109,192,283615,1,0,0:0:0:0:
256,192,283615,1,0,0:0:0:0:
402,192,283693,1,2,0:0:0:0:
182,192,283693,1,2,0:0:0:0:
475,192,283693,1,0,0:0:0:0:
36,192,283772,1,0,0:0:0:0:
329,192,283772,1,0,0:0:0:0:
182,192,283850,1,2,0:0:0:0:
402,192,283850,1,8,0:0:0:0:
109,192,283850,1,2,0:0:0:0:
256,192,283850,1,0,0:0:0:50:big kick.wav
36,192,283929,1,0,0:0:0:0:
475,192,283929,1,0,0:0:0:0:
256,192,284007,1,2,0:0:0:0:
182,192,284007,1,2,0:0:0:0:
329,192,284007,1,0,0:0:0:0:
402,192,284086,1,0,0:0:0:0:
475,192,284086,1,0,0:0:0:0:
36,192,284164,1,2,0:0:0:0:
256,192,284164,1,0,0:0:0:0:
109,192,284164,1,0,0:0:0:50:big kick.wav
329,192,284164,1,2,0:0:0:0:
182,192,284243,1,0,0:0:0:0:
402,192,284243,1,0,0:0:0:0:
109,192,284321,1,0,0:0:0:0:
36,192,284321,1,2,0:0:0:0:
329,192,284321,1,2,0:0:0:0:
182,192,284400,1,0,0:0:0:0:
475,192,284400,1,0,0:0:0:0:
256,192,284479,1,2,0:0:0:0:
402,192,284479,1,8,0:0:0:0:
36,192,284479,1,2,0:0:0:0:
109,192,284479,1,0,0:0:0:50:big kick.wav
329,192,284557,1,0,0:0:0:0:
182,192,284557,1,0,0:0:0:0:
402,192,284636,1,2,0:0:0:0:
475,192,284636,1,0,0:0:0:0:
256,192,284636,1,2,0:0:0:0:
109,192,284714,1,0,0:0:0:0:
36,192,284714,1,0,0:0:0:0:
329,192,284793,1,2,0:0:0:0:
182,192,284793,1,2,0:0:0:0:
402,192,284793,1,0,0:0:0:50:big kick.wav
475,192,284793,1,0,0:0:0:0:
36,192,284871,1,0,0:0:0:0:
109,192,284871,1,0,0:0:0:0:
256,192,284950,1,2,0:0:0:0:
402,192,284950,1,2,0:0:0:0:
475,192,284950,1,0,0:0:0:0:
329,192,285028,1,0,0:0:0:0:
182,192,285028,1,0,0:0:0:0:
109,192,285107,1,2,0:0:0:0:
256,192,285107,1,2,0:0:0:0:
402,192,285107,1,8,0:0:0:0:
475,192,285107,1,0,0:0:0:50:big kick.wav
329,192,285185,1,0,0:0:0:0:
182,192,285185,1,0,0:0:0:0:
256,192,285264,1,2,0:0:0:0:
109,192,285264,1,0,0:0:0:0:
36,192,285264,1,2,0:0:0:0:
402,192,285342,1,0,0:0:0:0:
475,192,285342,1,0,0:0:0:0:
182,192,285421,1,2,0:0:0:0:
329,192,285421,1,0,0:0:0:0:
109,192,285421,1,0,0:0:0:50:big kick.wav
36,192,285421,1,2,0:0:0:0:
402,192,285499,1,0,0:0:0:0:
475,192,285499,1,0,0:0:0:0:
256,192,285578,1,2,0:0:0:0:
109,192,285578,1,0,0:0:0:0:
36,192,285578,1,2,0:0:0:0:
329,192,285657,1,0,0:0:0:0:
182,192,285657,1,0,0:0:0:0:
36,192,285735,1,2,0:0:0:0:
402,192,285735,1,4,0:0:0:0:
475,192,285735,1,0,0:0:0:50:big kick.wav
109,192,285735,1,2,0:0:0:0:
256,192,285814,1,0,0:0:0:0:
329,192,285814,1,0,0:0:0:0:
475,192,285892,1,2,0:0:0:0:
402,192,285892,1,0,0:0:0:50:big kick.wav
36,192,285892,1,2,0:0:0:0:
109,192,285892,1,0,0:0:0:0:
182,192,285971,1,0,0:0:0:0:
256,192,285971,1,0,0:0:0:0:
402,192,286049,1,4,0:0:0:0:
109,192,286049,1,0,0:0:0:50:big kick.wav
36,192,286049,1,2,0:0:0:0:
475,192,286049,1,2,0:0:0:0:
256,192,286128,1,0,0:0:0:0:
329,192,286128,1,0,0:0:0:0:
109,192,286206,1,0,0:0:0:50:big kick.wav
402,192,286206,1,4,0:0:0:0:
36,192,286206,1,2,0:0:0:0:
475,192,286206,1,2,0:0:0:0:
329,192,286285,1,0,0:0:0:50:big kick.wav
182,192,286285,1,2,0:0:0:0:
256,192,286285,1,2,0:0:0:0:
402,192,286363,1,4,0:0:0:0:
109,192,286363,1,0,0:0:0:50:big kick.wav
36,192,286363,1,2,0:0:0:0:
475,192,286363,1,2,0:0:0:0:
329,192,286442,1,0,0:0:0:0:
182,192,286442,1,0,0:0:0:0:
256,192,286520,1,0,0:0:0:50:big kick.wav
402,192,286520,1,0,0:0:0:0:
36,192,286520,1,2,0:0:0:0:
475,192,286520,1,2,0:0:0:0:
329,192,286599,1,0,0:0:0:0:
109,192,286599,1,0,0:0:0:0:
182,192,286678,1,0,0:0:0:50:big kick.wav
402,192,286678,1,4,0:0:0:0:
475,192,286678,1,2,0:0:0:0:
36,192,286678,1,2,0:0:0:0:
256,192,286756,1,0,0:0:0:0:
329,192,286756,1,0,0:0:0:0:
109,192,286835,1,0,0:0:0:50:big kick.wav
402,192,286835,1,0,0:0:0:0:
475,192,286835,1,2,0:0:0:0:
36,192,286835,1,2,0:0:0:0:
256,192,286913,1,0,0:0:0:0:
182,192,286913,1,2,0:0:0:0:
402,192,286992,1,0,0:0:0:50:big kick.wav
475,192,286992,1,8,0:0:0:0:
329,192,286992,1,0,0:0:0:0:
109,192,286992,1,2,0:0:0:0:
36,192,286992,1,2,0:0:0:0:
182,192,287070,1,0,0:0:0:0:
475,192,287149,1,0,0:0:0:0:
109,192,287149,1,2,0:0:0:0:
256,192,287149,1,0,0:0:0:50:big kick.wav
402,192,287149,1,2,0:0:0:0:
329,192,287227,1,0,0:0:0:0:
109,192,287306,1,2,0:0:0:0:
182,192,287306,1,2,0:0:0:0:
475,192,287306,1,0,0:0:0:0:
36,192,287306,1,0,0:0:0:50:big kick.wav
256,192,287384,1,0,0:0:0:0:
475,192,287463,1,0,0:0:0:0:
329,192,287463,1,2,0:0:0:0:
36,192,287463,1,0,0:0:0:50:big kick.wav
402,192,287463,1,2,0:0:0:0:
256,192,287541,1,0,0:0:0:0:
402,192,287620,1,2,0:0:0:0:
475,192,287620,1,8,0:0:0:0:
182,192,287620,1,0,0:0:0:50:big kick.wav
109,192,287620,1,2,0:0:0:0:
36,192,287620,1,0,0:0:0:0:
329,192,287698,1,0,0:0:0:0:
256,192,287777,1,0,0:0:0:50:big kick.wav
402,192,287777,1,2,0:0:0:0:
109,192,287777,1,2,0:0:0:0:
36,192,287777,1,0,0:0:0:0:
182,192,287856,1,0,0:0:0:0:
36,192,287934,1,0,0:0:0:0:
402,192,287934,1,2,0:0:0:0:
329,192,287934,1,2,0:0:0:0:
475,192,287934,1,0,0:0:0:50:big kick.wav
256,192,288013,1,0,0:0:0:0:
36,192,288091,1,0,0:0:0:0:
475,192,288091,1,0,0:0:0:50:big kick.wav
109,192,288091,1,2,0:0:0:0:
182,192,288091,1,2,0:0:0:0:
329,192,288170,1,0,0:0:0:0:
36,192,288248,1,0,0:0:0:0:
109,192,288248,1,2,0:0:0:0:
475,192,288248,1,8,0:0:0:0:
256,192,288248,1,2,0:0:0:0:
402,192,288248,1,0,0:0:0:50:big kick.wav
182,192,288327,1,0,0:0:0:0:
475,192,288405,1,0,0:0:0:50:big kick.wav
329,192,288405,1,2,0:0:0:0:
256,192,288405,1,2,0:0:0:0:
36,192,288405,1,0,0:0:0:0:
402,192,288484,1,0,0:0:0:0:
329,192,288562,1,2,0:0:0:0:
475,192,288562,1,0,0:0:0:0:
182,192,288562,1,2,0:0:0:0:
109,192,288562,1,0,0:0:0:50:big kick.wav
256,192,288641,1,0,0:0:0:0:
402,192,288719,1,2,0:0:0:0:
475,192,288719,1,0,0:0:0:0:
36,192,288719,1,0,0:0:0:50:big kick.wav
329,192,288719,1,2,0:0:0:0:
182,192,288798,1,0,0:0:0:0:
402,192,288876,1,0,0:0:0:0:
475,192,288876,1,8,0:0:0:0:
256,192,288876,1,2,0:0:0:0:
36,192,288876,1,0,0:0:0:50:big kick.wav
109,192,288876,1,2,0:0:0:0:
329,192,288955,1,0,0:0:0:0:
256,192,289034,1,2,0:0:0:0:
182,192,289034,1,2,0:0:0:0:
475,192,289034,1,0,0:0:0:0:
36,192,289034,1,0,0:0:0:50:big kick.wav
109,192,289112,1,0,0:0:0:0:
182,192,289191,1,2,0:0:0:0:
402,192,289191,1,2,0:0:0:0:
329,192,289191,1,0,0:0:0:50:big kick.wav
36,192,289191,1,0,0:0:0:0:
256,192,289269,1,0,0:0:0:0:
36,192,289348,1,0,0:0:0:50:big kick.wav
182,192,289348,1,2,0:0:0:0:
109,192,289348,1,2,0:0:0:0:
475,192,289348,1,0,0:0:0:0:
329,192,289426,1,0,0:0:0:0:
36,192,289505,1,0,0:0:0:0:
109,192,289505,1,2,0:0:0:0:
402,192,289505,1,0,0:0:0:50:big kick.wav
475,192,289505,1,8,0:0:0:0:
256,192,289505,1,2,0:0:0:0:
182,192,289583,1,0,0:0:0:0:
109,192,289662,1,2,0:0:0:0:
36,192,289662,1,0,0:0:0:0:
329,192,289662,1,0,0:0:0:50:big kick.wav
402,192,289662,1,2,0:0:0:0:
256,192,289740,1,0,0:0:0:0:
109,192,289819,1,2,0:0:0:0:
36,192,289819,1,0,0:0:0:50:big kick.wav
182,192,289819,1,2,0:0:0:0:
475,192,289819,1,0,0:0:0:0:
256,192,289897,1,0,0:0:0:0:
475,192,289976,1,0,0:0:0:50:big kick.wav
36,192,289976,1,0,0:0:0:0:
329,192,289976,1,2,0:0:0:0:
402,192,289976,1,2,0:0:0:0:
182,192,290054,1,0,0:0:0:0:
402,192,290133,1,2,0:0:0:0:
475,192,290133,1,8,0:0:0:0:
36,192,290133,1,0,0:0:0:0:
256,192,290133,1,2,0:0:0:0:
109,192,290133,1,0,0:0:0:50:big kick.wav
329,192,290212,1,0,0:0:0:0:
182,192,290290,1,2,0:0:0:0:
402,192,290290,1,2,0:0:0:0:
475,192,290290,1,0,0:0:0:0:
109,192,290290,1,0,0:0:0:50:big kick.wav
256,192,290369,1,0,0:0:0:0:
329,192,290447,1,2,0:0:0:0:
475,192,290447,1,0,0:0:0:50:big kick.wav
36,192,290447,1,0,0:0:0:0:
402,192,290447,1,2,0:0:0:0:
256,192,290526,1,0,0:0:0:0:
182,192,290604,1,2,0:0:0:0:
36,192,290604,1,0,0:0:0:50:big kick.wav
109,192,290604,1,2,0:0:0:0:
475,192,290604,1,0,0:0:0:0:
329,192,290683,1,0,0:0:0:0:
402,192,290761,1,0,0:0:0:0:
182,192,290761,1,2,0:0:0:0:
475,192,290761,1,8,0:0:0:0:
109,192,290761,1,2,0:0:0:0:
36,192,290761,1,0,0:0:0:50:big kick.wav
256,192,290840,1,0,0:0:0:0:
329,192,290918,1,2,0:0:0:0:
402,192,290918,1,0,0:0:0:0:
36,192,290918,1,0,0:0:0:50:big kick.wav
109,192,290918,1,2,0:0:0:0:
182,192,290997,1,0,0:0:0:0:
256,192,291075,1,0,0:0:0:50:big kick.wav
109,192,291075,1,2,0:0:0:0:
475,192,291075,1,0,0:0:0:0:
329,192,291075,1,2,0:0:0:0:
402,192,291154,1,0,0:0:0:0:
109,192,291232,1,2,0:0:0:0:
475,192,291232,1,0,0:0:0:0:
36,192,291232,1,0,0:0:0:50:big kick.wav
182,192,291232,1,2,0:0:0:0:
256,192,291311,1,0,0:0:0:0:
475,192,291390,1,8,0:0:0:0:
329,192,291390,1,2,0:0:0:0:
402,192,291390,1,0,0:0:0:0:
36,192,291390,1,0,0:0:0:50:big kick.wav
109,192,291390,1,2,0:0:0:0:
256,192,291468,1,0,0:0:0:0:
475,192,291547,1,0,0:0:0:0:
109,192,291547,1,0,0:0:0:50:big kick.wav
402,192,291547,1,2,0:0:0:0:
182,192,291547,1,2,0:0:0:0:
329,192,291625,1,0,0:0:0:0:
256,192,291704,1,2,0:0:0:0:
182,192,291704,1,0,0:0:0:50:big kick.wav
36,192,291704,1,0,0:0:0:0:
402,192,291704,1,2,0:0:0:0:
109,192,291782,1,0,0:0:0:0:
36,192,291861,1,0,0:0:0:0:
329,192,291861,1,2,0:0:0:0:
402,192,291861,1,2,0:0:0:0:
475,192,291861,1,0,0:0:0:50:big kick.wav
256,192,291939,1,0,0:0:0:0:
182,192,292018,1,2,0:0:0:0:
36,192,292018,1,0,0:0:0:0:
402,192,292018,1,0,0:0:0:50:big kick.wav
475,192,292018,1,8,0:0:0:0:
109,192,292018,1,2,0:0:0:0:
329,192,292096,1,0,0:0:0:0:
256,192,292175,1,2,0:0:0:0:
109,192,292175,1,2,0:0:0:0:
36,192,292175,1,0,0:0:0:0:
475,192,292175,1,0,0:0:0:50:big kick.wav
182,192,292253,1,2,0:0:0:0:
402,192,292253,1,0,0:0:0:50:big kick.wav
329,192,292253,1,2,0:0:0:0:
256,192,292332,1,2,0:0:0:0:
475,192,292332,1,8,0:0:0:0:
109,192,292332,1,2,0:0:0:0:
36,192,292332,1,0,0:0:0:50:big kick.wav
329,192,292410,1,0,0:0:0:0:
402,192,292489,1,2,0:0:0:0:
475,192,292489,1,0,0:0:0:0:
256,192,292489,1,2,0:0:0:0:
36,192,292489,1,0,0:0:0:50:big kick.wav
109,192,292568,1,0,0:0:0:50:big kick.wav
182,192,292568,1,2,0:0:0:0:
329,192,292568,1,2,0:0:0:0:
402,192,292646,1,2,0:0:0:0:
475,192,292646,1,8,0:0:0:0:
256,192,292646,1,2,0:0:0:0:
36,192,292646,1,0,0:0:0:50:big kick.wav
182,192,292725,1,0,0:0:0:0:
109,192,292803,1,2,0:0:0:0:
36,192,292803,1,0,0:0:0:0:
475,192,292803,1,0,0:0:0:50:big kick.wav
256,192,292803,1,2,0:0:0:0:
402,192,292882,1,0,0:0:0:50:big kick.wav
182,192,292882,1,2,0:0:0:0:
329,192,292882,1,2,0:0:0:0:
36,192,292960,1,0,0:0:0:50:big kick.wav
109,192,292960,1,2,0:0:0:0:
475,192,292960,1,8,0:0:0:0:
256,192,292960,1,2,0:0:0:0:
329,192,293039,1,0,0:0:0:0:
402,192,293117,1,2,0:0:0:0:
475,192,293117,1,0,0:0:0:0:
182,192,293117,1,2,0:0:0:0:
36,192,293117,1,0,0:0:0:50:big kick.wav
109,192,293196,1,0,0:0:0:50:big kick.wav
256,192,293196,1,2,0:0:0:0:
329,192,293196,1,2,0:0:0:0:
182,192,293274,1,2,0:0:0:0:
36,192,293274,1,0,0:0:0:50:big kick.wav
402,192,293274,1,2,0:0:0:0:
475,192,293274,1,8,0:0:0:0:
256,192,293353,1,0,0:0:0:0:
36,192,293431,1,0,0:0:0:50:big kick.wav
109,192,293431,1,2,0:0:0:0:
329,192,293431,1,2,0:0:0:0:
475,192,293431,1,0,0:0:0:0:
182,192,293510,1,2,0:0:0:0:
256,192,293510,1,2,0:0:0:0:
402,192,293510,1,0,0:0:0:50:big kick.wav
475,192,293589,1,8,0:0:0:0:
329,192,293589,1,2,0:0:0:0:
109,192,293589,1,2,0:0:0:0:
36,192,293589,1,0,0:0:0:50:big kick.wav
256,192,293667,1,0,0:0:0:0:
402,192,293746,1,2,0:0:0:0:
475,192,293746,1,0,0:0:0:0:
182,192,293746,1,2,0:0:0:0:
36,192,293746,1,0,0:0:0:50:big kick.wav
109,192,293824,1,0,0:0:0:50:big kick.wav
256,192,293824,1,2,0:0:0:0:
329,192,293824,1,2,0:0:0:0:
402,192,293903,1,2,0:0:0:0:
475,192,293903,1,8,0:0:0:0:
182,192,293903,1,2,0:0:0:0:
36,192,293903,1,0,0:0:0:50:big kick.wav
256,192,293981,1,0,0:0:0:0:
109,192,294060,1,2,0:0:0:0:
36,192,294060,1,0,0:0:0:0:
329,192,294060,1,2,0:0:0:0:
475,192,294060,1,0,0:0:0:50:big kick.wav
402,192,294138,1,0,0:0:0:50:big kick.wav
182,192,294138,1,2,0:0:0:0:
256,192,294138,1,2,0:0:0:0:
109,192,294217,1,2,0:0:0:0:
36,192,294217,1,0,0:0:0:50:big kick.wav
329,192,294217,1,2,0:0:0:0:
475,192,294217,1,8,0:0:0:0:
256,192,294295,1,0,0:0:0:0:
182,192,294374,1,2,0:0:0:0:
109,192,294374,1,0,0:0:0:50:big kick.wav
36,192,294374,1,0,0:0:0:0:
402,192,294374,1,2,0:0:0:0:
329,192,294452,1,2,0:0:0:0:
475,192,294452,1,0,0:0:0:50:big kick.wav
182,192,294531,1,2,0:0:0:0:
109,192,294531,1,0,0:0:0:50:big kick.wav
36,192,294531,1,0,0:0:0:0:
402,192,294531,1,2,0:0:0:0:
256,192,294531,1,4,0:0:0:0:
475,192,294609,1,0,0:0:0:0:
182,192,294688,1,2,0:0:0:0:
256,192,294688,1,0,0:0:0:50:big kick.wav
329,192,294688,1,2,0:0:0:0:
109,192,294688,1,0,0:0:0:0:
36,192,294767,1,0,0:0:0:50:big kick.wav
402,192,294767,1,2,0:0:0:0:
182,192,294845,1,2,0:0:0:0:
256,192,294845,1,4,0:0:0:0:
329,192,294845,1,2,0:0:0:0:
475,192,294845,1,0,0:0:0:0:
109,192,294845,1,0,0:0:0:50:big kick.wav
36,192,294924,1,0,0:0:0:0:
182,192,295002,1,2,0:0:0:0:
256,192,295002,1,4,0:0:0:0:
329,192,295002,1,2,0:0:0:0:
402,192,295002,1,0,0:0:0:50:big kick.wav
109,192,295081,1,2,0:0:0:0:
475,192,295081,1,0,0:0:0:50:big kick.wav
182,192,295159,1,2,0:0:0:0:
256,192,295159,1,4,0:0:0:0:
329,192,295159,1,2,0:0:0:0:
402,192,295159,1,0,0:0:0:50:big kick.wav
36,192,295159,1,0,0:0:0:0:
109,192,295238,1,0,0:0:0:0:
256,192,295316,1,2,0:0:0:0:
329,192,295316,1,2,0:0:0:0:
402,192,295316,1,0,0:0:0:50:big kick.wav
475,192,295316,1,0,0:0:0:0:
182,192,295395,1,2,0:0:0:0:
36,192,295395,1,0,0:0:0:50:big kick.wav
256,192,295473,1,4,0:0:0:0:
329,192,295473,1,2,0:0:0:0:
402,192,295473,1,2,0:0:0:0:
475,192,295473,1,0,0:0:0:0:
109,192,295473,1,0,0:0:0:50:big kick.wav
182,192,295552,1,0,0:0:0:0:
402,192,295630,1,2,0:0:0:0:
36,192,295630,1,0,0:0:0:0:
109,192,295630,1,0,0:0:0:50:big kick.wav
256,192,295630,1,2,0:0:0:0:
329,192,295709,1,2,0:0:0:0:
182,192,295709,1,0,0:0:0:50:big kick.wav
36,192,295787,1,0,0:0:0:0:
256,192,295787,1,2,0:0:0:0:
402,192,295787,1,2,0:0:0:0:
475,192,295787,1,4,0:0:0:0:
109,192,295787,1,0,0:0:0:50:big kick.wav
182,192,295945,1,2,0:0:0:0:
36,192,295945,1,0,0:0:0:50:big kick.wav
329,192,295945,1,2,0:0:0:0:
475,192,295945,1,4,0:0:0:0:
402,192,296023,1,2,0:0:0:0:
109,192,296023,1,0,0:0:0:50:big kick.wav
256,192,296023,1,2,0:0:0:0:
36,192,296102,1,0,0:0:0:50:big kick.wav
182,192,296102,1,2,0:0:0:0:
329,192,296102,1,2,0:0:0:0:
475,192,296102,1,4,0:0:0:0:
109,192,296180,1,0,0:0:0:50:big kick.wav
402,192,296180,1,2,0:0:0:0:
256,192,296180,1,2,0:0:0:0:
182,192,296259,1,2,0:0:0:0:
36,192,296259,1,0,0:0:0:50:big kick.wav
329,192,296259,1,2,0:0:0:0:
475,192,296259,1,4,0:0:0:0:
109,192,296337,1,0,0:0:0:50:big kick.wav
402,192,296337,1,2,0:0:0:0:
256,192,296337,1,2,0:0:0:0:
475,192,296416,1,4,0:0:0:0:
36,192,296416,1,0,0:0:0:50:big kick.wav
329,192,296416,1,2,0:0:0:0:
182,192,296416,1,2,0:0:0:0:
256,192,296494,1,0,0:0:0:0:
475,192,296573,1,0,0:0:0:0:
329,192,296573,1,2,0:0:0:0:
109,192,296573,1,0,0:0:0:0:
402,192,296573,1,2,0:0:0:0:
182,192,296651,1,2,0:0:0:0:
402,192,296730,1,2,0:0:0:0:
475,192,296730,1,4,0:0:0:0:
256,192,296730,1,2,0:0:0:0:
109,192,296730,1,0,0:0:0:0:
36,192,296730,1,0,0:0:0:50:big kick.wav
329,192,296808,1,0,0:0:0:0:
402,192,296887,1,2,0:0:0:0:
475,192,296887,1,0,0:0:0:0:
109,192,296887,1,0,0:0:0:0:
36,192,296887,1,0,0:0:0:50:big kick.wav
256,192,296887,1,2,0:0:0:0:
182,192,296965,1,0,0:0:0:0:
402,192,297044,1,2,0:0:0:0:
475,192,297044,1,0,0:0:0:0:
109,192,297044,1,0,0:0:0:50:big kick.wav
36,192,297044,1,2,0:0:0:0:
256,192,297044,1,0,0:0:0:0:
182,192,297123,1,0,0:0:0:0:
329,192,297123,1,0,0:0:0:0:
256,192,297201,1,0,0:0:0:0:
475,192,297201,1,0,0:0:0:0:
402,192,297280,1,0,0:0:0:0:
182,192,297280,1,0,0:0:0:0:
36,192,297358,1,2,0:0:0:0:
109,192,297358,1,0,0:0:0:50:big kick.wav
329,192,297358,1,0,0:0:0:0:
475,192,297358,1,2,0:0:0:0:
256,192,297437,1,0,0:0:0:0:
402,192,297437,1,0,0:0:0:0:
182,192,297515,1,0,0:0:0:0:
329,192,297515,1,0,0:0:0:0:
256,192,297594,1,0,0:0:0:0:
109,192,297594,1,0,0:0:0:0:
36,192,297672,1,2,0:0:0:0:
182,192,297672,1,0,0:0:0:50:big kick.wav
402,192,297672,1,0,0:0:0:0:
475,192,297672,1,2,0:0:0:0:
329,192,297751,1,0,0:0:0:0:
256,192,297751,1,0,0:0:0:0:
182,192,297829,1,0,0:0:0:0:
109,192,297829,1,0,0:0:0:0:
329,192,297908,1,0,0:0:0:0:
402,192,297908,1,0,0:0:0:0:
36,192,297986,1,2,0:0:0:0:
256,192,297986,1,0,0:0:0:0:
109,192,297986,1,0,0:0:0:50:big kick.wav
475,192,297986,1,2,0:0:0:0:
329,192,298065,1,0,0:0:0:0:
402,192,298065,1,0,0:0:0:0:
182,192,298143,1,0,0:0:0:0:
109,192,298143,1,0,0:0:0:0:
256,192,298222,1,0,0:0:0:0:
329,192,298222,1,0,0:0:0:0:
36,192,298301,1,2,0:0:0:0:
109,192,298301,1,0,0:0:0:50:big kick.wav
475,192,298301,1,2,0:0:0:0:
402,192,298301,1,0,0:0:0:0:
329,192,298379,1,0,0:0:0:0:
182,192,298379,1,0,0:0:0:0:
256,192,298458,1,0,0:0:0:0:
36,192,298458,1,0,0:0:0:0:
109,192,298536,1,0,0:0:0:0:
329,192,298536,1,0,0:0:0:0:
475,192,298615,1,2,0:0:0:0:
402,192,298615,1,0,0:0:0:0:
182,192,298615,1,0,0:0:0:50:big kick.wav
36,192,298615,1,2,0:0:0:0:
256,192,298693,1,0,0:0:0:0:
109,192,298693,1,0,0:0:0:0:
329,192,298772,1,0,0:0:0:0:
182,192,298772,1,0,0:0:0:0:
256,192,298850,1,0,0:0:0:0:
402,192,298850,1,0,0:0:0:0:
475,192,298929,1,2,0:0:0:0:
329,192,298929,1,0,0:0:0:0:
109,192,298929,1,0,0:0:0:50:big kick.wav
36,192,298929,1,2,0:0:0:0:
182,192,299007,1,0,0:0:0:0:
256,192,299007,1,0,0:0:0:0:
329,192,299086,1,0,0:0:0:0:
402,192,299086,1,0,0:0:0:0:
182,192,299164,1,0,0:0:0:0:
109,192,299164,1,0,0:0:0:0:
475,192,299243,1,2,0:0:0:0:
256,192,299243,1,0,0:0:0:50:big kick.wav
402,192,299243,1,0,0:0:0:0:
36,192,299243,1,2,0:0:0:0:
182,192,299321,1,0,0:0:0:0:
109,192,299321,1,0,0:0:0:0:
329,192,299400,1,0,0:0:0:0:
402,192,299400,1,0,0:0:0:0:
256,192,299479,1,0,0:0:0:0:
182,192,299479,1,0,0:0:0:0:
475,192,299557,1,2,0:0:0:0:
329,192,299557,1,0,0:0:0:0:
36,192,299557,1,2,0:0:0:0:
109,192,299557,1,0,0:0:0:50:big kick.wav
402,192,299636,1,0,0:0:0:0:
256,192,299636,1,0,0:0:0:0:
182,192,299714,1,0,0:0:0:0:
36,192,299714,1,0,0:0:0:0:
329,192,299793,1,0,0:0:0:0:
475,192,299793,1,0,0:0:0:0:
109,192,299871,1,0,0:0:0:50:big kick.wav
256,192,299871,1,0,0:0:0:0:
36,192,299871,1,2,0:0:0:0:
402,192,299871,1,2,0:0:0:0:
182,192,299950,1,0,0:0:0:0:
329,192,299950,1,0,0:0:0:0:
402,192,300028,1,0,0:0:0:0:
475,192,300028,1,0,0:0:0:0:
256,192,300107,1,0,0:0:0:0:
109,192,300107,1,0,0:0:0:0:
329,192,300185,1,0,0:0:0:50:big kick.wav
402,192,300185,1,2,0:0:0:0:
475,192,300185,1,0,0:0:0:0:
182,192,300185,1,2,0:0:0:0:
36,192,300264,1,0,0:0:0:0:
109,192,300264,1,0,0:0:0:0:
256,192,300342,1,0,0:0:0:0:
182,192,300342,1,0,0:0:0:0:
402,192,300421,1,0,0:0:0:0:
329,192,300421,1,0,0:0:0:0:
182,192,300499,1,0,0:0:0:0:
109,192,300499,1,0,0:0:0:50:big kick.wav
36,192,300499,1,2,0:0:0:0:
475,192,300499,1,2,0:0:0:0:
402,192,300578,1,0,0:0:0:0:
256,192,300578,1,0,0:0:0:0:
109,192,300657,1,0,0:0:0:0:
36,192,300657,1,0,0:0:0:0:
329,192,300735,1,0,0:0:0:0:
256,192,300735,1,0,0:0:0:0:
475,192,300814,1,2,0:0:0:0:
402,192,300814,1,0,0:0:0:0:
182,192,300814,1,0,0:0:0:50:big kick.wav
36,192,300814,1,2,0:0:0:0:
109,192,300892,1,0,0:0:0:0:
256,192,300892,1,0,0:0:0:0:
329,192,300971,1,0,0:0:0:0:
475,192,300971,1,0,0:0:0:0:
182,192,301049,1,0,0:0:0:0:
36,192,301049,1,0,0:0:0:0:
402,192,301128,1,0,0:0:0:0:
256,192,301128,1,0,0:0:0:50:big kick.wav
475,192,301128,1,2,0:0:0:0:
109,192,301128,1,2,0:0:0:0:
329,192,301206,1,0,0:0:0:0:
182,192,301206,1,0,0:0:0:0:
109,192,301285,1,0,0:0:0:0:
36,192,301285,1,0,0:0:0:0:
256,192,301363,1,0,0:0:0:0:
402,192,301363,1,0,0:0:0:0:
182,192,301442,1,0,0:0:0:50:big kick.wav
109,192,301442,1,0,0:0:0:0:
36,192,301442,1,2,0:0:0:0:
329,192,301442,1,2,0:0:0:0:
475,192,301520,1,0,0:0:0:0:
402,192,301520,1,0,0:0:0:0:
256,192,301599,1,0,0:0:0:0:
329,192,301599,1,0,0:0:0:0:
109,192,301678,1,0,0:0:0:50:big kick.wav
36,192,301678,1,2,0:0:0:0:
182,192,301678,1,2,0:0:0:0:
329,192,301756,1,0,0:0:0:0:
402,192,301756,1,0,0:0:0:50:big kick.wav
475,192,301756,1,2,0:0:0:0:
256,192,301756,1,2,0:0:0:0:
109,192,301835,1,0,0:0:0:0:
36,192,301835,1,0,0:0:0:0:
182,192,301913,1,2,0:0:0:0:
475,192,301913,1,2,0:0:0:0:
329,192,301913,1,0,0:0:0:0:
402,192,301913,1,0,0:0:0:50:big kick.wav
256,192,301992,1,0,0:0:0:0:
109,192,301992,1,0,0:0:0:0:
182,192,302070,1,0,0:0:0:50:big kick.wav
36,192,302070,1,2,0:0:0:0:
329,192,302070,1,0,0:0:0:0:
475,192,302070,1,2,0:0:0:0:
402,192,302149,1,0,0:0:0:0:
256,192,302149,1,0,0:0:0:0:
329,192,302227,1,0,0:0:0:0:
109,192,302227,1,0,0:0:0:0:
182,192,302306,1,0,0:0:0:0:
402,192,302306,1,0,0:0:0:0:
475,192,302384,1,2,0:0:0:0:
109,192,302384,1,0,0:0:0:50:big kick.wav
256,192,302384,1,0,0:0:0:0:
36,192,302384,1,2,0:0:0:0:
329,192,302463,1,0,0:0:0:0:
182,192,302463,1,0,0:0:0:0:
402,192,302541,1,0,0:0:0:0:
256,192,302541,1,0,0:0:0:0:
329,192,302620,1,0,0:0:0:0:
475,192,302620,1,0,0:0:0:0:
182,192,302698,1,0,0:0:0:0:
402,192,302698,1,2,0:0:0:0:
109,192,302698,1,0,0:0:0:50:big kick.wav
36,192,302698,1,2,0:0:0:0:
329,192,302777,1,0,0:0:0:0:
256,192,302777,1,0,0:0:0:0:
475,192,302856,1,0,0:0:0:0:
402,192,302856,1,0,0:0:0:0:
182,192,302934,1,0,0:0:0:0:
109,192,302934,1,0,0:0:0:0:
475,192,303013,1,2,0:0:0:0:
256,192,303013,1,0,0:0:0:50:big kick.wav
329,192,303013,1,0,0:0:0:0:
36,192,303013,1,2,0:0:0:0:
402,192,303091,1,0,0:0:0:0:
109,192,303091,1,0,0:0:0:0:
182,192,303170,1,0,0:0:0:0:
329,192,303170,1,0,0:0:0:0:
256,192,303248,1,0,0:0:0:0:
402,192,303248,1,0,0:0:0:0:
182,192,303327,1,0,0:0:0:50:big kick.wav
36,192,303327,1,2,0:0:0:0:
329,192,303327,1,0,0:0:0:0:
475,192,303327,1,2,0:0:0:0:
109,192,303405,1,0,0:0:0:0:
256,192,303405,1,0,0:0:0:0:
182,192,303484,1,0,0:0:0:0:
402,192,303484,1,0,0:0:0:0:
329,192,303562,1,0,0:0:0:0:
109,192,303562,1,0,0:0:0:0:
36,192,303641,1,2,0:0:0:0:
402,192,303641,1,0,0:0:0:0:
256,192,303641,1,0,0:0:0:50:big kick.wav
475,192,303641,1,2,0:0:0:0:
182,192,303719,1,0,0:0:0:0:
329,192,303719,1,0,0:0:0:0:
109,192,303798,1,0,0:0:0:0:
256,192,303798,1,0,0:0:0:0:
182,192,303876,1,0,0:0:0:0:
36,192,303876,1,0,0:0:0:0:
329,192,303955,1,0,0:0:0:50:big kick.wav
109,192,303955,1,2,0:0:0:0:
402,192,303955,1,0,0:0:0:0:
475,192,303955,1,2,0:0:0:0:
182,192,304034,1,0,0:0:0:0:
256,192,304034,1,0,0:0:0:0:
36,192,304112,1,0,0:0:0:0:
109,192,304112,1,0,0:0:0:0:
329,192,304191,1,0,0:0:0:0:
402,192,304191,1,0,0:0:0:0:
36,192,304269,1,2,0:0:0:0:
256,192,304269,1,0,0:0:0:50:big kick.wav
182,192,304269,1,0,0:0:0:0:
475,192,304269,1,2,0:0:0:0:
329,192,304348,1,0,0:0:0:0:
402,192,304348,1,0,0:0:0:0:
182,192,304426,1,0,0:0:0:0:
109,192,304426,1,0,0:0:0:0:
256,192,304505,1,0,0:0:0:0:
329,192,304505,1,0,0:0:0:0:
109,192,304583,1,0,0:0:0:50:big kick.wav
36,192,304583,1,2,0:0:0:0:
475,192,304583,1,2,0:0:0:0:
402,192,304583,1,0,0:0:0:0:
182,192,304662,1,0,0:0:0:0:
329,192,304662,1,0,0:0:0:0:
36,192,304740,1,0,0:0:0:0:
256,192,304740,1,0,0:0:0:0:
109,192,304819,1,0,0:0:0:0:
402,192,304819,1,0,0:0:0:0:
36,192,304897,1,2,0:0:0:0:
182,192,304897,1,0,0:0:0:50:big kick.wav
475,192,304897,1,2,0:0:0:0:
256,192,304897,1,0,0:0:0:0:
329,192,304976,1,0,0:0:0:0:
109,192,304976,1,0,0:0:0:0:
402,192,305054,1,0,0:0:0:0:
182,192,305054,1,0,0:0:0:0:
256,192,305133,1,0,0:0:0:0:
329,192,305133,1,0,0:0:0:0:
402,192,305212,1,0,0:0:0:0:
475,192,305212,1,2,0:0:0:0:
109,192,305212,1,0,0:0:0:50:big kick.wav
36,192,305212,1,2,0:0:0:0:
329,192,305290,1,0,0:0:0:0:
182,192,305290,1,0,0:0:0:0:
475,192,305369,1,0,0:0:0:0:
256,192,305369,1,0,0:0:0:0:
402,192,305447,1,0,0:0:0:0:
109,192,305447,1,0,0:0:0:0:
36,192,305526,1,2,0:0:0:0:
475,192,305526,1,2,0:0:0:0:
329,192,305526,1,0,0:0:0:0:
256,192,305526,1,0,0:0:0:50:big kick.wav
182,192,305604,1,0,0:0:0:0:
402,192,305604,1,0,0:0:0:0:
109,192,305683,1,0,0:0:0:0:
329,192,305683,1,0,0:0:0:0:
182,192,305761,1,0,0:0:0:0:
256,192,305761,1,0,0:0:0:0:
475,192,305840,1,2,0:0:0:0:
36,192,305840,1,2,0:0:0:0:
402,192,305840,1,0,0:0:0:0:
109,192,305840,1,0,0:0:0:50:big kick.wav
329,192,305918,1,0,0:0:0:0:
182,192,305918,1,0,0:0:0:0:
36,192,305997,1,2,0:0:0:0:
475,192,305997,1,2,0:0:0:0:
402,192,305997,1,0,0:0:0:0:
256,192,305997,1,0,0:0:0:50:big kick.wav
182,192,306075,1,0,0:0:0:0:
329,192,306075,1,0,0:0:0:0:
36,192,306154,1,2,0:0:0:0:
475,192,306154,1,2,0:0:0:0:
109,192,306154,1,0,0:0:0:50:big kick.wav
256,192,306154,1,0,0:0:0:0:
402,192,306232,1,0,0:0:0:0:
182,192,306232,1,0,0:0:0:0:
109,192,306311,1,0,0:0:0:50:big kick.wav
36,192,306311,1,2,0:0:0:0:
329,192,306311,1,2,0:0:0:0:
402,192,306390,1,0,0:0:0:50:big kick.wav
475,192,306390,1,2,0:0:0:0:
256,192,306390,1,2,0:0:0:0:
109,192,306468,1,0,0:0:0:50:big kick.wav
36,192,306468,1,2,0:0:0:0:
329,192,306468,1,2,0:0:0:0:
182,192,306468,1,0,0:0:0:0:
475,192,306547,1,0,0:0:0:0:
402,192,306547,1,0,0:0:0:0:
182,192,306625,1,0,0:0:0:0:
109,192,306625,1,0,0:0:0:50:big kick.wav
36,192,306625,1,2,0:0:0:0:
256,192,306625,1,2,0:0:0:0:
329,192,306704,1,0,0:0:0:0:
402,192,306704,1,0,0:0:0:0:
182,192,306782,1,0,0:0:0:0:
109,192,306782,1,0,0:0:0:50:big kick.wav
36,192,306782,1,2,0:0:0:0:
256,192,306782,1,2,0:0:0:0:
329,192,306861,1,0,0:0:0:0:
402,192,306861,1,0,0:0:0:0:
182,192,306939,1,0,0:0:0:0:
109,192,306939,1,0,0:0:0:50:big kick.wav
36,192,306939,1,2,0:0:0:0:
256,192,306939,1,2,0:0:0:0:
329,192,307018,1,2,0:0:0:0:
402,192,307018,1,0,0:0:0:0:
109,192,307096,1,0,0:0:0:50:big kick.wav
36,192,307096,1,2,0:0:0:0:
475,192,307096,1,2,0:0:0:0:
256,192,307096,1,0,0:0:0:0:
182,192,307175,1,0,0:0:0:0:
329,192,307175,1,0,0:0:0:0:
256,192,307253,1,0,0:0:0:0:
36,192,307253,1,0,0:0:0:0:
402,192,307332,1,0,0:0:0:0:
182,192,307332,1,0,0:0:0:0:
475,192,307410,1,2,0:0:0:0:
109,192,307410,1,0,0:0:0:50:big kick.wav
329,192,307410,1,0,0:0:0:0:
36,192,307410,1,2,0:0:0:0:
256,192,307489,1,0,0:0:0:0:
402,192,307489,1,0,0:0:0:0:
182,192,307568,1,0,0:0:0:0:
329,192,307568,1,0,0:0:0:0:
256,192,307646,1,0,0:0:0:0:
109,192,307646,1,0,0:0:0:0:
475,192,307725,1,2,0:0:0:0:
182,192,307725,1,0,0:0:0:50:big kick.wav
402,192,307725,1,0,0:0:0:0:
36,192,307725,1,2,0:0:0:0:
329,192,307803,1,0,0:0:0:0:
256,192,307803,1,0,0:0:0:0:
182,192,307882,1,0,0:0:0:0:
109,192,307882,1,0,0:0:0:0:
329,192,307960,1,0,0:0:0:0:
402,192,307960,1,0,0:0:0:0:
475,192,308039,1,2,0:0:0:0:
256,192,308039,1,0,0:0:0:0:
109,192,308039,1,0,0:0:0:50:big kick.wav
36,192,308039,1,2,0:0:0:0:
329,192,308117,1,0,0:0:0:0:
402,192,308117,1,0,0:0:0:0:
182,192,308196,1,0,0:0:0:0:
109,192,308196,1,0,0:0:0:0:
256,192,308274,1,0,0:0:0:0:
329,192,308274,1,0,0:0:0:0:
475,192,308353,1,2,0:0:0:0:
109,192,308353,1,0,0:0:0:50:big kick.wav
36,192,308353,1,2,0:0:0:0:
402,192,308353,1,0,0:0:0:0:
329,192,308431,1,0,0:0:0:0:
182,192,308431,1,0,0:0:0:0:
256,192,308510,1,0,0:0:0:0:
475,192,308510,1,0,0:0:0:0:
109,192,308589,1,0,0:0:0:0:
329,192,308589,1,0,0:0:0:0:
36,192,308667,1,2,0:0:0:0:
402,192,308667,1,0,0:0:0:0:
182,192,308667,1,0,0:0:0:50:big kick.wav
475,192,308667,1,2,0:0:0:0:
256,192,308746,1,0,0:0:0:0:
109,192,308746,1,0,0:0:0:0:
329,192,308824,1,0,0:0:0:0:
182,192,308824,1,0,0:0:0:0:
256,192,308903,1,0,0:0:0:0:
402,192,308903,1,0,0:0:0:0:
36,192,308981,1,2,0:0:0:0:
329,192,308981,1,0,0:0:0:0:
109,192,308981,1,0,0:0:0:50:big kick.wav
475,192,308981,1,2,0:0:0:0:
182,192,309060,1,0,0:0:0:0:
256,192,309060,1,0,0:0:0:0:
329,192,309138,1,0,0:0:0:0:
402,192,309138,1,0,0:0:0:0:
182,192,309217,1,0,0:0:0:0:
109,192,309217,1,0,0:0:0:0:
36,192,309295,1,2,0:0:0:0:
256,192,309295,1,0,0:0:0:50:big kick.wav
402,192,309295,1,0,0:0:0:0:
475,192,309295,1,2,0:0:0:0:
182,192,309374,1,0,0:0:0:0:
109,192,309374,1,0,0:0:0:0:
329,192,309452,1,0,0:0:0:0:
402,192,309452,1,0,0:0:0:0:
256,192,309531,1,0,0:0:0:0:
182,192,309531,1,0,0:0:0:0:
36,192,309609,1,2,0:0:0:0:
329,192,309609,1,0,0:0:0:0:
475,192,309609,1,2,0:0:0:0:
109,192,309609,1,0,0:0:0:50:big kick.wav
402,192,309688,1,0,0:0:0:0:
256,192,309688,1,0,0:0:0:0:
182,192,309767,1,0,0:0:0:0:
475,192,309767,1,0,0:0:0:0:
329,192,309845,1,0,0:0:0:0:
36,192,309845,1,0,0:0:0:0:
109,192,309924,1,2,0:0:0:0:
256,192,309924,1,0,0:0:0:50:big kick.wav
475,192,309924,1,2,0:0:0:0:
402,192,309924,1,0,0:0:0:0:
182,192,310002,1,0,0:0:0:0:
329,192,310002,1,0,0:0:0:0:
402,192,310081,1,0,0:0:0:0:
36,192,310081,1,0,0:0:0:0:
256,192,310159,1,0,0:0:0:0:
109,192,310159,1,0,0:0:0:0:
329,192,310238,1,0,0:0:0:50:big kick.wav
402,192,310238,1,2,0:0:0:0:
36,192,310238,1,2,0:0:0:0:
182,192,310238,1,0,0:0:0:0:
475,192,310316,1,0,0:0:0:0:
109,192,310316,1,0,0:0:0:0:
256,192,310395,1,0,0:0:0:0:
182,192,310395,1,0,0:0:0:0:
402,192,310473,1,0,0:0:0:0:
329,192,310473,1,0,0:0:0:0:
182,192,310552,1,0,0:0:0:50:big kick.wav
109,192,310552,1,0,0:0:0:0:
475,192,310552,1,2,0:0:0:0:
36,192,310552,1,2,0:0:0:0:
402,192,310630,1,0,0:0:0:0:
256,192,310630,1,0,0:0:0:0:
109,192,310709,1,0,0:0:0:0:
475,192,310709,1,0,0:0:0:0:
329,192,310787,1,0,0:0:0:0:
256,192,310787,1,0,0:0:0:0:
36,192,310866,1,2,0:0:0:0:
402,192,310866,1,0,0:0:0:50:big kick.wav
182,192,310866,1,0,0:0:0:0:
475,192,310866,1,2,0:0:0:0:
109,192,310945,1,0,0:0:0:0:
256,192,310945,1,0,0:0:0:0:
329,192,311023,1,0,0:0:0:0:
36,192,311023,1,0,0:0:0:0:
182,192,311102,1,0,0:0:0:0:
475,192,311102,1,0,0:0:0:0:
402,192,311180,1,2,0:0:0:0:
256,192,311180,1,0,0:0:0:50:big kick.wav
36,192,311180,1,2,0:0:0:0:
109,192,311180,1,0,0:0:0:0:
329,192,311259,1,0,0:0:0:0:
182,192,311259,1,0,0:0:0:0:
109,192,311337,1,0,0:0:0:0:
475,192,311337,1,0,0:0:0:0:
256,192,311416,1,0,0:0:0:0:
402,192,311416,1,0,0:0:0:0:
182,192,311494,1,0,0:0:0:50:big kick.wav
109,192,311494,1,2,0:0:0:0:
475,192,311494,1,2,0:0:0:0:
329,192,311494,1,0,0:0:0:0:
36,192,311573,1,0,0:0:0:0:
402,192,311573,1,0,0:0:0:0:
256,192,311651,1,0,0:0:0:0:
329,192,311651,1,0,0:0:0:0:
109,192,311730,1,2,0:0:0:0:
475,192,311730,1,2,0:0:0:0:
182,192,311730,1,0,0:0:0:50:big kick.wav
329,192,311808,1,0,0:0:0:50:big kick.wav
402,192,311808,1,2,0:0:0:0:
36,192,311808,1,2,0:0:0:0:
256,192,311808,1,0,0:0:0:0:
109,192,311887,1,0,0:0:0:0:
475,192,311887,1,0,0:0:0:0:
182,192,311965,1,0,0:0:0:0:
36,192,311965,1,2,0:0:0:0:
329,192,311965,1,0,0:0:0:50:big kick.wav
402,192,311965,1,2,0:0:0:0:
256,192,312044,1,0,0:0:0:0:
109,192,312044,1,0,0:0:0:0:
182,192,312123,1,0,0:0:0:0:
475,192,312123,1,2,0:0:0:0:
329,192,312123,1,0,0:0:0:50:big kick.wav
36,192,312123,1,2,0:0:0:0:
402,192,312201,1,0,0:0:0:0:
256,192,312201,1,0,0:0:0:0:
329,192,312280,1,0,0:0:0:0:
109,192,312280,1,0,0:0:0:0:
182,192,312358,1,0,0:0:0:0:
402,192,312358,1,0,0:0:0:0:
36,192,312437,1,2,0:0:0:0:
109,192,312437,1,0,0:0:0:50:big kick.wav
256,192,312437,1,0,0:0:0:0:
475,192,312437,1,2,0:0:0:0:
329,192,312515,1,0,0:0:0:0:
182,192,312515,1,0,0:0:0:0:
402,192,312594,1,0,0:0:0:0:
256,192,312594,1,0,0:0:0:0:
329,192,312672,1,0,0:0:0:0:
36,192,312672,1,0,0:0:0:0:
182,192,312751,1,0,0:0:0:50:big kick.wav
402,192,312751,1,0,0:0:0:0:
109,192,312751,1,2,0:0:0:0:
475,192,312751,1,2,0:0:0:0:
329,192,312829,1,0,0:0:0:0:
256,192,312829,1,0,0:0:0:0:
36,192,312908,1,0,0:0:0:0:
402,192,312908,1,0,0:0:0:0:
182,192,312986,1,0,0:0:0:0:
109,192,312986,1,0,0:0:0:0:
36,192,313065,1,2,0:0:0:0:
256,192,313065,1,0,0:0:0:50:big kick.wav
329,192,313065,1,0,0:0:0:0:
475,192,313065,1,2,0:0:0:0:
402,192,313143,1,0,0:0:0:0:
109,192,313143,1,0,0:0:0:0:
182,192,313222,1,0,0:0:0:0:
329,192,313222,1,0,0:0:0:0:
256,192,313301,1,0,0:0:0:0:
402,192,313301,1,0,0:0:0:0:
182,192,313379,1,0,0:0:0:0:
475,192,313379,1,2,0:0:0:0:
329,192,313379,1,0,0:0:0:50:big kick.wav
36,192,313379,1,2,0:0:0:0:
109,192,313458,1,0,0:0:0:0:
256,192,313458,1,0,0:0:0:0:
182,192,313536,1,0,0:0:0:0:
402,192,313536,1,0,0:0:0:0:
329,192,313615,1,0,0:0:0:0:
109,192,313615,1,0,0:0:0:0:
475,192,313693,1,2,0:0:0:0:
402,192,313693,1,0,0:0:0:0:
256,192,313693,1,0,0:0:0:50:big kick.wav
36,192,313693,1,2,0:0:0:0:
182,192,313772,1,0,0:0:0:0:
329,192,313772,1,0,0:0:0:0:
109,192,313850,1,0,0:0:0:0:
256,192,313850,1,0,0:0:0:0:
182,192,313929,1,0,0:0:0:0:
475,192,313929,1,0,0:0:0:0:
329,192,314007,1,0,0:0:0:50:big kick.wav
109,192,314007,1,0,0:0:0:0:
402,192,314007,1,2,0:0:0:0:
36,192,314007,1,2,0:0:0:0:
182,192,314086,1,0,0:0:0:0:
256,192,314086,1,0,0:0:0:0:
475,192,314164,1,0,0:0:0:0:
109,192,314164,1,0,0:0:0:0:
329,192,314243,1,0,0:0:0:0:
402,192,314243,1,0,0:0:0:0:
475,192,314321,1,2,0:0:0:0:
256,192,314321,1,0,0:0:0:50:big kick.wav
182,192,314321,1,0,0:0:0:0:
36,192,314321,1,2,0:0:0:0:
329,192,314400,1,0,0:0:0:0:
402,192,314400,1,0,0:0:0:0:
182,192,314479,1,0,0:0:0:0:
109,192,314479,1,0,0:0:0:0:
256,192,314557,1,0,0:0:0:0:
329,192,314557,1,0,0:0:0:0:
109,192,314636,1,0,0:0:0:0:
475,192,314636,1,2,0:0:0:0:
36,192,314636,1,2,0:0:0:0:
402,192,314636,1,0,0:0:0:50:big kick.wav
182,192,314714,1,0,0:0:0:0:
329,192,314714,1,0,0:0:0:0:
475,192,314793,1,0,0:0:0:0:
256,192,314793,1,0,0:0:0:0:
109,192,314871,1,0,0:0:0:0:
402,192,314871,1,0,0:0:0:0:
475,192,314950,1,2,0:0:0:0:
182,192,314950,1,0,0:0:0:50:big kick.wav
36,192,314950,1,2,0:0:0:0:
256,192,314950,1,0,0:0:0:0:
329,192,315028,1,0,0:0:0:0:
109,192,315028,1,0,0:0:0:0:
402,192,315107,1,0,0:0:0:0:
182,192,315107,1,0,0:0:0:0:
256,192,315185,1,0,0:0:0:0:
329,192,315185,1,0,0:0:0:0:
402,192,315264,1,0,0:0:0:0:
36,192,315264,1,2,0:0:0:0:
109,192,315264,1,0,0:0:0:50:big kick.wav
475,192,315264,1,2,0:0:0:0:
329,192,315342,1,0,0:0:0:0:
182,192,315342,1,0,0:0:0:0:
36,192,315421,1,0,0:0:0:0:
256,192,315421,1,0,0:0:0:0:
402,192,315499,1,0,0:0:0:0:
109,192,315499,1,0,0:0:0:0:
475,192,315578,1,2,0:0:0:0:
36,192,315578,1,2,0:0:0:0:
329,192,315578,1,0,0:0:0:0:
256,192,315578,1,0,0:0:0:50:big kick.wav
182,192,315657,1,0,0:0:0:0:
402,192,315657,1,0,0:0:0:0:
109,192,315735,1,0,0:0:0:0:
329,192,315735,1,0,0:0:0:0:
182,192,315814,1,0,0:0:0:0:
256,192,315814,1,0,0:0:0:0:
36,192,315892,1,0,0:0:0:0:
475,192,315892,1,4,0:0:0:0:
402,192,315892,1,2,0:0:0:0:
109,192,315892,1,2,0:0:0:0:
329,192,315892,1,0,0:0:0:50:big kick.wav
256,192,315971,1,0,0:0:0:0:
109,192,316049,1,2,0:0:0:0:
36,192,316049,1,0,0:0:0:0:
402,192,316049,1,2,0:0:0:0:
475,192,316049,1,0,0:0:0:50:big kick.wav
329,192,316128,1,2,0:0:0:0:
256,192,316128,1,0,0:0:0:50:big kick.wav
182,192,316128,1,2,0:0:0:0:
36,192,316206,1,0,0:0:0:50:big kick.wav
109,192,316206,1,2,0:0:0:0:
402,192,316206,1,2,0:0:0:0:
475,192,316206,1,4,0:0:0:0:
182,192,316285,1,0,0:0:0:0:
329,192,316285,1,0,0:0:0:50:big kick.wav
256,192,316363,1,0,0:0:0:50:big kick.wav
109,192,316363,1,2,0:0:0:0:
36,192,316363,1,0,0:0:0:0:
402,192,316363,1,2,0:0:0:0:
475,192,316363,1,4,0:0:0:0:
329,192,316442,1,0,0:0:0:50:big kick.wav
182,192,316442,1,2,0:0:0:0:
36,192,316520,1,0,0:0:0:0:
109,192,316520,1,2,0:0:0:0:
402,192,316520,1,2,0:0:0:0:
475,192,316520,1,4,0:0:0:0:
256,192,316520,1,0,0:0:0:50:big kick.wav
182,192,316599,1,0,0:0:0:0:
36,192,316678,1,0,0:0:0:0:
109,192,316678,1,2,0:0:0:0:
402,192,316678,1,2,0:0:0:0:
329,192,316678,1,0,0:0:0:50:big kick.wav
475,192,316678,1,0,0:0:0:0:
256,192,316756,1,0,0:0:0:0:
182,192,316835,1,0,0:0:0:0:
329,192,316835,1,0,0:0:0:50:big kick.wav
402,192,316835,1,2,0:0:0:0:
475,192,316835,1,4,0:0:0:0:
109,192,316835,1,2,0:0:0:0:
36,192,316835,1,0,0:0:0:0:
256,192,316913,1,2,0:0:0:0:
475,192,316992,1,4,0:0:0:0:
402,192,316992,1,2,0:0:0:0:
329,192,316992,1,0,0:0:0:50:big kick.wav
182,192,316992,1,0,0:0:0:0:
109,192,316992,1,2,0:0:0:0:
36,192,316992,1,0,0:0:0:0:
256,192,317070,1,2,0:0:0:0:
36,192,317149,1,0,0:0:0:0:
109,192,317149,1,2,0:0:0:0:
402,192,317149,1,2,0:0:0:0:
475,192,317149,1,0,0:0:0:0:
182,192,317227,1,0,0:0:0:0:
329,192,317227,1,0,0:0:0:0:
109,192,317306,1,0,0:0:0:0:
402,192,317306,1,0,0:0:0:0:
475,192,317384,1,0,0:0:0:0:
36,192,317384,1,0,0:0:0:0:
329,192,317463,1,0,0:0:0:0:
182,192,317463,1,0,0:0:0:0:
402,192,317541,1,0,0:0:0:0:
109,192,317541,1,0,0:0:0:0:
182,192,317620,1,0,0:0:0:0:
329,192,317620,1,0,0:0:0:0:
256,192,317698,1,0,0:0:0:0:
475,192,317698,1,0,0:0:0:0:
109,192,317777,1,0,0:0:0:0:
36,192,317777,1,0,0:0:0:0:
182,192,317856,1,0,0:0:0:0:
329,192,317856,1,0,0:0:0:0:
402,192,317934,1,0,0:0:0:0:
475,192,317934,1,0,0:0:0:0:
256,192,318013,1,0,0:0:0:0:
109,192,318013,1,0,0:0:0:0:
329,192,318091,1,0,0:0:0:0:
475,192,318091,1,0,0:0:0:0:
182,192,318170,1,0,0:0:0:0:
36,192,318170,1,0,0:0:0:0:
402,192,318248,1,0,0:0:0:0:
256,192,318248,1,0,0:0:0:0:
109,192,318327,1,0,0:0:0:0:
36,192,318327,1,0,0:0:0:0:
182,192,318405,1,0,0:0:0:0:
329,192,318405,1,0,0:0:0:0:
475,192,318484,1,0,0:0:0:0:
36,192,318484,1,0,0:0:0:0:
109,192,318562,1,0,0:0:0:0:
402,192,318562,1,0,0:0:0:0:
182,192,318641,1,0,0:0:0:0:
329,192,318641,1,0,0:0:0:0:
475,192,318719,1,0,0:0:0:0:
36,192,318719,1,0,0:0:0:0:
182,192,318798,1,0,0:0:0:0:
329,192,318798,1,0,0:0:0:0:
402,192,318876,1,0,0:0:0:0:
109,192,318876,1,0,0:0:0:0:
36,192,318955,1,0,0:0:0:0:
256,192,318955,1,0,0:0:0:0:
329,192,319034,1,0,0:0:0:0:
475,192,319034,1,0,0:0:0:0:
182,192,319112,1,0,0:0:0:0:
36,192,319112,1,0,0:0:0:0:
402,192,319191,1,0,0:0:0:0:
256,192,319191,1,0,0:0:0:0:
109,192,319269,1,0,0:0:0:0:
36,192,319269,1,0,0:0:0:0:
329,192,319348,1,0,0:0:0:0:
182,192,319348,1,0,0:0:0:0:
475,192,319426,1,0,0:0:0:0:
402,192,319426,1,0,0:0:0:0:
256,192,319505,1,0,0:0:0:0:
109,192,319505,1,0,0:0:0:0:
475,192,319583,1,0,0:0:0:0:
329,192,319583,1,0,0:0:0:0:
36,192,319662,1,0,0:0:0:0:
109,192,319662,1,0,0:0:0:0:
329,192,319740,1,0,0:0:0:0:
182,192,319740,1,0,0:0:0:0:
402,192,319819,1,0,0:0:0:0:
109,192,319819,1,0,0:0:0:0:
36,192,319897,1,0,0:0:0:0:
475,192,319897,1,0,0:0:0:0:
182,192,319976,1,0,0:0:0:0:
329,192,319976,1,0,0:0:0:0:
109,192,320054,1,0,0:0:0:0:
402,192,320054,1,0,0:0:0:0:
329,192,320133,1,0,0:0:0:0:
182,192,320133,1,0,0:0:0:0:
256,192,320212,1,0,0:0:0:0:
36,192,320212,1,0,0:0:0:0:
402,192,320290,1,0,0:0:0:0:
475,192,320290,1,0,0:0:0:0:
329,192,320369,1,0,0:0:0:0:
182,192,320369,1,0,0:0:0:0:
109,192,320447,1,0,0:0:0:0:
36,192,320447,1,0,0:0:0:0:
256,192,320526,1,0,0:0:0:0:
402,192,320526,1,0,0:0:0:0:
182,192,320604,1,0,0:0:0:0:
36,192,320604,1,0,0:0:0:0:
329,192,320683,1,0,0:0:0:0:
475,192,320683,1,0,0:0:0:0:
109,192,320761,1,0,0:0:0:0:
256,192,320761,1,0,0:0:0:0:
402,192,320840,1,0,0:0:0:0:
475,192,320840,1,0,0:0:0:0:
329,192,320918,1,0,0:0:0:0:
182,192,320918,1,0,0:0:0:0:
36,192,320997,1,0,0:0:0:0:
475,192,320997,1,0,0:0:0:0:
402,192,321075,1,0,0:0:0:0:
109,192,321075,1,0,0:0:0:0:
329,192,321154,1,0,0:0:0:0:
182,192,321154,1,0,0:0:0:0:
36,192,321232,1,0,0:0:0:0:
475,192,321232,1,0,0:0:0:0:
329,192,321311,1,0,0:0:0:0:
182,192,321311,1,0,0:0:0:0:
109,192,321390,1,0,0:0:0:0:
402,192,321390,1,0,0:0:0:0:
475,192,321468,1,0,0:0:0:0:
256,192,321468,1,0,0:0:0:0:
182,192,321547,1,0,0:0:0:0:
36,192,321547,1,0,0:0:0:0:
329,192,321625,1,0,0:0:0:0:
475,192,321625,1,0,0:0:0:0:
109,192,321704,1,0,0:0:0:0:
256,192,321704,1,0,0:0:0:0:
402,192,321782,1,0,0:0:0:0:
475,192,321782,1,0,0:0:0:0:
182,192,321861,1,0,0:0:0:0:
329,192,321861,1,0,0:0:0:0:
36,192,321939,1,0,0:0:0:0:
109,192,321939,1,0,0:0:0:0:
256,192,322018,1,0,0:0:0:0:
402,192,322018,1,0,0:0:0:0:
36,192,322096,1,0,0:0:0:0:
182,192,322096,1,0,0:0:0:0:
