osu file format v14

[General]
AudioFilename: 04_vol_boss+++.mp3
AudioLeadIn: 0
PreviewTime: -1
Countdown: 1
SampleSet: Soft
StackLeniency: 0.7
Mode: 0
LetterboxInBreaks: 1
WidescreenStoryboard: 0

[Editor]
DistanceSpacing: 1
BeatDivisor: 4
GridSize: 16
TimelineZoom: 2.699999

[Metadata]
Title:volcanic
TitleUnicode:volcanic
Artist:DETRO
ArtistUnicode:DETRO
Creator:Tassadar
Version:Boss
Source:
Tags:
BeatmapID:962677
BeatmapSetID:448551

[Difficulty]
HPDrainRate:5.7
CircleSize:3.9
OverallDifficulty:8.5
ApproachRate:9.5
SliderMultiplier:1.8
SliderTickRate:1

[Events]
//Background and Video events
0,0,"vol_bg.jpg",0,0
//Break Periods
//Storyboard Layer 0 (Background)
//Storyboard Layer 1 (Fail)
//Storyboard Layer 2 (Pass)
//Storyboard Layer 3 (Foreground)
//Storyboard Sound Samples

[TimingPoints]
1229,314.13612565445,4,2,0,100,1,0
1229,-133.333333333333,4,2,0,100,0,0
4998,-100,4,2,0,100,0,0
26359,-133.333333333333,4,2,0,100,0,0
35155,-100,4,2,0,100,0,0
65626,-133.333333333333,4,2,0,100,0,0
66569,-100,4,2,0,100,0,1
86674,-100,4,2,0,100,0,0

[HitObjects]
126,314,1229,5,0,0:0:0:0:
97,202,1386,1,0,0:0:0:0:
97,202,1464,1,0,0:0:0:0:
97,202,1543,2,0,P|111:149|128:138,1,67.5000025749208
230,115,1857,5,0,0:0:0:0:
230,115,1935,1,0,0:0:0:0:
230,115,2014,1,0,0:0:0:0:
270,222,2171,2,0,L|225:277,1,67.5000025749208
115,300,2485,5,0,0:0:0:0:
61,198,2642,1,0,0:0:0:0:
61,198,2721,1,0,0:0:0:0:
61,198,2799,2,0,P|75:145|92:134,1,67.5000025749208
189,97,3113,5,0,0:0:0:0:
189,97,3192,1,0,0:0:0:0:
189,97,3270,1,0,0:0:0:0:
283,161,3427,2,0,L|328:218,1,67.5000025749208
419,280,3742,5,0,0:0:0:0:
434,166,3899,1,0,0:0:0:0:
434,166,3977,1,0,0:0:0:0:
434,166,4056,2,0,P|409:130|389:121,1,67.5000025749208
289,178,4370,5,0,0:0:0:0:
289,178,4448,1,0,0:0:0:0:
289,178,4527,1,0,0:0:0:0:
195,243,4684,2,0,L|138:202,1,67.5000025749208
138,50,4998,5,0,0:0:0:0:
366,133,5155,1,0,0:0:0:0:
366,133,5234,1,0,0:0:0:0:
366,133,5312,1,0,0:0:0:0:
203,313,5469,5,0,0:0:0:0:
161,295,5548,1,0,0:0:0:0:
130,262,5626,1,0,0:0:0:0:
117,218,5705,1,0,0:0:0:0:
115,173,5783,2,0,P|119:127|150:91,1,90
389,77,6098,1,0,0:0:0:0:
418,142,6176,1,0,0:0:0:0:
398,211,6255,5,0,0:0:0:0:
202,302,6412,1,0,0:0:0:0:
202,302,6490,1,0,0:0:0:0:
202,302,6569,2,0,P|141:293|118:275,1,90
163,65,6883,5,0,0:0:0:0:
163,65,6961,1,0,0:0:0:0:
163,65,7040,1,0,0:0:0:0:
343,183,7197,1,0,0:0:0:0:
131,227,7354,1,0,0:0:0:0:
280,71,7511,5,0,0:0:0:0:
378,263,7668,1,0,0:0:0:0:
378,263,7747,1,0,0:0:0:0:
378,263,7825,2,0,P|347:301|305:314,1,90
105,241,8139,5,0,0:0:0:0:
105,241,8218,1,0,0:0:0:0:
105,241,8297,1,0,0:0:0:0:
211,53,8454,1,0,0:0:0:0:
273,259,8611,1,0,0:0:0:0:
376,69,8768,5,0,0:0:0:0:
415,281,8925,1,0,0:0:0:0:
415,281,9003,1,0,0:0:0:0:
415,281,9082,2,0,L|343:340,1,90
132,302,9396,5,0,0:0:0:0:
132,302,9475,1,0,0:0:0:0:
132,302,9553,1,0,0:0:0:0:
47,103,9710,1,0,0:0:0:0:
255,160,9867,1,0,0:0:0:0:
424,26,10024,5,0,0:0:0:0:
428,241,10181,1,0,0:0:0:0:
428,241,10260,1,0,0:0:0:0:
428,241,10338,2,0,L|345:283,1,90
132,309,10653,5,0,0:0:0:0:
132,309,10731,1,0,0:0:0:0:
132,309,10810,1,0,0:0:0:0:
90,51,10967,1,0,0:0:0:0:
341,119,11124,1,0,0:0:0:0:
143,206,11281,5,0,0:0:0:0:
267,29,11438,1,0,0:0:0:0:
267,29,11516,1,0,0:0:0:0:
267,29,11595,2,0,L|354:55,1,90
396,266,11909,5,0,0:0:0:0:
396,266,11988,1,0,0:0:0:0:
396,266,12066,1,0,0:0:0:0:
181,292,12223,1,0,0:0:0:0:
225,80,12380,1,0,0:0:0:0:
420,171,12537,5,0,0:0:0:0:
208,214,12694,1,0,0:0:0:0:
208,214,12773,1,0,0:0:0:0:
208,214,12852,2,0,L|119:214,1,90
236,33,13166,5,0,0:0:0:0:
236,33,13244,1,0,0:0:0:0:
236,33,13323,1,0,0:0:0:0:
447,77,13480,1,0,0:0:0:0:
244,153,13637,1,0,0:0:0:0:
442,237,13794,5,0,0:0:0:0:
239,311,13951,1,0,0:0:0:0:
239,311,14030,1,0,0:0:0:0:
239,311,14108,2,0,P|179:291|164:271,1,90
175,55,14422,5,0,0:0:0:0:
175,55,14501,1,0,0:0:0:0:
175,55,14579,1,0,0:0:0:0:
385,100,14736,1,0,0:0:0:0:
206,221,14893,1,0,0:0:0:0:
409,293,15050,1,0,0:0:0:0:
276,120,15208,5,0,0:0:0:0:
276,120,15286,1,0,0:0:0:0:
276,120,15365,1,0,0:0:0:0:
152,328,15522,5,0,0:0:0:0:
111,309,15600,1,0,0:0:0:0:
79,276,15679,1,0,0:0:0:0:
68,231,15758,1,0,0:0:0:0:
77,187,15836,1,0,0:0:0:0:
217,40,15993,1,0,0:0:0:0:
357,237,16150,1,0,0:0:0:0:
311,292,16228,1,0,0:0:0:0:
243,317,16307,5,0,0:0:0:0:
70,186,16464,1,0,0:0:0:0:
70,186,16543,1,0,0:0:0:0:
70,186,16621,2,0,P|82:120|98:101,1,90
307,64,16935,5,0,0:0:0:0:
307,64,17013,1,0,0:0:0:0:
307,64,17092,1,0,0:0:0:0:
354,274,17249,1,0,0:0:0:0:
183,138,17407,1,0,0:0:0:0:
374,38,17564,5,0,0:0:0:0:
245,211,17721,1,0,0:0:0:0:
245,211,17799,1,0,0:0:0:0:
245,211,17878,2,0,P|183:222|156:213,1,90
86,10,18192,5,0,0:0:0:0:
86,10,18270,1,0,0:0:0:0:
86,10,18349,1,0,0:0:0:0:
291,74,18506,1,0,0:0:0:0:
366,276,18663,1,0,0:0:0:0:
173,179,18820,5,0,0:0:0:0:
387,151,18977,1,0,0:0:0:0:
387,151,19056,1,0,0:0:0:0:
387,151,19134,2,0,P|430:192|438:220,1,90
246,319,19448,5,0,0:0:0:0:
246,319,19527,1,0,0:0:0:0:
246,319,19605,1,0,0:0:0:0:
71,189,19763,1,0,0:0:0:0:
245,61,19920,1,0,0:0:0:0:
390,220,20077,5,0,0:0:0:0:
174,226,20234,1,0,0:0:0:0:
174,226,20312,1,0,0:0:0:0:
174,226,20391,2,0,L|140:128,1,90
340,50,20705,5,0,0:0:0:0:
340,50,20783,1,0,0:0:0:0:
340,50,20862,1,0,0:0:0:0:
350,310,21019,1,0,0:0:0:0:
105,219,21176,1,0,0:0:0:0:
291,110,21333,5,0,0:0:0:0:
179,295,21490,1,0,0:0:0:0:
179,295,21569,1,0,0:0:0:0:
179,295,21647,2,0,P|132:306|91:288,1,90
65,76,21961,5,0,0:0:0:0:
65,76,22040,1,0,0:0:0:0:
65,76,22119,1,0,0:0:0:0:
291,110,22276,1,0,0:0:0:0:
95,201,22433,1,0,0:0:0:0:
238,39,22590,5,0,0:0:0:0:
347,225,22747,1,0,0:0:0:0:
347,225,22825,1,0,0:0:0:0:
347,225,22904,2,0,L|297:301,1,90
89,241,23218,5,0,0:0:0:0:
89,241,23297,1,0,0:0:0:0:
89,241,23375,1,0,0:0:0:0:
246,92,23532,1,0,0:0:0:0:
404,238,23689,1,0,0:0:0:0:
191,197,23846,5,0,0:0:0:0:
404,80,24003,1,0,0:0:0:0:
404,80,24082,1,0,0:0:0:0:
404,80,24160,1,0,0:0:0:0:
384,323,24318,1,0,0:0:0:0:
150,257,24475,5,0,0:0:0:0:
150,257,24553,1,0,0:0:0:0:
150,257,24632,1,0,0:0:0:0:
277,50,24789,1,0,0:0:0:0:
405,256,24946,1,0,0:0:0:0:
128,337,25103,5,0,0:0:0:0:
190,55,25260,1,0,0:0:0:0:
243,54,25338,1,0,0:0:0:0:
286,86,25417,1,0,0:0:0:0:
72,279,25574,5,0,0:0:0:0:
45,231,25653,1,0,0:0:0:0:
42,177,25731,1,0,0:0:0:0:
63,126,25810,1,0,0:0:0:0:
107,96,25888,1,0,0:0:0:0:
394,97,26045,1,0,0:0:0:0:
234,336,26202,1,0,0:0:0:0:
180,287,26281,1,0,0:0:0:0:
162,217,26359,6,0,P|168:169|183:150,1,67.5000025749208
250,72,26674,2,0,P|279:33|302:25,1,67.5000025749208
380,94,26988,2,0,P|424:75|448:79,1,67.5000025749208
409,180,27302,2,0,P|456:186|475:201,1,67.5000025749208
405,282,27616,6,0,L|324:309,1,67.5000025749208
244,352,27930,2,0,L|180:295,1,67.5000025749208
104,246,28244,1,0,0:0:0:0:
103,185,28401,1,0,0:0:0:0:
129,130,28558,1,0,0:0:0:0:
178,94,28715,1,0,0:0:0:0:
238,85,28872,6,0,L|306:85,1,67.5000025749208
346,185,29187,2,0,L|404:219,1,67.5000025749208
308,268,29501,2,0,L|341:326,1,67.5000025749208
235,309,29815,2,0,L|234:376,1,67.5000025749208
131,345,30129,5,0,0:0:0:0:
83,308,30286,1,0,0:0:0:0:
66,251,30443,1,0,0:0:0:0:
85,195,30600,1,0,0:0:0:0:
154,152,30757,5,0,0:0:0:0:
231,176,30914,1,0,0:0:0:0:
311,180,31071,1,0,0:0:0:0:
377,134,31228,1,0,0:0:0:0:
414,61,31386,6,0,L|355:25,1,67.5000025749208
238,88,31700,2,0,L|177:121,1,67.5000025749208
162,237,32014,2,0,L|160:306,1,67.5000025749208
297,296,32328,2,0,L|356:332,1,67.5000025749208
420,245,32642,6,0,P|436:196|434:182,1,67.5000025749208
348,115,32956,2,0,P|313:76|300:71,1,67.5000025749208
196,101,33270,1,0,0:0:0:0:
155,146,33427,1,0,0:0:0:0:
143,205,33585,1,0,0:0:0:0:
157,263,33742,1,0,0:0:0:0:
197,308,33899,6,0,P|232:324|261:323,1,67.5000025749208
339,249,34213,2,0,P|370:226|383:201,1,67.5000025749208
318,115,34527,2,0,P|314:76|298:52,1,67.5000025749208
203,102,34841,2,0,P|167:86|138:86,1,67.5000025749208
110,227,35155,6,0,L|135:266,1,45
360,300,35312,1,0,0:0:0:0:
360,300,35391,1,0,0:0:0:0:
360,300,35469,2,0,L|335:261,1,45
81,87,35626,2,0,L|106:126,1,45
228,285,35783,5,0,0:0:0:0:
267,315,35862,1,0,0:0:0:0:
316,322,35941,1,0,0:0:0:0:
360,300,36019,1,0,0:0:0:0:
389,259,36098,1,0,0:0:0:0:
400,211,36176,1,0,0:0:0:0:
390,162,36255,1,0,0:0:0:0:
356,125,36333,1,0,0:0:0:0:
311,103,36412,6,0,L|221:79,1,90
67,242,36726,1,0,0:0:0:0:
266,324,36883,1,0,0:0:0:0:
155,138,37040,5,0,0:0:0:0:
69,336,37197,1,0,0:0:0:0:
239,203,37354,1,0,0:0:0:0:
81,55,37511,1,0,0:0:0:0:
128,265,37668,5,0,0:0:0:0:
289,121,37825,1,0,0:0:0:0:
74,145,37982,5,0,0:0:0:0:
247,273,38139,1,0,0:0:0:0:
200,60,38297,5,0,0:0:0:0:
408,117,38454,1,0,0:0:0:0:
196,161,38611,1,0,0:0:0:0:
371,287,38768,1,0,0:0:0:0:
325,75,38925,5,0,0:0:0:0:
185,240,39082,1,0,0:0:0:0:
112,36,39239,1,0,0:0:0:0:
42,240,39396,1,0,0:0:0:0:
237,331,39553,5,0,0:0:0:0:
192,119,39710,1,0,0:0:0:0:
384,215,39867,1,0,0:0:0:0:
172,257,40024,1,0,0:0:0:0:
290,76,40181,5,0,0:0:0:0:
325,288,40338,1,0,0:0:0:0:
166,139,40496,1,0,0:0:0:0:
166,354,40653,1,0,0:0:0:0:
41,268,40810,5,0,0:0:0:0:
126,40,40967,1,0,0:0:0:0:
219,264,41124,1,0,0:0:0:0:
303,36,41281,1,0,0:0:0:0:
397,259,41438,5,0,0:0:0:0:
194,183,41595,1,0,0:0:0:0:
394,102,41752,1,0,0:0:0:0:
126,40,41909,1,0,0:0:0:0:
119,255,42066,5,0,0:0:0:0:
280,111,42223,1,0,0:0:0:0:
230,321,42380,1,0,0:0:0:0:
146,122,42537,1,0,0:0:0:0:
355,173,42694,5,0,0:0:0:0:
152,251,42852,1,0,0:0:0:0:
235,51,43009,1,0,0:0:0:0:
284,261,43166,1,0,0:0:0:0:
110,133,43323,5,0,0:0:0:0:
321,91,43480,1,0,0:0:0:0:
190,262,43637,1,0,0:0:0:0:
180,46,43794,1,0,0:0:0:0:
334,196,43951,5,0,0:0:0:0:
195,361,44108,1,0,0:0:0:0:
47,202,44265,1,0,0:0:0:0:
252,136,44422,1,0,0:0:0:0:
81,268,44579,5,0,0:0:0:0:
66,52,44736,1,0,0:0:0:0:
281,57,44893,1,0,0:0:0:0:
447,194,45050,1,0,0:0:0:0:
201,287,45208,5,0,0:0:0:0:
350,72,45365,1,0,0:0:0:0:
350,72,45443,1,0,0:0:0:0:
350,72,45522,1,0,0:0:0:0:
388,330,45679,1,0,0:0:0:0:
156,209,45836,5,0,0:0:0:0:
334,18,45993,1,0,0:0:0:0:
334,18,46071,1,0,0:0:0:0:
334,18,46150,1,0,0:0:0:0:
75,49,46307,2,0,P|62:110|73:133,1,90
205,318,46621,5,0,0:0:0:0:
250,346,46699,1,0,0:0:0:0:
303,350,46778,1,0,0:0:0:0:
352,329,46856,1,0,0:0:0:0:
386,288,46935,1,0,0:0:0:0:
396,235,47013,1,0,0:0:0:0:
385,182,47092,6,0,L|359:137,1,45
198,58,47249,2,0,L|224:103,1,45
230,260,47407,2,0,L|204:215,1,45
43,136,47564,2,0,L|69:181,1,45
152,333,47721,5,0,0:0:0:0:
203,349,47799,1,0,0:0:0:0:
257,347,47878,1,0,0:0:0:0:
302,317,47956,1,0,0:0:0:0:
330,270,48035,1,0,0:0:0:0:
341,217,48113,1,0,0:0:0:0:
336,162,48192,1,0,0:0:0:0:
308,115,48270,1,0,0:0:0:0:
260,88,48349,6,0,L|212:69,1,45
44,110,48506,2,0,L|92:129,1,45
258,231,48663,2,0,L|210:212,1,45
42,253,48820,2,0,L|90:272,1,45
244,344,48977,1,0,0:0:0:0:
406,195,49134,5,0,0:0:0:0:
392,142,49213,1,0,0:0:0:0:
361,97,49291,1,0,0:0:0:0:
316,65,49370,1,0,0:0:0:0:
264,49,49448,1,0,0:0:0:0:
209,50,49527,1,0,0:0:0:0:
157,63,49605,6,0,L|111:79,1,45
31,187,49763,2,0,L|77:171,1,45
211,210,49920,2,0,L|165:226,1,45
85,335,50078,2,0,L|131:319,1,45
304,323,50234,5,0,0:0:0:0:
348,292,50312,1,0,0:0:0:0:
363,240,50391,1,0,0:0:0:0:
360,186,50469,1,0,0:0:0:0:
326,143,50548,1,0,0:0:0:0:
275,124,50626,1,0,0:0:0:0:
221,135,50705,1,0,0:0:0:0:
178,167,50783,1,0,0:0:0:0:
123,168,50862,5,0,0:0:0:0:
76,140,50941,1,0,0:0:0:0:
55,90,51019,1,0,0:0:0:0:
69,37,51098,1,0,0:0:0:0:
120,21,51176,2,0,L|167:10,1,45
331,96,51333,2,0,L|284:107,1,45
123,168,51490,1,0,0:0:0:0:
173,336,51647,5,0,0:0:0:0:
222,354,51725,1,0,0:0:0:0:
273,340,51804,1,0,0:0:0:0:
306,298,51882,1,0,0:0:0:0:
307,245,51961,1,0,0:0:0:0:
276,202,52039,1,0,0:0:0:0:
228,175,52119,6,0,L|180:156,1,45
20,155,52276,2,0,L|68:174,1,45
221,276,52433,2,0,L|173:257,1,45
13,256,52590,2,0,L|61:275,1,45
205,358,52747,5,0,0:0:0:0:
258,359,52825,1,0,0:0:0:0:
302,327,52904,1,0,0:0:0:0:
319,276,52982,1,0,0:0:0:0:
306,223,53061,1,0,0:0:0:0:
269,183,53139,1,0,0:0:0:0:
215,173,53218,1,0,0:0:0:0:
162,188,53297,1,0,0:0:0:0:
115,214,53375,6,0,L|58:241,1,45
45,348,53532,2,0,L|102:321,1,45
259,230,53689,2,0,L|202:257,1,45
189,364,53846,2,0,L|246:337,1,45
361,284,54003,1,0,0:0:0:0:
390,115,54160,5,0,0:0:0:0:
351,76,54239,1,0,0:0:0:0:
299,60,54318,1,0,0:0:0:0:
246,69,54396,1,0,0:0:0:0:
198,96,54475,1,0,0:0:0:0:
144,94,54553,1,0,0:0:0:0:
91,79,54632,6,0,L|43:59,1,45
0,153,54789,2,0,L|48:173,1,45
131,251,54946,2,0,L|83:231,1,45
40,325,55103,2,0,L|88:345,1,45
224,343,55260,5,0,0:0:0:0:
267,312,55338,1,0,0:0:0:0:
293,264,55417,1,0,0:0:0:0:
287,209,55496,1,0,0:0:0:0:
259,162,55574,2,0,L|218:130,1,45
71,165,55731,2,0,L|112:197,1,45
221,268,55888,5,0,0:0:0:0:
267,304,55967,1,0,0:0:0:0:
324,312,56045,1,0,0:0:0:0:
377,288,56124,1,0,0:0:0:0:
402,235,56202,1,0,0:0:0:0:
358,195,56281,1,0,0:0:0:0:
300,184,56359,1,0,0:0:0:0:
242,197,56438,1,0,0:0:0:0:
211,246,56516,1,0,0:0:0:0:
61,327,56674,5,0,0:0:0:0:
35,279,56752,1,0,0:0:0:0:
28,226,56831,1,0,0:0:0:0:
39,174,56909,1,0,0:0:0:0:
69,129,56988,1,0,0:0:0:0:
112,97,57066,1,0,0:0:0:0:
165,86,57145,6,0,L|220:85,1,45
356,153,57302,2,0,L|301:154,1,45
165,215,57459,2,0,L|220:214,1,45
356,282,57616,2,0,L|301:283,1,45
163,331,57773,5,0,0:0:0:0:
110,316,57852,1,0,0:0:0:0:
82,269,57930,1,0,0:0:0:0:
79,214,58009,1,0,0:0:0:0:
104,166,58087,1,0,0:0:0:0:
155,147,58166,1,0,0:0:0:0:
205,163,58244,1,0,0:0:0:0:
254,185,58323,1,0,0:0:0:0:
306,173,58401,5,0,0:0:0:0:
331,125,58480,1,0,0:0:0:0:
320,72,58558,1,0,0:0:0:0:
277,38,58637,1,0,0:0:0:0:
223,31,58715,2,0,L|169:32,1,45
41,151,58872,2,0,L|95:150,1,45
254,185,59030,1,0,0:0:0:0:
388,306,59187,5,0,0:0:0:0:
348,341,59265,1,0,0:0:0:0:
296,357,59344,1,0,0:0:0:0:
243,349,59422,1,0,0:0:0:0:
198,320,59501,1,0,0:0:0:0:
170,275,59579,1,0,0:0:0:0:
166,221,59658,6,0,L|164:168,1,45
245,45,59815,2,0,L|247:98,1,45
340,225,59972,2,0,L|338:172,1,45
419,49,60129,2,0,L|421:102,1,45
418,294,60286,5,0,0:0:0:0:
378,331,60365,1,0,0:0:0:0:
325,341,60443,1,0,0:0:0:0:
271,330,60522,1,0,0:0:0:0:
223,305,60600,2,0,L|184:278,1,45
149,118,60757,2,0,L|188:145,1,45
375,205,60914,2,0,L|336:178,1,45
301,18,61071,2,0,L|340:45,1,45
461,217,61228,5,0,0:0:0:0:
445,269,61307,1,0,0:0:0:0:
406,306,61386,1,0,0:0:0:0:
354,320,61464,1,0,0:0:0:0:
300,310,61543,1,0,0:0:0:0:
141,273,61700,5,0,0:0:0:0:
111,228,61778,1,0,0:0:0:0:
106,175,61857,1,0,0:0:0:0:
127,125,61935,1,0,0:0:0:0:
169,92,62014,1,0,0:0:0:0:
222,82,62092,1,0,0:0:0:0:
274,98,62171,6,0,L|316:115,1,45
389,242,62328,2,0,L|347:225,1,45
183,211,62485,2,0,L|225:228,1,45
298,355,62642,2,0,L|256:338,1,45
60,266,62799,5,0,0:0:0:0:
40,215,62878,1,0,0:0:0:0:
50,162,62956,1,0,0:0:0:0:
87,122,63035,1,0,0:0:0:0:
138,107,63113,1,0,0:0:0:0:
189,125,63192,1,0,0:0:0:0:
231,157,63270,1,0,0:0:0:0:
282,173,63349,1,0,0:0:0:0:
334,160,63427,1,0,0:0:0:0:
363,114,63506,1,0,0:0:0:0:
355,60,63585,1,0,0:0:0:0:
314,25,63663,1,0,0:0:0:0:
260,18,63742,1,0,0:0:0:0:
212,43,63820,1,0,0:0:0:0:
181,87,63899,1,0,0:0:0:0:
189,139,63977,1,0,0:0:0:0:
227,177,64056,1,0,0:0:0:0:
403,217,64213,6,0,L|371:261,1,45
183,317,64370,2,0,L|215:273,1,45
181,87,64527,2,0,L|149:131,1,45
40,233,64684,5,0,0:0:0:0:
69,294,64763,1,0,0:0:0:0:
127,327,64841,1,0,0:0:0:0:
193,338,64920,1,0,0:0:0:0:
250,303,64998,1,0,0:0:0:0:
310,271,65077,1,0,0:0:0:0:
376,280,65155,1,0,0:0:0:0:
432,318,65234,1,0,0:0:0:0:
499,318,65312,1,0,0:0:0:0:
426,172,65941,6,0,P|420:213|398:240,1,67.5000025749208
271,161,66255,2,0,P|277:119|299:92,1,67.5000025749208
111,67,66569,5,0,0:0:0:0:
212,307,66726,1,0,0:0:0:0:
212,307,66805,1,0,0:0:0:0:
212,307,66883,1,0,0:0:0:0:
318,68,67040,1,0,0:0:0:0:
75,165,67197,5,0,0:0:0:0:
384,310,67354,1,0,0:0:0:0:
234,25,67511,5,0,0:0:0:0:
121,342,67668,1,0,0:0:0:0:
402,80,67825,5,0,0:0:0:0:
150,150,67982,1,0,0:0:0:0:
150,150,68061,1,0,0:0:0:0:
150,150,68139,1,0,0:0:0:0:
341,329,68297,5,0,0:0:0:0:
341,329,68375,1,0,0:0:0:0:
341,329,68454,1,0,0:0:0:0:
292,72,68611,1,0,0:0:0:0:
150,291,68768,1,0,0:0:0:0:
401,220,68925,1,0,0:0:0:0:
226,26,69082,5,0,0:0:0:0:
259,284,69239,1,0,0:0:0:0:
259,284,69318,1,0,0:0:0:0:
259,284,69396,1,0,0:0:0:0:
92,83,69553,1,0,0:0:0:0:
167,355,69710,5,0,0:0:0:0:
398,116,69867,1,0,0:0:0:0:
14,195,70024,1,0,0:0:0:0:
398,326,70181,5,0,0:0:0:0:
190,31,70338,1,0,0:0:0:0:
152,347,70496,1,0,0:0:0:0:
418,90,70653,5,0,0:0:0:0:
361,39,70731,1,0,0:0:0:0:
284,30,70810,1,0,0:0:0:0:
217,67,70888,1,0,0:0:0:0:
199,142,70967,5,0,0:0:0:0:
242,204,71045,1,0,0:0:0:0:
249,280,71124,1,0,0:0:0:0:
208,344,71202,1,0,0:0:0:0:
131,337,71281,5,0,0:0:0:0:
88,275,71359,1,0,0:0:0:0:
81,199,71438,1,0,0:0:0:0:
122,135,71516,1,0,0:0:0:0:
194,109,71595,5,0,0:0:0:0:
341,323,71752,1,0,0:0:0:0:
341,323,71831,1,0,0:0:0:0:
341,323,71909,1,0,0:0:0:0:
94,238,72066,1,0,0:0:0:0:
361,64,72223,5,0,0:0:0:0:
187,325,72380,1,0,0:0:0:0:
170,46,72537,5,0,0:0:0:0:
376,341,72694,1,0,0:0:0:0:
50,189,72852,5,0,0:0:0:0:
293,94,73009,1,0,0:0:0:0:
293,94,73087,1,0,0:0:0:0:
293,94,73166,1,0,0:0:0:0:
187,325,73323,5,0,0:0:0:0:
187,325,73401,1,0,0:0:0:0:
187,325,73480,1,0,0:0:0:0:
183,64,73637,1,0,0:0:0:0:
402,204,73794,1,0,0:0:0:0:
141,206,73951,1,0,0:0:0:0:
354,56,74108,5,0,0:0:0:0:
271,303,74265,1,0,0:0:0:0:
271,303,74344,1,0,0:0:0:0:
271,303,74422,1,0,0:0:0:0:
191,54,74579,1,0,0:0:0:0:
404,302,74736,5,0,0:0:0:0:
46,186,74893,1,0,0:0:0:0:
434,122,75050,5,0,0:0:0:0:
63,329,75208,1,0,0:0:0:0:
96,49,75365,5,0,0:0:0:0:
308,337,75522,1,0,0:0:0:0:
74,202,75679,6,0,L|113:179,1,45
438,202,75836,2,0,L|398:178,1,45
114,302,75993,6,0,L|137:262,1,45
398,302,76150,2,0,L|374:262,1,45
254,36,76307,5,0,0:0:0:0:
74,202,76464,1,0,0:0:0:0:
114,302,76543,1,0,0:0:0:0:
215,335,76621,5,0,0:0:0:0:
390,141,76778,1,0,0:0:0:0:
390,141,76857,1,0,0:0:0:0:
390,141,76935,1,0,0:0:0:0:
130,109,77092,1,0,0:0:0:0:
366,327,77249,5,0,0:0:0:0:
220,26,77407,1,0,0:0:0:0:
132,307,77564,5,0,0:0:0:0:
420,75,77721,1,0,0:0:0:0:
57,136,77878,5,0,0:0:0:0:
277,275,78035,1,0,0:0:0:0:
277,275,78113,1,0,0:0:0:0:
277,275,78192,1,0,0:0:0:0:
171,36,78349,5,0,0:0:0:0:
171,36,78427,1,0,0:0:0:0:
171,36,78506,1,0,0:0:0:0:
122,292,78663,1,0,0:0:0:0:
275,80,78820,1,0,0:0:0:0:
274,340,78977,1,0,0:0:0:0:
86,158,79134,5,0,0:0:0:0:
346,138,79291,1,0,0:0:0:0:
346,138,79370,1,0,0:0:0:0:
346,138,79448,1,0,0:0:0:0:
163,324,79605,1,0,0:0:0:0:
154,50,79763,5,0,0:0:0:0:
374,289,79920,1,0,0:0:0:0:
46,244,80077,1,0,0:0:0:0:
337,64,80234,5,0,0:0:0:0:
239,346,80391,1,0,0:0:0:0:
100,66,80548,1,0,0:0:0:0:
396,198,80705,5,0,0:0:0:0:
356,262,80783,1,0,0:0:0:0:
282,285,80862,1,0,0:0:0:0:
208,262,80941,1,0,0:0:0:0:
159,203,81019,5,0,0:0:0:0:
82,193,81098,1,0,0:0:0:0:
30,249,81176,1,0,0:0:0:0:
47,323,81255,1,0,0:0:0:0:
118,349,81333,5,0,0:0:0:0:
187,316,81412,1,0,0:0:0:0:
224,250,81490,1,0,0:0:0:0:
230,173,81569,1,0,0:0:0:0:
197,104,81647,5,0,0:0:0:0:
416,244,81804,1,0,0:0:0:0:
416,244,81883,1,0,0:0:0:0:
416,244,81961,1,0,0:0:0:0:
153,246,82119,1,0,0:0:0:0:
377,77,82276,5,0,0:0:0:0:
236,342,82433,1,0,0:0:0:0:
141,62,82590,5,0,0:0:0:0:
431,328,82747,1,0,0:0:0:0:
69,236,82904,5,0,0:0:0:0:
286,92,83061,1,0,0:0:0:0:
286,92,83139,1,0,0:0:0:0:
286,92,83218,1,0,0:0:0:0:
196,337,83375,5,0,0:0:0:0:
196,337,83454,1,0,0:0:0:0:
196,337,83532,1,0,0:0:0:0:
120,87,83689,1,0,0:0:0:0:
360,188,83846,1,0,0:0:0:0:
103,236,84003,1,0,0:0:0:0:
319,90,84160,5,0,0:0:0:0:
378,345,84318,1,0,0:0:0:0:
378,345,84396,1,0,0:0:0:0:
378,345,84475,1,0,0:0:0:0:
115,144,84632,5,0,0:0:0:0:
456,238,84789,1,0,0:0:0:0:
95,323,84946,1,0,0:0:0:0:
379,38,85103,5,0,0:0:0:0:
258,347,85260,1,0,0:0:0:0:
145,37,85417,1,0,0:0:0:0:
425,333,85574,1,0,0:0:0:0:
122,254,85731,6,0,L|98:213,1,45,0|0,0:3|0:3,0:3:0:0:
390,254,85888,2,0,L|413:213,1,45,0|0,0:3|0:3,0:3:0:0:
123,110,86045,6,0,L|99:69,1,45,0|0,0:3|0:3,0:3:0:0:
391,110,86202,2,0,L|414:69,1,45,0|0,0:3|0:3,0:3:0:0:
44,172,86359,1,0,0:0:0:0:
128,352,86516,2,0,L|185:333,1,45
426,199,86674,5,0,0:0:0:0:
175,124,86831,1,0,0:0:0:0:
175,124,86909,1,0,0:0:0:0:
175,124,86988,1,0,0:0:0:0:
224,380,87145,1,0,0:0:0:0:
421,149,87302,5,0,0:0:0:0:
159,141,87459,1,0,0:0:0:0:
159,141,87537,1,0,0:0:0:0:
159,141,87616,1,0,0:0:0:0:
273,376,87773,1,0,0:0:0:0:
404,102,87930,5,0,0:0:0:0:
149,162,88087,1,0,0:0:0:0:
149,162,88165,1,0,0:0:0:0:
149,162,88244,1,0,0:0:0:0:
320,360,88401,1,0,0:0:0:0:
376,61,88558,5,0,0:0:0:0:
145,185,88715,1,0,0:0:0:0:
145,185,88793,1,0,0:0:0:0:
145,185,88872,1,0,0:0:0:0:
361,332,89029,1,0,0:0:0:0:
337,28,89187,5,0,0:0:0:0:
146,208,89344,1,0,0:0:0:0:
146,208,89422,1,0,0:0:0:0:
146,208,89501,1,0,0:0:0:0:
393,294,89658,1,0,0:0:0:0:
292,7,89815,5,0,0:0:0:0:
154,230,89972,1,0,0:0:0:0:
154,230,90050,1,0,0:0:0:0:
154,230,90129,1,0,0:0:0:0:
415,249,90286,1,0,0:0:0:0:
80,83,90443,5,0,0:0:0:0:
347,350,90600,1,0,0:0:0:0:
347,350,90679,1,0,0:0:0:0:
347,350,90757,1,0,0:0:0:0:
399,40,90914,1,0,0:0:0:0:
73,297,91071,5,0,0:0:0:0:
439,237,91228,1,0,0:0:0:0:
439,237,91307,1,0,0:0:0:0:
439,237,91386,1,0,0:0:0:0:
131,23,91543,1,0,0:0:0:0:
266,351,91700,5,0,0:0:0:0:
386,119,91857,1,0,0:0:0:0:
386,119,91935,1,0,0:0:0:0:
386,119,92013,1,0,0:0:0:0:
127,163,92171,1,0,0:0:0:0:
313,356,92328,5,0,0:0:0:0:
369,101,92485,1,0,0:0:0:0:
369,101,92563,1,0,0:0:0:0:
369,101,92641,1,0,0:0:0:0:
130,210,92799,1,0,0:0:0:0:
360,349,92956,5,0,0:0:0:0:
348,88,93113,1,0,0:0:0:0:
348,88,93191,1,0,0:0:0:0:
348,88,93269,1,0,0:0:0:0:
145,256,93427,1,0,0:0:0:0:
403,330,93584,5,0,0:0:0:0:
324,81,93741,1,0,0:0:0:0:
324,81,93819,1,0,0:0:0:0:
324,81,93897,1,0,0:0:0:0:
172,295,94055,1,0,0:0:0:0:
441,300,94213,5,0,0:0:0:0:
300,80,94370,1,0,0:0:0:0:
300,80,94448,1,0,0:0:0:0:
300,80,94526,1,0,0:0:0:0:
208,327,94684,1,0,0:0:0:0:
469,262,94841,5,0,0:0:0:0:
276,86,94998,1,0,0:0:0:0:
276,86,95076,1,0,0:0:0:0:
276,86,95154,1,0,0:0:0:0:
251,348,95312,1,0,0:0:0:0:
470,82,95469,5,0,0:0:0:0:
64,160,95626,1,0,0:0:0:0:
64,160,95705,1,0,0:0:0:0:
64,160,95783,1,0,0:0:0:0:
465,308,95941,1,0,0:0:0:0:
116,39,96098,5,0,0:0:0:0:
251,348,96255,1,0,0:0:0:0:
251,348,96333,1,0,0:0:0:0:
251,348,96412,1,0,0:0:0:0:
377,45,96569,1,0,0:0:0:0:
78,251,96726,5,0,0:0:0:0:
390,341,96883,5,0,0:0:0:0:
390,341,96961,1,0,0:0:0:0:
390,341,97040,1,0,0:0:0:0:
322,33,97197,5,0,0:0:0:0:
322,33,97276,1,0,0:0:0:0:
322,33,97354,1,0,0:0:0:0:
236,335,97511,5,0,0:0:0:0:
236,335,97590,1,0,0:0:0:0:
236,335,97668,1,0,0:0:0:0:
142,34,97825,5,0,0:0:0:0:
142,34,97904,1,0,0:0:0:0:
142,34,97982,1,0,0:0:0:0:
50,335,98139,5,0,0:0:0:0:
50,335,98218,1,0,0:0:0:0:
50,335,98297,1,0,0:0:0:0:
345,225,98454,5,0,0:0:0:0:
345,225,98532,1,0,0:0:0:0:
345,225,98611,1,0,0:0:0:0:
37,156,98768,5,0,0:0:0:0:
37,156,98846,1,0,0:0:0:0:
37,156,98925,1,0,0:0:0:0:
336,57,99082,5,0,0:0:0:0:
336,57,99160,1,0,0:0:0:0:
336,57,99239,1,0,0:0:0:0:
24,12,99396,5,0,0:0:0:0:
24,12,99475,1,0,0:0:0:0:
24,12,99553,1,0,0:0:0:0:
114,313,99710,5,0,0:0:0:0:
114,313,99789,1,0,0:0:0:0:
114,313,99867,1,0,0:0:0:0:
266,37,100024,5,0,0:0:0:0:
266,37,100103,1,0,0:0:0:0:
266,37,100181,1,0,0:0:0:0:
402,320,100338,5,0,0:0:0:0:
402,320,100417,1,0,0:0:0:0:
402,320,100496,1,0,0:0:0:0:
121,176,100653,5,0,0:0:0:0:
121,176,100731,1,0,0:0:0:0:
121,176,100810,1,0,0:0:0:0:
411,54,100967,5,0,0:0:0:0:
411,54,101045,1,0,0:0:0:0:
411,54,101124,1,0,0:0:0:0:
115,322,101281,5,0,0:0:0:0:
115,322,101359,1,0,0:0:0:0:
115,322,101438,1,0,0:0:0:0:
256,58,101595,1,0,0:0:0:0:
256,58,101674,1,0,0:0:0:0:
256,58,101752,5,0,0:0:0:0:
256,326,101909,1,0,0:0:0:0:
350,97,102066,5,0,0:0:0:0:
161,286,102223,1,0,0:0:0:0:
390,192,102380,5,0,0:0:0:0:
122,192,102537,1,0,0:0:0:0:
350,286,102694,5,0,0:0:0:0:
161,97,102851,1,0,0:0:0:0:
256,356,103009,5,0,0:0:0:0:
256,28,103166,1,0,0:0:0:0:
125,322,103323,5,0,0:0:0:0:
386,61,103480,1,0,0:0:0:0:
52,192,103637,5,0,0:0:0:0:
460,191,103794,1,0,0:0:0:0:
97,33,103951,5,0,0:0:0:0:
414,350,104108,1,0,0:0:0:0:
86,5,104265,5,0,0:0:0:0:
394,362,104422,1,0,0:0:0:0:
16,115,104579,5,0,0:0:0:0:
461,270,104736,1,0,0:0:0:0:
9,245,104893,5,0,0:0:0:0:
472,157,105050,1,0,0:0:0:0:
69,361,105207,5,0,0:0:0:0:
426,53,105364,1,0,0:0:0:0:
4,147,105522,5,0,0:0:0:0:
457,345,105679,1,0,0:0:0:0:
167,19,105836,5,0,0:0:0:0:
286,356,105993,1,0,0:0:0:0:
463,103,106150,5,0,0:0:0:0:
8,333,106307,1,0,0:0:0:0:
453,190,106464,5,0,0:0:0:0:
13,25,106621,1,0,0:0:0:0:
182,264,106778,6,0,L|255:265,1,60
409,49,106988,1,0,0:0:0:0:
140,285,107092,6,0,L|213:286,1,60
367,70,107302,1,0,0:0:0:0:
98,310,107407,6,0,L|171:311,1,60
325,95,107617,1,0,0:0:0:0:
56,331,107721,6,0,L|129:332,1,60
283,116,107931,1,0,0:0:0:0:
330,331,108035,6,0,L|257:330,1,60
103,116,108244,1,0,0:0:0:0:
372,310,108349,6,0,L|299:309,1,60
145,95,108558,1,0,0:0:0:0:
414,285,108664,6,0,L|341:284,1,60
187,70,108873,1,0,0:0:0:0:
456,264,108978,6,0,L|383:263,1,60
229,49,109187,1,0,0:0:0:0:
469,186,109291,6,0,L|479:151,56,22.5
314,240,111804,5,0,0:0:0:0:
