osu file format v14

[General]
AudioFilename: audio.mp3
AudioLeadIn: 0
PreviewTime: -1
Countdown: 1
SampleSet: Soft
StackLeniency: 0.7
Mode: 0
LetterboxInBreaks: 0
WidescreenStoryboard: 0

[Editor]
Bookmarks: 9635,28551,47467,48649,49832,51014,52196,53378,54561,55743,56925,59290,60472,61654,62837,64019,65201,66383,104216,105398,106580,107763,108945,110127,111310,112492,113674,114856,116039,117221,118403,119585,120768,121950,123132
DistanceSpacing: 1
BeatDivisor: 4
GridSize: 32
TimelineZoom: 2.6

[Metadata]
Title:NEFFEX
TitleUnicode:NEFFEX
Artist:DESTINY
ArtistUnicode:DESTINY
Creator:dima21
Version:WaRNiNG
Source:
Tags:
BeatmapID:1474884
BeatmapSetID:696227

[Difficulty]
HPDrainRate:4
CircleSize:3
OverallDifficulty:8
ApproachRate:9.7
SliderMultiplier:2.5
SliderTickRate:1

[Events]
//Background and Video events
0,0,"120444598_3.jpg",0,0
//Break Periods
//Storyboard Layer 0 (Background)
//Storyboard Layer 1 (Fail)
//Storyboard Layer 2 (Pass)
//Storyboard Layer 3 (Foreground)
//Storyboard Sound Samples

[TimingPoints]
177,295.566502463054,4,2,0,50,1,0
9635,-83.3333333333333,4,2,0,50,0,0
47467,-83.3333333333333,4,2,0,50,0,1
66383,-90.9090909090909,4,2,0,50,0,0
85300,-83.3333333333333,4,2,0,50,0,0
104216,-83.3333333333333,4,2,0,50,0,1
123132,-133.333333333333,4,2,0,50,0,0

[HitObjects]
184,96,177,5,0,0:0:0:0:
200,216,326,1,0,0:0:0:0:
288,120,474,1,0,0:0:0:0:
296,248,622,1,0,0:0:0:0:
384,144,770,1,0,0:0:0:0:
400,272,917,1,0,0:0:0:0:
469,148,1065,2,0,P|437:81|358:64,1,125
176,80,1361,5,0,0:0:0:0:
264,232,1509,1,0,0:0:0:0:
320,72,1656,1,0,0:0:0:0:
144,192,1804,1,0,0:0:0:0:
360,192,1952,1,0,0:0:0:0:
248,24,2100,1,0,0:0:0:0:
256,240,2247,2,0,B|264:288|264:288|256:320|256:320|264:368,1,125
368,296,2543,5,0,0:0:0:0:
128,296,2691,1,0,0:0:0:0:
352,176,2839,1,0,0:0:0:0:
144,168,2986,1,0,0:0:0:0:
304,72,3134,1,0,0:0:0:0:
192,64,3282,1,0,0:0:0:0:
248,328,3430,2,0,B|256:280|256:280|239:243|239:243|248:203,1,125
184,72,3723,5,0,0:0:0:0:
64,40,3872,1,0,0:0:0:0:
96,168,4020,1,0,0:0:0:0:
200,56,4168,1,0,0:0:0:0:
64,56,4316,1,0,0:0:0:0:
112,176,4463,1,0,0:0:0:0:
216,48,4611,2,0,B|263:65|263:65|280:96|311:121,1,125
315,320,4907,5,0,0:0:0:0:
394,229,5055,1,0,0:0:0:0:
224,248,5202,1,0,0:0:0:0:
402,312,5350,1,0,0:0:0:0:
304,168,5498,1,0,0:0:0:0:
232,328,5646,1,0,0:0:0:0:
223,167,5793,2,0,P|255:101|321:87,1,125
65,136,6089,5,0,0:0:0:0:
130,363,6237,1,0,0:0:0:0:
361,300,6385,1,0,0:0:0:0:
296,72,6532,1,0,0:0:0:0:
344,304,6680,1,0,0:0:0:0:
112,352,6828,1,0,0:0:0:0:
72,120,6976,2,0,B|72:160|88:184|88:184|72:213|72:256,1,125
152,128,7270,5,0,0:0:0:0:
352,128,7419,1,0,0:0:0:0:
192,264,7567,1,0,0:0:0:0:
256,48,7715,1,0,0:0:0:0:
304,264,7863,1,0,0:0:0:0:
168,144,8010,1,0,0:0:0:0:
368,136,8158,2,0,B|336:112|320:80|320:80|296:80|256:56,1,125
392,280,8454,5,0,0:0:0:0:
264,152,8602,1,0,0:0:0:0:
440,124,8749,1,0,0:0:0:0:
256,176,8896,1,0,0:0:0:0:
384,288,9043,1,0,0:0:0:0:
456,132,9193,1,0,0:0:0:0:
232,176,9340,2,0,P|239:229|240:304,1,125
64,152,9636,5,0,0:0:0:0:
184,64,9784,1,0,0:0:0:0:
144,256,9932,1,0,0:0:0:0:
80,48,10079,1,0,0:0:0:0:
296,96,10227,1,0,0:0:0:0:
64,168,10375,1,0,0:0:0:0:
320,112,10523,2,0,B|320:152|352:176|352:176|320:208|320:248,1,149.999995422363
400,104,10817,5,0,0:0:0:0:
192,152,10966,1,0,0:0:0:0:
328,256,11114,1,0,0:0:0:0:
200,144,11262,1,0,0:0:0:0:
344,248,11410,1,0,0:0:0:0:
344,112,11557,1,0,0:0:0:0:
328,104,11705,2,0,P|280:48|264:32,1,62.5
96,64,11851,5,0,0:0:0:0:
144,232,12001,5,0,0:0:0:0:
8,176,12149,1,0,0:0:0:0:
88,320,12296,1,0,0:0:0:0:
160,136,12444,1,0,0:0:0:0:
248,304,12592,1,0,0:0:0:0:
59,242,12740,1,0,0:0:0:0:
264,296,12887,2,0,B|272:264|232:232|232:232|264:200|256:160,1,149.999995422363
400,64,13183,5,0,0:0:0:0:
177,171,13331,1,0,0:0:0:0:
360,304,13479,1,0,0:0:0:0:
288,64,13626,1,0,0:0:0:0:
186,301,13774,1,0,0:0:0:0:
376,184,13922,1,0,0:0:0:0:
133,103,14070,2,0,P|93:175|133:239,1,149.999995422363
425,249,14364,2,0,P|460:183|417:113,1,149.999995422363
248,176,14659,5,0,0:0:0:0:
248,192,14807,1,0,0:0:0:0:
256,48,14955,1,0,0:0:0:0:
256,328,15103,1,0,0:0:0:0:
352,160,15250,2,0,B|384:144|416:160|416:160|424:120|464:88,1,149.999995422363
344,352,15546,5,0,0:0:0:0:
496,168,15695,1,0,0:0:0:0:
208,112,15843,1,0,0:0:0:0:
376,232,15991,1,0,0:0:0:0:
320,24,16139,1,0,0:0:0:0:
208,256,16286,1,0,0:0:0:0:
448,104,16434,2,0,B|428:62|408:32|408:32|368:40|336:24,1,149.999995422363
128,96,16730,5,0,0:0:0:0:
64,296,16878,1,0,0:0:0:0:
240,144,17025,1,0,0:0:0:0:
16,40,17173,1,0,0:0:0:0:
136,216,17321,1,0,0:0:0:0:
224,32,17469,1,0,0:0:0:0:
328,200,17616,2,0,P|352:272|328:344,1,149.999995422363
200,64,17912,5,0,0:0:0:0:
216,320,18060,1,0,0:0:0:0:
376,184,18208,1,0,0:0:0:0:
192,304,18355,1,0,0:0:0:0:
360,160,18503,1,0,0:0:0:0:
176,56,18651,5,0,0:0:0:0:
136,64,18723,1,0,0:0:0:0:
104,88,18797,1,0,0:0:0:0:
88,128,18871,1,0,0:0:0:0:
88,168,18945,1,0,0:0:0:0:
104,200,19019,1,0,0:0:0:0:
128,224,19093,6,0,P|184:272|256:256,1,149.999995422363
416,160,19388,1,0,0:0:0:0:
202,192,19536,1,0,0:0:0:0:
349,110,19684,2,0,P|431:79|501:142,1,149.999995422363
200,224,19979,1,0,0:0:0:0:
176,264,20053,1,0,0:0:0:0:
128,272,20127,1,0,0:0:0:0:
80,232,20201,1,0,0:0:0:0:
80,176,20275,2,0,B|96:136|88:104|88:104|136:96|160:48,1,149.999995422363
368,56,20571,5,0,0:0:0:0:
80,22,20718,1,0,0:0:0:0:
232,184,20866,2,0,P|344:200|376:216,1,149.999995422363
216,64,21162,1,0,0:0:0:0:
168,80,21236,1,0,0:0:0:0:
128,120,21310,1,0,0:0:0:0:
112,160,21383,1,0,0:0:0:0:
112,200,21457,2,0,P|128:264|160:312,1,125
362,263,21753,5,0,0:0:0:0:
208,160,21901,1,0,0:0:0:0:
320,40,22048,2,0,B|304:80|312:120|312:120|272:128|256:160,1,149.999995422363
280,368,22344,1,0,0:0:0:0:
387,91,22492,1,0,0:0:0:0:
496,296,22640,2,0,B|464:296|441:266|441:266|441:307|386:345,1,149.999995422363
336,337,22861,1,0,0:0:0:0:
272,377,22934,1,0,0:0:0:0:
504,217,23083,5,0,0:0:0:0:
256,232,23231,2,0,B|280:192|272:160|272:160|296:160|352:136,1,149.999995422363
176,176,23526,1,0,0:0:0:0:
176,176,23600,1,0,0:0:0:0:
176,176,23674,1,0,0:0:0:0:
64,256,23822,1,0,0:0:0:0:
288,96,23970,1,0,0:0:0:0:
280,320,24117,1,0,0:0:0:0:
128,48,24265,1,0,0:0:0:0:
184,184,24413,6,0,B|176:232|160:264|160:264|174:291|168:352,1,149.999995422363
376,240,24709,1,0,0:0:0:0:
360,208,24782,1,0,0:0:0:0:
360,168,24856,2,0,B|392:112|392:72|392:72|408:88|400:120,1,149.999995422363
214,279,25152,1,0,0:0:0:0:
480,48,25300,1,0,0:0:0:0:
256,80,25447,1,0,0:0:0:0:
446,286,25595,6,0,P|380:323|310:294,1,149.999995422363
128,256,25891,1,0,0:0:0:0:
128,256,25965,1,0,0:0:0:0:
128,256,26039,2,0,P|192:200|256:200,1,149.999995422363
384,352,26334,1,0,0:0:0:0:
392,136,26482,1,0,0:0:0:0:
208,56,26630,1,0,0:0:0:0:
400,112,26777,6,0,B|336:104|296:72|296:72|304:104|320:120,1,149.999995422363
400,232,27073,1,0,0:0:0:0:
368,240,27147,1,0,0:0:0:0:
336,240,27221,2,0,B|296:248|272:224|272:224|240:264|200:264,1,149.999995422363
432,328,27516,1,0,0:0:0:0:
312,56,27664,1,0,0:0:0:0:
184,280,27812,1,0,0:0:0:0:
96,144,27960,6,0,B|93:100|56:72|56:72|103:60|136:32,1,149.999995422363
176,32,28181,1,0,0:0:0:0:
232,40,28255,2,0,B|243:53|291:64|291:64|254:93|251:136,1,149.999995422363
56,296,28551,2,0,P|72:256|112:224,1,74.9999977111817
240,216,28699,2,0,P|232:256|192:288,1,74.9999977111817
152,352,28846,1,0,0:0:0:0:
168,144,28994,1,0,0:0:0:0:
312,288,29142,6,0,P|392:280|456:216,1,149.999995422363
96,224,29438,5,0,0:0:0:0:
88,264,29511,1,0,0:0:0:0:
104,296,29585,1,0,0:0:0:0:
88,336,29659,1,0,0:0:0:0:
120,352,29733,2,0,P|160:328|200:320,1,74.9999977111817
200,336,29881,2,0,L|256:296,1,62.5
416,192,30029,2,0,B|368:200|344:216|344:216|322:196|272:176,1,149.999995422363
168,80,30324,6,0,B|216:72|248:80|248:80|264:56|312:40,1,149.999995422363
80,144,30620,1,0,0:0:0:0:
80,144,30694,1,0,0:0:0:0:
80,144,30768,1,0,0:0:0:0:
276,280,30915,2,0,B|239:269|219:244|219:244|186:272|129:253,1,149.999995422363
376,268,31211,1,0,0:0:0:0:
171,179,31358,1,0,0:0:0:0:
388,164,31506,6,0,B|440:144|492:140|492:140|468:124|448:124,1,149.999995422363
164,196,31802,5,0,0:0:0:0:
172,224,31875,1,0,0:0:0:0:
184,248,31949,1,0,0:0:0:0:
204,264,32023,1,0,0:0:0:0:
224,280,32098,2,0,P|300:288|384:264,1,149.999995422363
328,200,32393,2,0,P|256:208|208:176,1,125
137,149,32688,6,0,P|193:103|272:123,1,149.999995422363
408,304,32984,1,0,0:0:0:0:
408,304,33058,1,0,0:0:0:0:
408,304,33132,1,0,0:0:0:0:
92,320,33280,2,0,P|162:299|201:237,1,149.999995422363
216,48,33575,1,0,0:0:0:0:
308,224,33723,1,0,0:0:0:0:
112,228,33871,6,0,P|48:188|36:92,1,149.999995422363
212,168,34167,5,0,0:0:0:0:
212,208,34240,1,0,0:0:0:0:
212,240,34314,1,0,0:0:0:0:
212,280,34388,1,0,0:0:0:0:
212,308,34462,2,0,B|272:332|304:320|304:320|316:352|344:376,1,149.999995422363
496,312,34758,2,0,P|424:320|376:288,1,125
192,87,35053,6,0,B|232:83|264:103|264:103|284:75|328:55,1,149.999995422363
208,168,35349,1,0,0:0:0:0:
200,176,35423,1,0,0:0:0:0:
192,180,35497,1,0,0:0:0:0:
56,32,35644,2,0,B|36:80|40:120|40:120|12:136|0:168,1,149.999995422363
208,304,35939,1,0,0:0:0:0:
122,90,36087,1,0,0:0:0:0:
180,221,36235,6,0,B|228:216|260:237|260:237|268:201|316:173,1,149.999995422363
236,44,36531,5,0,0:0:0:0:
276,32,36604,1,0,0:0:0:0:
324,40,36678,1,0,0:0:0:0:
372,72,36752,1,0,0:0:0:0:
400,104,36827,2,0,B|432:145|432:180|432:180|466:181|512:204,1,149.999995422363
347,169,37122,2,0,B|280:148|236:172|236:172|244:136|268:136,1,149.999995422363
168,248,37418,6,0,B|235:269|279:245|279:245|271:281|247:281,1,149.999995422363
112,104,37713,1,0,0:0:0:0:
88,136,37787,1,0,0:0:0:0:
64,160,37861,1,0,0:0:0:0:
280,124,38009,2,0,B|336:108|347:77|347:77|376:92|428:80,1,149.999995422363
108,324,38305,2,0,B|91:275|96:248|96:248|64:232|36:204,1,149.999995422363
284,328,38600,1,0,0:0:0:0:
124,340,38748,1,0,0:0:0:0:
304,312,38896,6,0,B|320:263|316:236|316:236|348:220|376:192,1,149.999995422363
296,72,39191,2,0,P|300:116|296:160,1,74.9999977111817
400,96,39339,2,0,P|400:52|392:12,1,74.9999977111817
184,48,39487,2,0,B|191:73|174:112|174:112|188:148|188:148|176:176|184:232,1,149.999995422363
256,352,39782,1,0,0:0:0:0:
280,80,39930,1,0,0:0:0:0:
184,288,40078,6,0,P|120:256|96:192,1,125
292,96,40374,1,0,0:0:0:0:
104,184,40521,2,0,B|100:108|112:60|112:60|90:74|80:88,1,149.999995422363
296,256,40817,1,0,0:0:0:0:
424,112,40965,2,0,B|380:88|368:60|368:60|332:76|288:72,1,149.999995422363
208,320,41260,1,0,0:0:0:0:
336,152,41408,1,0,0:0:0:0:
120,64,41556,6,0,B|112:112|116:148|116:148|92:160|64:192,1,149.999995422363
260,56,41851,1,0,0:0:0:0:
141,228,41999,1,0,0:0:0:0:
348,168,42147,2,0,P|328:227|319:288,1,125
236,60,42443,1,0,0:0:0:0:
156,244,42590,1,0,0:0:0:0:
343,85,42738,6,0,P|328:124|332:170,1,74.9999977111817
248,248,42886,2,0,P|249:202|240:152,1,74.9999977111817
352,248,43034,1,0,0:0:0:0:
240,88,43181,1,0,0:0:0:0:
376,224,43329,2,0,B|397:262|400:300|400:300|426:293|480:304,1,149.999995422363
236,68,43625,2,0,B|184:64|164:40|164:40|156:72|116:100,1,149.999995422363
136,232,43920,6,0,L|120:312,1,62.5
231,234,44068,2,0,L|247:162,1,62.5
208,320,44216,1,0,0:0:0:0:
160,152,44364,1,0,0:0:0:0:
428,244,44511,2,0,B|392:260|352:288|352:288|328:276|276:292,1,149.999995422363
224,72,44807,2,0,B|272:72|300:52|300:52|324:76|368:80,1,149.999995422363
288,204,45103,6,0,P|292:152|280:200,1,149.999995422363
200,80,45398,1,0,0:0:0:0:
340,336,45546,1,0,0:0:0:0:
64,208,45694,2,0,P|128:160|192:176,1,149.999995422363
448,208,45989,6,0,P|384:160|320:176,1,149.999995422363
256,192,46285,12,0,47319,0:0:0:0:
184,224,47467,5,0,0:0:0:0:
312,56,47615,1,0,0:0:0:0:
300,264,47763,1,0,0:0:0:0:
228,68,47910,1,0,0:0:0:0:
428,136,48058,1,0,0:0:0:0:
216,148,48206,1,0,0:0:0:0:
404,54,48354,1,0,0:0:0:0:
408,264,48502,1,0,0:0:0:0:
316,76,48649,5,0,0:0:0:0:
75,76,48797,1,0,0:0:0:0:
75,316,48945,1,0,0:0:0:0:
315,316,49093,1,0,0:0:0:0:
288,65,49241,1,0,0:0:0:0:
53,119,49388,1,0,0:0:0:0:
107,353,49536,1,0,0:0:0:0:
341,299,49684,1,0,0:0:0:0:
168,132,49832,5,0,0:0:0:0:
396,56,49979,1,0,0:0:0:0:
252,248,50127,1,0,0:0:0:0:
208,12,50275,1,0,0:0:0:0:
400,156,50423,1,0,0:0:0:0:
160,148,50571,1,0,0:0:0:0:
376,48,50718,1,0,0:0:0:0:
236,244,50866,1,0,0:0:0:0:
64,76,51014,5,0,0:0:0:0:
296,136,51162,1,0,0:0:0:0:
132,312,51310,1,0,0:0:0:0:
80,80,51457,1,0,0:0:0:0:
152,308,51605,1,0,0:0:0:0:
308,124,51753,1,0,0:0:0:0:
54,75,51901,1,0,0:0:0:0:
119,317,52048,1,0,0:0:0:0:
356,288,52196,5,0,0:0:0:0:
124,180,52344,1,0,0:0:0:0:
320,16,52492,1,0,0:0:0:0:
240,260,52640,1,0,0:0:0:0:
200,8,52787,1,0,0:0:0:0:
428,124,52935,1,0,0:0:0:0:
176,92,53083,1,0,0:0:0:0:
404,212,53231,1,0,0:0:0:0:
200,360,53378,5,0,0:0:0:0:
280,116,53526,1,0,0:0:0:0:
120,316,53674,1,0,0:0:0:0:
336,180,53822,1,0,0:0:0:0:
84,224,53970,1,0,0:0:0:0:
328,288,54117,1,0,0:0:0:0:
132,120,54265,1,0,0:0:0:0:
248,348,54413,1,0,0:0:0:0:
228,92,54561,5,0,0:0:0:0:
440,260,54709,1,0,0:0:0:0:
176,208,54856,1,0,0:0:0:0:
384,36,55004,1,0,0:0:0:0:
308,296,55152,1,0,0:0:0:0:
512,112,55300,1,0,0:0:0:0:
244,76,55447,1,0,0:0:0:0:
156,332,55595,1,0,0:0:0:0:
360,152,55743,5,0,0:0:0:0:
100,72,55891,1,0,0:0:0:0:
348,180,56039,1,0,0:0:0:0:
92,96,56186,1,0,0:0:0:0:
136,256,56334,1,0,0:0:0:0:
296,36,56482,1,0,0:0:0:0:
160,268,56630,1,0,0:0:0:0:
316,48,56777,1,0,0:0:0:0:
194,118,56925,5,0,0:0:0:0:
340,196,57073,1,0,0:0:0:0:
144,192,57221,1,0,0:0:0:0:
400,128,57369,1,0,0:0:0:0:
144,280,57516,1,0,0:0:0:0:
368,48,57664,1,0,0:0:0:0:
160,200,57812,1,0,0:0:0:0:
421,209,57960,1,0,0:0:0:0:
288,20,58108,5,0,0:0:0:0:
268,384,58255,1,0,0:0:0:0:
208,8,58403,1,0,0:0:0:0:
340,384,58551,1,0,0:0:0:0:
132,0,58699,1,0,0:0:0:0:
420,356,58846,1,0,0:0:0:0:
56,56,58994,1,0,0:0:0:0:
488,296,59142,1,0,0:0:0:0:
220,136,59290,5,0,0:0:0:0:
292,248,59438,1,0,0:0:0:0:
292,84,59585,1,0,0:0:0:0:
228,304,59733,1,0,0:0:0:0:
376,84,59881,1,0,0:0:0:0:
144,288,60029,1,0,0:0:0:0:
444,136,60176,1,0,0:0:0:0:
88,236,60324,1,0,0:0:0:0:
440,220,60472,5,0,0:0:0:0:
96,152,60620,1,0,0:0:0:0:
372,280,60768,1,0,0:0:0:0:
160,96,60915,1,0,0:0:0:0:
292,264,61063,1,0,0:0:0:0:
236,112,61211,1,0,0:0:0:0:
228,224,61359,1,0,0:0:0:0:
296,168,61507,1,0,0:0:0:0:
252,32,61654,5,0,0:0:0:0:
160,284,61802,1,0,0:0:0:0:
420,228,61950,1,0,0:0:0:0:
176,112,62098,1,0,0:0:0:0:
296,352,62245,1,0,0:0:0:0:
384,96,62393,1,0,0:0:0:0:
132,192,62541,1,0,0:0:0:0:
376,312,62689,1,0,0:0:0:0:
280,44,62837,5,0,0:0:0:0:
164,300,62984,1,0,0:0:0:0:
448,260,63132,1,0,0:0:0:0:
268,40,63280,1,0,0:0:0:0:
148,300,63428,1,0,0:0:0:0:
432,260,63576,1,0,0:0:0:0:
256,40,63723,1,0,0:0:0:0:
140,300,63871,1,0,0:0:0:0:
424,264,64019,5,0,0:0:0:0:
148,144,64167,1,0,0:0:0:0:
352,360,64314,1,0,0:0:0:0:
392,64,64462,1,0,0:0:0:0:
204,296,64610,1,0,0:0:0:0:
484,188,64758,1,0,0:0:0:0:
224,40,64906,1,0,0:0:0:0:
364,304,65053,1,0,0:0:0:0:
68,196,65201,5,0,0:0:0:0:
380,88,65349,1,0,0:0:0:0:
200,364,65497,1,0,0:0:0:0:
276,44,65644,1,0,0:0:0:0:
92,320,65792,1,0,0:0:0:0:
396,188,65940,1,0,0:0:0:0:
64,176,66088,1,0,0:0:0:0:
376,68,66236,1,0,0:0:0:0:
248,188,66383,5,0,0:0:0:0:
324,312,66531,5,0,0:0:0:0:
152,248,66679,1,0,0:0:0:0:
220,352,66826,1,0,0:0:0:0:
336,220,66974,1,0,0:0:0:0:
128,336,67122,1,0,0:0:0:0:
248,188,67270,2,0,L|248:63,1,125
256,272,67564,5,0,0:0:0:0:
108,148,67713,1,0,0:0:0:0:
264,264,67861,1,0,0:0:0:0:
376,88,68009,1,0,0:0:0:0:
252,260,68157,1,0,0:0:0:0:
176,40,68304,1,0,0:0:0:0:
461,62,68452,2,0,P|397:7|311:36,1,137.500004196167
168,68,68748,5,0,0:0:0:0:
264,240,68896,1,0,0:0:0:0:
332,40,69043,1,0,0:0:0:0:
156,180,69191,1,0,0:0:0:0:
372,192,69339,1,0,0:0:0:0:
240,12,69487,1,0,0:0:0:0:
272,252,69634,2,0,L|280:380,1,125
248,128,69930,5,0,0:0:0:0:
160,288,70078,1,0,0:0:0:0:
104,56,70226,1,0,0:0:0:0:
356,92,70373,1,0,0:0:0:0:
72,192,70521,1,0,0:0:0:0:
276,4,70669,1,0,0:0:0:0:
348,216,70817,2,0,L|348:352,1,125
96,184,71111,6,0,L|88:48,1,125
164,312,71406,1,0,0:0:0:0:
200,148,71554,1,0,0:0:0:0:
320,296,71702,1,0,0:0:0:0:
208,48,71850,1,0,0:0:0:0:
172,232,71997,2,0,P|236:224|284:160,1,125
328,40,72293,5,0,0:0:0:0:
172,216,72442,1,0,0:0:0:0:
344,56,72590,1,0,0:0:0:0:
408,296,72738,1,0,0:0:0:0:
168,128,72886,1,0,0:0:0:0:
424,272,73033,1,0,0:0:0:0:
184,116,73181,2,0,P|136:60|72:36,1,125
124,272,73477,5,0,0:0:0:0:
272,304,73625,1,0,0:0:0:0:
344,168,73772,1,0,0:0:0:0:
148,252,73920,1,0,0:0:0:0:
284,272,74068,1,0,0:0:0:0:
340,144,74216,1,0,0:0:0:0:
215,164,74363,2,0,B|224:112|244:96|244:96|216:76|208:40,1,137.500004196167
60,188,74659,5,0,0:0:0:0:
148,264,74807,1,0,0:0:0:0:
304,276,74955,1,0,0:0:0:0:
360,144,75102,1,0,0:0:0:0:
300,260,75250,1,0,0:0:0:0:
148,244,75398,1,0,0:0:0:0:
64,168,75544,1,0,0:0:0:0:
72,44,75692,1,0,0:0:0:0:
76,160,75840,2,0,B|112:172|136:160|136:160|136:200|154:242,1,137.500004196167
220,336,76135,5,0,0:0:0:0:
104,88,76283,1,0,0:0:0:0:
356,156,76431,2,0,P|436:148|508:188,1,125
256,188,76726,1,0,0:0:0:0:
112,320,76874,1,0,0:0:0:0:
172,214,77022,2,0,P|177:148|236:102,1,137.500004196167
392,36,77318,1,0,0:0:0:0:
172,228,77465,1,0,0:0:0:0:
360,352,77613,6,0,P|388:288|362:224,1,137.500004196167
272,28,77909,1,0,0:0:0:0:
308,288,78057,1,0,0:0:0:0:
105,194,78204,6,0,P|102:266|153:306,1,137.500004196167
344,80,78500,1,0,0:0:0:0:
252,352,78648,1,0,0:0:0:0:
184,52,78795,6,0,B|169:68|171:101|171:101|140:132|140:132|143:153|128:172,1,137.500004196167
272,336,79091,1,0,0:0:0:0:
252,88,79239,1,0,0:0:0:0:
448,168,79387,6,0,B|408:172|376:160|376:160|372:192|338:217,1,137.500004196167
112,224,79681,1,0,0:0:0:0:
128,44,79830,1,0,0:0:0:0:
280,263,79978,6,0,P|267:186|315:137,1,137.500004196167
168,260,80275,2,0,P|156:336|96:372,1,137.500004196167
232,24,80569,1,0,0:0:0:0:
260,144,80717,1,0,0:0:0:0:
328,216,80864,1,0,0:0:0:0:
144,32,81012,1,0,0:0:0:0:
192,100,81160,6,0,B|154:133|120:128|120:128|128:168|120:204,1,137.500004196167
412,240,81457,2,0,P|400:316|432:396,1,137.500004196167
328,116,81753,2,0,B|360:92|364:40|364:40|404:40|420:8,1,137.500004196167
336,312,82047,1,0,0:0:0:0:
432,112,82194,1,0,0:0:0:0:
292,124,82342,6,0,P|204:140|156:132,1,125
424,280,82638,1,0,0:0:0:0:
104,292,82786,2,0,B|148:273|180:276|180:276|192:260|232:236,1,137.500004196167
112,160,83081,1,0,0:0:0:0:
408,276,83229,1,0,0:0:0:0:
208,36,83377,1,0,0:0:0:0:
272,256,83524,6,0,P|376:256|400:272,1,125
348,44,83820,1,0,0:0:0:0:
187,265,83968,2,0,P|258:173|310:174,1,137.500004196167
336,328,84263,1,0,0:0:0:0:
340,48,84411,1,0,0:0:0:0:
184,280,84559,1,0,0:0:0:0:
76,160,84707,6,0,B|96:184|96:184|92:116|116:48,1,137.500004196167
164,44,84928,1,0,0:0:0:0:
216,40,85004,2,0,B|230:77|226:145|226:145|246:121,1,137.500004196167
288,344,85298,2,0,L|336:288,1,62.5
344,208,85446,2,0,L|304:256,1,62.5
212,288,85593,1,0,0:0:0:0:
416,260,85741,1,0,0:0:0:0:
132,160,85889,6,0,B|184:144|212:152|212:152|232:128|241:133|268:112,1,149.999995422363
96,224,86185,5,0,0:0:0:0:
96,264,86258,1,0,0:0:0:0:
96,296,86332,1,0,0:0:0:0:
96,336,86406,1,0,0:0:0:0:
120,352,86480,2,0,L|184:320,1,62.5
200,336,86628,2,0,L|256:296,1,62.5
328,200,86776,2,0,B|292:172|284:144|284:144|249:165|208:176,1,149.999995422363
360,124,87071,6,0,B|412:108|424:80|424:80|448:96|496:92,1,149.999995422363
428,344,87367,1,0,0:0:0:0:
400,312,87441,1,0,0:0:0:0:
404,264,87515,2,0,L|352:196,1,74.9999977111817
296,348,87664,2,0,B|270:298|248:280|248:280|246:248|240:208,1,149.999995422363
180,64,87957,1,0,0:0:0:0:
248,200,88105,1,0,0:0:0:0:
376,168,88253,6,0,B|432:156|456:160|456:160|472:136|512:120,1,149.999995422363
96,224,88549,5,0,0:0:0:0:
96,264,88622,1,0,0:0:0:0:
96,296,88696,1,0,0:0:0:0:
96,336,88770,1,0,0:0:0:0:
128,368,88846,2,0,B|184:356|200:340|200:340|232:352|296:352,1,149.999995422363
289,56,89435,6,0,B|252:72|240:112|240:112|217:93|168:80,1,149.999995422363
320,132,89731,1,0,0:0:0:0:
164,268,89879,2,0,P|212:228|220:204,1,74.9999977111817
372,240,90029,2,0,P|320:320|304:384,1,149.999995422363
352,112,90322,1,0,0:0:0:0:
232,192,90470,1,0,0:0:0:0:
408,200,90618,6,0,P|488:192|544:152,1,125
96,224,90914,5,0,0:0:0:0:
96,264,90987,1,0,0:0:0:0:
96,296,91061,1,0,0:0:0:0:
96,336,91135,1,0,0:0:0:0:
120,352,91209,2,0,L|184:320,1,62.5
200,336,91357,2,0,L|256:296,1,62.5
328,196,91507,2,0,B|280:184|244:200|244:200|220:180|176:188,1,149.999995422363
304,48,91800,6,0,B|252:56|232:84|232:84|196:64|160:84,1,149.999995422363
364,176,92096,1,0,0:0:0:0:
388,148,92170,1,0,0:0:0:0:
420,108,92245,2,0,P|424:28|420:12,1,74.9999977111817
440,236,92393,2,0,B|460:276|440:316|440:316|472:332|488:380,1,149.999995422363
320,104,92686,1,0,0:0:0:0:
264,276,92834,1,0,0:0:0:0:
440,200,92982,6,0,B|400:224|388:264|388:264|364:228|322:229,1,149.999995422363
188,160,93278,5,0,0:0:0:0:
136,136,93351,1,0,0:0:0:0:
72,164,93425,1,0,0:0:0:0:
56,224,93499,1,0,0:0:0:0:
92,264,93576,2,0,P|128:264|80:244,1,149.999995422363
216,280,93869,6,0,P|170:336|89:351,1,149.999995422363
236,100,94164,2,0,B|284:80|316:92|316:92|348:60|380:48,1,149.999995422363
336,288,94460,1,0,0:0:0:0:
352,240,94534,1,0,0:0:0:0:
396,192,94610,2,0,P|440:112|444:104,1,74.9999977111817
312,40,94756,2,0,L|304:128,1,74.9999977111817
252,160,94904,2,0,L|256:80,1,74.9999977111817
132,232,95052,6,0,B|92:204|102:161|102:161|60:144|53:109,1,149.999995422363
224,344,95347,1,0,0:0:0:0:
127,82,95495,1,0,0:0:0:0:
244,320,95643,2,0,P|308:280|340:232,1,125
308,16,95938,2,0,L|308:88,1,62.5
372,128,96086,2,0,L|372:64,1,62.5
228,200,96234,6,0,B|224:171|248:139|248:139|220:103|224:55,1,149.999995422363
168,316,96529,1,0,0:0:0:0:
312,200,96677,1,0,0:0:0:0:
116,152,96825,2,0,B|124:176|108:192|108:192|88:124|28:56,1,149.999995422363
40,352,97121,1,0,0:0:0:0:
68,80,97270,6,0,B|95:107|115:175|115:175|131:159|123:135,1,149.999995422363
180,324,97565,1,0,0:0:0:0:
392,112,97712,2,0,B|348:92|332:60|332:60|300:80|256:72,1,149.999995422363
380,316,98007,1,0,0:0:0:0:
204,228,98155,1,0,0:0:0:0:
416,112,98303,6,0,B|416:156|400:184|400:184|356:208|332:272,1,149.999995422363
216,336,98598,1,0,0:0:0:0:
328,136,98746,1,0,0:0:0:0:
464,376,98894,2,0,B|476:328|468:304|468:304|486:278|504:232,1,149.999995422363
392,32,99190,1,0,0:0:0:0:
384,328,99337,1,0,0:0:0:0:
232,48,99485,6,0,P|235:80|216:128,1,74.9999977111817
140,176,99633,2,0,P|124:136|132:80,1,74.9999977111817
144,92,99781,1,0,0:0:0:0:
208,288,99928,1,0,0:0:0:0:
376,160,100076,2,0,B|404:208|408:240|408:240|432:236|480:240,1,149.999995422363
144,168,100372,6,0,B|88:184|56:160|56:160|48:204|8:224,1,149.999995422363
296,128,100669,2,0,B|312:88|344:64|344:64|322:34|328:-8,1,149.999995422363
264,288,100963,1,0,0:0:0:0:
404,13,101111,1,0,0:0:0:0:
346,288,101258,6,0,P|310:357|194:336,1,149.999995422363
104,184,101554,2,0,B|160:156|200:168|200:168|164:188|160:216,1,149.999995422363
94,304,101850,2,0,L|156:292,1,62.5
272,344,101997,2,0,L|209:344,1,62.5
48,352,102145,1,0,0:0:0:0:
304,280,102293,1,0,0:0:0:0:
76,168,102441,6,0,B|136:140|144:104|144:104|163:130|204:136,1,149.999995422363
388,128,102736,2,0,P|380:208|300:208,1,149.999995422363
212,116,103034,1,0,0:0:0:0:
388,108,103181,1,0,0:0:0:0:
228,312,103329,1,0,0:0:0:0:
376,240,103477,1,0,0:0:0:0:
308,64,103625,1,0,0:0:0:0:
168,236,103773,1,0,0:0:0:0:
388,224,103920,6,0,B|436:224|452:184|452:184|496:176|516:216,1,149.999995422363
216,72,104216,5,0,0:0:0:0:
216,320,104364,1,0,0:0:0:0:
364,112,104512,1,0,0:0:0:0:
96,116,104659,1,0,0:0:0:0:
336,344,104807,1,0,0:0:0:0:
288,28,104955,1,0,0:0:0:0:
136,208,105103,1,0,0:0:0:0:
428,216,105251,1,0,0:0:0:0:
180,36,105398,5,0,0:0:0:0:
224,364,105546,1,0,0:0:0:0:
432,64,105694,1,0,0:0:0:0:
166,234,105842,1,0,0:0:0:0:
384,332,105990,1,0,0:0:0:0:
284,124,106137,1,0,0:0:0:0:
32,24,106285,1,0,0:0:0:0:
179,245,106433,1,0,0:0:0:0:
220,40,106581,5,0,0:0:0:0:
384,236,106728,1,0,0:0:0:0:
508,16,106876,1,0,0:0:0:0:
208,64,107024,1,0,0:0:0:0:
464,204,107172,1,0,0:0:0:0:
228,356,107320,1,0,0:0:0:0:
320,136,107467,1,0,0:0:0:0:
128,24,107615,1,0,0:0:0:0:
8,352,107763,5,0,0:0:0:0:
248,168,107911,1,0,0:0:0:0:
20,24,108059,1,0,0:0:0:0:
112,320,108206,1,0,0:0:0:0:
220,36,108354,1,0,0:0:0:0:
80,224,108502,1,0,0:0:0:0:
368,184,108650,1,0,0:0:0:0:
192,368,108797,1,0,0:0:0:0:
360,56,108945,5,0,0:0:0:0:
512,380,109093,1,0,0:0:0:0:
232,216,109241,1,0,0:0:0:0:
492,92,109389,1,0,0:0:0:0:
368,360,109536,1,0,0:0:0:0:
72,264,109684,1,0,0:0:0:0:
376,208,109832,1,0,0:0:0:0:
220,48,109980,1,0,0:0:0:0:
236,344,110127,5,0,0:0:0:0:
384,28,110275,1,0,0:0:0:0:
88,148,110423,1,0,0:0:0:0:
364,344,110571,1,0,0:0:0:0:
488,100,110719,1,0,0:0:0:0:
88,288,110866,1,0,0:0:0:0:
264,24,111014,1,0,0:0:0:0:
280,384,111162,1,0,0:0:0:0:
136,48,111310,5,0,0:0:0:0:
384,44,111458,1,0,0:0:0:0:
232,313,111605,1,0,0:0:0:0:
308,128,111753,1,0,0:0:0:0:
28,176,111901,1,0,0:0:0:0:
256,308,112049,1,0,0:0:0:0:
0,384,112196,1,0,0:0:0:0:
64,76,112344,1,0,0:0:0:0:
160,312,112492,5,0,0:0:0:0:
248,24,112640,1,0,0:0:0:0:
48,272,112788,1,0,0:0:0:0:
416,240,112935,1,0,0:0:0:0:
160,52,113083,1,0,0:0:0:0:
364,344,113231,1,0,0:0:0:0:
440,68,113379,1,0,0:0:0:0:
188,236,113526,1,0,0:0:0:0:
496,184,113674,5,0,0:0:0:0:
288,60,113822,1,0,0:0:0:0:
496,184,113970,1,0,0:0:0:0:
220,320,114118,1,0,0:0:0:0:
496,184,114265,1,0,0:0:0:0:
172,56,114413,1,0,0:0:0:0:
496,184,114561,1,0,0:0:0:0:
128,296,114709,1,0,0:0:0:0:
496,184,114857,5,0,0:0:0:0:
256,0,115004,1,0,0:0:0:0:
356,216,115152,1,0,0:0:0:0:
256,0,115300,1,0,0:0:0:0:
128,276,115448,1,0,0:0:0:0:
256,0,115595,1,0,0:0:0:0:
412,288,115743,1,0,0:0:0:0:
256,0,115891,1,0,0:0:0:0:
184,356,116039,5,0,0:0:0:0:
224,100,116187,1,0,0:0:0:0:
76,164,116334,1,0,0:0:0:0:
364,164,116482,1,0,0:0:0:0:
320,320,116630,1,0,0:0:0:0:
144,64,116778,1,0,0:0:0:0:
76,312,116925,1,0,0:0:0:0:
316,80,117073,1,0,0:0:0:0:
184,348,117221,5,0,0:0:0:0:
232,44,117369,1,0,0:0:0:0:
264,348,117517,1,0,0:0:0:0:
144,64,117664,1,0,0:0:0:0:
344,296,117812,1,0,0:0:0:0:
88,140,117960,1,0,0:0:0:0:
376,216,118108,1,0,0:0:0:0:
80,232,118256,1,0,0:0:0:0:
364,128,118403,5,0,0:0:0:0:
232,344,118551,1,0,0:0:0:0:
224,24,118699,1,0,0:0:0:0:
436,288,118847,1,0,0:0:0:0:
84,224,118994,1,0,0:0:0:0:
320,52,119142,1,0,0:0:0:0:
128,324,119290,1,0,0:0:0:0:
304,208,119438,1,0,0:0:0:0:
112,48,119586,5,0,0:0:0:0:
137,344,119733,1,0,0:0:0:0:
436,318,119881,1,0,0:0:0:0:
410,18,120029,1,0,0:0:0:0:
96,64,120176,1,0,0:0:0:0:
151,355,120323,1,0,0:0:0:0:
446,298,120471,1,0,0:0:0:0:
389,3,120619,1,0,0:0:0:0:
264,76,120768,5,0,0:0:0:0:
370,182,120916,1,0,0:0:0:0:
264,287,121063,1,0,0:0:0:0:
157,180,121211,1,0,0:0:0:0:
318,37,121359,1,0,0:0:0:0:
415,228,121507,1,0,0:0:0:0:
224,324,121654,1,0,0:0:0:0:
126,131,121802,1,0,0:0:0:0:
256,381,121950,5,0,0:0:0:0:
472,216,122098,1,0,0:0:0:0:
312,1,122245,1,0,0:0:0:0:
96,164,122393,1,0,0:0:0:0:
438,21,122541,1,0,0:0:0:0:
450,343,122689,1,0,0:0:0:0:
129,353,122836,1,0,0:0:0:0:
117,27,122984,1,0,0:0:0:0:
184,96,123132,5,0,0:0:0:0:
124,212,123281,1,0,0:0:0:0:
208,104,123429,1,0,0:0:0:0:
264,232,123577,1,0,0:0:0:0:
228,104,123725,1,0,0:0:0:0:
380,192,123872,1,0,0:0:0:0:
256,96,124020,2,0,P|311:123|336:144,1,93.7500035762788
396,312,124316,5,0,0:0:0:0:
240,272,124464,1,0,0:0:0:0:
372,336,124611,1,0,0:0:0:0:
472,200,124759,1,0,0:0:0:0:
328,152,124907,1,0,0:0:0:0:
256,292,125055,1,0,0:0:0:0:
356,160,125202,2,0,L|368:264,1,93.7500035762788
130,99,125497,5,0,0:0:0:0:
136,324,125646,1,0,0:0:0:0:
144,96,125794,1,0,0:0:0:0:
156,320,125941,1,0,0:0:0:0:
164,88,126089,1,0,0:0:0:0:
380,72,126237,1,0,0:0:0:0:
192,72,126385,2,0,L|188:184,1,93.7500035762788
360,236,126678,5,0,0:0:0:0:
264,348,126827,1,0,0:0:0:0:
296,108,126975,1,0,0:0:0:0:
272,328,127122,1,0,0:0:0:0:
352,220,127271,1,0,0:0:0:0:
312,96,127418,1,0,0:0:0:0:
88,232,127566,2,0,P|128:192|152:120,1,93.7500035762788
84,92,127862,5,0,0:0:0:0:
296,192,128010,1,0,0:0:0:0:
224,28,128157,1,0,0:0:0:0:
204,192,128305,1,0,0:0:0:0:
324,320,128453,1,0,0:0:0:0:
264,116,128601,1,0,0:0:0:0:
368,228,128748,2,0,P|396:264|452:288,1,93.7500035762788
212,324,129043,5,0,0:0:0:0:
240,196,129192,1,0,0:0:0:0:
336,324,129340,1,0,0:0:0:0:
144,248,129487,1,0,0:0:0:0:
336,140,129635,1,0,0:0:0:0:
224,340,129783,1,0,0:0:0:0:
232,92,129931,2,0,P|239:146|232:228,1,93.7500035762788
100,72,130225,5,0,0:0:0:0:
280,268,130374,1,0,0:0:0:0:
320,120,130522,1,0,0:0:0:0:
168,184,130670,1,0,0:0:0:0:
152,332,130818,1,0,0:0:0:0:
216,88,130965,1,0,0:0:0:0:
96,244,131113,2,0,B|78:232|48:228|48:228|40:208|8:192,1,93.7500035762788
200,80,131409,5,0,0:0:0:0:
268,188,131557,1,0,0:0:0:0:
384,224,131704,1,0,0:0:0:0:
288,96,131852,1,0,0:0:0:0:
360,144,132000,1,0,0:0:0:0:
456,152,132148,1,0,0:0:0:0:
380,56,132295,2,0,P|396:24|376:44,1,93.7500035762788
