osu file format v14

[General]
AudioFilename: audio.mp3
AudioLeadIn: 0
PreviewTime: -1
Countdown: 0
SampleSet: None
StackLeniency: 0.7
Mode: 3
LetterboxInBreaks: 0
SpecialStyle: 0
WidescreenStoryboard: 0

[Editor]
DistanceSpacing: 1.2
BeatDivisor: 4
GridSize: 4
TimelineZoom: 1

[Metadata]
Title:Chapter 1
TitleUnicode:Chapter 1
Artist:DELTARUNE
ArtistUnicode:DELTARUNE
Creator:[Shana Lesus]
Version:Toby Fox - Vs. Lancer
Source:
Tags:
BeatmapID:2078101
BeatmapSetID:993812

[Difficulty]
HPDrainRate:8
CircleSize:7
OverallDifficulty:8
ApproachRate:5
SliderMultiplier:1.4
SliderTickRate:1

[Events]
//Background and Video events
0,0,"eternal.jpg",0,0
//Break Periods
//Storyboard Layer 0 (Background)
//Storyboard Layer 1 (Fail)
//Storyboard Layer 2 (Pass)
//Storyboard Layer 3 (Foreground)
//Storyboard Sound Samples
Sample,2143,0,"E4S_s.ogg",75
Sample,2473,0,"E4S_s.ogg",75
Sample,3132,0,"E4S_s.ogg",75
Sample,3462,0,"E4S_s.ogg",75
Sample,3791,0,"E4S_s.ogg",75
Sample,4121,0,"G4S_s.ogg",75
Sample,4121,0,"D#4S_Eb4S_s.ogg",75
Sample,4451,0,"D#4S_Eb4S_s.ogg",75
Sample,4780,0,"D#4S_Eb4S_s.ogg",75
Sample,5110,0,"D#4S_Eb4S_s.ogg",75
Sample,5440,0,"D#4S_Eb4S_s.ogg",75
Sample,5769,0,"D#4S_Eb4S_s.ogg",75
Sample,6099,0,"D#4S_Eb4S_s.ogg",75
Sample,6429,0,"D#4S_Eb4S_s.ogg",75
Sample,7418,0,"D4S_s.ogg",75
Sample,7747,0,"D4S_s.ogg",75
Sample,8407,0,"D4S_s.ogg",75
Sample,8736,0,"D4S_s.ogg",75
Sample,9066,0,"D4S_s.ogg",75
Sample,9396,0,"G#4S_Ab4S_s.ogg",75
Sample,9396,0,"E4S_s.ogg",75
Sample,9725,0,"G#4S_Ab4S_s.ogg",75
Sample,9725,0,"E4S_s.ogg",75
Sample,9890,0,"C#4S_Db4S_s.ogg",81
Sample,10220,0,"G#3S_Ab3S_s.ogg",81
Sample,10549,0,"C4S_s.ogg",81
Sample,10879,0,"G#3S_Ab3S_s.ogg",81
Sample,11044,0,"D#4S_Eb4S_s.ogg",75
Sample,12692,0,"E4S_s.ogg",75
Sample,13022,0,"E4S_s.ogg",75
Sample,13681,0,"E4S_s.ogg",75
Sample,14011,0,"E4S_s.ogg",75
Sample,14341,0,"E4S_s.ogg",75
Sample,14670,0,"G4S_s.ogg",75
Sample,14670,0,"D#4S_Eb4S_s.ogg",75
Sample,15000,0,"D#4S_Eb4S_s.ogg",75
Sample,15330,0,"D#4S_Eb4S_s.ogg",75
Sample,15659,0,"D#4S_Eb4S_s.ogg",75
Sample,15989,0,"D#4S_Eb4S_s.ogg",75
Sample,16319,0,"D#4S_Eb4S_s.ogg",75
Sample,16648,0,"D#4S_Eb4S_s.ogg",75
Sample,16978,0,"D#4S_Eb4S_s.ogg",75
Sample,17967,0,"D4S_s.ogg",75
Sample,18297,0,"D4S_s.ogg",75
Sample,18956,0,"D4S_s.ogg",75
Sample,19286,0,"D4S_s.ogg",75
Sample,19615,0,"D4S_s.ogg",75
Sample,19945,0,"G#4S_Ab4S_s.ogg",75
Sample,19945,0,"E4S_s.ogg",75
Sample,20275,0,"G#4S_Ab4S_s.ogg",75
Sample,20275,0,"E4S_s.ogg",75
Sample,20440,0,"C#4S_Db4S_s.ogg",81
Sample,20769,0,"G#3S_Ab3S_s.ogg",81
Sample,21099,0,"C4S_s.ogg",81
Sample,21429,0,"G#3S_Ab3S_s.ogg",81
Sample,21593,0,"E4S_s.ogg",75
Sample,22253,0,"D#4S_Eb4S_s.ogg",75
Sample,22418,0,"C#4S_Db4S_s.ogg",81
Sample,23571,0,"F#4S_Gb4S_s.ogg",75
Sample,23736,0,"C4S_s.ogg",81
Sample,24231,0,"D#4S_Eb4S_s.ogg",75
Sample,24231,0,"G#4S_Ab4S_s.ogg",75
Sample,24725,0,"G#3S_Ab3S_s.ogg",81
Sample,25220,0,"G#4S_Ab4S_s.ogg",75
Sample,25220,0,"E4S_s.ogg",75
Sample,25549,0,"E4S_s.ogg",75
Sample,25714,0,"C#4S_Db4S_s.ogg",81
Sample,26044,0,"G#3S_Ab3S_s.ogg",81
Sample,26209,0,"E4S_s.ogg",75
Sample,26209,0,"G#4S_Ab4S_s.ogg",75
Sample,27198,0,"A#4S_Bb4S_s.ogg",75
Sample,27198,0,"C#5S_Db5S_s.ogg",75
Sample,27363,0,"C#4S_Db4S_s.ogg",81
Sample,27527,0,"C#5S_Db5S_s.ogg",75
Sample,27527,0,"A#4S_Bb4S_s.ogg",75
Sample,27692,0,"D4S_s.ogg",81
Sample,28516,0,"F#4S_Gb4S_s.ogg",75
Sample,28516,0,"A4S_s.ogg",75
Sample,28681,0,"A3S_s.ogg",81
Sample,28846,0,"F#4S_Gb4S_s.ogg",75
Sample,29011,0,"C#4S_Db4S_s.ogg",81
Sample,29341,0,"G#3S_Ab3S_s.ogg",81
Sample,29505,0,"E4S_s.ogg",75
Sample,29505,0,"G#4S_Ab4S_s.ogg",75
Sample,29835,0,"E4S_s.ogg",75
Sample,30000,0,"G#3S_Ab3S_s.ogg",81
Sample,30330,0,"G#3S_Ab3S_s.ogg",81
Sample,30330,0,"B4S.ogg",94
Sample,31648,0,"A3S_s.ogg",81
Sample,31648,0,"A4S.ogg",94
Sample,32472,0,"C#4S_Db4S_s.ogg",75
Sample,32472,0,"E4S_s.ogg",75
Sample,32637,0,"E3S_s.ogg",81
Sample,32802,0,"E4S_s.ogg",75
Sample,32802,0,"C#4S_Db4S_s.ogg",75
Sample,32967,0,"C#5S_Db5S.ogg",94
Sample,32967,0,"C#4S_Db4S_s.ogg",81
Sample,34121,0,"F#4S_Gb4S_s.ogg",75
Sample,34286,0,"C4S_s.ogg",81
Sample,34780,0,"G#4S_Ab4S_s.ogg",75
Sample,34780,0,"D#4S_Eb4S_s.ogg",75
Sample,35275,0,"G#3S_Ab3S_s.ogg",81
Sample,35769,0,"E4S_s.ogg",75
Sample,35769,0,"G#4S_Ab4S_s.ogg",75
Sample,36099,0,"E4S_s.ogg",75
Sample,36099,0,"G#4S_Ab4S_s.ogg",94
Sample,36264,0,"C#4S_Db4S_s.ogg",81
Sample,36593,0,"G#3S_Ab3S_s.ogg",81
Sample,36758,0,"E4S_s.ogg",75
Sample,36758,0,"G#4S_Ab4S_s.ogg",75
Sample,37747,0,"A#4S_Bb4S_s.ogg",75
Sample,37747,0,"C#5S_Db5S_s.ogg",75
Sample,37912,0,"C#4S_Db4S_s.ogg",81
Sample,38077,0,"C#5S_Db5S_s.ogg",75
Sample,38077,0,"A#4S_Bb4S_s.ogg",75
Sample,38242,0,"D4S_s.ogg",81
Sample,39066,0,"F#4S_Gb4S_s.ogg",75
Sample,39066,0,"A4S_s.ogg",75
Sample,39231,0,"A3S_s.ogg",81
Sample,39396,0,"F#4S_Gb4S_s.ogg",75
Sample,39560,0,"C#4S_Db4S_s.ogg",81
Sample,39890,0,"G#3S_Ab3S_s.ogg",81
Sample,40055,0,"E4S_s.ogg",75
Sample,40055,0,"G#4S_Ab4S_s.ogg",75
Sample,40385,0,"E4S_s.ogg",75
Sample,40549,0,"G#3S_Ab3S_s.ogg",81
Sample,41538,0,"G#3S_Ab3S_s.ogg",81

[TimingPoints]
0,329.67,4,1,1,100,1,0

[HitObjects]
302,192,0,5,0,0:0:0:81:G#2S_Ab2S_s.ogg
156,192,329,1,0,0:0:0:81:G#3S_Ab3S_s.ogg
83,192,659,1,0,0:0:0:81:G#4S_Ab4S_s.ogg
375,192,659,1,0,0:0:0:81:G#5S_Ab5S_s.ogg
448,192,659,1,0,0:0:0:81:G#6S_Ab6S_s.ogg
10,192,824,1,0,0:0:0:81:G#3S_Ab3S_s.ogg
229,192,824,1,0,0:0:0:94:C#5S_Db5S_s.ogg
156,192,989,1,0,0:0:0:81:B3S_s.ogg
302,192,989,1,0,0:0:0:94:E5S_s.ogg
83,192,1153,1,0,0:0:0:81:C4S_s.ogg
375,192,1153,1,0,0:0:0:94:G5S_s.ogg
229,192,1318,1,0,0:0:0:81:C#4S_Db4S_s.ogg
448,192,1318,1,0,0:0:0:94:G#5S_Ab5S.ogg
10,192,1483,1,0,0:0:0:75:E4S_s.ogg
302,192,1483,1,0,0:0:0:75:G#4S_Ab4S_s.ogg
156,192,1648,1,0,0:0:0:81:G#3S_Ab3S_s.ogg
83,192,1813,1,0,0:0:0:75:E4S_s.ogg
375,192,1813,1,0,0:0:0:75:G#4S_Ab4S_s.ogg
448,192,1978,1,0,0:0:0:81:C#4S_Db4S_s.ogg
10,192,2142,1,0,0:0:0:75:G#4S_Ab4S_s.ogg
229,192,2142,1,0,0:0:0:94:C#5S_Db5S_s.ogg
156,192,2307,1,0,0:0:0:81:G#3S_Ab3S_s.ogg
302,192,2307,1,0,0:0:0:94:E5S_s.ogg
83,192,2472,1,0,0:0:0:75:G#4S_Ab4S_s.ogg
375,192,2472,1,0,0:0:0:94:G5S_s.ogg
10,192,2637,1,0,0:0:0:81:C#4S_Db4S_s.ogg
448,192,2637,1,0,0:0:0:94:G#5S_Ab5S.ogg
229,192,2802,1,0,0:0:0:75:E4S_s.ogg
302,192,2802,1,0,0:0:0:75:G#4S_Ab4S_s.ogg
156,192,2967,1,0,0:0:0:81:G#3S_Ab3S_s.ogg
375,192,2967,1,0,0:0:0:94:C#6S_Db6S_s.ogg
83,192,3131,1,0,0:0:0:75:G#4S_Ab4S_s.ogg
448,192,3131,1,0,0:0:0:94:G#5S_Ab5S.ogg
10,192,3296,1,0,0:0:0:81:C#4S_Db4S_s.ogg
229,192,3461,1,0,0:0:0:75:G#4S_Ab4S_s.ogg
302,192,3461,1,0,0:0:0:94:C#6S_Db6S_s.ogg
156,192,3626,1,0,0:0:0:81:G#3S_Ab3S_s.ogg
375,192,3626,1,0,0:0:0:94:G#5S_Ab5S_s.ogg
83,192,3791,1,0,0:0:0:75:G#4S_Ab4S_s.ogg
448,192,3791,1,0,0:0:0:94:E5S_s.ogg
10,192,3956,1,0,0:0:0:81:A#3S_Bb3S_s.ogg
302,192,3956,1,0,0:0:0:94:G5S_s.ogg
156,192,4120,1,0,0:0:0:94:A#5S_Bb5S_s.ogg
229,192,4120,1,0,0:0:0:94:D#6S_Eb6S_s.ogg
83,192,4285,1,0,0:0:0:81:G3S_s.ogg
375,192,4285,1,0,0:0:0:94:D6S_s.ogg
10,192,4450,1,0,0:0:0:75:G4S_s.ogg
448,192,4450,1,0,0:0:0:94:D#6S_Eb6S_s.ogg
156,192,4615,1,0,0:0:0:81:A#3S_Bb3S_s.ogg
302,192,4615,1,0,0:0:0:94:G6S_s.ogg
229,192,4780,1,0,0:0:0:75:G4S_s.ogg
375,192,4780,1,0,0:0:0:94:F#6S_Gb6S_s.ogg
83,192,4945,1,0,0:0:0:81:G3S_s.ogg
448,192,4945,1,0,0:0:0:94:G6S_s.ogg
10,192,5109,1,0,0:0:0:75:G4S_s.ogg
302,192,5109,1,0,0:0:0:94:A#6S_Bb6S_s.ogg
156,192,5274,1,0,0:0:0:81:A#3S_Bb3S_s.ogg
375,192,5274,1,0,0:0:0:94:A#6S_Bb6S_s.ogg
229,192,5439,1,0,0:0:0:75:G4S_s.ogg
448,192,5439,1,0,0:0:0:94:A6S_s.ogg
83,192,5604,1,0,0:0:0:81:G3S_s.ogg
302,192,5604,1,0,0:0:0:94:A#6S_Bb6S_s.ogg
10,192,5769,1,0,0:0:0:75:G4S_s.ogg
375,192,5769,1,0,0:0:0:94:D#7S_Eb7S_s.ogg
156,192,5934,1,0,0:0:0:81:A#3S_Bb3S_s.ogg
229,192,6098,1,0,0:0:0:75:G4S_s.ogg
448,192,6098,1,0,0:0:0:94:A4S_s.ogg
83,192,6263,1,0,0:0:0:81:G3S_s.ogg
302,192,6263,1,0,0:0:0:94:D5S_s.ogg
10,192,6428,1,0,0:0:0:75:G4S_s.ogg
375,192,6428,1,0,0:0:0:94:E5S_s.ogg
156,192,6593,1,0,0:0:0:81:F#3S_Gb3S_s.ogg
229,192,6593,1,0,0:0:0:94:F#5S_Gb5S.ogg
83,192,6758,1,0,0:0:0:75:D4S_s.ogg
448,192,6758,1,0,0:0:0:75:F#4S_Gb4S_s.ogg
302,192,6923,1,0,0:0:0:81:D3S_s.ogg
10,192,7087,1,0,0:0:0:75:D4S_s.ogg
375,192,7087,1,0,0:0:0:75:F#4S_Gb4S_s.ogg
229,192,7252,1,0,0:0:0:81:F#3S_Gb3S_s.ogg
156,192,7417,1,0,0:0:0:75:F#4S_Gb4S_s.ogg
448,192,7417,1,0,0:0:0:94:A4S_s.ogg
83,192,7582,1,0,0:0:0:81:D3S_s.ogg
302,192,7582,1,0,0:0:0:94:D5S_s.ogg
10,192,7747,1,0,0:0:0:75:F#4S_Gb4S_s.ogg
375,192,7747,1,0,0:0:0:94:E5S_s.ogg
229,192,7912,1,0,0:0:0:81:F#3S_Gb3S_s.ogg
448,192,7912,1,0,0:0:0:94:F#5S_Gb5S.ogg
156,192,8076,1,0,0:0:0:75:D4S_s.ogg
302,192,8076,1,0,0:0:0:75:F#4S_Gb4S_s.ogg
83,192,8241,1,0,0:0:0:81:D3S_s.ogg
375,192,8241,1,0,0:0:0:94:E5S_s.ogg
10,192,8406,1,0,0:0:0:75:F#4S_Gb4S_s.ogg
448,192,8406,1,0,0:0:0:94:C5S.ogg
229,192,8571,1,0,0:0:0:81:F#3S_Gb3S_s.ogg
156,192,8736,1,0,0:0:0:75:F#4S_Gb4S_s.ogg
302,192,8736,1,0,0:0:0:94:E5S_s.ogg
83,192,8901,1,0,0:0:0:81:D3S_s.ogg
375,192,8901,1,0,0:0:0:94:C5S_s.ogg
10,192,9065,1,0,0:0:0:75:F#4S_Gb4S_s.ogg
448,192,9065,1,0,0:0:0:94:G#4S_Ab4S_s.ogg
229,192,9230,1,0,0:0:0:81:C#4S_Db4S_s.ogg
302,192,9230,1,0,0:0:0:94:C#5S_Db5S_s.ogg
156,192,9395,1,0,0:0:0:94:G#5S_Ab5S_s.ogg
375,192,9395,1,0,0:0:0:94:C#6S_Db6S_s.ogg
83,192,9560,1,0,0:0:0:81:G#3S_Ab3S_s.ogg
10,192,9725,1,0,0:0:0:94:G#5S_Ab5S_s.ogg
448,192,9725,1,0,0:0:0:94:C#6S_Db6S_s.ogg
229,192,9890,1,0,0:0:0:94:F#5S_Gb5S_s.ogg
302,192,9890,1,0,0:0:0:94:B5S_s.ogg
156,192,10054,1,0,0:0:0:75:E4S_s.ogg
375,192,10054,1,0,0:0:0:75:G#4S_Ab4S_s.ogg
83,192,10219,1,0,0:0:0:94:F#5S_Gb5S_s.ogg
448,192,10219,1,0,0:0:0:94:B5S_s.ogg
10,192,10384,1,0,0:0:0:75:E4S_s.ogg
302,192,10384,1,0,0:0:0:75:G#4S_Ab4S_s.ogg
229,192,10549,1,0,0:0:0:94:C5S_s.ogg
375,192,10549,1,0,0:0:0:94:F#5S_Gb5S_s.ogg
156,192,10714,1,0,0:0:0:75:D#4S_Eb4S_s.ogg
448,192,10714,1,0,0:0:0:75:G#4S_Ab4S_s.ogg
83,192,10879,1,0,0:0:0:94:C5S_s.ogg
302,192,10879,1,0,0:0:0:94:F#5S_Gb5S_s.ogg
10,192,11043,1,0,0:0:0:75:G#4S_Ab4S_s.ogg
375,192,11043,1,0,0:0:0:94:E5S_s.ogg
229,192,11126,1,0,0:0:0:94:G#5S_Ab5S_s.ogg
156,192,11208,1,0,0:0:0:81:C4S_s.ogg
448,192,11208,1,0,0:0:0:94:E5S_s.ogg
83,192,11373,1,0,0:0:0:81:G#3S_Ab3S_s.ogg
302,192,11373,1,0,0:0:0:94:C#5S_Db5S_s.ogg
229,192,11538,1,0,0:0:0:81:B3S_s.ogg
375,192,11538,1,0,0:0:0:94:E5S_s.ogg
10,192,11703,1,0,0:0:0:81:C4S_s.ogg
448,192,11703,1,0,0:0:0:94:G5S_s.ogg
156,192,11868,1,0,0:0:0:81:C#4S_Db4S_s.ogg
302,192,11868,1,0,0:0:0:94:G#5S_Ab5S.ogg
83,192,12032,1,0,0:0:0:75:E4S_s.ogg
229,192,12032,1,0,0:0:0:75:G#4S_Ab4S_s.ogg
375,192,12197,1,0,0:0:0:81:G#3S_Ab3S_s.ogg
10,192,12362,1,0,0:0:0:75:E4S_s.ogg
448,192,12362,1,0,0:0:0:75:G#4S_Ab4S_s.ogg
156,192,12527,1,0,0:0:0:81:C#4S_Db4S_s.ogg
229,192,12692,1,0,0:0:0:75:G#4S_Ab4S_s.ogg
302,192,12692,1,0,0:0:0:94:C#5S_Db5S_s.ogg
83,192,12857,1,0,0:0:0:81:G#3S_Ab3S_s.ogg
375,192,12857,1,0,0:0:0:94:E5S_s.ogg
10,192,13021,1,0,0:0:0:75:G#4S_Ab4S_s.ogg
448,192,13021,1,0,0:0:0:94:G5S_s.ogg
156,192,13186,1,0,0:0:0:81:C#4S_Db4S_s.ogg
229,192,13186,1,0,0:0:0:94:G#5S_Ab5S.ogg
83,192,13351,1,0,0:0:0:75:E4S_s.ogg
302,192,13351,1,0,0:0:0:75:G#4S_Ab4S_s.ogg
10,192,13516,1,0,0:0:0:81:G#3S_Ab3S_s.ogg
375,192,13516,1,0,0:0:0:94:C#6S_Db6S_s.ogg
156,192,13681,1,0,0:0:0:75:G#4S_Ab4S_s.ogg
448,192,13681,1,0,0:0:0:94:G#5S_Ab5S.ogg
229,192,13846,1,0,0:0:0:81:C#4S_Db4S_s.ogg
83,192,14010,1,0,0:0:0:75:G#4S_Ab4S_s.ogg
302,192,14010,1,0,0:0:0:94:C#6S_Db6S_s.ogg
10,192,14175,1,0,0:0:0:81:G#3S_Ab3S_s.ogg
375,192,14175,1,0,0:0:0:94:G#5S_Ab5S_s.ogg
156,192,14340,1,0,0:0:0:75:G#4S_Ab4S_s.ogg
448,192,14340,1,0,0:0:0:94:E5S_s.ogg
83,192,14505,1,0,0:0:0:81:A#3S_Bb3S_s.ogg
229,192,14505,1,0,0:0:0:94:G5S_s.ogg
10,192,14670,1,0,0:0:0:94:A#5S_Bb5S_s.ogg
302,192,14670,1,0,0:0:0:94:D#6S_Eb6S_s.ogg
156,192,14835,1,0,0:0:0:81:G3S_s.ogg
375,192,14835,1,0,0:0:0:94:D6S_s.ogg
83,192,14999,1,0,0:0:0:75:G4S_s.ogg
448,192,14999,1,0,0:0:0:94:D#6S_Eb6S_s.ogg
229,192,15164,1,0,0:0:0:81:A#3S_Bb3S_s.ogg
302,192,15164,1,0,0:0:0:94:G6S_s.ogg
10,192,15329,1,0,0:0:0:75:G4S_s.ogg
375,192,15329,1,0,0:0:0:94:F#6S_Gb6S_s.ogg
156,192,15494,1,0,0:0:0:81:G3S_s.ogg
448,192,15494,1,0,0:0:0:94:G6S_s.ogg
83,192,15659,1,0,0:0:0:75:G4S_s.ogg
229,192,15659,1,0,0:0:0:94:A#6S_Bb6S_s.ogg
10,192,15824,1,0,0:0:0:81:A#3S_Bb3S_s.ogg
302,192,15824,1,0,0:0:0:94:A#6S_Bb6S_s.ogg
156,192,15988,1,0,0:0:0:75:G4S_s.ogg
375,192,15988,1,0,0:0:0:94:A6S_s.ogg
229,192,16153,1,0,0:0:0:81:G3S_s.ogg
448,192,16153,1,0,0:0:0:94:A#6S_Bb6S_s.ogg
83,192,16318,1,0,0:0:0:75:G4S_s.ogg
302,192,16318,1,0,0:0:0:94:D#7S_Eb7S_s.ogg
10,192,16483,1,0,0:0:0:81:A#3S_Bb3S_s.ogg
156,192,16648,1,0,0:0:0:75:G4S_s.ogg
375,192,16648,1,0,0:0:0:94:A4S_s.ogg
229,192,16813,1,0,0:0:0:81:G3S_s.ogg
448,192,16813,1,0,0:0:0:94:D5S_s.ogg
83,192,16978,1,0,0:0:0:75:G4S_s.ogg
302,192,16978,1,0,0:0:0:94:E5S_s.ogg
10,192,17142,1,0,0:0:0:81:F#3S_Gb3S_s.ogg
375,192,17142,1,0,0:0:0:94:F#5S_Gb5S.ogg
156,192,17307,1,0,0:0:0:75:D4S_s.ogg
229,192,17307,1,0,0:0:0:75:F#4S_Gb4S_s.ogg
448,192,17472,1,0,0:0:0:81:D3S_s.ogg
83,192,17637,1,0,0:0:0:75:D4S_s.ogg
302,192,17637,1,0,0:0:0:75:F#4S_Gb4S_s.ogg
10,192,17802,1,0,0:0:0:81:F#3S_Gb3S_s.ogg
156,192,17967,1,0,0:0:0:75:F#4S_Gb4S_s.ogg
375,192,17967,1,0,0:0:0:94:A4S_s.ogg
229,192,18131,1,0,0:0:0:81:D3S_s.ogg
448,192,18131,1,0,0:0:0:94:D5S_s.ogg
83,192,18296,1,0,0:0:0:75:F#4S_Gb4S_s.ogg
302,192,18296,1,0,0:0:0:94:E5S_s.ogg
10,192,18461,1,0,0:0:0:81:F#3S_Gb3S_s.ogg
375,192,18461,1,0,0:0:0:94:F#5S_Gb5S.ogg
156,192,18626,1,0,0:0:0:75:D4S_s.ogg
229,192,18626,1,0,0:0:0:75:F#4S_Gb4S_s.ogg
83,192,18791,1,0,0:0:0:81:D3S_s.ogg
448,192,18791,1,0,0:0:0:94:E5S_s.ogg
10,192,18956,1,0,0:0:0:75:F#4S_Gb4S_s.ogg
302,192,18956,1,0,0:0:0:94:C5S.ogg
375,192,19120,1,0,0:0:0:81:F#3S_Gb3S_s.ogg
156,192,19285,1,0,0:0:0:75:F#4S_Gb4S_s.ogg
229,192,19285,1,0,0:0:0:94:E5S_s.ogg
83,192,19450,1,0,0:0:0:81:D3S_s.ogg
448,192,19450,1,0,0:0:0:94:C5S_s.ogg
10,192,19615,1,0,0:0:0:75:F#4S_Gb4S_s.ogg
302,192,19615,1,0,0:0:0:94:G#4S_Ab4S_s.ogg
156,192,19780,1,0,0:0:0:81:C#4S_Db4S_s.ogg
375,192,19780,1,0,0:0:0:94:C#5S_Db5S_s.ogg
229,192,19945,1,0,0:0:0:94:G#5S_Ab5S_s.ogg
448,192,19945,1,0,0:0:0:94:C#6S_Db6S_s.ogg
83,192,20109,1,0,0:0:0:81:G#3S_Ab3S_s.ogg
10,192,20274,1,0,0:0:0:94:G#5S_Ab5S_s.ogg
302,192,20274,1,0,0:0:0:94:C#6S_Db6S_s.ogg
156,192,20439,1,0,0:0:0:94:F#5S_Gb5S_s.ogg
375,192,20439,1,0,0:0:0:94:B5S_s.ogg
229,192,20604,1,0,0:0:0:75:E4S_s.ogg
448,192,20604,1,0,0:0:0:75:G#4S_Ab4S_s.ogg
83,192,20769,1,0,0:0:0:94:F#5S_Gb5S_s.ogg
302,192,20769,1,0,0:0:0:94:B5S_s.ogg
10,192,20934,1,0,0:0:0:75:E4S_s.ogg
375,192,20934,1,0,0:0:0:75:G#4S_Ab4S_s.ogg
156,192,21098,1,0,0:0:0:94:C5S_s.ogg
448,192,21098,1,0,0:0:0:94:F#5S_Gb5S_s.ogg
83,192,21263,1,0,0:0:0:75:E4S_s.ogg
229,192,21263,1,0,0:0:0:75:G#4S_Ab4S_s.ogg
10,192,21428,1,0,0:0:0:94:C5S_s.ogg
302,192,21428,1,0,0:0:0:94:F#5S_Gb5S_s.ogg
156,192,21593,1,0,0:0:0:75:G#4S_Ab4S_s.ogg
375,192,21593,1,0,0:0:0:94:E5S_s.ogg
448,192,21675,1,0,0:0:0:94:G#5S_Ab5S_s.ogg
83,192,21758,1,0,0:0:0:81:C4S_s.ogg
229,192,21758,1,0,0:0:0:94:E5S_s.ogg
10,192,21923,1,0,0:0:0:81:G#3S_Ab3S_s.ogg
302,192,21923,1,0,0:0:0:94:C#5S_Db5S_s.ogg
156,192,22087,1,0,0:0:0:75:E4S_s.ogg
448,192,22087,1,0,0:0:0:94:E5S_s.ogg
83,192,22252,1,0,0:0:0:94:C#5S_Db5S_s.ogg
375,192,22252,1,0,0:0:0:94:G#5S_Ab5S_s.ogg
229,192,22417,1,0,0:0:0:94:C#5S_Db5S.ogg
302,192,22417,1,0,0:0:0:94:A5S.ogg
10,192,22582,1,0,0:0:0:75:F#4S_Gb4S_s.ogg
448,192,22582,1,0,0:0:0:75:A4S_s.ogg
156,192,22747,1,0,0:0:0:81:A3S_s.ogg
83,192,22912,1,0,0:0:0:75:F#4S_Gb4S_s.ogg
375,192,22912,1,0,0:0:0:75:A4S_s.ogg
229,192,23076,1,0,0:0:0:81:C#4S_Db4S_s.ogg
10,192,23241,1,0,0:0:0:75:F#4S_Gb4S_s.ogg
302,192,23241,1,0,0:0:0:75:A4S_s.ogg
448,192,23406,1,0,0:0:0:81:A3S_s.ogg
156,192,23571,1,0,0:0:0:75:A4S_s.ogg
375,192,23571,1,0,0:0:0:94:D#5S_Eb5S_s.ogg
83,192,23653,1,0,0:0:0:94:C#5S_Db5S_s.ogg
229,192,23736,1,0,0:0:0:94:G#4S_Ab4S.ogg
302,192,23736,1,0,0:0:0:94:C5S.ogg
10,192,23901,1,0,0:0:0:75:D#4S_Eb4S_s.ogg
448,192,23901,1,0,0:0:0:75:G#4S_Ab4S_s.ogg
156,192,24065,1,0,0:0:0:81:G#3S_Ab3S_s.ogg
375,192,24065,1,0,0:0:0:94:C#5S_Db5S_s.ogg
83,192,24230,1,0,0:0:0:94:C5S_s.ogg
229,192,24230,1,0,0:0:0:94:D#5S_Eb5S_s.ogg
302,192,24395,1,0,0:0:0:81:C4S_s.ogg
10,192,24560,1,0,0:0:0:75:D#4S_Eb4S_s.ogg
448,192,24560,1,0,0:0:0:75:G#4S_Ab4S_s.ogg
156,192,24684,1,0,0:0:0:81:G4S_s.ogg
83,192,24725,1,0,0:0:0:94:D#4S_Eb4S.ogg
375,192,24725,1,0,0:0:0:94:G#4S_Ab4S.ogg
229,192,24890,1,0,0:0:0:81:C4S_s.ogg
302,192,25054,1,0,0:0:0:81:C#4S_Db4S_s.ogg
10,192,25219,1,0,0:0:0:94:C#5S_Db5S.ogg
448,192,25219,1,0,0:0:0:94:E5S.ogg
156,192,25384,1,0,0:0:0:81:G#3S_Ab3S_s.ogg
83,192,25549,1,0,0:0:0:75:G#4S_Ab4S_s.ogg
375,192,25549,1,0,0:0:0:94:C#5S_Db5S_s.ogg
229,192,25714,1,0,0:0:0:94:C#5S_Db5S_s.ogg
302,192,25714,1,0,0:0:0:94:E5S_s.ogg
10,192,25879,1,0,0:0:0:75:E4S_s.ogg
448,192,25879,1,0,0:0:0:75:G#4S_Ab4S_s.ogg
156,192,26002,1,0,0:0:0:81:A#5S_Bb5S_s.ogg
83,192,26043,1,0,0:0:0:94:G#5S_Ab5S_s.ogg
375,192,26043,1,0,0:0:0:94:B5S_s.ogg
229,192,26208,1,0,0:0:0:94:F#5S_Gb5S.ogg
302,192,26208,1,0,0:0:0:94:A#5S_Bb5S.ogg
10,192,26373,1,0,0:0:0:81:F#4S_Gb4S_s.ogg
156,192,26538,1,0,0:0:0:75:A#4S_Bb4S_s.ogg
448,192,26538,1,0,0:0:0:75:C#5S_Db5S_s.ogg
375,192,26703,1,0,0:0:0:81:C#4S_Db4S_s.ogg
83,192,26868,1,0,0:0:0:75:A#4S_Bb4S_s.ogg
229,192,26868,1,0,0:0:0:75:C#5S_Db5S_s.ogg
302,192,27032,1,0,0:0:0:81:F#4S_Gb4S_s.ogg
10,192,27197,1,0,0:0:0:94:F#5S_Gb5S_s.ogg
448,192,27197,1,0,0:0:0:94:A#5S_Bb5S_s.ogg
156,192,27362,1,0,0:0:0:94:G#5S_Ab5S_s.ogg
375,192,27362,1,0,0:0:0:94:B5S_s.ogg
83,192,27527,1,0,0:0:0:94:F#5S_Gb5S_s.ogg
229,192,27527,1,0,0:0:0:94:A#5S_Bb5S_s.ogg
10,192,27692,1,0,0:0:0:94:D5S.ogg
302,192,27692,1,0,0:0:0:94:A5S.ogg
156,192,27857,1,0,0:0:0:75:F#4S_Gb4S_s.ogg
448,192,27857,1,0,0:0:0:75:A4S_s.ogg
375,192,28021,1,0,0:0:0:81:A3S_s.ogg
83,192,28186,1,0,0:0:0:75:F#4S_Gb4S_s.ogg
229,192,28186,1,0,0:0:0:75:A4S_s.ogg
10,192,28351,1,0,0:0:0:81:D4S_s.ogg
156,192,28516,1,0,0:0:0:94:F#5S_Gb5S_s.ogg
302,192,28516,1,0,0:0:0:94:A5S_s.ogg
375,192,28681,1,0,0:0:0:94:F#5S_Gb5S_s.ogg
448,192,28681,1,0,0:0:0:94:A5S_s.ogg
83,192,28846,1,0,0:0:0:75:A4S_s.ogg
229,192,28846,1,0,0:0:0:94:B5S_s.ogg
10,192,29010,1,0,0:0:0:94:E5S_s.ogg
302,192,29010,1,0,0:0:0:94:G#5S_Ab5S_s.ogg
156,192,29175,1,0,0:0:0:75:E4S_s.ogg
375,192,29175,1,0,0:0:0:75:G#4S_Ab4S_s.ogg
83,192,29340,1,0,0:0:0:94:D#5S_Eb5S_s.ogg
448,192,29340,1,0,0:0:0:94:F#5S_Gb5S_s.ogg
229,192,29505,1,0,0:0:0:94:C#5S_Db5S_s.ogg
302,192,29505,1,0,0:0:0:94:E5S_s.ogg
10,192,29670,1,0,0:0:0:81:C#4S_Db4S_s.ogg
156,192,29835,1,0,0:0:0:75:G#4S_Ab4S_s.ogg
375,192,29835,1,0,0:0:0:94:C#5S_Db5S_s.ogg
83,192,29999,1,0,0:0:0:94:C#5S_Db5S_s.ogg
448,192,29999,1,0,0:0:0:94:E5S_s.ogg
229,192,30164,1,0,0:0:0:75:E4S_s.ogg
302,192,30164,1,0,0:0:0:75:G#4S_Ab4S_s.ogg
10,192,30329,1,0,0:0:0:94:E5S.ogg
375,192,30329,1,0,0:0:0:94:G#5S_Ab5S.ogg
156,192,30494,1,0,0:0:0:75:E4S_s.ogg
448,192,30494,1,0,0:0:0:75:G#4S_Ab4S_s.ogg
83,192,30659,1,0,0:0:0:81:E3S_s.ogg
229,192,30824,1,0,0:0:0:75:E4S_s.ogg
302,192,30824,1,0,0:0:0:75:G#4S_Ab4S_s.ogg
375,192,30988,1,0,0:0:0:81:G#3S_Ab3S_s.ogg
10,192,31153,1,0,0:0:0:75:E4S_s.ogg
448,192,31153,1,0,0:0:0:75:G#4S_Ab4S_s.ogg
156,192,31318,1,0,0:0:0:81:E3S_s.ogg
83,192,31483,1,0,0:0:0:75:E4S_s.ogg
229,192,31483,1,0,0:0:0:75:G#4S_Ab4S_s.ogg
302,192,31648,1,0,0:0:0:94:C#5S_Db5S.ogg
375,192,31648,1,0,0:0:0:94:F#5S_Gb5S.ogg
10,192,31813,1,0,0:0:0:75:C#4S_Db4S_s.ogg
448,192,31813,1,0,0:0:0:75:E4S_s.ogg
156,192,31977,1,0,0:0:0:81:E3S_s.ogg
83,192,32142,1,0,0:0:0:75:C#4S_Db4S_s.ogg
229,192,32142,1,0,0:0:0:75:E4S_s.ogg
375,192,32307,1,0,0:0:0:81:A3S_s.ogg
10,192,32472,1,0,0:0:0:94:A4S_s.ogg
302,192,32472,1,0,0:0:0:94:C#5S_Db5S_s.ogg
156,192,32637,1,0,0:0:0:94:A4S_s.ogg
448,192,32637,1,0,0:0:0:94:E5S_s.ogg
83,192,32802,1,0,0:0:0:94:C#5S_Db5S_s.ogg
229,192,32802,1,0,0:0:0:94:G#5S_Ab5S_s.ogg
10,192,32967,1,0,0:0:0:94:F#5S_Gb5S.ogg
375,192,32967,1,0,0:0:0:94:A5S.ogg
156,192,33131,1,0,0:0:0:75:F#4S_Gb4S_s.ogg
302,192,33131,1,0,0:0:0:75:A4S_s.ogg
448,192,33296,1,0,0:0:0:81:A3S_s.ogg
83,192,33461,1,0,0:0:0:75:F#4S_Gb4S_s.ogg
229,192,33461,1,0,0:0:0:75:A4S_s.ogg
375,192,33626,1,0,0:0:0:81:C#4S_Db4S_s.ogg
10,192,33791,1,0,0:0:0:75:F#4S_Gb4S_s.ogg
302,192,33791,1,0,0:0:0:75:A4S_s.ogg
156,192,33956,1,0,0:0:0:81:A3S_s.ogg
83,192,34120,1,0,0:0:0:75:A4S_s.ogg
448,192,34120,1,0,0:0:0:94:D#5S_Eb5S_s.ogg
229,192,34203,1,0,0:0:0:94:C#5S_Db5S_s.ogg
10,192,34285,1,0,0:0:0:94:G#4S_Ab4S.ogg
375,192,34285,1,0,0:0:0:94:C5S.ogg
156,192,34450,1,0,0:0:0:75:D#4S_Eb4S_s.ogg
302,192,34450,1,0,0:0:0:75:G#4S_Ab4S_s.ogg
229,192,34615,1,0,0:0:0:81:G#3S_Ab3S_s.ogg
448,192,34615,1,0,0:0:0:94:C#5S_Db5S_s.ogg
83,192,34780,1,0,0:0:0:94:C5S_s.ogg
375,192,34780,1,0,0:0:0:94:D#5S_Eb5S_s.ogg
10,192,34945,1,0,0:0:0:81:C4S_s.ogg
156,192,35109,1,0,0:0:0:75:D#4S_Eb4S_s.ogg
302,192,35109,1,0,0:0:0:75:G#4S_Ab4S_s.ogg
448,192,35233,1,0,0:0:0:94:G4S_s.ogg
229,192,35274,1,0,0:0:0:94:D#4S_Eb4S.ogg
375,192,35274,1,0,0:0:0:94:G#4S_Ab4S.ogg
83,192,35439,1,0,0:0:0:81:C4S_s.ogg
10,192,35604,1,0,0:0:0:81:C#4S_Db4S_s.ogg
156,192,35769,1,0,0:0:0:94:C#5S_Db5S_s.ogg
302,192,35769,1,0,0:0:0:94:E5S_s.ogg
448,192,35934,1,0,0:0:0:81:G#3S_Ab3S_s.ogg
229,192,36098,1,0,0:0:0:75:G#4S_Ab4S_s.ogg
375,192,36098,1,0,0:0:0:94:C#5S_Db5S_s.ogg
10,192,36263,1,0,0:0:0:94:C#5S_Db5S_s.ogg
83,192,36263,1,0,0:0:0:94:E5S_s.ogg
156,192,36428,1,0,0:0:0:75:E4S_s.ogg
302,192,36428,1,0,0:0:0:75:G#4S_Ab4S_s.ogg
448,192,36552,1,0,0:0:0:94:A#5S_Bb5S_s.ogg
229,192,36593,1,0,0:0:0:94:G#5S_Ab5S_s.ogg
375,192,36593,1,0,0:0:0:94:B5S_s.ogg
10,192,36758,1,0,0:0:0:94:F#5S_Gb5S.ogg
83,192,36758,1,0,0:0:0:94:A#5S_Bb5S.ogg
302,192,36923,1,0,0:0:0:81:F#4S_Gb4S_s.ogg
156,192,37087,1,0,0:0:0:75:A#4S_Bb4S_s.ogg
448,192,37087,1,0,0:0:0:75:C#5S_Db5S_s.ogg
229,192,37252,1,0,0:0:0:81:C#4S_Db4S_s.ogg
10,192,37417,1,0,0:0:0:75:A#4S_Bb4S_s.ogg
375,192,37417,1,0,0:0:0:75:C#5S_Db5S_s.ogg
83,192,37582,1,0,0:0:0:81:F#4S_Gb4S_s.ogg
156,192,37747,1,0,0:0:0:94:F#5S_Gb5S_s.ogg
302,192,37747,1,0,0:0:0:94:A#5S_Bb5S_s.ogg
229,192,37912,1,0,0:0:0:94:G#5S_Ab5S_s.ogg
448,192,37912,1,0,0:0:0:94:B5S_s.ogg
10,192,38076,1,0,0:0:0:94:F#5S_Gb5S_s.ogg
375,192,38076,1,0,0:0:0:94:A#5S_Bb5S_s.ogg
83,192,38241,1,0,0:0:0:94:D5S.ogg
302,192,38241,1,0,0:0:0:94:A5S.ogg
156,192,38406,1,0,0:0:0:75:F#4S_Gb4S_s.ogg
229,192,38406,1,0,0:0:0:75:A4S_s.ogg
448,192,38571,1,0,0:0:0:81:A3S_s.ogg
10,192,38736,1,0,0:0:0:75:F#4S_Gb4S_s.ogg
375,192,38736,1,0,0:0:0:75:A4S_s.ogg
83,192,38901,1,0,0:0:0:81:D4S_s.ogg
229,192,39065,1,0,0:0:0:94:F#5S_Gb5S_s.ogg
302,192,39065,1,0,0:0:0:94:A5S_s.ogg
156,192,39230,1,0,0:0:0:94:F#5S_Gb5S_s.ogg
448,192,39230,1,0,0:0:0:94:A5S_s.ogg
10,192,39395,1,0,0:0:0:75:A4S_s.ogg
375,192,39395,1,0,0:0:0:94:B5S_s.ogg
83,192,39560,1,0,0:0:0:94:E5S_s.ogg
302,192,39560,1,0,0:0:0:94:G#5S_Ab5S_s.ogg
156,192,39725,1,0,0:0:0:75:E4S_s.ogg
229,192,39725,1,0,0:0:0:75:G#4S_Ab4S_s.ogg
10,192,39890,1,0,0:0:0:94:D#5S_Eb5S_s.ogg
448,192,39890,1,0,0:0:0:94:F#5S_Gb5S_s.ogg
83,192,40054,1,0,0:0:0:94:C#5S_Db5S_s.ogg
375,192,40054,1,0,0:0:0:94:E5S_s.ogg
302,192,40219,1,0,0:0:0:81:C#4S_Db4S_s.ogg
156,192,40384,1,0,0:0:0:75:G#4S_Ab4S_s.ogg
229,192,40384,1,0,0:0:0:94:C#5S_Db5S_s.ogg
10,192,40549,1,0,0:0:0:94:C#5S_Db5S_s.ogg
448,192,40549,1,0,0:0:0:94:E5S_s.ogg
83,192,40714,1,0,0:0:0:75:E4S_s.ogg
375,192,40714,1,0,0:0:0:75:G#4S_Ab4S_s.ogg
156,192,40879,1,0,0:0:0:81:G#3S_Ab3S.ogg
302,192,40879,1,0,0:0:0:94:E5S_s.ogg
10,192,40961,1,0,0:0:0:81:G#4S_Ab4S.ogg
229,192,40961,1,0,0:0:0:94:G#5S_Ab5S_s.ogg
448,192,41043,1,0,0:0:0:94:E5S_s.ogg
83,192,41126,1,0,0:0:0:94:G#5S_Ab5S_s.ogg
375,192,41208,1,0,0:0:0:94:E5S_s.ogg
156,192,41291,1,0,0:0:0:94:G#5S_Ab5S_s.ogg
302,192,41373,1,0,0:0:0:94:E5S_s.ogg
10,192,41456,1,0,0:0:0:94:G#5S_Ab5S_s.ogg
229,192,41538,1,0,0:0:0:81:G#4S_Ab4S_s.ogg
448,192,41538,1,0,0:0:0:94:E5S_s.ogg
