osu file format v14

[General]
AudioFilename: audio.mp3
AudioLeadIn: 0
PreviewTime: -1
Countdown: 0
SampleSet: None
StackLeniency: 0.7
Mode: 3
LetterboxInBreaks: 0
SpecialStyle: 0
WidescreenStoryboard: 0

[Editor]
DistanceSpacing: 1.2
BeatDivisor: 4
GridSize: 4
TimelineZoom: 1

[Metadata]
Title:Chapter 1
TitleUnicode:Chapter 1
Artist:DELTARUNE
ArtistUnicode:DELTARUNE
Creator:[Shana Lesus]
Version:Toby Fox - The Circus
Source:
Tags:
BeatmapID:2078095
BeatmapSetID:993812

[Difficulty]
HPDrainRate:8
CircleSize:7
OverallDifficulty:8
ApproachRate:5
SliderMultiplier:1.4
SliderTickRate:1

[Events]
//Background and Video events
0,0,"eternal.jpg",0,0
//Break Periods
//Storyboard Layer 0 (Background)
//Storyboard Layer 1 (Fail)
//Storyboard Layer 2 (Pass)
//Storyboard Layer 3 (Foreground)
//Storyboard Sound Samples
Sample,10213,0,"F3S.ogg",62
Sample,14468,0,"F3S_s.ogg",62
Sample,14894,0,"C3S_s.ogg",62
Sample,15319,0,"C#3S_Db3S.ogg",62
Sample,15319,0,"G#4S_Ab4S.ogg",62
Sample,19574,0,"C#3S_Db3S_s.ogg",62
Sample,20000,0,"G#2S_Ab2S_s.ogg",62
Sample,20426,0,"F3S.ogg",62
Sample,20426,0,"C4S.ogg",62
Sample,24681,0,"F3S_s.ogg",62
Sample,25106,0,"C3S_s.ogg",62
Sample,25532,0,"C#3S_Db3S.ogg",62
Sample,25532,0,"C#5S_Db5S_s.ogg",50
Sample,30638,0,"F3S.ogg",62
Sample,34894,0,"F3S_s.ogg",62
Sample,35319,0,"C3S_s.ogg",62
Sample,35745,0,"C#3S_Db3S.ogg",62
Sample,35745,0,"G#4S_Ab4S.ogg",62
Sample,40000,0,"C#3S_Db3S_s.ogg",62
Sample,40426,0,"G#2S_Ab2S_s.ogg",62
Sample,40851,0,"F3S.ogg",62
Sample,40851,0,"C4S.ogg",62
Sample,45106,0,"F3S_s.ogg",62
Sample,45532,0,"C3S_s.ogg",62
Sample,45957,0,"C#3S_Db3S.ogg",62
Sample,45957,0,"C#5S_Db5S_s.ogg",50

[TimingPoints]
0,851.064,4,1,1,100,1,0

[HitObjects]
302,192,0,5,0,0:0:0:50:F5S_s.ogg
10,192,425,1,0,0:0:0:50:F5S_s.ogg
448,192,425,1,0,0:0:0:50:G#5S_Ab5S_s.ogg
83,192,851,1,0,0:0:0:50:F5S_s.ogg
375,192,851,1,0,0:0:0:50:G#5S_Ab5S_s.ogg
229,192,1276,1,0,0:0:0:50:C5S_s.ogg
156,192,1702,1,0,0:0:0:50:F5S_s.ogg
302,192,1702,1,0,0:0:0:50:G#5S_Ab5S_s.ogg
10,192,2127,1,0,0:0:0:50:F5S_s.ogg
448,192,2127,1,0,0:0:0:50:G#5S_Ab5S_s.ogg
83,192,2553,1,0,0:0:0:50:F5S_s.ogg
229,192,2978,1,0,0:0:0:50:F5S_s.ogg
375,192,2978,1,0,0:0:0:50:G#5S_Ab5S_s.ogg
156,192,3404,1,0,0:0:0:50:F5S_s.ogg
302,192,3404,1,0,0:0:0:50:G#5S_Ab5S_s.ogg
448,192,3829,1,0,0:0:0:50:C5S_s.ogg
10,192,4255,1,0,0:0:0:50:F5S_s.ogg
83,192,4255,1,0,0:0:0:50:G#5S_Ab5S_s.ogg
229,192,4680,1,0,0:0:0:50:F5S_s.ogg
375,192,4680,1,0,0:0:0:50:G#5S_Ab5S_s.ogg
302,192,5106,1,0,0:0:0:50:C#5S_Db5S_s.ogg
156,192,5531,1,0,0:0:0:50:C#5S_Db5S_s.ogg
448,192,5531,1,0,0:0:0:50:E5S_s.ogg
10,192,5957,1,0,0:0:0:50:C#5S_Db5S_s.ogg
83,192,5957,1,0,0:0:0:50:E5S_s.ogg
375,192,6382,1,0,0:0:0:50:G#4S_Ab4S_s.ogg
229,192,6808,1,0,0:0:0:50:C#5S_Db5S_s.ogg
302,192,6808,1,0,0:0:0:50:E5S_s.ogg
156,192,7234,1,0,0:0:0:50:C#5S_Db5S_s.ogg
448,192,7234,1,0,0:0:0:50:E5S_s.ogg
10,192,7659,1,0,0:0:0:50:C#5S_Db5S_s.ogg
83,192,8085,1,0,0:0:0:50:C#5S_Db5S_s.ogg
375,192,8085,1,0,0:0:0:50:E5S_s.ogg
229,192,8510,1,0,0:0:0:50:C#5S_Db5S_s.ogg
302,192,8510,1,0,0:0:0:50:E5S_s.ogg
448,192,8936,1,0,0:0:0:50:G#4S_Ab4S_s.ogg
10,192,9361,1,0,0:0:0:50:C#5S_Db5S_s.ogg
156,192,9361,1,0,0:0:0:50:E5S_s.ogg
83,192,9787,1,0,0:0:0:50:C#5S_Db5S_s.ogg
375,192,9787,1,0,0:0:0:50:E5S_s.ogg
229,192,10212,1,0,0:0:0:50:F5S_s.ogg
302,192,10212,1,0,0:0:0:25:C6S.ogg
448,192,10212,1,0,0:0:0:25:C7S.ogg
10,192,10638,1,0,0:0:0:50:F5S_s.ogg
156,192,10638,1,0,0:0:0:50:G#5S_Ab5S_s.ogg
83,192,11063,1,0,0:0:0:50:F5S_s.ogg
375,192,11063,1,0,0:0:0:50:G#5S_Ab5S_s.ogg
302,192,11489,1,0,0:0:0:62:C3S.ogg
448,192,11489,1,0,0:0:0:50:C5S_s.ogg
156,192,11914,1,0,0:0:0:50:F5S_s.ogg
229,192,11914,1,0,0:0:0:50:G#5S_Ab5S_s.ogg
10,192,12340,1,0,0:0:0:50:F5S_s.ogg
375,192,12340,1,0,0:0:0:50:G#5S_Ab5S_s.ogg
83,192,12765,1,0,0:0:0:62:F3S.ogg
448,192,12765,1,0,0:0:0:50:F5S_s.ogg
229,192,13191,1,0,0:0:0:50:F5S_s.ogg
302,192,13191,1,0,0:0:0:50:G#5S_Ab5S_s.ogg
156,192,13617,1,0,0:0:0:50:F5S_s.ogg
375,192,13617,1,0,0:0:0:50:G#5S_Ab5S_s.ogg
10,192,14042,1,0,0:0:0:62:C3S_s.ogg
448,192,14042,1,0,0:0:0:50:C5S_s.ogg
83,192,14255,1,0,0:0:0:62:G#4S_Ab4S_s.ogg
156,192,14468,1,0,0:0:0:62:G4S_s.ogg
229,192,14468,1,0,0:0:0:50:F5S_s.ogg
302,192,14468,1,0,0:0:0:50:G#5S_Ab5S_s.ogg
375,192,14680,1,0,0:0:0:62:G#4S_Ab4S_s.ogg
10,192,14893,1,0,0:0:0:62:D#5S_Eb5S_s.ogg
83,192,14893,1,0,0:0:0:50:F5S_s.ogg
448,192,14893,1,0,0:0:0:50:G#5S_Ab5S_s.ogg
302,192,15106,1,0,0:0:0:62:G4S_s.ogg
156,192,15319,1,0,0:0:0:50:C#5S_Db5S_s.ogg
229,192,15319,1,0,0:0:0:25:B5S.ogg
375,192,15319,1,0,0:0:0:25:B6S.ogg
83,192,15744,1,0,0:0:0:50:C#5S_Db5S_s.ogg
448,192,15744,1,0,0:0:0:50:E5S_s.ogg
10,192,16170,1,0,0:0:0:50:C#5S_Db5S_s.ogg
302,192,16170,1,0,0:0:0:50:E5S_s.ogg
156,192,16595,1,0,0:0:0:50:G#2S_Ab2S.ogg
229,192,16595,1,0,0:0:0:50:E4S.ogg
375,192,16595,1,0,0:0:0:50:G#4S_Ab4S_s.ogg
83,192,17021,1,0,0:0:0:50:C#5S_Db5S_s.ogg
448,192,17021,1,0,0:0:0:50:E5S_s.ogg
10,192,17446,1,0,0:0:0:50:C#5S_Db5S_s.ogg
302,192,17446,1,0,0:0:0:50:E5S_s.ogg
156,192,17872,1,0,0:0:0:50:C#3S_Db3S.ogg
229,192,17872,1,0,0:0:0:50:C#4S_Db4S.ogg
375,192,17872,1,0,0:0:0:50:C#5S_Db5S_s.ogg
83,192,18297,1,0,0:0:0:50:C#5S_Db5S_s.ogg
448,192,18297,1,0,0:0:0:50:E5S_s.ogg
10,192,18723,1,0,0:0:0:50:C#5S_Db5S_s.ogg
302,192,18723,1,0,0:0:0:50:E5S_s.ogg
156,192,19148,1,0,0:0:0:62:G#2S_Ab2S_s.ogg
229,192,19148,1,0,0:0:0:62:C#4S_Db4S_s.ogg
375,192,19148,1,0,0:0:0:50:G#4S_Ab4S_s.ogg
10,192,19574,1,0,0:0:0:62:D#4S_Eb4S_s.ogg
83,192,19574,1,0,0:0:0:50:C#5S_Db5S_s.ogg
448,192,19574,1,0,0:0:0:50:E5S_s.ogg
156,192,20000,1,0,0:0:0:62:C#4S_Db4S_s.ogg
229,192,20000,1,0,0:0:0:50:C#5S_Db5S_s.ogg
302,192,20000,1,0,0:0:0:50:E5S_s.ogg
83,192,20425,1,0,0:0:0:50:F5S_s.ogg
375,192,20425,1,0,0:0:0:25:C6S.ogg
448,192,20425,1,0,0:0:0:25:C7S.ogg
10,192,20851,1,0,0:0:0:50:F5S_s.ogg
302,192,20851,1,0,0:0:0:50:G#5S_Ab5S_s.ogg
156,192,21276,1,0,0:0:0:50:F5S_s.ogg
229,192,21276,1,0,0:0:0:50:G#5S_Ab5S_s.ogg
83,192,21702,1,0,0:0:0:62:C3S.ogg
375,192,21702,1,0,0:0:0:62:F4S.ogg
448,192,21702,1,0,0:0:0:50:C5S_s.ogg
10,192,22127,1,0,0:0:0:50:F5S_s.ogg
302,192,22127,1,0,0:0:0:50:G#5S_Ab5S_s.ogg
156,192,22553,1,0,0:0:0:50:F5S_s.ogg
229,192,22553,1,0,0:0:0:50:G#5S_Ab5S_s.ogg
83,192,22978,1,0,0:0:0:62:F3S.ogg
375,192,22978,1,0,0:0:0:62:G4S.ogg
448,192,22978,1,0,0:0:0:50:F5S_s.ogg
10,192,23404,1,0,0:0:0:50:F5S_s.ogg
302,192,23404,1,0,0:0:0:50:G#5S_Ab5S_s.ogg
156,192,23829,1,0,0:0:0:50:F5S_s.ogg
229,192,23829,1,0,0:0:0:50:G#5S_Ab5S_s.ogg
83,192,24255,1,0,0:0:0:62:C3S_s.ogg
375,192,24255,1,0,0:0:0:62:F4S_s.ogg
448,192,24255,1,0,0:0:0:50:C5S_s.ogg
10,192,24468,1,0,0:0:0:62:G4S_s.ogg
156,192,24680,1,0,0:0:0:62:F4S_s.ogg
229,192,24680,1,0,0:0:0:50:F5S_s.ogg
302,192,24680,1,0,0:0:0:50:G#5S_Ab5S_s.ogg
448,192,24893,1,0,0:0:0:62:G4S_s.ogg
10,192,25106,1,0,0:0:0:62:G#4S_Ab4S_s.ogg
83,192,25106,1,0,0:0:0:50:F5S_s.ogg
375,192,25106,1,0,0:0:0:50:G#5S_Ab5S_s.ogg
302,192,25319,1,0,0:0:0:62:G4S_s.ogg
156,192,25531,1,0,0:0:0:62:D#5S_Eb5S.ogg
229,192,25531,1,0,0:0:0:25:B5S.ogg
448,192,25531,1,0,0:0:0:25:B6S.ogg
83,192,25957,1,0,0:0:0:50:C#5S_Db5S_s.ogg
375,192,25957,1,0,0:0:0:50:E5S_s.ogg
10,192,26382,1,0,0:0:0:50:C#5S_Db5S_s.ogg
302,192,26382,1,0,0:0:0:50:E5S_s.ogg
156,192,26808,1,0,0:0:0:62:G#2S_Ab2S.ogg
229,192,26808,1,0,0:0:0:50:G#4S_Ab4S_s.ogg
448,192,26808,1,0,0:0:0:62:B4S.ogg
83,192,27234,1,0,0:0:0:50:C#5S_Db5S_s.ogg
375,192,27234,1,0,0:0:0:50:E5S_s.ogg
10,192,27659,1,0,0:0:0:50:C#5S_Db5S_s.ogg
302,192,27659,1,0,0:0:0:50:E5S_s.ogg
156,192,28085,1,0,0:0:0:62:C#3S_Db3S.ogg
229,192,28085,1,0,0:0:0:62:G#4S_Ab4S.ogg
448,192,28085,1,0,0:0:0:50:C#5S_Db5S_s.ogg
83,192,28510,1,0,0:0:0:50:C#5S_Db5S_s.ogg
375,192,28510,1,0,0:0:0:50:E5S_s.ogg
10,192,28936,1,0,0:0:0:50:C#5S_Db5S_s.ogg
302,192,28936,1,0,0:0:0:50:E5S_s.ogg
229,192,29361,1,0,0:0:0:62:G#2S_Ab2S_s.ogg
448,192,29361,1,0,0:0:0:50:G#4S_Ab4S_s.ogg
83,192,29787,1,0,0:0:0:62:C#3S_Db3S_s.ogg
156,192,29787,1,0,0:0:0:50:C#5S_Db5S_s.ogg
375,192,29787,1,0,0:0:0:50:E5S_s.ogg
10,192,30212,1,0,0:0:0:62:G#2S_Ab2S_s.ogg
302,192,30212,1,0,0:0:0:50:C#5S_Db5S_s.ogg
448,192,30212,1,0,0:0:0:50:E5S_s.ogg
83,192,30638,1,0,0:0:0:50:F5S_s.ogg
229,192,30638,1,0,0:0:0:25:C6S.ogg
375,192,30638,1,0,0:0:0:25:C7S.ogg
156,192,31063,1,0,0:0:0:50:F5S_s.ogg
302,192,31063,1,0,0:0:0:50:G#5S_Ab5S_s.ogg
10,192,31489,1,0,0:0:0:50:F5S_s.ogg
448,192,31489,1,0,0:0:0:50:G#5S_Ab5S_s.ogg
83,192,31914,1,0,0:0:0:62:C3S.ogg
229,192,31914,1,0,0:0:0:50:C5S_s.ogg
156,192,32340,1,0,0:0:0:50:F5S_s.ogg
375,192,32340,1,0,0:0:0:50:G#5S_Ab5S_s.ogg
10,192,32765,1,0,0:0:0:50:F5S_s.ogg
302,192,32765,1,0,0:0:0:50:G#5S_Ab5S_s.ogg
83,192,33191,1,0,0:0:0:62:F3S.ogg
448,192,33191,1,0,0:0:0:50:F5S_s.ogg
229,192,33617,1,0,0:0:0:50:F5S_s.ogg
375,192,33617,1,0,0:0:0:50:G#5S_Ab5S_s.ogg
156,192,34042,1,0,0:0:0:50:F5S_s.ogg
302,192,34042,1,0,0:0:0:50:G#5S_Ab5S_s.ogg
10,192,34468,1,0,0:0:0:62:C3S_s.ogg
448,192,34468,1,0,0:0:0:50:C5S_s.ogg
83,192,34680,1,0,0:0:0:62:G#4S_Ab4S_s.ogg
229,192,34893,1,0,0:0:0:62:G4S_s.ogg
302,192,34893,1,0,0:0:0:50:F5S_s.ogg
375,192,34893,1,0,0:0:0:50:G#5S_Ab5S_s.ogg
156,192,35106,1,0,0:0:0:62:G#4S_Ab4S_s.ogg
10,192,35319,1,0,0:0:0:62:D#5S_Eb5S_s.ogg
83,192,35319,1,0,0:0:0:50:F5S_s.ogg
448,192,35319,1,0,0:0:0:50:G#5S_Ab5S_s.ogg
302,192,35531,1,0,0:0:0:62:G4S_s.ogg
156,192,35744,1,0,0:0:0:50:C#5S_Db5S_s.ogg
229,192,35744,1,0,0:0:0:25:B5S.ogg
375,192,35744,1,0,0:0:0:25:B6S.ogg
10,192,36170,1,0,0:0:0:50:C#5S_Db5S_s.ogg
448,192,36170,1,0,0:0:0:50:E5S_s.ogg
83,192,36595,1,0,0:0:0:50:C#5S_Db5S_s.ogg
302,192,36595,1,0,0:0:0:50:E5S_s.ogg
156,192,37021,1,0,0:0:0:50:G#2S_Ab2S.ogg
229,192,37021,1,0,0:0:0:50:E4S.ogg
375,192,37021,1,0,0:0:0:50:G#4S_Ab4S_s.ogg
10,192,37446,1,0,0:0:0:50:C#5S_Db5S_s.ogg
448,192,37446,1,0,0:0:0:50:E5S_s.ogg
83,192,37872,1,0,0:0:0:50:C#5S_Db5S_s.ogg
302,192,37872,1,0,0:0:0:50:E5S_s.ogg
156,192,38297,1,0,0:0:0:50:C#3S_Db3S.ogg
229,192,38297,1,0,0:0:0:50:C#4S_Db4S.ogg
375,192,38297,1,0,0:0:0:50:C#5S_Db5S_s.ogg
10,192,38723,1,0,0:0:0:50:C#5S_Db5S_s.ogg
448,192,38723,1,0,0:0:0:50:E5S_s.ogg
83,192,39148,1,0,0:0:0:50:C#5S_Db5S_s.ogg
302,192,39148,1,0,0:0:0:50:E5S_s.ogg
156,192,39574,1,0,0:0:0:62:G#2S_Ab2S_s.ogg
229,192,39574,1,0,0:0:0:62:C#4S_Db4S_s.ogg
375,192,39574,1,0,0:0:0:50:G#4S_Ab4S_s.ogg
10,192,40000,1,0,0:0:0:62:D#4S_Eb4S_s.ogg
83,192,40000,1,0,0:0:0:50:C#5S_Db5S_s.ogg
448,192,40000,1,0,0:0:0:50:E5S_s.ogg
156,192,40425,1,0,0:0:0:62:C#4S_Db4S_s.ogg
229,192,40425,1,0,0:0:0:50:C#5S_Db5S_s.ogg
302,192,40425,1,0,0:0:0:50:E5S_s.ogg
10,192,40851,1,0,0:0:0:50:F5S_s.ogg
375,192,40851,1,0,0:0:0:25:C6S.ogg
448,192,40851,1,0,0:0:0:25:C7S.ogg
83,192,41276,1,0,0:0:0:50:F5S_s.ogg
302,192,41276,1,0,0:0:0:50:G#5S_Ab5S_s.ogg
156,192,41702,1,0,0:0:0:50:F5S_s.ogg
229,192,41702,1,0,0:0:0:50:G#5S_Ab5S_s.ogg
10,192,42127,1,0,0:0:0:62:C3S.ogg
375,192,42127,1,0,0:0:0:62:F4S.ogg
448,192,42127,1,0,0:0:0:50:C5S_s.ogg
83,192,42553,1,0,0:0:0:50:F5S_s.ogg
302,192,42553,1,0,0:0:0:50:G#5S_Ab5S_s.ogg
156,192,42978,1,0,0:0:0:50:F5S_s.ogg
229,192,42978,1,0,0:0:0:50:G#5S_Ab5S_s.ogg
10,192,43404,1,0,0:0:0:62:F3S.ogg
375,192,43404,1,0,0:0:0:62:G4S.ogg
448,192,43404,1,0,0:0:0:50:F5S_s.ogg
83,192,43829,1,0,0:0:0:50:F5S_s.ogg
302,192,43829,1,0,0:0:0:50:G#5S_Ab5S_s.ogg
156,192,44255,1,0,0:0:0:50:F5S_s.ogg
229,192,44255,1,0,0:0:0:50:G#5S_Ab5S_s.ogg
10,192,44680,1,0,0:0:0:62:C3S_s.ogg
375,192,44680,1,0,0:0:0:62:F4S_s.ogg
448,192,44680,1,0,0:0:0:50:C5S_s.ogg
83,192,44893,1,0,0:0:0:62:G4S_s.ogg
156,192,45106,1,0,0:0:0:62:F4S_s.ogg
229,192,45106,1,0,0:0:0:50:F5S_s.ogg
302,192,45106,1,0,0:0:0:50:G#5S_Ab5S_s.ogg
448,192,45319,1,0,0:0:0:62:G4S_s.ogg
10,192,45531,1,0,0:0:0:62:G#4S_Ab4S_s.ogg
83,192,45531,1,0,0:0:0:50:F5S_s.ogg
375,192,45531,1,0,0:0:0:50:G#5S_Ab5S_s.ogg
302,192,45744,1,0,0:0:0:62:G4S_s.ogg
156,192,45957,1,0,0:0:0:62:D#5S_Eb5S.ogg
229,192,45957,1,0,0:0:0:25:B5S.ogg
448,192,45957,1,0,0:0:0:25:B6S.ogg
83,192,46382,1,0,0:0:0:50:C#5S_Db5S_s.ogg
375,192,46382,1,0,0:0:0:50:E5S_s.ogg
10,192,46808,1,0,0:0:0:50:C#5S_Db5S_s.ogg
302,192,46808,1,0,0:0:0:50:E5S_s.ogg
156,192,47234,1,0,0:0:0:62:G#2S_Ab2S.ogg
229,192,47234,1,0,0:0:0:50:G#4S_Ab4S_s.ogg
448,192,47234,1,0,0:0:0:62:B4S.ogg
83,192,47659,1,0,0:0:0:50:C#5S_Db5S_s.ogg
375,192,47659,1,0,0:0:0:50:E5S_s.ogg
10,192,48085,1,0,0:0:0:50:C#5S_Db5S_s.ogg
302,192,48085,1,0,0:0:0:50:E5S_s.ogg
156,192,48510,1,0,0:0:0:62:C#3S_Db3S.ogg
229,192,48510,1,0,0:0:0:62:G#4S_Ab4S.ogg
448,192,48510,1,0,0:0:0:50:C#5S_Db5S_s.ogg
83,192,48936,1,0,0:0:0:50:C#5S_Db5S_s.ogg
375,192,48936,1,0,0:0:0:50:E5S_s.ogg
10,192,49361,1,0,0:0:0:50:C#5S_Db5S_s.ogg
302,192,49361,1,0,0:0:0:50:E5S_s.ogg
156,192,49787,1,0,0:0:0:62:G#2S_Ab2S_s.ogg
448,192,49787,1,0,0:0:0:50:G#4S_Ab4S_s.ogg
83,192,50212,1,0,0:0:0:62:C#3S_Db3S_s.ogg
229,192,50212,1,0,0:0:0:50:C#5S_Db5S_s.ogg
375,192,50212,1,0,0:0:0:50:E5S_s.ogg
10,192,50638,1,0,0:0:0:62:G#2S_Ab2S_s.ogg
156,192,50638,1,0,0:0:0:50:C#5S_Db5S_s.ogg
302,192,50638,1,0,0:0:0:50:E5S_s.ogg
