osu file format v14

[General]
AudioFilename: audio.mp3
AudioLeadIn: 0
PreviewTime: -1
Countdown: 0
SampleSet: None
StackLeniency: 0.7
Mode: 3
LetterboxInBreaks: 0
SpecialStyle: 0
WidescreenStoryboard: 0

[Editor]
DistanceSpacing: 1.2
BeatDivisor: 4
GridSize: 4
TimelineZoom: 1

[Metadata]
Title:Chapter 1
TitleUnicode:Chapter 1
Artist:DELTARUNE
ArtistUnicode:DELTARUNE
Creator:[Shana Lesus]
Version:Toby Fox - Quiet Autumn
Source:
Tags:
BeatmapID:2078088
BeatmapSetID:993812

[Difficulty]
HPDrainRate:8
CircleSize:7
OverallDifficulty:8
ApproachRate:5
SliderMultiplier:1.4
SliderTickRate:1

[Events]
//Background and Video events
0,0,"eternal.jpg",0,0
//Break Periods
//Storyboard Layer 0 (Background)
//Storyboard Layer 1 (Fail)
//Storyboard Layer 2 (Pass)
//Storyboard Layer 3 (Foreground)
//Storyboard Sound Samples

[TimingPoints]
0,441.176,4,1,1,100,1,0

[HitObjects]
375,192,0,5,0,0:0:0:62:C4S_s.ogg
156,192,110,1,0,0:0:0:62:F4S_s.ogg
302,192,220,1,0,0:0:0:62:G4S_s.ogg
83,192,330,1,0,0:0:0:62:D5S.ogg
448,192,1764,1,0,0:0:0:62:C4S_s.ogg
10,192,1874,1,0,0:0:0:62:F4S_s.ogg
229,192,1985,1,0,0:0:0:62:G4S_s.ogg
375,192,2095,1,0,0:0:0:62:D5S.ogg
156,192,3529,1,0,0:0:0:62:A#3S_Bb3S_s.ogg
302,192,3639,1,0,0:0:0:62:D#4S_Eb4S_s.ogg
83,192,3749,1,0,0:0:0:62:F4S_s.ogg
448,192,3860,1,0,0:0:0:62:C5S.ogg
10,192,5294,1,0,0:0:0:62:A#3S_Bb3S_s.ogg
229,192,5404,1,0,0:0:0:62:D#4S_Eb4S_s.ogg
375,192,5514,1,0,0:0:0:62:F4S_s.ogg
156,192,5624,1,0,0:0:0:62:C5S.ogg
83,192,7058,1,0,0:0:0:62:C4S_s.ogg
302,192,7058,1,0,0:0:0:62:D6S.ogg
448,192,7169,1,0,0:0:0:62:F4S_s.ogg
10,192,7279,1,0,0:0:0:62:G4S_s.ogg
229,192,7389,1,0,0:0:0:62:D5S.ogg
156,192,8823,1,0,0:0:0:62:C4S_s.ogg
375,192,8823,1,0,0:0:0:62:G6S.ogg
302,192,8933,1,0,0:0:0:62:F4S_s.ogg
83,192,9044,1,0,0:0:0:62:G4S_s.ogg
448,192,9154,1,0,0:0:0:62:D5S.ogg
10,192,10588,1,0,0:0:0:62:A#3S_Bb3S_s.ogg
229,192,10588,1,0,0:0:0:62:C6S.ogg
156,192,10698,1,0,0:0:0:62:D#4S_Eb4S_s.ogg
375,192,10808,1,0,0:0:0:62:F4S_s.ogg
302,192,10919,1,0,0:0:0:62:C5S.ogg
83,192,12352,1,0,0:0:0:62:A#3S_Bb3S_s.ogg
448,192,12463,1,0,0:0:0:62:D#4S_Eb4S_s.ogg
10,192,12573,1,0,0:0:0:62:F4S_s.ogg
229,192,12683,1,0,0:0:0:62:C5S.ogg
156,192,14117,1,0,0:0:0:62:C4S_s.ogg
375,192,14117,1,0,0:0:0:62:D6S.ogg
302,192,14227,1,0,0:0:0:62:F4S_s.ogg
83,192,14338,1,0,0:0:0:62:G4S_s.ogg
448,192,14448,1,0,0:0:0:62:D5S.ogg
10,192,15882,1,0,0:0:0:62:C4S_s.ogg
229,192,15882,1,0,0:0:0:62:G6S.ogg
156,192,15992,1,0,0:0:0:62:F4S_s.ogg
375,192,16102,1,0,0:0:0:62:G4S_s.ogg
302,192,16213,1,0,0:0:0:62:D5S.ogg
83,192,17647,1,0,0:0:0:62:A#3S_Bb3S_s.ogg
448,192,17647,1,0,0:0:0:62:C7S.ogg
229,192,17757,1,0,0:0:0:62:D#4S_Eb4S_s.ogg
10,192,17867,1,0,0:0:0:62:F4S_s.ogg
156,192,17977,1,0,0:0:0:62:C5S.ogg
375,192,19411,1,0,0:0:0:62:A#3S_Bb3S_s.ogg
302,192,19522,1,0,0:0:0:62:D#4S_Eb4S_s.ogg
83,192,19632,1,0,0:0:0:62:F4S_s.ogg
448,192,19742,1,0,0:0:0:62:C5S.ogg
10,192,21176,1,0,0:0:0:62:C4S_s.ogg
229,192,21176,1,0,0:0:0:75:D6S.ogg
156,192,21286,1,0,0:0:0:62:F4S_s.ogg
375,192,21397,1,0,0:0:0:62:G4S_s.ogg
302,192,21507,1,0,0:0:0:62:D5S.ogg
83,192,21838,1,0,0:0:0:75:C6S_s.ogg
448,192,22058,1,0,0:0:0:75:D6S.ogg
10,192,22720,1,0,0:0:0:75:C6S_s.ogg
156,192,22941,1,0,0:0:0:62:C4S_s.ogg
229,192,22941,1,0,0:0:0:75:G5S.ogg
375,192,23051,1,0,0:0:0:62:F4S_s.ogg
302,192,23161,1,0,0:0:0:62:G4S_s.ogg
83,192,23272,1,0,0:0:0:62:D5S.ogg
448,192,23602,1,0,0:0:0:75:F5S_s.ogg
10,192,23823,1,0,0:0:0:75:G5S.ogg
229,192,24485,1,0,0:0:0:75:A#5S_Bb5S_s.ogg
156,192,24705,1,0,0:0:0:62:A#3S_Bb3S_s.ogg
375,192,24705,1,0,0:0:0:75:G5S.ogg
302,192,24816,1,0,0:0:0:62:D#4S_Eb4S_s.ogg
83,192,24926,1,0,0:0:0:62:F4S_s.ogg
448,192,25036,1,0,0:0:0:62:C5S.ogg
10,192,26470,1,0,0:0:0:62:A#3S_Bb3S_s.ogg
229,192,26580,1,0,0:0:0:62:D#4S_Eb4S_s.ogg
375,192,26691,1,0,0:0:0:62:F4S_s.ogg
156,192,26801,1,0,0:0:0:62:C5S.ogg
83,192,28235,1,0,0:0:0:62:C4S_s.ogg
302,192,28235,1,0,0:0:0:75:D6S.ogg
448,192,28345,1,0,0:0:0:62:F4S_s.ogg
10,192,28455,1,0,0:0:0:62:G4S_s.ogg
229,192,28566,1,0,0:0:0:62:D5S.ogg
375,192,28897,1,0,0:0:0:75:C6S_s.ogg
156,192,29117,1,0,0:0:0:75:D6S.ogg
302,192,29779,1,0,0:0:0:75:C6S_s.ogg
83,192,29999,1,0,0:0:0:62:C4S_s.ogg
448,192,29999,1,0,0:0:0:75:G5S.ogg
10,192,30110,1,0,0:0:0:62:F4S_s.ogg
229,192,30220,1,0,0:0:0:62:G4S_s.ogg
375,192,30330,1,0,0:0:0:62:D5S.ogg
156,192,30661,1,0,0:0:0:75:F5S_s.ogg
302,192,30882,1,0,0:0:0:75:G5S.ogg
83,192,31544,1,0,0:0:0:75:A#5S_Bb5S_s.ogg
10,192,31764,1,0,0:0:0:62:A#3S_Bb3S_s.ogg
448,192,31764,1,0,0:0:0:75:C6S.ogg
229,192,31874,1,0,0:0:0:62:D#4S_Eb4S_s.ogg
375,192,31985,1,0,0:0:0:62:F4S_s.ogg
156,192,32095,1,0,0:0:0:62:C5S.ogg
302,192,33529,1,0,0:0:0:62:A#3S_Bb3S_s.ogg
83,192,33639,1,0,0:0:0:62:D#4S_Eb4S_s.ogg
448,192,33749,1,0,0:0:0:62:F4S_s.ogg
10,192,33860,1,0,0:0:0:62:C5S.ogg
229,192,35294,1,0,0:0:0:62:C4S_s.ogg
375,192,35294,1,0,0:0:0:75:D6S.ogg
156,192,35404,1,0,0:0:0:62:F4S_s.ogg
302,192,35514,1,0,0:0:0:62:G4S_s.ogg
83,192,35624,1,0,0:0:0:62:D5S.ogg
448,192,35955,1,0,0:0:0:75:C6S_s.ogg
10,192,36176,1,0,0:0:0:75:D6S.ogg
375,192,36838,1,0,0:0:0:75:C6S_s.ogg
156,192,37058,1,0,0:0:0:62:C4S_s.ogg
229,192,37058,1,0,0:0:0:75:G5S.ogg
302,192,37169,1,0,0:0:0:62:F4S_s.ogg
83,192,37279,1,0,0:0:0:62:G4S_s.ogg
448,192,37389,1,0,0:0:0:62:D5S.ogg
10,192,37720,1,0,0:0:0:75:F5S_s.ogg
375,192,37941,1,0,0:0:0:75:G5S.ogg
229,192,38602,1,0,0:0:0:75:A#5S_Bb5S_s.ogg
156,192,38823,1,0,0:0:0:62:A#3S_Bb3S_s.ogg
302,192,38823,1,0,0:0:0:75:G5S.ogg
83,192,38933,1,0,0:0:0:62:D#4S_Eb4S_s.ogg
448,192,39044,1,0,0:0:0:62:F4S_s.ogg
10,192,39154,1,0,0:0:0:62:C5S.ogg
375,192,40588,1,0,0:0:0:62:A#3S_Bb3S_s.ogg
229,192,40698,1,0,0:0:0:62:D#4S_Eb4S_s.ogg
302,192,40808,1,0,0:0:0:62:F4S_s.ogg
156,192,40919,1,0,0:0:0:62:C5S.ogg
83,192,42352,1,0,0:0:0:62:C4S_s.ogg
448,192,42352,1,0,0:0:0:75:D6S.ogg
10,192,42463,1,0,0:0:0:62:F4S_s.ogg
375,192,42573,1,0,0:0:0:62:G4S_s.ogg
229,192,42683,1,0,0:0:0:62:D5S.ogg
302,192,43014,1,0,0:0:0:75:C6S_s.ogg
156,192,43235,1,0,0:0:0:75:D6S.ogg
448,192,43897,1,0,0:0:0:75:C6S_s.ogg
10,192,44117,1,0,0:0:0:62:C4S_s.ogg
83,192,44117,1,0,0:0:0:75:G5S.ogg
375,192,44227,1,0,0:0:0:62:F4S_s.ogg
229,192,44338,1,0,0:0:0:62:G4S_s.ogg
302,192,44448,1,0,0:0:0:62:D5S.ogg
156,192,44779,1,0,0:0:0:75:F5S_s.ogg
448,192,44999,1,0,0:0:0:75:G5S.ogg
83,192,45661,1,0,0:0:0:75:A#5S_Bb5S_s.ogg
10,192,45882,1,0,0:0:0:62:A#3S_Bb3S_s.ogg
375,192,45882,1,0,0:0:0:75:C6S.ogg
229,192,45992,1,0,0:0:0:62:D#4S_Eb4S_s.ogg
302,192,46102,1,0,0:0:0:62:F4S_s.ogg
156,192,46213,1,0,0:0:0:62:C5S.ogg
83,192,47647,1,0,0:0:0:62:A#3S_Bb3S_s.ogg
448,192,47647,1,0,0:0:0:75:F6S.ogg
375,192,47757,1,0,0:0:0:62:D#4S_Eb4S_s.ogg
10,192,47867,1,0,0:0:0:62:F4S_s.ogg
229,192,47977,1,0,0:0:0:62:C5S.ogg
