osu file format v14

[General]
AudioFilename: audio.mp3
AudioLeadIn: 0
PreviewTime: -1
Countdown: 0
SampleSet: None
StackLeniency: 0.7
Mode: 3
LetterboxInBreaks: 0
SpecialStyle: 0
WidescreenStoryboard: 0

[Editor]
DistanceSpacing: 1.2
BeatDivisor: 4
GridSize: 4
TimelineZoom: 1

[Metadata]
Title:Chapter 1
TitleUnicode:Chapter 1
Artist:DELTARUNE
ArtistUnicode:DELTARUNE
Creator:[Shana Lesus]
Version:Toby Fox - Hip Shop
Source:
Tags:
BeatmapID:2078083
BeatmapSetID:993812

[Difficulty]
HPDrainRate:8
CircleSize:7
OverallDifficulty:8
ApproachRate:5
SliderMultiplier:1.4
SliderTickRate:1

[Events]
//Background and Video events
0,0,"eternal.jpg",0,0
//Break Periods
//Storyboard Layer 0 (Background)
//Storyboard Layer 1 (Fail)
//Storyboard Layer 2 (Pass)
//Storyboard Layer 3 (Foreground)
//Storyboard Sound Samples
Sample,0,0,"G2S.ogg",62
Sample,4948,0,"F#2S_Gb2S.ogg",62
Sample,9897,0,"B2S.ogg",62
Sample,14845,0,"A2S.ogg",62
Sample,14845,0,"A4S.ogg",62
Sample,17320,0,"D3S.ogg",62
Sample,17320,0,"A4S.ogg",62
Sample,19794,0,"G2S.ogg",62
Sample,24742,0,"F#2S_Gb2S.ogg",62
Sample,24742,0,"F#4S_Gb4S.ogg",62
Sample,29691,0,"B2S.ogg",62
Sample,34639,0,"A2S.ogg",62
Sample,34639,0,"A4S.ogg",62
Sample,37113,0,"D3S.ogg",62
Sample,39588,0,"G2S.ogg",62
Sample,44536,0,"F#2S_Gb2S.ogg",62
Sample,49485,0,"B2S.ogg",62
Sample,54433,0,"A2S.ogg",62
Sample,54433,0,"A4S.ogg",62
Sample,56908,0,"D3S.ogg",62
Sample,56908,0,"A4S.ogg",62
Sample,59382,0,"G2S.ogg",62
Sample,64330,0,"F#2S_Gb2S.ogg",62
Sample,64330,0,"F#4S_Gb4S.ogg",62
Sample,69279,0,"B2S.ogg",62
Sample,74227,0,"A2S.ogg",62
Sample,74227,0,"A4S.ogg",62
Sample,76701,0,"D3S.ogg",62
Sample,79176,0,"G2S.ogg",62
Sample,79176,0,"G4S.ogg",62

[TimingPoints]
0,618.555,4,1,1,100,1,0

[HitObjects]
156,192,0,5,0,0:0:0:62:G4S.ogg
375,192,0,1,0,0:0:0:38:D6S.ogg
448,192,0,1,0,0:0:0:38:F#6S_Gb6S.ogg
10,192,38,1,0,0:0:0:62:B4S.ogg
302,192,77,1,0,0:0:0:62:D5S.ogg
83,192,115,1,0,0:0:0:62:F#5S_Gb5S.ogg
156,192,2474,1,0,0:0:0:62:G2S.ogg
229,192,2474,1,0,0:0:0:62:B5S.ogg
448,192,2474,1,0,0:0:0:38:C#6S_Db6S.ogg
375,192,3402,1,0,0:0:0:62:C#6S_Db6S_s.ogg
10,192,3711,1,0,0:0:0:38:B5S.ogg
302,192,3711,1,0,0:0:0:62:D6S_s.ogg
83,192,4020,1,0,0:0:0:62:E2S_s.ogg
448,192,4175,1,0,0:0:0:62:A6S_s.ogg
229,192,4484,1,0,0:0:0:62:E2S_s.ogg
156,192,4639,1,0,0:0:0:62:F#6S_Gb6S_s.ogg
10,192,4948,1,0,0:0:0:62:F#4S_Gb4S.ogg
302,192,4948,1,0,0:0:0:38:A#5S_Bb5S.ogg
375,192,4948,1,0,0:0:0:38:E6S.ogg
83,192,4987,1,0,0:0:0:62:A#4S_Bb4S.ogg
448,192,5025,1,0,0:0:0:62:C#5S_Db5S.ogg
229,192,5064,1,0,0:0:0:62:E5S.ogg
156,192,7113,1,0,0:0:0:62:E6S_s.ogg
375,192,7268,1,0,0:0:0:62:D6S_s.ogg
10,192,7422,1,0,0:0:0:62:F#2S_Gb2S.ogg
83,192,7422,1,0,0:0:0:62:C#6S_Db6S.ogg
302,192,7422,1,0,0:0:0:38:C#6S_Db6S.ogg
448,192,8350,1,0,0:0:0:62:B5S_s.ogg
156,192,8659,1,0,0:0:0:38:B5S_s.ogg
229,192,8659,1,0,0:0:0:62:C#6S_Db6S_s.ogg
375,192,8969,1,0,0:0:0:62:A2S_s.ogg
83,192,9123,1,0,0:0:0:62:D6S_s.ogg
302,192,9278,1,0,0:0:0:38:C#6S_Db6S_s.ogg
10,192,9432,1,0,0:0:0:62:B2S_s.ogg
448,192,9587,1,0,0:0:0:62:F#6S_Gb6S_s.ogg
156,192,9896,1,0,0:0:0:62:B4S.ogg
229,192,9896,1,0,0:0:0:38:D6S.ogg
375,192,9896,1,0,0:0:0:38:F#6S_Gb6S.ogg
83,192,9935,1,0,0:0:0:62:D5S.ogg
302,192,9974,1,0,0:0:0:62:F#5S_Gb5S.ogg
10,192,10012,1,0,0:0:0:62:A5S.ogg
156,192,12371,1,0,0:0:0:62:B2S.ogg
375,192,12371,1,0,0:0:0:62:C#6S_Db6S.ogg
448,192,12371,1,0,0:0:0:62:F#6S_Gb6S.ogg
229,192,13608,1,0,0:0:0:38:E6S.ogg
83,192,14536,1,0,0:0:0:62:E6S_s.ogg
302,192,14690,1,0,0:0:0:62:F#6S_Gb6S_s.ogg
10,192,14845,1,0,0:0:0:38:E6S.ogg
156,192,14845,1,0,0:0:0:62:G6S_s.ogg
375,192,14845,1,0,0:0:0:38:G6S.ogg
448,192,14922,1,0,0:0:0:62:C5S.ogg
229,192,14999,1,0,0:0:0:62:E5S.ogg
83,192,15077,1,0,0:0:0:62:G5S.ogg
302,192,15309,1,0,0:0:0:62:F#6S_Gb6S_s.ogg
156,192,15773,1,0,0:0:0:62:D6S_s.ogg
10,192,17319,1,0,0:0:0:38:D6S.ogg
375,192,17319,1,0,0:0:0:62:F#6S_Gb6S_s.ogg
448,192,17319,1,0,0:0:0:38:F#6S_Gb6S.ogg
229,192,17396,1,0,0:0:0:62:C5S.ogg
83,192,17474,1,0,0:0:0:62:D5S.ogg
302,192,17551,1,0,0:0:0:62:F#5S_Gb5S.ogg
156,192,17783,1,0,0:0:0:62:E6S_s.ogg
448,192,18247,1,0,0:0:0:62:D6S_s.ogg
10,192,18556,1,0,0:0:0:62:E5S.ogg
229,192,18556,1,0,0:0:0:62:E6S_s.ogg
375,192,18556,1,0,0:0:0:38:E6S.ogg
83,192,19020,1,0,0:0:0:62:F#6S_Gb6S_s.ogg
302,192,19484,1,0,0:0:0:62:F#6S_Gb6S_s.ogg
10,192,19793,1,0,0:0:0:62:G4S.ogg
156,192,19793,1,0,0:0:0:38:D6S.ogg
448,192,19793,1,0,0:0:0:38:F#6S_Gb6S.ogg
375,192,19832,1,0,0:0:0:62:B4S.ogg
229,192,19871,1,0,0:0:0:62:D5S.ogg
83,192,19909,1,0,0:0:0:62:F#5S_Gb5S.ogg
302,192,20721,1,0,0:0:0:62:C#6S_Db6S_s.ogg
10,192,21030,1,0,0:0:0:62:D6S_s.ogg
448,192,21494,1,0,0:0:0:62:A6S_s.ogg
156,192,21958,1,0,0:0:0:62:F#6S_Gb6S.ogg
229,192,22267,1,0,0:0:0:62:G2S.ogg
375,192,22267,1,0,0:0:0:38:C#6S_Db6S.ogg
83,192,23195,1,0,0:0:0:62:C#7S_Db7S.ogg
302,192,23505,1,0,0:0:0:38:B5S.ogg
10,192,23814,1,0,0:0:0:62:E2S_s.ogg
448,192,24278,1,0,0:0:0:62:E2S_s.ogg
156,192,24432,1,0,0:0:0:62:E6S_s.ogg
229,192,24587,1,0,0:0:0:62:F#6S_Gb6S_s.ogg
83,192,24742,1,0,0:0:0:38:A#5S_Bb5S.ogg
302,192,24742,1,0,0:0:0:38:E6S.ogg
375,192,24742,1,0,0:0:0:62:A#6S_Bb6S_s.ogg
10,192,24780,1,0,0:0:0:62:A#4S_Bb4S.ogg
448,192,24819,1,0,0:0:0:62:C#5S_Db5S.ogg
156,192,24858,1,0,0:0:0:62:E5S.ogg
229,192,25051,1,0,0:0:0:62:F#6S_Gb6S_s.ogg
83,192,25206,1,0,0:0:0:62:F#6S_Gb6S_s.ogg
375,192,25670,1,0,0:0:0:62:E6S.ogg
10,192,27216,1,0,0:0:0:62:F#2S_Gb2S.ogg
302,192,27216,1,0,0:0:0:38:C#6S_Db6S.ogg
448,192,27216,1,0,0:0:0:62:F#6S_Gb6S_s.ogg
156,192,27680,1,0,0:0:0:62:E6S_s.ogg
229,192,28144,1,0,0:0:0:62:D6S_s.ogg
83,192,28453,1,0,0:0:0:62:A#5S_Bb5S_s.ogg
375,192,28453,1,0,0:0:0:38:B5S_s.ogg
10,192,28762,1,0,0:0:0:62:A2S_s.ogg
448,192,28917,1,0,0:0:0:62:E6S_s.ogg
302,192,29072,1,0,0:0:0:38:C#6S_Db6S_s.ogg
156,192,29226,1,0,0:0:0:62:B2S_s.ogg
229,192,29381,1,0,0:0:0:62:D6S_s.ogg
10,192,29690,1,0,0:0:0:62:B4S.ogg
83,192,29690,1,0,0:0:0:38:D6S.ogg
375,192,29690,1,0,0:0:0:38:F#6S_Gb6S.ogg
448,192,29729,1,0,0:0:0:62:D5S.ogg
302,192,29767,1,0,0:0:0:62:F#5S_Gb5S.ogg
156,192,29806,1,0,0:0:0:62:A5S.ogg
229,192,30309,1,0,0:0:0:62:B6S_s.ogg
83,192,30927,1,0,0:0:0:62:F#6S_Gb6S_s.ogg
375,192,31546,1,0,0:0:0:62:C#7S_Db7S_s.ogg
10,192,31855,1,0,0:0:0:62:B6S_s.ogg
448,192,32164,1,0,0:0:0:62:B2S.ogg
302,192,32474,1,0,0:0:0:62:F#6S_Gb6S_s.ogg
156,192,32938,1,0,0:0:0:62:E6S_s.ogg
83,192,33401,1,0,0:0:0:62:D6S.ogg
229,192,33401,1,0,0:0:0:38:E6S.ogg
375,192,34329,1,0,0:0:0:62:E6S_s.ogg
10,192,34484,1,0,0:0:0:62:F#6S_Gb6S_s.ogg
156,192,34639,1,0,0:0:0:38:E6S.ogg
302,192,34639,1,0,0:0:0:62:G6S.ogg
448,192,34639,1,0,0:0:0:38:G6S.ogg
229,192,34716,1,0,0:0:0:62:C5S.ogg
83,192,34793,1,0,0:0:0:62:E5S.ogg
375,192,34871,1,0,0:0:0:62:G5S.ogg
10,192,35566,1,0,0:0:0:62:A6S_s.ogg
448,192,35876,1,0,0:0:0:62:B6S_s.ogg
156,192,36340,1,0,0:0:0:62:D7S_s.ogg
302,192,36804,1,0,0:0:0:62:D7S_s.ogg
83,192,37113,1,0,0:0:0:62:A4S.ogg
229,192,37113,1,0,0:0:0:38:D6S.ogg
375,192,37113,1,0,0:0:0:38:F#6S_Gb6S.ogg
10,192,37190,1,0,0:0:0:62:C5S.ogg
448,192,37267,1,0,0:0:0:62:D5S.ogg
156,192,37345,1,0,0:0:0:62:F#5S_Gb5S.ogg
302,192,38041,1,0,0:0:0:62:A6S_s.ogg
83,192,38195,1,0,0:0:0:62:G6S_s.ogg
10,192,38350,1,0,0:0:0:62:E5S.ogg
229,192,38350,1,0,0:0:0:38:E6S.ogg
375,192,38350,1,0,0:0:0:62:F#6S_Gb6S_s.ogg
448,192,38814,1,0,0:0:0:62:E6S_s.ogg
156,192,39278,1,0,0:0:0:62:F#6S_Gb6S_s.ogg
83,192,39587,1,0,0:0:0:62:G4S.ogg
302,192,39587,1,0,0:0:0:38:D6S.ogg
375,192,39587,1,0,0:0:0:38:F#6S_Gb6S.ogg
229,192,39626,1,0,0:0:0:62:B4S.ogg
10,192,39665,1,0,0:0:0:62:D5S.ogg
448,192,39703,1,0,0:0:0:62:F#5S_Gb5S.ogg
