osu file format v14

[General]
AudioFilename: audio.mp3
AudioLeadIn: 0
PreviewTime: -1
Countdown: 0
SampleSet: None
StackLeniency: 0.7
Mode: 3
LetterboxInBreaks: 0
SpecialStyle: 0
WidescreenStoryboard: 0

[Editor]
DistanceSpacing: 1.2
BeatDivisor: 8
GridSize: 4
TimelineZoom: 1

[Metadata]
Title:Chapter 1
TitleUnicode:Chapter 1
Artist:DELTARUNE
ArtistUnicode:DELTARUNE
Creator:[Shana Lesus]
Version:Toby Fox - Field of Hopes and Dreams
Source:
Tags:
BeatmapID:2078080
BeatmapSetID:993812

[Difficulty]
HPDrainRate:8
CircleSize:7
OverallDifficulty:8
ApproachRate:5
SliderMultiplier:1.4
SliderTickRate:1

[Events]
//Background and Video events
0,0,"eternal.jpg",0,0
//Break Periods
//Storyboard Layer 0 (Background)
//Storyboard Layer 1 (Fail)
//Storyboard Layer 2 (Pass)
//Storyboard Layer 3 (Foreground)
//Storyboard Sound Samples
Sample,0,0,"D4S_s.ogg",38
Sample,720,0,"D5S_s.ogg",38
Sample,960,0,"D4S_s.ogg",38
Sample,1680,0,"D5S_s.ogg",38
Sample,1920,0,"D4S_s.ogg",38
Sample,2640,0,"D5S_s.ogg",38
Sample,3840,0,"D4S_s.ogg",38
Sample,4560,0,"D5S_s.ogg",38
Sample,4800,0,"D4S_s.ogg",38
Sample,5520,0,"D5S_s.ogg",38
Sample,5760,0,"D4S_s.ogg",38
Sample,6480,0,"D5S_s.ogg",38
Sample,7680,0,"D#4S_Eb4S_s.ogg",38
Sample,8400,0,"D#5S_Eb5S_s.ogg",38
Sample,8640,0,"D#4S_Eb4S_s.ogg",38
Sample,9360,0,"D#5S_Eb5S_s.ogg",38
Sample,9600,0,"D#4S_Eb4S_s.ogg",38
Sample,10320,0,"D#5S_Eb5S_s.ogg",38
Sample,11520,0,"D#4S_Eb4S_s.ogg",38
Sample,12240,0,"D#5S_Eb5S_s.ogg",38
Sample,12480,0,"D#4S_Eb4S_s.ogg",38
Sample,13200,0,"D#5S_Eb5S_s.ogg",38
Sample,13440,0,"D#4S_Eb4S_s.ogg",38
Sample,14160,0,"D#5S_Eb5S_s.ogg",38
Sample,15360,0,"G3S_s.ogg",75
Sample,15360,0,"D4S_s.ogg",75
Sample,16080,0,"G3S_s.ogg",75
Sample,16080,0,"G4S_s.ogg",75
Sample,16320,0,"G3S_s.ogg",75
Sample,16320,0,"D4S_s.ogg",75
Sample,17040,0,"G3S_s.ogg",75
Sample,17040,0,"G4S_s.ogg",75
Sample,17280,0,"G3S_s.ogg",75
Sample,17280,0,"D4S_s.ogg",75
Sample,18000,0,"G3S_s.ogg",75
Sample,18000,0,"G4S_s.ogg",75
Sample,18240,0,"G3S_s.ogg",75
Sample,18960,0,"G3S_s.ogg",75
Sample,19200,0,"G3S_s.ogg",75
Sample,19200,0,"D4S_s.ogg",75
Sample,20160,0,"G3S_s.ogg",75
Sample,20160,0,"D4S_s.ogg",75
Sample,21120,0,"G3S_s.ogg",75
Sample,21120,0,"D4S_s.ogg",75
Sample,21840,0,"G3S_s.ogg",75
Sample,22800,0,"G3S_s.ogg",75
Sample,23040,0,"A#3S_Bb3S_s.ogg",75
Sample,23040,0,"D#4S_Eb4S_s.ogg",75
Sample,24000,0,"D#4S_Eb4S_s.ogg",75
Sample,24000,0,"G6S.ogg",75
Sample,24000,0,"A#3S_Bb3S_s.ogg",75
Sample,24720,0,"A#3S_Bb3S_s.ogg",75
Sample,24960,0,"A#3S_Bb3S_s.ogg",75
Sample,24960,0,"D#4S_Eb4S_s.ogg",75
Sample,25920,0,"A#3S_Bb3S_s.ogg",75
Sample,26640,0,"A#3S_Bb3S_s.ogg",75
Sample,26880,0,"A#3S_Bb3S_s.ogg",75
Sample,26880,0,"D#4S_Eb4S_s.ogg",75
Sample,27600,0,"A#3S_Bb3S_s.ogg",75
Sample,27840,0,"D#4S_Eb4S_s.ogg",75
Sample,27840,0,"A#3S_Bb3S_s.ogg",75
Sample,28560,0,"A#3S_Bb3S_s.ogg",75
Sample,28800,0,"A#3S_Bb3S_s.ogg",75
Sample,28800,0,"D#4S_Eb4S_s.ogg",75
Sample,29760,0,"A#3S_Bb3S_s.ogg",75
Sample,30480,0,"A#3S_Bb3S_s.ogg",75
Sample,30720,0,"G3S_s.ogg",75
Sample,30720,0,"D4S_s.ogg",75
Sample,31440,0,"G3S_s.ogg",75
Sample,31440,0,"G4S_s.ogg",75
Sample,31680,0,"G3S_s.ogg",75
Sample,31680,0,"D4S_s.ogg",75
Sample,32400,0,"G3S_s.ogg",75
Sample,32400,0,"G4S_s.ogg",75
Sample,32640,0,"G3S_s.ogg",75
Sample,32640,0,"D4S_s.ogg",75
Sample,33360,0,"G3S_s.ogg",75
Sample,33360,0,"G4S_s.ogg",75
Sample,33600,0,"G3S_s.ogg",75
Sample,34320,0,"G3S_s.ogg",75
Sample,34560,0,"G3S_s.ogg",75
Sample,34560,0,"D4S_s.ogg",75
Sample,35520,0,"G3S_s.ogg",75
Sample,35520,0,"D4S_s.ogg",75
Sample,36480,0,"G3S_s.ogg",75
Sample,36480,0,"D4S_s.ogg",75
Sample,37200,0,"G3S_s.ogg",75
Sample,38160,0,"G3S_s.ogg",75
Sample,38400,0,"A#3S_Bb3S_s.ogg",75
Sample,38400,0,"D#4S_Eb4S_s.ogg",75
Sample,39360,0,"D#4S_Eb4S_s.ogg",75
Sample,39360,0,"G6S.ogg",75
Sample,39360,0,"A#3S_Bb3S_s.ogg",75
Sample,40080,0,"A#3S_Bb3S_s.ogg",75
Sample,40320,0,"A#3S_Bb3S_s.ogg",75
Sample,40320,0,"D#4S_Eb4S_s.ogg",75
Sample,41280,0,"A#3S_Bb3S_s.ogg",75
Sample,42000,0,"A#3S_Bb3S_s.ogg",75
Sample,42240,0,"A#3S_Bb3S_s.ogg",75
Sample,42240,0,"D#4S_Eb4S_s.ogg",75
Sample,42960,0,"A#3S_Bb3S_s.ogg",75
Sample,43200,0,"D#4S_Eb4S_s.ogg",75
Sample,43200,0,"A#3S_Bb3S_s.ogg",75
Sample,43920,0,"A#3S_Bb3S_s.ogg",75
Sample,44160,0,"A#3S_Bb3S_s.ogg",75
Sample,44160,0,"D#4S_Eb4S_s.ogg",75
Sample,45120,0,"A#3S_Bb3S_s.ogg",75
Sample,45840,0,"A#3S_Bb3S_s.ogg",75
Sample,46080,0,"D#3S_Eb3S_s.ogg",75
Sample,46080,0,"C4S_s.ogg",75
Sample,47040,0,"D#3S_Eb3S_s.ogg",75
Sample,47760,0,"D#3S_Eb3S_s.ogg",75
Sample,48000,0,"F3S_s.ogg",75
Sample,48000,0,"D4S_s.ogg",75
Sample,48960,0,"F3S_s.ogg",75
Sample,49680,0,"F3S_s.ogg",75
Sample,49920,0,"D#3S_Eb3S_s.ogg",75
Sample,49920,0,"A#3S_Bb3S_s.ogg",75
Sample,50880,0,"F3S_s.ogg",75
Sample,50880,0,"C4S_s.ogg",75
Sample,51840,0,"G3S_s.ogg",75
Sample,51840,0,"D4S_s.ogg",75
Sample,52560,0,"G3S_s.ogg",75
Sample,52800,0,"F3S_s.ogg",75
Sample,53520,0,"F3S_s.ogg",75
Sample,53760,0,"G3S_s.ogg",75
Sample,53760,0,"C3S_s.ogg",75
Sample,54000,0,"G3S_s.ogg",75
Sample,54240,0,"C4S_s.ogg",75
Sample,54480,0,"C4S_s.ogg",75
Sample,54480,0,"C3S_s.ogg",75
Sample,54720,0,"G3S_s.ogg",75
Sample,54720,0,"C3S_s.ogg",75
Sample,55680,0,"A#3S_Bb3S_s.ogg",75
Sample,55680,0,"D3S_s.ogg",75
Sample,55920,0,"A#3S_Bb3S_s.ogg",75
Sample,56160,0,"D4S_s.ogg",75
Sample,56400,0,"D4S_s.ogg",75
Sample,56400,0,"D3S_s.ogg",75
Sample,56640,0,"A#3S_Bb3S_s.ogg",75
Sample,56640,0,"D3S_s.ogg",75
Sample,57600,0,"A#3S_Bb3S_s.ogg",75
Sample,57600,0,"D#3S_Eb3S_s.ogg",75
Sample,58320,0,"D#3S_Eb3S_s.ogg",75
Sample,58560,0,"F3S_s.ogg",75
Sample,59520,0,"D4S_s.ogg",75
Sample,59520,0,"G3S_s.ogg",75
Sample,76800,0,"D#4S_Eb4S_s.ogg",75
Sample,76800,0,"D#3S_Eb3S_s.ogg",75
Sample,77040,0,"A#3S_Bb3S_s.ogg",75
Sample,77520,0,"D#3S_Eb3S_s.ogg",75
Sample,77520,0,"D#4S_Eb4S_s.ogg",75
Sample,77760,0,"D#3S_Eb3S_s.ogg",75
Sample,78720,0,"F4S_s.ogg",75
Sample,78720,0,"F3S_s.ogg",75
Sample,78960,0,"C4S_s.ogg",75
Sample,79440,0,"F3S_s.ogg",75
Sample,79440,0,"F4S_s.ogg",75
Sample,79680,0,"F3S_s.ogg",75
Sample,80640,0,"G4S_s.ogg",75
Sample,80640,0,"G3S_s.ogg",75
Sample,80880,0,"D4S_s.ogg",75
Sample,81360,0,"G3S_s.ogg",75
Sample,81360,0,"G4S_s.ogg",75
Sample,81600,0,"G3S_s.ogg",75
Sample,82320,0,"D4S_s.ogg",75
Sample,82560,0,"D3S_s.ogg",75
Sample,82560,0,"D4S_s.ogg",75
Sample,83520,0,"D3S_s.ogg",75
Sample,84480,0,"D#4S_Eb4S_s.ogg",75
Sample,84480,0,"D#3S_Eb3S_s.ogg",75
Sample,84720,0,"A#3S_Bb3S_s.ogg",75
Sample,85200,0,"D#3S_Eb3S_s.ogg",75
Sample,85200,0,"D#4S_Eb4S_s.ogg",75
Sample,85440,0,"D#3S_Eb3S_s.ogg",75
Sample,86400,0,"F4S_s.ogg",75
Sample,86400,0,"F3S_s.ogg",75
Sample,86640,0,"C4S_s.ogg",75
Sample,87120,0,"F3S_s.ogg",75
Sample,87120,0,"F4S_s.ogg",75
Sample,87360,0,"F3S_s.ogg",75
Sample,88080,0,"C4S_s.ogg",75
Sample,88320,0,"G4S_s.ogg",75
Sample,88320,0,"A#4S_Bb4S.ogg",75
Sample,88320,0,"G3S_s.ogg",75
Sample,89040,0,"F3S_s.ogg",75
Sample,89280,0,"G3S_s.ogg",75
Sample,89520,0,"G4S_s.ogg",75
Sample,89520,0,"D4S_s.ogg",75
Sample,90240,0,"G3S_s.ogg",75
Sample,90960,0,"F3S_s.ogg",75
Sample,91440,0,"D4S_s.ogg",75
Sample,91920,0,"C#4S_Db4S_s.ogg",75
Sample,93360,0,"D4S_s.ogg",75
Sample,105600,0,"D#3S_Eb3S_s.ogg",75
Sample,105960,0,"D#3S_Eb3S_s.ogg",75
Sample,106320,0,"D#3S_Eb3S_s.ogg",75
Sample,106560,0,"D#3S_Eb3S_s.ogg",75
Sample,106920,0,"D#3S_Eb3S_s.ogg",75
Sample,107280,0,"D#3S_Eb3S_s.ogg",75
Sample,107520,0,"D#3S_Eb3S_s.ogg",75
Sample,109440,0,"D#3S_Eb3S_s.ogg",75
Sample,109800,0,"D#3S_Eb3S_s.ogg",75
Sample,110160,0,"D#3S_Eb3S_s.ogg",75
Sample,111360,0,"D#3S_Eb3S_s.ogg",75
Sample,112320,0,"D#3S_Eb3S_s.ogg",75
Sample,113280,0,"D3S_s.ogg",75
Sample,114960,0,"D3S_s.ogg",75
Sample,115920,0,"D3S_s.ogg",75
Sample,116880,0,"D3S_s.ogg",75
Sample,118800,0,"D3S_s.ogg",75
Sample,119760,0,"D3S_s.ogg",75
Sample,120000,0,"D3S_s.ogg",75
Sample,120720,0,"D3S_s.ogg",75
Sample,120960,0,"D#3S_Eb3S_s.ogg",75
Sample,120960,0,"A#3S_Bb3S_s.ogg",75
Sample,121320,0,"D#3S_Eb3S_s.ogg",75
Sample,121320,0,"A#3S_Bb3S_s.ogg",75
Sample,121680,0,"D#3S_Eb3S_s.ogg",75
Sample,121680,0,"D#4S_Eb4S_s.ogg",75
Sample,121920,0,"D#3S_Eb3S_s.ogg",75
Sample,121920,0,"A#3S_Bb3S_s.ogg",75
Sample,122280,0,"D#3S_Eb3S_s.ogg",75
Sample,122280,0,"A#3S_Bb3S_s.ogg",75
Sample,122640,0,"D#3S_Eb3S_s.ogg",75
Sample,122640,0,"D#4S_Eb4S_s.ogg",75
Sample,122880,0,"D#3S_Eb3S_s.ogg",75
Sample,122880,0,"A#3S_Bb3S_s.ogg",75
Sample,124320,0,"D#4S_Eb4S_s.ogg",75
Sample,124800,0,"A#3S_Bb3S_s.ogg",75
Sample,124800,0,"D#3S_Eb3S_s.ogg",75
Sample,125160,0,"A#3S_Bb3S_s.ogg",75
Sample,125160,0,"D#3S_Eb3S_s.ogg",75
Sample,125520,0,"D#4S_Eb4S_s.ogg",75
Sample,125520,0,"D#3S_Eb3S_s.ogg",75
Sample,126240,0,"D#4S_Eb4S_s.ogg",75
Sample,126720,0,"D#3S_Eb3S_s.ogg",75
Sample,126720,0,"A#3S_Bb3S_s.ogg",75
Sample,127680,0,"D#3S_Eb3S_s.ogg",75
Sample,127680,0,"A#3S_Bb3S_s.ogg",75
Sample,128160,0,"D#4S_Eb4S_s.ogg",75
Sample,128640,0,"C4S_s.ogg",75
Sample,128640,0,"D#3S_Eb3S_s.ogg",75
Sample,128640,0,"A#5S_Bb5S.ogg",75
Sample,129600,0,"D#3S_Eb3S_s.ogg",75
Sample,130320,0,"D#3S_Eb3S_s.ogg",75
Sample,130560,0,"D4S_s.ogg",75
Sample,130560,0,"A#5S_Bb5S.ogg",75
Sample,130560,0,"F3S_s.ogg",75
Sample,131520,0,"F3S_s.ogg",75
Sample,132240,0,"F3S_s.ogg",75
Sample,132480,0,"A#3S_Bb3S_s.ogg",75
Sample,132480,0,"D#3S_Eb3S_s.ogg",75
Sample,133440,0,"C4S_s.ogg",75
Sample,133440,0,"F3S_s.ogg",75
Sample,134400,0,"D4S_s.ogg",75
Sample,134400,0,"G3S_s.ogg",75
Sample,135120,0,"G3S_s.ogg",75
Sample,135360,0,"F3S_s.ogg",75
Sample,136080,0,"F3S_s.ogg",75
Sample,136320,0,"C3S_s.ogg",75
Sample,136320,0,"G3S_s.ogg",75
Sample,136560,0,"G3S_s.ogg",75
Sample,136800,0,"C4S_s.ogg",75
Sample,137040,0,"C3S_s.ogg",75
Sample,137040,0,"C4S_s.ogg",75
Sample,137280,0,"C3S_s.ogg",75
Sample,137280,0,"G3S_s.ogg",75
Sample,138240,0,"D3S_s.ogg",75
Sample,138240,0,"A#3S_Bb3S_s.ogg",75
Sample,138480,0,"A#3S_Bb3S_s.ogg",75
Sample,138720,0,"D4S_s.ogg",75
Sample,138960,0,"D3S_s.ogg",75
Sample,138960,0,"D4S_s.ogg",75
Sample,139200,0,"D3S_s.ogg",75
Sample,139200,0,"A#3S_Bb3S_s.ogg",75
Sample,140160,0,"D#3S_Eb3S_s.ogg",75
Sample,140160,0,"A#3S_Bb3S_s.ogg",75
Sample,140880,0,"D#3S_Eb3S_s.ogg",75
Sample,141120,0,"F3S_s.ogg",75
Sample,142080,0,"G3S_s.ogg",75
Sample,142080,0,"D4S_s.ogg",75
Sample,143040,0,"F3S_s.ogg",75
Sample,144000,0,"C4S_s.ogg",50
Sample,145920,0,"D4S_s.ogg",50
Sample,147600,0,"A3S_s.ogg",50
Sample,147840,0,"A#3S_Bb3S_s.ogg",50
Sample,147840,0,"D6S.ogg",50
Sample,148800,0,"C4S_s.ogg",50
Sample,149760,0,"D4S_s.ogg",50
Sample,151680,0,"G3S_s.ogg",50
Sample,151920,0,"G3S_s.ogg",50
Sample,152160,0,"C4S_s.ogg",50
Sample,152400,0,"D#3S_Eb3S_s.ogg",50
Sample,152640,0,"G3S_s.ogg",50
Sample,153600,0,"A#3S_Bb3S_s.ogg",50
Sample,153840,0,"A#3S_Bb3S_s.ogg",50
Sample,154080,0,"D4S_s.ogg",50
Sample,154320,0,"F3S_s.ogg",50
Sample,154320,0,"D6S_s.ogg",50
Sample,154560,0,"A#3S_Bb3S_s.ogg",50
Sample,154560,0,"C6S_s.ogg",50
Sample,155520,0,"A#3S_Bb3S_s.ogg",50
Sample,155520,0,"D5S.ogg",50
Sample,156960,0,"F#4S_Gb4S_s.ogg",50
Sample,157440,0,"D5S.ogg",50
Sample,157440,0,"A#4S_Bb4S.ogg",50

[TimingPoints]
0,240,4,1,1,100,1,0

[HitObjects]
83,192,0,5,0,0:0:0:38:G5S.ogg
302,192,0,1,0,0:0:0:38:A#5S_Bb5S.ogg
375,192,0,1,0,0:0:0:38:D6S.ogg
10,192,120,1,0,0:0:0:38:D5S_s.ogg
448,192,240,1,0,0:0:0:38:G4S_s.ogg
229,192,360,1,0,0:0:0:38:G4S_s.ogg
156,192,480,1,0,0:0:0:38:D5S_s.ogg
302,192,600,1,0,0:0:0:38:G4S_s.ogg
10,192,720,1,0,0:0:0:38:D6S_s.ogg
83,192,720,1,0,0:0:0:38:G6S_s.ogg
375,192,720,1,0,0:0:0:38:A#6S_Bb6S_s.ogg
156,192,960,1,0,0:0:0:38:G5S.ogg
229,192,960,1,0,0:0:0:38:A#5S_Bb5S.ogg
448,192,960,1,0,0:0:0:38:D6S.ogg
302,192,1080,1,0,0:0:0:38:D5S_s.ogg
10,192,1200,1,0,0:0:0:38:G4S_s.ogg
375,192,1320,1,0,0:0:0:38:G4S_s.ogg
83,192,1440,1,0,0:0:0:38:D5S_s.ogg
448,192,1560,1,0,0:0:0:38:G4S_s.ogg
156,192,1680,1,0,0:0:0:38:D6S_s.ogg
229,192,1680,1,0,0:0:0:38:G6S_s.ogg
302,192,1680,1,0,0:0:0:38:A#6S_Bb6S_s.ogg
10,192,1920,1,0,0:0:0:38:G5S.ogg
83,192,1920,1,0,0:0:0:38:A#5S_Bb5S.ogg
375,192,1920,1,0,0:0:0:38:D6S.ogg
448,192,2040,1,0,0:0:0:38:D5S_s.ogg
156,192,2160,1,0,0:0:0:38:G4S_s.ogg
229,192,2280,1,0,0:0:0:38:G4S_s.ogg
302,192,2400,1,0,0:0:0:38:D5S_s.ogg
83,192,2520,1,0,0:0:0:38:G4S_s.ogg
10,192,2640,1,0,0:0:0:38:D6S_s.ogg
375,192,2640,1,0,0:0:0:38:G6S_s.ogg
448,192,2640,1,0,0:0:0:38:A#6S_Bb6S_s.ogg
156,192,2880,1,0,0:0:0:38:D4S_s.ogg
229,192,2880,1,0,0:0:0:38:G5S_s.ogg
302,192,2880,1,0,0:0:0:38:D6S_s.ogg
83,192,3000,1,0,0:0:0:38:D5S_s.ogg
10,192,3120,1,0,0:0:0:38:G4S_s.ogg
375,192,3120,1,0,0:0:0:38:C6S_s.ogg
448,192,3180,1,0,0:0:0:38:D6S_s.ogg
156,192,3240,1,0,0:0:0:38:G4S_s.ogg
302,192,3240,1,0,0:0:0:38:C6S_s.ogg
83,192,3360,1,0,0:0:0:38:D5S_s.ogg
229,192,3360,1,0,0:0:0:38:G5S_s.ogg
375,192,3360,1,0,0:0:0:38:A#5S_Bb5S_s.ogg
10,192,3480,1,0,0:0:0:38:G4S_s.ogg
156,192,3600,1,0,0:0:0:38:D5S_s.ogg
302,192,3600,1,0,0:0:0:38:G5S_s.ogg
448,192,3600,1,0,0:0:0:38:C6S_s.ogg
83,192,3840,1,0,0:0:0:38:G5S.ogg
229,192,3840,1,0,0:0:0:38:A#5S_Bb5S.ogg
375,192,3840,1,0,0:0:0:38:D6S.ogg
10,192,3960,1,0,0:0:0:38:D5S_s.ogg
302,192,4080,1,0,0:0:0:38:G4S_s.ogg
156,192,4200,1,0,0:0:0:38:G4S_s.ogg
448,192,4320,1,0,0:0:0:38:D5S_s.ogg
83,192,4440,1,0,0:0:0:38:G4S_s.ogg
10,192,4560,1,0,0:0:0:38:D6S_s.ogg
229,192,4560,1,0,0:0:0:38:G6S_s.ogg
375,192,4560,1,0,0:0:0:38:A#6S_Bb6S_s.ogg
156,192,4800,1,0,0:0:0:38:G5S.ogg
302,192,4800,1,0,0:0:0:38:A#5S_Bb5S.ogg
448,192,4800,1,0,0:0:0:38:D6S.ogg
83,192,4920,1,0,0:0:0:38:D5S_s.ogg
375,192,5040,1,0,0:0:0:38:G4S_s.ogg
229,192,5160,1,0,0:0:0:38:G4S_s.ogg
10,192,5280,1,0,0:0:0:38:D5S_s.ogg
448,192,5400,1,0,0:0:0:38:G4S_s.ogg
83,192,5520,1,0,0:0:0:38:D6S_s.ogg
156,192,5520,1,0,0:0:0:38:G6S_s.ogg
302,192,5520,1,0,0:0:0:38:A#6S_Bb6S_s.ogg
10,192,5760,1,0,0:0:0:38:G5S.ogg
229,192,5760,1,0,0:0:0:38:A#5S_Bb5S.ogg
375,192,5760,1,0,0:0:0:38:D6S.ogg
448,192,5880,1,0,0:0:0:38:D5S_s.ogg
156,192,6000,1,0,0:0:0:38:G4S_s.ogg
302,192,6120,1,0,0:0:0:38:G4S_s.ogg
83,192,6240,1,0,0:0:0:38:D5S_s.ogg
375,192,6360,1,0,0:0:0:38:G4S_s.ogg
10,192,6480,1,0,0:0:0:38:D6S_s.ogg
229,192,6480,1,0,0:0:0:38:G6S_s.ogg
448,192,6480,1,0,0:0:0:38:A#6S_Bb6S_s.ogg
83,192,6720,1,0,0:0:0:38:D4S_s.ogg
156,192,6720,1,0,0:0:0:38:G5S_s.ogg
302,192,6720,1,0,0:0:0:38:D6S_s.ogg
375,192,6840,1,0,0:0:0:38:D5S_s.ogg
10,192,6960,1,0,0:0:0:38:G4S_s.ogg
448,192,6960,1,0,0:0:0:38:C6S_s.ogg
229,192,7020,1,0,0:0:0:38:D6S_s.ogg
156,192,7080,1,0,0:0:0:38:G4S_s.ogg
302,192,7080,1,0,0:0:0:38:C6S_s.ogg
10,192,7200,1,0,0:0:0:38:D5S_s.ogg
83,192,7200,1,0,0:0:0:38:G5S_s.ogg
375,192,7200,1,0,0:0:0:38:A#5S_Bb5S_s.ogg
448,192,7320,1,0,0:0:0:38:G4S_s.ogg
156,192,7440,1,0,0:0:0:38:D5S_s.ogg
229,192,7440,1,0,0:0:0:38:G5S_s.ogg
302,192,7440,1,0,0:0:0:38:C6S_s.ogg
10,192,7680,1,0,0:0:0:38:G5S.ogg
83,192,7680,1,0,0:0:0:38:A#5S_Bb5S.ogg
375,192,7680,1,0,0:0:0:38:D6S.ogg
448,192,7800,1,0,0:0:0:38:D#5S_Eb5S_s.ogg
156,192,7920,1,0,0:0:0:38:A#4S_Bb4S_s.ogg
229,192,8040,1,0,0:0:0:38:A#4S_Bb4S_s.ogg
302,192,8160,1,0,0:0:0:38:D#5S_Eb5S_s.ogg
83,192,8280,1,0,0:0:0:38:A#4S_Bb4S_s.ogg
10,192,8400,1,0,0:0:0:38:D6S_s.ogg
375,192,8400,1,0,0:0:0:38:G6S_s.ogg
448,192,8400,1,0,0:0:0:38:A#6S_Bb6S_s.ogg
156,192,8640,1,0,0:0:0:38:G5S.ogg
229,192,8640,1,0,0:0:0:38:A#5S_Bb5S.ogg
302,192,8640,1,0,0:0:0:38:D6S.ogg
83,192,8760,1,0,0:0:0:38:D#5S_Eb5S_s.ogg
375,192,8880,1,0,0:0:0:38:A#4S_Bb4S_s.ogg
10,192,9000,1,0,0:0:0:38:A#4S_Bb4S_s.ogg
448,192,9120,1,0,0:0:0:38:D#5S_Eb5S_s.ogg
156,192,9240,1,0,0:0:0:38:A#4S_Bb4S_s.ogg
83,192,9360,1,0,0:0:0:38:D6S_s.ogg
229,192,9360,1,0,0:0:0:38:G6S_s.ogg
302,192,9360,1,0,0:0:0:38:A#6S_Bb6S_s.ogg
10,192,9600,1,0,0:0:0:38:G5S.ogg
375,192,9600,1,0,0:0:0:38:A#5S_Bb5S.ogg
448,192,9600,1,0,0:0:0:38:D6S.ogg
156,192,9720,1,0,0:0:0:38:D#5S_Eb5S_s.ogg
302,192,9840,1,0,0:0:0:38:A#4S_Bb4S_s.ogg
229,192,9960,1,0,0:0:0:38:A#4S_Bb4S_s.ogg
83,192,10080,1,0,0:0:0:38:D#5S_Eb5S_s.ogg
448,192,10200,1,0,0:0:0:38:A#4S_Bb4S_s.ogg
10,192,10320,1,0,0:0:0:38:D6S_s.ogg
156,192,10320,1,0,0:0:0:38:G6S_s.ogg
375,192,10320,1,0,0:0:0:38:A#6S_Bb6S_s.ogg
83,192,10560,1,0,0:0:0:38:D#4S_Eb4S_s.ogg
229,192,10560,1,0,0:0:0:38:G5S_s.ogg
302,192,10560,1,0,0:0:0:38:D6S_s.ogg
448,192,10680,1,0,0:0:0:38:D#5S_Eb5S_s.ogg
10,192,10800,1,0,0:0:0:38:A#4S_Bb4S_s.ogg
375,192,10800,1,0,0:0:0:38:C6S_s.ogg
156,192,10860,1,0,0:0:0:38:D6S_s.ogg
229,192,10920,1,0,0:0:0:38:A#4S_Bb4S_s.ogg
302,192,10920,1,0,0:0:0:38:C6S_s.ogg
10,192,11040,1,0,0:0:0:38:D#5S_Eb5S_s.ogg
83,192,11040,1,0,0:0:0:38:G5S_s.ogg
448,192,11040,1,0,0:0:0:38:A#5S_Bb5S_s.ogg
375,192,11160,1,0,0:0:0:38:A#4S_Bb4S_s.ogg
156,192,11280,1,0,0:0:0:38:D#5S_Eb5S_s.ogg
229,192,11280,1,0,0:0:0:38:G5S_s.ogg
302,192,11280,1,0,0:0:0:38:C6S_s.ogg
10,192,11520,1,0,0:0:0:38:G5S.ogg
83,192,11520,1,0,0:0:0:38:A#5S_Bb5S.ogg
448,192,11520,1,0,0:0:0:38:D6S.ogg
375,192,11640,1,0,0:0:0:38:D#5S_Eb5S_s.ogg
156,192,11760,1,0,0:0:0:38:A#4S_Bb4S_s.ogg
229,192,11880,1,0,0:0:0:38:A#4S_Bb4S_s.ogg
302,192,12000,1,0,0:0:0:38:D#5S_Eb5S_s.ogg
10,192,12120,1,0,0:0:0:38:A#4S_Bb4S_s.ogg
83,192,12240,1,0,0:0:0:38:D6S_s.ogg
375,192,12240,1,0,0:0:0:38:G6S_s.ogg
448,192,12240,1,0,0:0:0:38:A#6S_Bb6S_s.ogg
156,192,12480,1,0,0:0:0:38:G5S.ogg
229,192,12480,1,0,0:0:0:38:A#5S_Bb5S.ogg
302,192,12480,1,0,0:0:0:38:D6S.ogg
10,192,12600,1,0,0:0:0:38:D#5S_Eb5S_s.ogg
375,192,12720,1,0,0:0:0:38:A#4S_Bb4S_s.ogg
83,192,12840,1,0,0:0:0:38:A#4S_Bb4S_s.ogg
448,192,12960,1,0,0:0:0:38:D#5S_Eb5S_s.ogg
156,192,13080,1,0,0:0:0:38:A#4S_Bb4S_s.ogg
10,192,13200,1,0,0:0:0:38:D6S_s.ogg
229,192,13200,1,0,0:0:0:38:G6S_s.ogg
302,192,13200,1,0,0:0:0:38:A#6S_Bb6S_s.ogg
83,192,13440,1,0,0:0:0:38:G5S.ogg
375,192,13440,1,0,0:0:0:38:A#5S_Bb5S.ogg
448,192,13440,1,0,0:0:0:38:D6S.ogg
156,192,13560,1,0,0:0:0:38:D#5S_Eb5S_s.ogg
302,192,13680,1,0,0:0:0:38:A#4S_Bb4S_s.ogg
10,192,13800,1,0,0:0:0:38:A#4S_Bb4S_s.ogg
229,192,13920,1,0,0:0:0:38:D#5S_Eb5S_s.ogg
83,192,14040,1,0,0:0:0:38:A#4S_Bb4S_s.ogg
156,192,14160,1,0,0:0:0:38:D6S_s.ogg
375,192,14160,1,0,0:0:0:38:G6S_s.ogg
448,192,14160,1,0,0:0:0:38:A#6S_Bb6S_s.ogg
10,192,14400,1,0,0:0:0:38:D#4S_Eb4S_s.ogg
229,192,14400,1,0,0:0:0:38:G5S_s.ogg
302,192,14400,1,0,0:0:0:38:D6S_s.ogg
83,192,14520,1,0,0:0:0:38:D#5S_Eb5S_s.ogg
156,192,14640,1,0,0:0:0:38:A#4S_Bb4S_s.ogg
375,192,14640,1,0,0:0:0:38:C6S_s.ogg
448,192,14700,1,0,0:0:0:38:D6S_s.ogg
10,192,14760,1,0,0:0:0:38:A#4S_Bb4S_s.ogg
229,192,14760,1,0,0:0:0:38:C6S_s.ogg
83,192,14880,1,0,0:0:0:38:G5S_s.ogg
302,192,14880,1,0,0:0:0:38:A#5S_Bb5S_s.ogg
156,192,15120,1,0,0:0:0:38:G5S_s.ogg
375,192,15120,1,0,0:0:0:38:C6S_s.ogg
10,192,15360,1,0,0:0:0:75:G5S.ogg
229,192,15360,1,0,0:0:0:75:A#5S_Bb5S.ogg
448,192,15360,1,0,0:0:0:75:D6S.ogg
83,192,15480,1,0,0:0:0:75:G4S_s.ogg
302,192,15600,1,0,0:0:0:75:D4S_s.ogg
156,192,15720,1,0,0:0:0:75:G3S_s.ogg
375,192,15720,1,0,0:0:0:75:D4S_s.ogg
10,192,15840,1,0,0:0:0:75:G4S_s.ogg
229,192,15960,1,0,0:0:0:75:D4S_s.ogg
83,192,16080,1,0,0:0:0:75:D6S_s.ogg
302,192,16080,1,0,0:0:0:75:F6S_s.ogg
448,192,16080,1,0,0:0:0:75:A6S_s.ogg
10,192,16320,1,0,0:0:0:75:G5S.ogg
156,192,16320,1,0,0:0:0:75:A#5S_Bb5S.ogg
375,192,16320,1,0,0:0:0:75:D6S.ogg
229,192,16440,1,0,0:0:0:75:G4S_s.ogg
302,192,16560,1,0,0:0:0:75:D4S_s.ogg
83,192,16680,1,0,0:0:0:75:G3S_s.ogg
448,192,16680,1,0,0:0:0:75:D4S_s.ogg
10,192,16800,1,0,0:0:0:75:G4S_s.ogg
375,192,16920,1,0,0:0:0:75:D4S_s.ogg
156,192,17040,1,0,0:0:0:75:D6S_s.ogg
229,192,17040,1,0,0:0:0:75:F6S_s.ogg
302,192,17040,1,0,0:0:0:75:A6S_s.ogg
10,192,17280,1,0,0:0:0:75:G5S.ogg
83,192,17280,1,0,0:0:0:75:A#5S_Bb5S.ogg
448,192,17280,1,0,0:0:0:75:D6S.ogg
375,192,17400,1,0,0:0:0:75:G4S_s.ogg
156,192,17520,1,0,0:0:0:75:D4S_s.ogg
229,192,17640,1,0,0:0:0:75:G3S_s.ogg
302,192,17640,1,0,0:0:0:75:D4S_s.ogg
83,192,17760,1,0,0:0:0:75:G4S_s.ogg
448,192,17880,1,0,0:0:0:75:D4S_s.ogg
10,192,18000,1,0,0:0:0:75:D6S_s.ogg
156,192,18000,1,0,0:0:0:75:F6S_s.ogg
375,192,18000,1,0,0:0:0:75:A6S_s.ogg
83,192,18240,1,0,0:0:0:75:D4S_s.ogg
229,192,18240,1,0,0:0:0:75:G5S_s.ogg
302,192,18240,1,0,0:0:0:75:D6S_s.ogg
448,192,18360,1,0,0:0:0:75:G4S_s.ogg
10,192,18480,1,0,0:0:0:75:D4S_s.ogg
375,192,18480,1,0,0:0:0:75:C6S_s.ogg
156,192,18540,1,0,0:0:0:75:D6S_s.ogg
83,192,18600,1,0,0:0:0:75:G3S_s.ogg
229,192,18600,1,0,0:0:0:75:D4S_s.ogg
302,192,18600,1,0,0:0:0:75:C6S_s.ogg
10,192,18720,1,0,0:0:0:75:G4S_s.ogg
375,192,18720,1,0,0:0:0:75:G5S_s.ogg
448,192,18720,1,0,0:0:0:75:A#5S_Bb5S_s.ogg
156,192,18840,1,0,0:0:0:75:D4S_s.ogg
83,192,18960,1,0,0:0:0:75:G4S_s.ogg
229,192,18960,1,0,0:0:0:75:G5S_s.ogg
302,192,18960,1,0,0:0:0:75:C6S_s.ogg
10,192,19200,1,0,0:0:0:75:G5S.ogg
375,192,19200,1,0,0:0:0:75:A#5S_Bb5S.ogg
448,192,19200,1,0,0:0:0:75:D6S.ogg
156,192,19320,1,0,0:0:0:75:G4S_s.ogg
302,192,19440,1,0,0:0:0:75:D4S_s.ogg
83,192,19560,1,0,0:0:0:75:G3S_s.ogg
229,192,19560,1,0,0:0:0:75:D4S_s.ogg
448,192,19680,1,0,0:0:0:75:G4S_s.ogg
10,192,19800,1,0,0:0:0:75:D4S_s.ogg
156,192,19920,1,0,0:0:0:75:G3S_s.ogg
302,192,19920,1,0,0:0:0:75:G4S_s.ogg
375,192,19920,1,0,0:0:0:75:F6S_s.ogg
229,192,19980,1,0,0:0:0:75:G6S_s.ogg
83,192,20040,1,0,0:0:0:75:A6S_s.ogg
10,192,20160,1,0,0:0:0:75:G5S.ogg
302,192,20160,1,0,0:0:0:75:A#5S_Bb5S.ogg
448,192,20160,1,0,0:0:0:75:D6S.ogg
156,192,20280,1,0,0:0:0:75:G4S_s.ogg
375,192,20400,1,0,0:0:0:75:D4S_s.ogg
83,192,20520,1,0,0:0:0:75:G3S_s.ogg
229,192,20520,1,0,0:0:0:75:D4S_s.ogg
448,192,20640,1,0,0:0:0:75:G4S_s.ogg
10,192,20760,1,0,0:0:0:75:D4S_s.ogg
156,192,20880,1,0,0:0:0:75:G3S_s.ogg
302,192,20880,1,0,0:0:0:75:G4S_s.ogg
375,192,20880,1,0,0:0:0:75:A6S_s.ogg
229,192,20940,1,0,0:0:0:75:A#6S_Bb6S_s.ogg
83,192,21000,1,0,0:0:0:75:A6S_s.ogg
10,192,21120,1,0,0:0:0:75:G5S.ogg
375,192,21120,1,0,0:0:0:75:A#5S_Bb5S.ogg
448,192,21120,1,0,0:0:0:75:D6S.ogg
156,192,21240,1,0,0:0:0:75:G4S_s.ogg
302,192,21360,1,0,0:0:0:75:D4S_s.ogg
83,192,21480,1,0,0:0:0:75:G3S_s.ogg
229,192,21480,1,0,0:0:0:75:D4S_s.ogg
375,192,21600,1,0,0:0:0:75:G4S_s.ogg
10,192,21720,1,0,0:0:0:75:D4S_s.ogg
156,192,21840,1,0,0:0:0:75:G4S_s.ogg
302,192,21840,1,0,0:0:0:75:D7S_s.ogg
448,192,21840,1,0,0:0:0:75:A7S_s.ogg
83,192,22080,1,0,0:0:0:75:G3S_s.ogg
229,192,22080,1,0,0:0:0:75:D4S_s.ogg
375,192,22080,1,0,0:0:0:75:A#7S_Bb7S_s.ogg
10,192,22200,1,0,0:0:0:75:G4S_s.ogg
156,192,22320,1,0,0:0:0:75:D4S_s.ogg
448,192,22320,1,0,0:0:0:75:A7S_s.ogg
302,192,22380,1,0,0:0:0:75:A#7S_Bb7S_s.ogg
83,192,22440,1,0,0:0:0:75:G3S_s.ogg
229,192,22440,1,0,0:0:0:75:D4S_s.ogg
375,192,22440,1,0,0:0:0:75:A7S_s.ogg
10,192,22560,1,0,0:0:0:75:G4S_s.ogg
448,192,22560,1,0,0:0:0:75:G7S_s.ogg
156,192,22680,1,0,0:0:0:75:D4S_s.ogg
83,192,22800,1,0,0:0:0:75:G4S_s.ogg
229,192,22800,1,0,0:0:0:75:D7S_s.ogg
302,192,22800,1,0,0:0:0:75:A7S_s.ogg
10,192,23040,1,0,0:0:0:75:A#6S_Bb6S.ogg
375,192,23040,1,0,0:0:0:75:D7S.ogg
448,192,23040,1,0,0:0:0:75:A#7S_Bb7S.ogg
156,192,23160,1,0,0:0:0:75:A#4S_Bb4S_s.ogg
302,192,23280,1,0,0:0:0:75:D#4S_Eb4S_s.ogg
83,192,23400,1,0,0:0:0:75:A#3S_Bb3S_s.ogg
229,192,23400,1,0,0:0:0:75:D#4S_Eb4S_s.ogg
375,192,23520,1,0,0:0:0:75:A#4S_Bb4S_s.ogg
10,192,23640,1,0,0:0:0:75:D#4S_Eb4S_s.ogg
156,192,23760,1,0,0:0:0:75:A#3S_Bb3S_s.ogg
302,192,23760,1,0,0:0:0:75:A#4S_Bb4S_s.ogg
448,192,23760,1,0,0:0:0:75:G7S_s.ogg
83,192,23820,1,0,0:0:0:75:D7S_s.ogg
229,192,23820,1,0,0:0:0:75:A7S_s.ogg
10,192,24000,1,0,0:0:0:75:A#6S_Bb6S.ogg
375,192,24000,1,0,0:0:0:75:D7S.ogg
448,192,24000,1,0,0:0:0:75:F7S.ogg
156,192,24120,1,0,0:0:0:75:A#4S_Bb4S_s.ogg
302,192,24240,1,0,0:0:0:75:D#4S_Eb4S_s.ogg
83,192,24360,1,0,0:0:0:75:A#3S_Bb3S_s.ogg
229,192,24360,1,0,0:0:0:75:D#4S_Eb4S_s.ogg
375,192,24480,1,0,0:0:0:75:A#4S_Bb4S_s.ogg
10,192,24600,1,0,0:0:0:75:D#4S_Eb4S_s.ogg
156,192,24720,1,0,0:0:0:75:A#4S_Bb4S_s.ogg
302,192,24720,1,0,0:0:0:75:A#6S_Bb6S_s.ogg
448,192,24720,1,0,0:0:0:75:D#7S_Eb7S_s.ogg
83,192,24960,1,0,0:0:0:75:G6S.ogg
229,192,24960,1,0,0:0:0:75:A#6S_Bb6S.ogg
375,192,24960,1,0,0:0:0:75:D7S.ogg
10,192,25080,1,0,0:0:0:75:A#4S_Bb4S_s.ogg
448,192,25200,1,0,0:0:0:75:D#4S_Eb4S_s.ogg
156,192,25320,1,0,0:0:0:75:A#3S_Bb3S_s.ogg
302,192,25320,1,0,0:0:0:75:D#4S_Eb4S_s.ogg
83,192,25440,1,0,0:0:0:75:A#4S_Bb4S_s.ogg
375,192,25560,1,0,0:0:0:75:D#4S_Eb4S_s.ogg
10,192,25680,1,0,0:0:0:75:A#3S_Bb3S_s.ogg
229,192,25680,1,0,0:0:0:75:A#4S_Bb4S_s.ogg
448,192,25680,1,0,0:0:0:75:C7S_s.ogg
83,192,25920,1,0,0:0:0:75:D#4S_Eb4S_s.ogg
156,192,25920,1,0,0:0:0:75:G6S_s.ogg
302,192,25920,1,0,0:0:0:75:A#6S_Bb6S_s.ogg
375,192,26040,1,0,0:0:0:75:A#4S_Bb4S_s.ogg
10,192,26160,1,0,0:0:0:75:D#4S_Eb4S_s.ogg
229,192,26160,1,0,0:0:0:75:C7S_s.ogg
83,192,26280,1,0,0:0:0:75:A#3S_Bb3S_s.ogg
448,192,26280,1,0,0:0:0:75:D#4S_Eb4S_s.ogg
156,192,26400,1,0,0:0:0:75:A#4S_Bb4S_s.ogg
302,192,26400,1,0,0:0:0:75:D7S_s.ogg
375,192,26520,1,0,0:0:0:75:D#4S_Eb4S_s.ogg
10,192,26640,1,0,0:0:0:75:A#4S_Bb4S_s.ogg
229,192,26640,1,0,0:0:0:75:A#6S_Bb6S_s.ogg
448,192,26640,1,0,0:0:0:75:D#7S_Eb7S_s.ogg
83,192,26880,1,0,0:0:0:75:G6S.ogg
156,192,26880,1,0,0:0:0:75:A#6S_Bb6S.ogg
302,192,26880,1,0,0:0:0:75:F7S.ogg
375,192,27000,1,0,0:0:0:75:A#4S_Bb4S_s.ogg
10,192,27120,1,0,0:0:0:75:D#4S_Eb4S_s.ogg
229,192,27240,1,0,0:0:0:75:A#3S_Bb3S_s.ogg
448,192,27240,1,0,0:0:0:75:D#4S_Eb4S_s.ogg
302,192,27360,1,0,0:0:0:75:A#4S_Bb4S_s.ogg
156,192,27480,1,0,0:0:0:75:D#4S_Eb4S_s.ogg
10,192,27600,1,0,0:0:0:75:A#4S_Bb4S_s.ogg
83,192,27600,1,0,0:0:0:75:F6S_s.ogg
375,192,27600,1,0,0:0:0:75:A#6S_Bb6S_s.ogg
229,192,27840,1,0,0:0:0:75:G6S.ogg
302,192,27840,1,0,0:0:0:75:A#6S_Bb6S.ogg
448,192,27840,1,0,0:0:0:75:G7S.ogg
156,192,27960,1,0,0:0:0:75:A#4S_Bb4S_s.ogg
375,192,28080,1,0,0:0:0:75:D#4S_Eb4S_s.ogg
10,192,28200,1,0,0:0:0:75:A#3S_Bb3S_s.ogg
83,192,28200,1,0,0:0:0:75:D#4S_Eb4S_s.ogg
448,192,28320,1,0,0:0:0:75:A#4S_Bb4S_s.ogg
302,192,28440,1,0,0:0:0:75:D#4S_Eb4S_s.ogg
156,192,28560,1,0,0:0:0:75:A#4S_Bb4S_s.ogg
229,192,28560,1,0,0:0:0:75:G6S_s.ogg
375,192,28560,1,0,0:0:0:75:A#6S_Bb6S_s.ogg
10,192,28800,1,0,0:0:0:75:A#6S_Bb6S.ogg
83,192,28800,1,0,0:0:0:75:D7S.ogg
448,192,28800,1,0,0:0:0:75:A7S.ogg
302,192,28920,1,0,0:0:0:75:A#4S_Bb4S_s.ogg
156,192,29040,1,0,0:0:0:75:D#4S_Eb4S_s.ogg
229,192,29160,1,0,0:0:0:75:A#3S_Bb3S_s.ogg
375,192,29160,1,0,0:0:0:75:D#4S_Eb4S_s.ogg
10,192,29280,1,0,0:0:0:75:A#4S_Bb4S_s.ogg
448,192,29400,1,0,0:0:0:75:D#4S_Eb4S_s.ogg
83,192,29520,1,0,0:0:0:75:A#3S_Bb3S_s.ogg
156,192,29520,1,0,0:0:0:75:A#4S_Bb4S_s.ogg
302,192,29520,1,0,0:0:0:75:A6S_s.ogg
10,192,29760,1,0,0:0:0:75:D#4S_Eb4S_s.ogg
229,192,29760,1,0,0:0:0:75:D7S_s.ogg
375,192,29760,1,0,0:0:0:75:A#7S_Bb7S_s.ogg
448,192,29880,1,0,0:0:0:75:A#4S_Bb4S_s.ogg
83,192,30000,1,0,0:0:0:75:D#4S_Eb4S_s.ogg
302,192,30000,1,0,0:0:0:75:A7S_s.ogg
156,192,30060,1,0,0:0:0:75:A#7S_Bb7S_s.ogg
10,192,30120,1,0,0:0:0:75:A#3S_Bb3S_s.ogg
229,192,30120,1,0,0:0:0:75:D#4S_Eb4S_s.ogg
375,192,30120,1,0,0:0:0:75:A7S_s.ogg
83,192,30240,1,0,0:0:0:75:A#4S_Bb4S_s.ogg
448,192,30240,1,0,0:0:0:75:G7S_s.ogg
302,192,30360,1,0,0:0:0:75:D#4S_Eb4S_s.ogg
156,192,30480,1,0,0:0:0:75:A#4S_Bb4S_s.ogg
229,192,30480,1,0,0:0:0:75:A#6S_Bb6S_s.ogg
375,192,30480,1,0,0:0:0:75:A7S_s.ogg
10,192,30720,1,0,0:0:0:75:G5S.ogg
83,192,30720,1,0,0:0:0:75:A#5S_Bb5S.ogg
448,192,30720,1,0,0:0:0:75:D6S.ogg
302,192,30840,1,0,0:0:0:75:G4S_s.ogg
156,192,30960,1,0,0:0:0:75:D4S_s.ogg
229,192,31080,1,0,0:0:0:75:G3S_s.ogg
375,192,31080,1,0,0:0:0:75:D4S_s.ogg
83,192,31200,1,0,0:0:0:75:G4S_s.ogg
448,192,31320,1,0,0:0:0:75:D4S_s.ogg
10,192,31440,1,0,0:0:0:75:D6S_s.ogg
156,192,31440,1,0,0:0:0:75:F6S_s.ogg
302,192,31440,1,0,0:0:0:75:A6S_s.ogg
83,192,31680,1,0,0:0:0:75:G5S.ogg
229,192,31680,1,0,0:0:0:75:A#5S_Bb5S.ogg
375,192,31680,1,0,0:0:0:75:D6S.ogg
448,192,31800,1,0,0:0:0:75:G4S_s.ogg
10,192,31920,1,0,0:0:0:75:D4S_s.ogg
156,192,32040,1,0,0:0:0:75:G3S_s.ogg
302,192,32040,1,0,0:0:0:75:D4S_s.ogg
375,192,32160,1,0,0:0:0:75:G4S_s.ogg
229,192,32280,1,0,0:0:0:75:D4S_s.ogg
10,192,32400,1,0,0:0:0:75:D6S_s.ogg
83,192,32400,1,0,0:0:0:75:F6S_s.ogg
448,192,32400,1,0,0:0:0:75:A6S_s.ogg
156,192,32640,1,0,0:0:0:75:G5S.ogg
302,192,32640,1,0,0:0:0:75:A#5S_Bb5S.ogg
375,192,32640,1,0,0:0:0:75:D6S.ogg
229,192,32760,1,0,0:0:0:75:G4S_s.ogg
10,192,32880,1,0,0:0:0:75:D4S_s.ogg
83,192,33000,1,0,0:0:0:75:G3S_s.ogg
448,192,33000,1,0,0:0:0:75:D4S_s.ogg
375,192,33120,1,0,0:0:0:75:G4S_s.ogg
156,192,33240,1,0,0:0:0:75:D4S_s.ogg
10,192,33360,1,0,0:0:0:75:D6S_s.ogg
229,192,33360,1,0,0:0:0:75:F6S_s.ogg
302,192,33360,1,0,0:0:0:75:A6S_s.ogg
83,192,33600,1,0,0:0:0:75:D4S_s.ogg
375,192,33600,1,0,0:0:0:75:G5S_s.ogg
448,192,33600,1,0,0:0:0:75:D6S_s.ogg
156,192,33720,1,0,0:0:0:75:G4S_s.ogg
229,192,33840,1,0,0:0:0:75:D4S_s.ogg
302,192,33840,1,0,0:0:0:75:C6S_s.ogg
10,192,33900,1,0,0:0:0:75:D6S_s.ogg
83,192,33960,1,0,0:0:0:75:G3S_s.ogg
375,192,33960,1,0,0:0:0:75:D4S_s.ogg
448,192,33960,1,0,0:0:0:75:C6S_s.ogg
156,192,34080,1,0,0:0:0:75:G4S_s.ogg
229,192,34080,1,0,0:0:0:75:G5S_s.ogg
302,192,34080,1,0,0:0:0:75:A#5S_Bb5S_s.ogg
10,192,34200,1,0,0:0:0:75:D4S_s.ogg
83,192,34320,1,0,0:0:0:75:G4S_s.ogg
375,192,34320,1,0,0:0:0:75:G5S_s.ogg
448,192,34320,1,0,0:0:0:75:C6S_s.ogg
156,192,34560,1,0,0:0:0:75:G5S.ogg
229,192,34560,1,0,0:0:0:75:A#5S_Bb5S.ogg
302,192,34560,1,0,0:0:0:75:D6S.ogg
10,192,34680,1,0,0:0:0:75:G4S_s.ogg
448,192,34800,1,0,0:0:0:75:D4S_s.ogg
83,192,34920,1,0,0:0:0:75:G3S_s.ogg
375,192,34920,1,0,0:0:0:75:D4S_s.ogg
156,192,35040,1,0,0:0:0:75:G4S_s.ogg
302,192,35160,1,0,0:0:0:75:D4S_s.ogg
10,192,35280,1,0,0:0:0:75:G3S_s.ogg
229,192,35280,1,0,0:0:0:75:G4S_s.ogg
448,192,35280,1,0,0:0:0:75:F6S_s.ogg
83,192,35340,1,0,0:0:0:75:G6S_s.ogg
375,192,35400,1,0,0:0:0:75:A6S_s.ogg
10,192,35520,1,0,0:0:0:75:G5S.ogg
156,192,35520,1,0,0:0:0:75:A#5S_Bb5S.ogg
302,192,35520,1,0,0:0:0:75:D6S.ogg
229,192,35640,1,0,0:0:0:75:G4S_s.ogg
448,192,35760,1,0,0:0:0:75:D4S_s.ogg
83,192,35880,1,0,0:0:0:75:G3S_s.ogg
375,192,35880,1,0,0:0:0:75:D4S_s.ogg
10,192,36000,1,0,0:0:0:75:G4S_s.ogg
302,192,36120,1,0,0:0:0:75:D4S_s.ogg
156,192,36240,1,0,0:0:0:75:G3S_s.ogg
229,192,36240,1,0,0:0:0:75:G4S_s.ogg
448,192,36240,1,0,0:0:0:75:A6S_s.ogg
83,192,36300,1,0,0:0:0:75:A#6S_Bb6S_s.ogg
375,192,36360,1,0,0:0:0:75:A6S_s.ogg
10,192,36480,1,0,0:0:0:75:G5S.ogg
156,192,36480,1,0,0:0:0:75:A#5S_Bb5S.ogg
302,192,36480,1,0,0:0:0:75:D6S.ogg
229,192,36600,1,0,0:0:0:75:G4S_s.ogg
448,192,36720,1,0,0:0:0:75:D4S_s.ogg
83,192,36840,1,0,0:0:0:75:G3S_s.ogg
375,192,36840,1,0,0:0:0:75:D4S_s.ogg
156,192,36960,1,0,0:0:0:75:G4S_s.ogg
302,192,37080,1,0,0:0:0:75:D4S_s.ogg
10,192,37200,1,0,0:0:0:75:G4S_s.ogg
229,192,37200,1,0,0:0:0:75:D7S_s.ogg
448,192,37200,1,0,0:0:0:75:A7S_s.ogg
83,192,37440,1,0,0:0:0:75:G3S_s.ogg
156,192,37440,1,0,0:0:0:75:D4S_s.ogg
375,192,37440,1,0,0:0:0:75:A#7S_Bb7S_s.ogg
302,192,37560,1,0,0:0:0:75:G4S_s.ogg
10,192,37680,1,0,0:0:0:75:D4S_s.ogg
448,192,37680,1,0,0:0:0:75:A7S_s.ogg
229,192,37740,1,0,0:0:0:75:A#7S_Bb7S_s.ogg
83,192,37800,1,0,0:0:0:75:G3S_s.ogg
156,192,37800,1,0,0:0:0:75:D4S_s.ogg
375,192,37800,1,0,0:0:0:75:A7S_s.ogg
10,192,37920,1,0,0:0:0:75:G4S_s.ogg
302,192,37920,1,0,0:0:0:75:G7S_s.ogg
448,192,38040,1,0,0:0:0:75:D4S_s.ogg
83,192,38160,1,0,0:0:0:75:G4S_s.ogg
229,192,38160,1,0,0:0:0:75:D7S_s.ogg
375,192,38160,1,0,0:0:0:75:A7S_s.ogg
10,192,38400,1,0,0:0:0:75:A#6S_Bb6S.ogg
156,192,38400,1,0,0:0:0:75:D7S.ogg
302,192,38400,1,0,0:0:0:75:A#7S_Bb7S.ogg
448,192,38520,1,0,0:0:0:75:A#4S_Bb4S_s.ogg
83,192,38640,1,0,0:0:0:75:D#4S_Eb4S_s.ogg
229,192,38760,1,0,0:0:0:75:A#3S_Bb3S_s.ogg
375,192,38760,1,0,0:0:0:75:D#4S_Eb4S_s.ogg
302,192,38880,1,0,0:0:0:75:A#4S_Bb4S_s.ogg
10,192,39000,1,0,0:0:0:75:D#4S_Eb4S_s.ogg
83,192,39120,1,0,0:0:0:75:A#3S_Bb3S_s.ogg
156,192,39120,1,0,0:0:0:75:A#4S_Bb4S_s.ogg
448,192,39120,1,0,0:0:0:75:G7S_s.ogg
229,192,39180,1,0,0:0:0:75:D7S_s.ogg
375,192,39180,1,0,0:0:0:75:A7S_s.ogg
10,192,39360,1,0,0:0:0:75:A#6S_Bb6S.ogg
302,192,39360,1,0,0:0:0:75:D7S.ogg
448,192,39360,1,0,0:0:0:75:F7S.ogg
83,192,39480,1,0,0:0:0:75:A#4S_Bb4S_s.ogg
156,192,39600,1,0,0:0:0:75:D#4S_Eb4S_s.ogg
229,192,39720,1,0,0:0:0:75:A#3S_Bb3S_s.ogg
375,192,39720,1,0,0:0:0:75:D#4S_Eb4S_s.ogg
10,192,39840,1,0,0:0:0:75:A#4S_Bb4S_s.ogg
302,192,39960,1,0,0:0:0:75:D#4S_Eb4S_s.ogg
83,192,40080,1,0,0:0:0:75:A#4S_Bb4S_s.ogg
156,192,40080,1,0,0:0:0:75:A#6S_Bb6S_s.ogg
448,192,40080,1,0,0:0:0:75:D#7S_Eb7S_s.ogg
10,192,40320,1,0,0:0:0:75:G6S.ogg
229,192,40320,1,0,0:0:0:75:A#6S_Bb6S.ogg
375,192,40320,1,0,0:0:0:75:D7S.ogg
302,192,40440,1,0,0:0:0:75:A#4S_Bb4S_s.ogg
83,192,40560,1,0,0:0:0:75:D#4S_Eb4S_s.ogg
156,192,40680,1,0,0:0:0:75:A#3S_Bb3S_s.ogg
448,192,40680,1,0,0:0:0:75:D#4S_Eb4S_s.ogg
375,192,40800,1,0,0:0:0:75:A#4S_Bb4S_s.ogg
10,192,40920,1,0,0:0:0:75:D#4S_Eb4S_s.ogg
83,192,41040,1,0,0:0:0:75:A#3S_Bb3S_s.ogg
229,192,41040,1,0,0:0:0:75:A#4S_Bb4S_s.ogg
302,192,41040,1,0,0:0:0:75:C7S_s.ogg
156,192,41280,1,0,0:0:0:75:D#4S_Eb4S_s.ogg
375,192,41280,1,0,0:0:0:75:G6S_s.ogg
448,192,41280,1,0,0:0:0:75:A#6S_Bb6S_s.ogg
10,192,41400,1,0,0:0:0:75:A#4S_Bb4S_s.ogg
229,192,41520,1,0,0:0:0:75:D#4S_Eb4S_s.ogg
302,192,41520,1,0,0:0:0:75:C7S_s.ogg
83,192,41640,1,0,0:0:0:75:A#3S_Bb3S_s.ogg
448,192,41640,1,0,0:0:0:75:D#4S_Eb4S_s.ogg
156,192,41760,1,0,0:0:0:75:A#4S_Bb4S_s.ogg
375,192,41760,1,0,0:0:0:75:D7S_s.ogg
10,192,41880,1,0,0:0:0:75:D#4S_Eb4S_s.ogg
83,192,42000,1,0,0:0:0:75:A#4S_Bb4S_s.ogg
229,192,42000,1,0,0:0:0:75:A#6S_Bb6S_s.ogg
302,192,42000,1,0,0:0:0:75:D#7S_Eb7S_s.ogg
156,192,42240,1,0,0:0:0:75:G6S.ogg
375,192,42240,1,0,0:0:0:75:A#6S_Bb6S.ogg
448,192,42240,1,0,0:0:0:75:F7S.ogg
10,192,42360,1,0,0:0:0:75:A#4S_Bb4S_s.ogg
302,192,42480,1,0,0:0:0:75:D#4S_Eb4S_s.ogg
83,192,42600,1,0,0:0:0:75:A#3S_Bb3S_s.ogg
229,192,42600,1,0,0:0:0:75:D#4S_Eb4S_s.ogg
375,192,42720,1,0,0:0:0:75:A#4S_Bb4S_s.ogg
156,192,42840,1,0,0:0:0:75:D#4S_Eb4S_s.ogg
10,192,42960,1,0,0:0:0:75:A#4S_Bb4S_s.ogg
302,192,42960,1,0,0:0:0:75:F6S_s.ogg
448,192,42960,1,0,0:0:0:75:A#6S_Bb6S_s.ogg
83,192,43200,1,0,0:0:0:75:G6S.ogg
229,192,43200,1,0,0:0:0:75:A#6S_Bb6S.ogg
375,192,43200,1,0,0:0:0:75:G7S.ogg
156,192,43320,1,0,0:0:0:75:A#4S_Bb4S_s.ogg
302,192,43440,1,0,0:0:0:75:D#4S_Eb4S_s.ogg
10,192,43560,1,0,0:0:0:75:A#3S_Bb3S_s.ogg
448,192,43560,1,0,0:0:0:75:D#4S_Eb4S_s.ogg
83,192,43680,1,0,0:0:0:75:A#4S_Bb4S_s.ogg
375,192,43800,1,0,0:0:0:75:D#4S_Eb4S_s.ogg
156,192,43920,1,0,0:0:0:75:A#4S_Bb4S_s.ogg
229,192,43920,1,0,0:0:0:75:G6S_s.ogg
302,192,43920,1,0,0:0:0:75:A#6S_Bb6S_s.ogg
10,192,44160,1,0,0:0:0:75:A#6S_Bb6S.ogg
83,192,44160,1,0,0:0:0:75:D7S.ogg
448,192,44160,1,0,0:0:0:75:A7S.ogg
375,192,44280,1,0,0:0:0:75:A#4S_Bb4S_s.ogg
156,192,44400,1,0,0:0:0:75:D#4S_Eb4S_s.ogg
229,192,44520,1,0,0:0:0:75:A#3S_Bb3S_s.ogg
302,192,44520,1,0,0:0:0:75:D#4S_Eb4S_s.ogg
10,192,44640,1,0,0:0:0:75:A#4S_Bb4S_s.ogg
448,192,44760,1,0,0:0:0:75:D#4S_Eb4S_s.ogg
83,192,44880,1,0,0:0:0:75:A#3S_Bb3S_s.ogg
156,192,44880,1,0,0:0:0:75:A#4S_Bb4S_s.ogg
375,192,44880,1,0,0:0:0:75:A6S_s.ogg
10,192,45120,1,0,0:0:0:75:D#4S_Eb4S_s.ogg
229,192,45120,1,0,0:0:0:75:D7S_s.ogg
302,192,45120,1,0,0:0:0:75:A#7S_Bb7S_s.ogg
448,192,45240,1,0,0:0:0:75:A#4S_Bb4S_s.ogg
83,192,45360,1,0,0:0:0:75:D#4S_Eb4S_s.ogg
375,192,45360,1,0,0:0:0:75:A7S_s.ogg
156,192,45420,1,0,0:0:0:75:A#7S_Bb7S_s.ogg
10,192,45480,1,0,0:0:0:75:A#3S_Bb3S_s.ogg
229,192,45480,1,0,0:0:0:75:D#4S_Eb4S_s.ogg
302,192,45480,1,0,0:0:0:75:A7S_s.ogg
83,192,45600,1,0,0:0:0:75:A#4S_Bb4S_s.ogg
448,192,45600,1,0,0:0:0:75:G7S_s.ogg
375,192,45720,1,0,0:0:0:75:D#4S_Eb4S_s.ogg
10,192,45840,1,0,0:0:0:75:A#4S_Bb4S_s.ogg
156,192,45840,1,0,0:0:0:75:A#6S_Bb6S_s.ogg
302,192,45840,1,0,0:0:0:75:A7S_s.ogg
83,192,46080,1,0,0:0:0:75:D6S.ogg
229,192,46080,1,0,0:0:0:75:F6S.ogg
448,192,46080,1,0,0:0:0:75:A#6S_Bb6S.ogg
375,192,46200,1,0,0:0:0:75:D#4S_Eb4S_s.ogg
156,192,46320,1,0,0:0:0:75:C4S_s.ogg
10,192,46440,1,0,0:0:0:75:D#3S_Eb3S_s.ogg
302,192,46440,1,0,0:0:0:75:C4S_s.ogg
448,192,46560,1,0,0:0:0:75:D#4S_Eb4S_s.ogg
83,192,46680,1,0,0:0:0:75:C4S_s.ogg
229,192,46800,1,0,0:0:0:75:D#3S_Eb3S_s.ogg
375,192,46800,1,0,0:0:0:75:D#4S_Eb4S_s.ogg
10,192,47040,1,0,0:0:0:75:C4S_s.ogg
156,192,47040,1,0,0:0:0:75:D6S_s.ogg
302,192,47040,1,0,0:0:0:75:A#6S_Bb6S_s.ogg
448,192,47160,1,0,0:0:0:75:D#4S_Eb4S_s.ogg
83,192,47280,1,0,0:0:0:75:C4S_s.ogg
229,192,47280,1,0,0:0:0:75:A6S_s.ogg
375,192,47340,1,0,0:0:0:75:A#6S_Bb6S_s.ogg
10,192,47400,1,0,0:0:0:75:D#3S_Eb3S_s.ogg
156,192,47400,1,0,0:0:0:75:C4S_s.ogg
302,192,47400,1,0,0:0:0:75:A6S_s.ogg
83,192,47520,1,0,0:0:0:75:D#4S_Eb4S_s.ogg
229,192,47520,1,0,0:0:0:75:D6S_s.ogg
448,192,47520,1,0,0:0:0:75:G6S_s.ogg
375,192,47640,1,0,0:0:0:75:C4S_s.ogg
10,192,47760,1,0,0:0:0:75:D#4S_Eb4S_s.ogg
156,192,47760,1,0,0:0:0:75:D6S_s.ogg
302,192,47760,1,0,0:0:0:75:A6S_s.ogg
83,192,48000,1,0,0:0:0:75:D6S.ogg
229,192,48000,1,0,0:0:0:75:G6S.ogg
448,192,48000,1,0,0:0:0:75:A#6S_Bb6S.ogg
375,192,48120,1,0,0:0:0:75:F4S_s.ogg
10,192,48240,1,0,0:0:0:75:D4S_s.ogg
156,192,48360,1,0,0:0:0:75:F3S_s.ogg
302,192,48360,1,0,0:0:0:75:D4S_s.ogg
448,192,48480,1,0,0:0:0:75:F4S_s.ogg
229,192,48600,1,0,0:0:0:75:D4S_s.ogg
83,192,48720,1,0,0:0:0:75:F3S_s.ogg
375,192,48720,1,0,0:0:0:75:F4S_s.ogg
10,192,48960,1,0,0:0:0:75:D4S_s.ogg
156,192,48960,1,0,0:0:0:75:D6S_s.ogg
302,192,48960,1,0,0:0:0:75:A#6S_Bb6S_s.ogg
448,192,49080,1,0,0:0:0:75:F4S_s.ogg
229,192,49200,1,0,0:0:0:75:D4S_s.ogg
375,192,49200,1,0,0:0:0:75:A6S_s.ogg
83,192,49260,1,0,0:0:0:75:A#6S_Bb6S_s.ogg
10,192,49320,1,0,0:0:0:75:F3S_s.ogg
156,192,49320,1,0,0:0:0:75:D4S_s.ogg
302,192,49320,1,0,0:0:0:75:A6S_s.ogg
229,192,49440,1,0,0:0:0:75:F4S_s.ogg
375,192,49440,1,0,0:0:0:75:D6S_s.ogg
448,192,49440,1,0,0:0:0:75:G6S_s.ogg
83,192,49560,1,0,0:0:0:75:D4S_s.ogg
10,192,49680,1,0,0:0:0:75:F4S_s.ogg
156,192,49680,1,0,0:0:0:75:D6S_s.ogg
302,192,49680,1,0,0:0:0:75:A6S_s.ogg
229,192,49920,1,0,0:0:0:75:D6S.ogg
375,192,49920,1,0,0:0:0:75:F6S.ogg
448,192,49920,1,0,0:0:0:75:A#6S_Bb6S.ogg
83,192,50040,1,0,0:0:0:75:D#4S_Eb4S_s.ogg
302,192,50160,1,0,0:0:0:75:A#3S_Bb3S_s.ogg
10,192,50280,1,0,0:0:0:75:D#3S_Eb3S_s.ogg
156,192,50280,1,0,0:0:0:75:A#3S_Bb3S_s.ogg
229,192,50400,1,0,0:0:0:75:D#4S_Eb4S_s.ogg
375,192,50520,1,0,0:0:0:75:A#3S_Bb3S_s.ogg
83,192,50640,1,0,0:0:0:75:D#3S_Eb3S_s.ogg
302,192,50640,1,0,0:0:0:75:D#4S_Eb4S_s.ogg
448,192,50640,1,0,0:0:0:75:A6S_s.ogg
10,192,50880,1,0,0:0:0:75:A5S.ogg
156,192,50880,1,0,0:0:0:75:C6S.ogg
229,192,50880,1,0,0:0:0:75:F6S.ogg
375,192,51000,1,0,0:0:0:75:F4S_s.ogg
83,192,51120,1,0,0:0:0:75:C4S_s.ogg
302,192,51240,1,0,0:0:0:75:F3S_s.ogg
448,192,51240,1,0,0:0:0:75:C4S_s.ogg
10,192,51360,1,0,0:0:0:75:F#4S_Gb4S_s.ogg
156,192,51480,1,0,0:0:0:75:C#4S_Db4S_s.ogg
83,192,51600,1,0,0:0:0:75:F#3S_Gb3S_s.ogg
229,192,51600,1,0,0:0:0:75:F#4S_Gb4S_s.ogg
375,192,51600,1,0,0:0:0:75:C6S_s.ogg
302,192,51660,1,0,0:0:0:75:C#6S_Db6S_s.ogg
448,192,51720,1,0,0:0:0:75:D#6S_Eb6S_s.ogg
10,192,51840,1,0,0:0:0:75:G5S.ogg
156,192,51840,1,0,0:0:0:75:A#5S_Bb5S.ogg
375,192,51840,1,0,0:0:0:75:D6S.ogg
83,192,51960,1,0,0:0:0:75:G4S_s.ogg
229,192,52080,1,0,0:0:0:75:D4S_s.ogg
302,192,52200,1,0,0:0:0:75:G3S_s.ogg
448,192,52200,1,0,0:0:0:75:D4S_s.ogg
10,192,52320,1,0,0:0:0:75:G4S_s.ogg
375,192,52440,1,0,0:0:0:75:D4S_s.ogg
83,192,52560,1,0,0:0:0:75:G4S_s.ogg
156,192,52560,1,0,0:0:0:75:G5S_s.ogg
229,192,52560,1,0,0:0:0:75:C6S_s.ogg
10,192,52800,1,0,0:0:0:75:C4S_s.ogg
302,192,52800,1,0,0:0:0:75:F5S_s.ogg
448,192,52800,1,0,0:0:0:75:A#5S_Bb5S_s.ogg
375,192,52920,1,0,0:0:0:75:F4S_s.ogg
83,192,53040,1,0,0:0:0:75:C4S_s.ogg
156,192,53040,1,0,0:0:0:75:C6S_s.ogg
10,192,53160,1,0,0:0:0:75:F3S_s.ogg
229,192,53160,1,0,0:0:0:75:C4S_s.ogg
302,192,53280,1,0,0:0:0:75:F4S_s.ogg
448,192,53280,1,0,0:0:0:75:D6S_s.ogg
375,192,53400,1,0,0:0:0:75:C4S_s.ogg
83,192,53520,1,0,0:0:0:75:F4S_s.ogg
156,192,53520,1,0,0:0:0:75:F5S_s.ogg
229,192,53520,1,0,0:0:0:75:D#6S_Eb6S_s.ogg
10,192,53760,1,0,0:0:0:75:A5S_s.ogg
302,192,53760,1,0,0:0:0:75:C6S_s.ogg
448,192,53760,1,0,0:0:0:75:F6S_s.ogg
375,192,53880,1,0,0:0:0:75:C4S_s.ogg
83,192,54000,1,0,0:0:0:75:A5S_s.ogg
156,192,54000,1,0,0:0:0:75:C6S_s.ogg
229,192,54000,1,0,0:0:0:75:F6S_s.ogg
10,192,54120,1,0,0:0:0:75:C3S_s.ogg
448,192,54120,1,0,0:0:0:75:G3S_s.ogg
156,192,54240,1,0,0:0:0:75:G5S_s.ogg
302,192,54240,1,0,0:0:0:75:C6S_s.ogg
375,192,54240,1,0,0:0:0:75:F6S_s.ogg
229,192,54360,1,0,0:0:0:75:G3S_s.ogg
10,192,54480,1,0,0:0:0:75:G5S_s.ogg
83,192,54480,1,0,0:0:0:75:C6S_s.ogg
448,192,54480,1,0,0:0:0:75:F6S_s.ogg
156,192,54720,1,0,0:0:0:75:F5S.ogg
302,192,54720,1,0,0:0:0:75:C6S.ogg
375,192,54720,1,0,0:0:0:75:F6S.ogg
229,192,54840,1,0,0:0:0:75:C4S_s.ogg
10,192,54960,1,0,0:0:0:75:G3S_s.ogg
83,192,55080,1,0,0:0:0:75:C3S_s.ogg
448,192,55080,1,0,0:0:0:75:G3S_s.ogg
156,192,55200,1,0,0:0:0:75:C4S_s.ogg
375,192,55200,1,0,0:0:0:75:A#5S_Bb5S_s.ogg
302,192,55320,1,0,0:0:0:75:G3S_s.ogg
229,192,55380,1,0,0:0:0:75:C6S_s.ogg
10,192,55440,1,0,0:0:0:75:C3S_s.ogg
83,192,55440,1,0,0:0:0:75:C4S_s.ogg
448,192,55440,1,0,0:0:0:75:D6S_s.ogg
156,192,55680,1,0,0:0:0:75:F5S_s.ogg
302,192,55680,1,0,0:0:0:75:A5S_s.ogg
375,192,55680,1,0,0:0:0:75:C6S_s.ogg
229,192,55800,1,0,0:0:0:75:D4S_s.ogg
10,192,55920,1,0,0:0:0:75:F5S_s.ogg
83,192,55920,1,0,0:0:0:75:A5S_s.ogg
448,192,55920,1,0,0:0:0:75:C6S_s.ogg
156,192,56040,1,0,0:0:0:75:D3S_s.ogg
375,192,56040,1,0,0:0:0:75:A#3S_Bb3S_s.ogg
10,192,56160,1,0,0:0:0:75:F5S_s.ogg
229,192,56160,1,0,0:0:0:75:A5S_s.ogg
302,192,56160,1,0,0:0:0:75:C6S_s.ogg
448,192,56280,1,0,0:0:0:75:A#3S_Bb3S_s.ogg
83,192,56400,1,0,0:0:0:75:F5S_s.ogg
156,192,56400,1,0,0:0:0:75:A5S_s.ogg
375,192,56400,1,0,0:0:0:75:C6S_s.ogg
10,192,56640,1,0,0:0:0:75:F5S_s.ogg
229,192,56640,1,0,0:0:0:75:A5S_s.ogg
302,192,56640,1,0,0:0:0:75:C6S_s.ogg
448,192,56760,1,0,0:0:0:75:D4S_s.ogg
83,192,56880,1,0,0:0:0:75:A#3S_Bb3S_s.ogg
375,192,56880,1,0,0:0:0:75:G6S_s.ogg
156,192,56940,1,0,0:0:0:75:A6S_s.ogg
10,192,57000,1,0,0:0:0:75:D3S_s.ogg
229,192,57000,1,0,0:0:0:75:A#3S_Bb3S_s.ogg
302,192,57000,1,0,0:0:0:75:A#6S_Bb6S_s.ogg
83,192,57120,1,0,0:0:0:75:D4S_s.ogg
448,192,57120,1,0,0:0:0:75:A#5S_Bb5S_s.ogg
375,192,57180,1,0,0:0:0:75:C6S_s.ogg
156,192,57240,1,0,0:0:0:75:A#3S_Bb3S_s.ogg
302,192,57240,1,0,0:0:0:75:D6S_s.ogg
10,192,57360,1,0,0:0:0:75:D3S_s.ogg
229,192,57360,1,0,0:0:0:75:D4S_s.ogg
448,192,57360,1,0,0:0:0:75:C6S_s.ogg
83,192,57600,1,0,0:0:0:75:D5S.ogg
156,192,57600,1,0,0:0:0:75:F5S.ogg
375,192,57600,1,0,0:0:0:75:A#5S_Bb5S.ogg
302,192,57720,1,0,0:0:0:75:D#4S_Eb4S_s.ogg
10,192,57840,1,0,0:0:0:75:A#3S_Bb3S_s.ogg
229,192,57960,1,0,0:0:0:75:D#3S_Eb3S_s.ogg
448,192,57960,1,0,0:0:0:75:A#3S_Bb3S_s.ogg
156,192,58080,1,0,0:0:0:75:D#4S_Eb4S_s.ogg
375,192,58200,1,0,0:0:0:75:A#3S_Bb3S_s.ogg
10,192,58320,1,0,0:0:0:75:D#4S_Eb4S_s.ogg
83,192,58320,1,0,0:0:0:75:C5S_s.ogg
302,192,58320,1,0,0:0:0:75:F5S_s.ogg
156,192,58560,1,0,0:0:0:75:C4S_s.ogg
229,192,58560,1,0,0:0:0:75:A#5S_Bb5S_s.ogg
448,192,58560,1,0,0:0:0:75:D6S_s.ogg
375,192,58680,1,0,0:0:0:75:F4S_s.ogg
10,192,58800,1,0,0:0:0:75:C4S_s.ogg
83,192,58800,1,0,0:0:0:75:A#5S_Bb5S_s.ogg
302,192,58800,1,0,0:0:0:75:D#6S_Eb6S_s.ogg
156,192,58920,1,0,0:0:0:75:F3S_s.ogg
448,192,58920,1,0,0:0:0:75:C4S_s.ogg
83,192,59040,1,0,0:0:0:75:F#4S_Gb4S_s.ogg
229,192,59040,1,0,0:0:0:75:D5S.ogg
375,192,59040,1,0,0:0:0:75:F#5S_Gb5S.ogg
302,192,59160,1,0,0:0:0:75:C#4S_Db4S_s.ogg
10,192,59280,1,0,0:0:0:75:F#3S_Gb3S_s.ogg
448,192,59280,1,0,0:0:0:75:F#4S_Gb4S_s.ogg
156,192,59400,1,0,0:0:0:75:C5S_s.ogg
375,192,59400,1,0,0:0:0:75:F#5S_Gb5S_s.ogg
83,192,59520,1,0,0:0:0:75:A#4S_Bb4S.ogg
229,192,59520,1,0,0:0:0:75:D5S.ogg
302,192,59520,1,0,0:0:0:75:G5S.ogg
10,192,59640,1,0,0:0:0:75:G4S_s.ogg
448,192,59760,1,0,0:0:0:75:D4S_s.ogg
156,192,59880,1,0,0:0:0:75:G3S_s.ogg
375,192,59880,1,0,0:0:0:75:D4S_s.ogg
83,192,60000,1,0,0:0:0:75:G4S_s.ogg
229,192,60120,1,0,0:0:0:75:D4S_s.ogg
10,192,60240,1,0,0:0:0:62:G3S_s.ogg
302,192,60240,1,0,0:0:0:62:G4S_s.ogg
448,192,60240,1,0,0:0:0:62:A5S_s.ogg
83,192,60480,1,0,0:0:0:62:F3S.ogg
156,192,60480,1,0,0:0:0:62:F4S.ogg
375,192,60480,1,0,0:0:0:62:A#5S_Bb5S_s.ogg
229,192,60720,1,0,0:0:0:62:C6S_s.ogg
302,192,60960,1,0,0:0:0:62:D6S_s.ogg
10,192,61200,1,0,0:0:0:62:D#6S_Eb6S_s.ogg
83,192,61440,1,0,0:0:0:62:A#4S_Bb4S_s.ogg
448,192,61440,1,0,0:0:0:62:F6S_s.ogg
156,192,61680,1,0,0:0:0:62:D5S_s.ogg
229,192,61680,1,0,0:0:0:62:F5S_s.ogg
375,192,61680,1,0,0:0:0:62:F6S_s.ogg
10,192,61920,1,0,0:0:0:62:F4S_s.ogg
302,192,61920,1,0,0:0:0:62:F6S_s.ogg
83,192,62160,1,0,0:0:0:62:D5S_s.ogg
375,192,62160,1,0,0:0:0:62:F5S_s.ogg
448,192,62160,1,0,0:0:0:62:F6S_s.ogg
156,192,62400,1,0,0:0:0:62:A#4S_Bb4S_s.ogg
229,192,62400,1,0,0:0:0:62:F6S.ogg
10,192,62640,1,0,0:0:0:62:D5S_s.ogg
302,192,62640,1,0,0:0:0:62:F5S_s.ogg
83,192,62880,1,0,0:0:0:62:F4S_s.ogg
375,192,62880,1,0,0:0:0:62:A#5S_Bb5S_s.ogg
156,192,63120,1,0,0:0:0:62:D5S_s.ogg
229,192,63120,1,0,0:0:0:62:F5S_s.ogg
448,192,63120,1,0,0:0:0:62:D6S_s.ogg
10,192,63360,1,0,0:0:0:62:C5S_s.ogg
302,192,63360,1,0,0:0:0:62:C6S_s.ogg
83,192,63600,1,0,0:0:0:62:F5S_s.ogg
375,192,63600,1,0,0:0:0:62:A5S_s.ogg
448,192,63600,1,0,0:0:0:62:C6S_s.ogg
156,192,63840,1,0,0:0:0:62:F4S_s.ogg
229,192,63840,1,0,0:0:0:62:C6S_s.ogg
10,192,64080,1,0,0:0:0:62:F5S_s.ogg
83,192,64080,1,0,0:0:0:62:A5S_s.ogg
302,192,64080,1,0,0:0:0:62:C6S_s.ogg
375,192,64320,1,0,0:0:0:62:C5S_s.ogg
448,192,64320,1,0,0:0:0:62:C6S_s.ogg
156,192,64560,1,0,0:0:0:62:F5S_s.ogg
229,192,64560,1,0,0:0:0:62:A5S_s.ogg
302,192,64800,1,0,0:0:0:62:F4S_s.ogg
10,192,65040,1,0,0:0:0:62:F5S_s.ogg
83,192,65040,1,0,0:0:0:62:A5S_s.ogg
375,192,65040,1,0,0:0:0:62:D6S_s.ogg
448,192,65160,1,0,0:0:0:62:C6S_s.ogg
156,192,65280,1,0,0:0:0:62:D5S_s.ogg
229,192,65280,1,0,0:0:0:62:A#5S_Bb5S_s.ogg
83,192,65520,1,0,0:0:0:62:G5S_s.ogg
302,192,65520,1,0,0:0:0:62:A#5S_Bb5S_s.ogg
10,192,65760,1,0,0:0:0:62:G4S_s.ogg
375,192,65760,1,0,0:0:0:62:A#5S_Bb5S_s.ogg
156,192,66000,1,0,0:0:0:62:G5S_s.ogg
448,192,66000,1,0,0:0:0:62:A#5S_Bb5S_s.ogg
229,192,66240,1,0,0:0:0:62:D5S_s.ogg
302,192,66240,1,0,0:0:0:62:A#5S_Bb5S_s.ogg
83,192,66480,1,0,0:0:0:62:G5S_s.ogg
375,192,66480,1,0,0:0:0:62:A#5S_Bb5S_s.ogg
10,192,66720,1,0,0:0:0:62:G4S_s.ogg
448,192,66720,1,0,0:0:0:62:A6S_s.ogg
156,192,66960,1,0,0:0:0:62:G5S_s.ogg
229,192,66960,1,0,0:0:0:62:A#5S_Bb5S_s.ogg
302,192,66960,1,0,0:0:0:62:A#6S_Bb6S_s.ogg
83,192,67200,1,0,0:0:0:62:C5S_s.ogg
375,192,67200,1,0,0:0:0:62:A6S.ogg
10,192,67440,1,0,0:0:0:62:F5S_s.ogg
448,192,67440,1,0,0:0:0:62:A5S_s.ogg
302,192,67680,1,0,0:0:0:62:A4S_s.ogg
156,192,67920,1,0,0:0:0:62:F5S_s.ogg
229,192,67920,1,0,0:0:0:62:A5S_s.ogg
375,192,67920,1,0,0:0:0:62:F6S_s.ogg
83,192,68160,1,0,0:0:0:62:C5S_s.ogg
448,192,68160,1,0,0:0:0:62:C6S_s.ogg
10,192,68400,1,0,0:0:0:62:F5S_s.ogg
302,192,68400,1,0,0:0:0:62:A5S_s.ogg
156,192,68640,1,0,0:0:0:62:A4S_s.ogg
83,192,68880,1,0,0:0:0:62:F5S_s.ogg
229,192,68880,1,0,0:0:0:62:A5S_s.ogg
375,192,68880,1,0,0:0:0:62:D6S_s.ogg
448,192,69000,1,0,0:0:0:62:D#6S_Eb6S_s.ogg
10,192,69120,1,0,0:0:0:62:A#4S_Bb4S_s.ogg
302,192,69120,1,0,0:0:0:62:F6S_s.ogg
156,192,69360,1,0,0:0:0:62:D5S_s.ogg
229,192,69360,1,0,0:0:0:62:F5S_s.ogg
375,192,69360,1,0,0:0:0:62:F6S_s.ogg
83,192,69600,1,0,0:0:0:62:F4S_s.ogg
448,192,69600,1,0,0:0:0:62:F6S_s.ogg
10,192,69840,1,0,0:0:0:62:D5S_s.ogg
156,192,69840,1,0,0:0:0:62:F5S_s.ogg
302,192,69840,1,0,0:0:0:62:F6S_s.ogg
229,192,70080,1,0,0:0:0:62:A#4S_Bb4S_s.ogg
375,192,70080,1,0,0:0:0:62:F6S.ogg
83,192,70320,1,0,0:0:0:62:D5S_s.ogg
448,192,70320,1,0,0:0:0:62:F5S_s.ogg
10,192,70560,1,0,0:0:0:62:F4S_s.ogg
302,192,70560,1,0,0:0:0:62:A#5S_Bb5S_s.ogg
156,192,70800,1,0,0:0:0:62:D5S_s.ogg
229,192,70800,1,0,0:0:0:62:F5S_s.ogg
375,192,70800,1,0,0:0:0:62:D6S_s.ogg
83,192,71040,1,0,0:0:0:62:C5S_s.ogg
448,192,71040,1,0,0:0:0:62:C6S_s.ogg
10,192,71280,1,0,0:0:0:62:F5S_s.ogg
302,192,71280,1,0,0:0:0:62:A5S_s.ogg
375,192,71280,1,0,0:0:0:62:C6S_s.ogg
156,192,71520,1,0,0:0:0:62:F4S_s.ogg
229,192,71520,1,0,0:0:0:62:C6S_s.ogg
10,192,71760,1,0,0:0:0:62:F5S_s.ogg
83,192,71760,1,0,0:0:0:62:A5S_s.ogg
448,192,71760,1,0,0:0:0:62:C6S_s.ogg
302,192,72000,1,0,0:0:0:62:C5S_s.ogg
375,192,72000,1,0,0:0:0:62:C6S_s.ogg
156,192,72240,1,0,0:0:0:62:F5S_s.ogg
229,192,72240,1,0,0:0:0:62:A5S_s.ogg
10,192,72480,1,0,0:0:0:62:F4S_s.ogg
448,192,72480,1,0,0:0:0:62:D6S_s.ogg
83,192,72720,1,0,0:0:0:62:F5S_s.ogg
302,192,72720,1,0,0:0:0:62:A5S_s.ogg
375,192,72720,1,0,0:0:0:62:C6S_s.ogg
156,192,72960,1,0,0:0:0:62:D5S_s.ogg
229,192,72960,1,0,0:0:0:62:D6S_s.ogg
10,192,73200,1,0,0:0:0:62:G5S_s.ogg
375,192,73200,1,0,0:0:0:62:A#5S_Bb5S_s.ogg
448,192,73200,1,0,0:0:0:62:D6S_s.ogg
83,192,73440,1,0,0:0:0:62:G4S_s.ogg
302,192,73440,1,0,0:0:0:62:D6S_s.ogg
156,192,73680,1,0,0:0:0:62:G5S_s.ogg
229,192,73680,1,0,0:0:0:62:A#5S_Bb5S_s.ogg
448,192,73680,1,0,0:0:0:62:D6S_s.ogg
10,192,73920,1,0,0:0:0:62:D5S_s.ogg
375,192,73920,1,0,0:0:0:62:D6S.ogg
83,192,74160,1,0,0:0:0:62:G5S_s.ogg
302,192,74160,1,0,0:0:0:62:A#5S_Bb5S_s.ogg
156,192,74400,1,0,0:0:0:62:G4S_s.ogg
448,192,74400,1,0,0:0:0:62:D#6S_Eb6S_s.ogg
10,192,74640,1,0,0:0:0:62:G5S_s.ogg
229,192,74640,1,0,0:0:0:62:A#5S_Bb5S_s.ogg
375,192,74640,1,0,0:0:0:62:D6S_s.ogg
83,192,74880,1,0,0:0:0:62:C5S_s.ogg
302,192,74880,1,0,0:0:0:62:F5S_s.ogg
448,192,74880,1,0,0:0:0:62:C6S.ogg
156,192,75600,1,0,0:0:0:62:F5S_s.ogg
375,192,75600,1,0,0:0:0:62:A5S_s.ogg
10,192,75840,1,0,0:0:0:62:G5S_s.ogg
229,192,75840,1,0,0:0:0:62:A#5S_Bb5S_s.ogg
83,192,76080,1,0,0:0:0:62:A5S_s.ogg
448,192,76080,1,0,0:0:0:62:C6S_s.ogg
156,192,76320,1,0,0:0:0:62:A#5S_Bb5S_s.ogg
302,192,76320,1,0,0:0:0:62:D6S_s.ogg
10,192,76560,1,0,0:0:0:62:C6S_s.ogg
375,192,76560,1,0,0:0:0:62:D#6S_Eb6S_s.ogg
83,192,76800,1,0,0:0:0:75:A5S_s.ogg
229,192,76800,1,0,0:0:0:75:C6S_s.ogg
448,192,76800,1,0,0:0:0:75:F6S_s.ogg
156,192,77040,1,0,0:0:0:75:A5S_s.ogg
302,192,77040,1,0,0:0:0:75:C6S_s.ogg
375,192,77040,1,0,0:0:0:75:F6S_s.ogg
10,192,77160,1,0,0:0:0:75:D#3S_Eb3S_s.ogg
448,192,77160,1,0,0:0:0:75:D#4S_Eb4S_s.ogg
83,192,77280,1,0,0:0:0:75:G5S_s.ogg
229,192,77280,1,0,0:0:0:75:C6S_s.ogg
375,192,77280,1,0,0:0:0:75:F6S_s.ogg
156,192,77400,1,0,0:0:0:75:A#3S_Bb3S_s.ogg
10,192,77520,1,0,0:0:0:75:G5S_s.ogg
302,192,77520,1,0,0:0:0:75:C6S_s.ogg
448,192,77520,1,0,0:0:0:75:F6S_s.ogg
83,192,77760,1,0,0:0:0:75:F5S.ogg
229,192,77760,1,0,0:0:0:75:C6S.ogg
375,192,77760,1,0,0:0:0:75:F6S.ogg
156,192,78000,1,0,0:0:0:75:A#3S_Bb3S_s.ogg
302,192,78000,1,0,0:0:0:75:D#4S_Eb4S_s.ogg
10,192,78240,1,0,0:0:0:75:D#3S_Eb3S_s.ogg
448,192,78240,1,0,0:0:0:75:A#5S_Bb5S_s.ogg
83,192,78480,1,0,0:0:0:75:A#3S_Bb3S_s.ogg
229,192,78480,1,0,0:0:0:75:D#4S_Eb4S_s.ogg
375,192,78480,1,0,0:0:0:75:D6S_s.ogg
10,192,78720,1,0,0:0:0:75:F5S_s.ogg
156,192,78720,1,0,0:0:0:75:A5S_s.ogg
302,192,78720,1,0,0:0:0:75:C6S_s.ogg
83,192,78960,1,0,0:0:0:75:F5S_s.ogg
229,192,78960,1,0,0:0:0:75:A5S_s.ogg
448,192,78960,1,0,0:0:0:75:C6S_s.ogg
156,192,79080,1,0,0:0:0:75:F3S_s.ogg
375,192,79080,1,0,0:0:0:75:F4S_s.ogg
10,192,79200,1,0,0:0:0:75:D#5S_Eb5S_s.ogg
302,192,79200,1,0,0:0:0:75:A5S_s.ogg
448,192,79200,1,0,0:0:0:75:C6S_s.ogg
229,192,79320,1,0,0:0:0:75:C4S_s.ogg
83,192,79440,1,0,0:0:0:75:D5S_s.ogg
156,192,79440,1,0,0:0:0:75:A5S_s.ogg
375,192,79440,1,0,0:0:0:75:C6S_s.ogg
10,192,79680,1,0,0:0:0:75:C5S.ogg
302,192,79680,1,0,0:0:0:75:A5S.ogg
448,192,79680,1,0,0:0:0:75:C6S.ogg
83,192,79920,1,0,0:0:0:75:C4S_s.ogg
229,192,79920,1,0,0:0:0:75:F4S_s.ogg
375,192,80160,1,0,0:0:0:75:F3S_s.ogg
10,192,80400,1,0,0:0:0:75:C4S_s.ogg
156,192,80400,1,0,0:0:0:75:F4S_s.ogg
448,192,80400,1,0,0:0:0:75:D6S_s.ogg
302,192,80520,1,0,0:0:0:75:C6S_s.ogg
83,192,80640,1,0,0:0:0:75:C5S_s.ogg
229,192,80640,1,0,0:0:0:75:F5S_s.ogg
375,192,80640,1,0,0:0:0:75:A#5S_Bb5S_s.ogg
10,192,80880,1,0,0:0:0:75:C5S_s.ogg
156,192,80880,1,0,0:0:0:75:F5S_s.ogg
448,192,80880,1,0,0:0:0:75:A#5S_Bb5S_s.ogg
83,192,81000,1,0,0:0:0:75:G3S_s.ogg
302,192,81000,1,0,0:0:0:75:G4S_s.ogg
156,192,81120,1,0,0:0:0:75:D5S_s.ogg
229,192,81120,1,0,0:0:0:75:F5S_s.ogg
375,192,81120,1,0,0:0:0:75:A#5S_Bb5S_s.ogg
448,192,81240,1,0,0:0:0:75:D4S_s.ogg
10,192,81360,1,0,0:0:0:75:D5S_s.ogg
83,192,81360,1,0,0:0:0:75:F5S_s.ogg
302,192,81360,1,0,0:0:0:75:A#5S_Bb5S_s.ogg
156,192,81600,1,0,0:0:0:75:A#4S_Bb4S_s.ogg
229,192,81600,1,0,0:0:0:75:F5S_s.ogg
375,192,81600,1,0,0:0:0:75:A#5S_Bb5S_s.ogg
83,192,81840,1,0,0:0:0:75:D4S_s.ogg
448,192,81840,1,0,0:0:0:75:G4S_s.ogg
10,192,82080,1,0,0:0:0:75:G3S_s.ogg
302,192,82080,1,0,0:0:0:75:F6S_s.ogg
375,192,82080,1,0,0:0:0:75:A6S_s.ogg
156,192,82320,1,0,0:0:0:75:G4S_s.ogg
229,192,82320,1,0,0:0:0:75:F6S_s.ogg
448,192,82320,1,0,0:0:0:75:A#6S_Bb6S_s.ogg
10,192,82560,1,0,0:0:0:75:C6S.ogg
83,192,82560,1,0,0:0:0:75:F6S.ogg
302,192,82560,1,0,0:0:0:75:A6S.ogg
375,192,82800,1,0,0:0:0:75:A3S_s.ogg
156,192,82920,1,0,0:0:0:75:D3S_s.ogg
448,192,82920,1,0,0:0:0:75:D4S_s.ogg
229,192,83160,1,0,0:0:0:75:A3S_s.ogg
10,192,83280,1,0,0:0:0:75:D3S_s.ogg
83,192,83280,1,0,0:0:0:75:D4S_s.ogg
302,192,83280,1,0,0:0:0:75:F6S_s.ogg
156,192,83520,1,0,0:0:0:75:F5S.ogg
375,192,83520,1,0,0:0:0:75:A#5S_Bb5S.ogg
448,192,83520,1,0,0:0:0:75:D6S.ogg
83,192,83760,1,0,0:0:0:75:A3S_s.ogg
229,192,83760,1,0,0:0:0:75:D4S_s.ogg
302,192,84000,1,0,0:0:0:75:D3S_s.ogg
10,192,84240,1,0,0:0:0:75:A3S_s.ogg
156,192,84240,1,0,0:0:0:75:D4S_s.ogg
375,192,84240,1,0,0:0:0:75:D6S_s.ogg
448,192,84360,1,0,0:0:0:75:D#6S_Eb6S_s.ogg
83,192,84480,1,0,0:0:0:75:A5S_s.ogg
229,192,84480,1,0,0:0:0:75:C6S_s.ogg
302,192,84480,1,0,0:0:0:75:F6S_s.ogg
10,192,84720,1,0,0:0:0:75:A5S_s.ogg
156,192,84720,1,0,0:0:0:75:C6S_s.ogg
375,192,84720,1,0,0:0:0:75:F6S_s.ogg
83,192,84840,1,0,0:0:0:75:D#3S_Eb3S_s.ogg
448,192,84840,1,0,0:0:0:75:D#4S_Eb4S_s.ogg
10,192,84960,1,0,0:0:0:75:G5S_s.ogg
229,192,84960,1,0,0:0:0:75:C6S_s.ogg
302,192,84960,1,0,0:0:0:75:F6S_s.ogg
375,192,85080,1,0,0:0:0:75:A#3S_Bb3S_s.ogg
83,192,85200,1,0,0:0:0:75:G5S_s.ogg
156,192,85200,1,0,0:0:0:75:C6S_s.ogg
448,192,85200,1,0,0:0:0:75:F6S_s.ogg
10,192,85440,1,0,0:0:0:75:F5S.ogg
229,192,85440,1,0,0:0:0:75:C6S.ogg
302,192,85440,1,0,0:0:0:75:F6S.ogg
83,192,85680,1,0,0:0:0:75:A#3S_Bb3S_s.ogg
375,192,85680,1,0,0:0:0:75:D#4S_Eb4S_s.ogg
156,192,85920,1,0,0:0:0:75:D#3S_Eb3S_s.ogg
448,192,85920,1,0,0:0:0:75:A#5S_Bb5S_s.ogg
10,192,86160,1,0,0:0:0:75:A#3S_Bb3S_s.ogg
229,192,86160,1,0,0:0:0:75:D#4S_Eb4S_s.ogg
302,192,86160,1,0,0:0:0:75:D6S_s.ogg
83,192,86400,1,0,0:0:0:75:F5S_s.ogg
375,192,86400,1,0,0:0:0:75:A5S_s.ogg
448,192,86400,1,0,0:0:0:75:C6S_s.ogg
156,192,86640,1,0,0:0:0:75:F5S_s.ogg
229,192,86640,1,0,0:0:0:75:A5S_s.ogg
302,192,86640,1,0,0:0:0:75:C6S_s.ogg
10,192,86760,1,0,0:0:0:75:F3S_s.ogg
448,192,86760,1,0,0:0:0:75:F4S_s.ogg
83,192,86880,1,0,0:0:0:75:D#5S_Eb5S_s.ogg
156,192,86880,1,0,0:0:0:75:A5S_s.ogg
375,192,86880,1,0,0:0:0:75:C6S_s.ogg
229,192,87000,1,0,0:0:0:75:C4S_s.ogg
10,192,87120,1,0,0:0:0:75:D5S_s.ogg
302,192,87120,1,0,0:0:0:75:A5S_s.ogg
448,192,87120,1,0,0:0:0:75:C6S_s.ogg
83,192,87360,1,0,0:0:0:75:C5S.ogg
156,192,87360,1,0,0:0:0:75:A5S.ogg
375,192,87360,1,0,0:0:0:75:C6S.ogg
10,192,87600,1,0,0:0:0:75:C4S_s.ogg
229,192,87600,1,0,0:0:0:75:F4S_s.ogg
302,192,87840,1,0,0:0:0:75:F3S_s.ogg
448,192,87840,1,0,0:0:0:75:A#5S_Bb5S_s.ogg
156,192,87900,1,0,0:0:0:75:C6S_s.ogg
83,192,87960,1,0,0:0:0:75:G5S_s.ogg
375,192,87960,1,0,0:0:0:75:D6S_s.ogg
10,192,88080,1,0,0:0:0:75:F4S_s.ogg
229,192,88080,1,0,0:0:0:75:A5S_s.ogg
448,192,88080,1,0,0:0:0:75:C6S_s.ogg
156,192,88320,1,0,0:0:0:75:D5S.ogg
302,192,88320,1,0,0:0:0:75:G5S.ogg
375,192,88320,1,0,0:0:0:75:A#5S_Bb5S.ogg
83,192,88560,1,0,0:0:0:75:D4S_s.ogg
229,192,88680,1,0,0:0:0:75:G3S_s.ogg
448,192,88680,1,0,0:0:0:75:G4S_s.ogg
10,192,88920,1,0,0:0:0:75:C4S_s.ogg
156,192,89040,1,0,0:0:0:75:F4S_s.ogg
302,192,89040,1,0,0:0:0:75:F5S_s.ogg
375,192,89040,1,0,0:0:0:75:A5S_s.ogg
83,192,89280,1,0,0:0:0:75:D5S_s.ogg
229,192,89280,1,0,0:0:0:75:A#5S_Bb5S_s.ogg
448,192,89280,1,0,0:0:0:75:D6S_s.ogg
10,192,89520,1,0,0:0:0:75:D#5S_Eb5S_s.ogg
156,192,89520,1,0,0:0:0:75:C6S_s.ogg
375,192,89520,1,0,0:0:0:75:D#6S_Eb6S_s.ogg
83,192,89760,1,0,0:0:0:75:F3S_s.ogg
302,192,89760,1,0,0:0:0:75:F5S.ogg
448,192,89760,1,0,0:0:0:75:C6S.ogg
10,192,90000,1,0,0:0:0:75:C4S_s.ogg
229,192,90000,1,0,0:0:0:75:F4S_s.ogg
156,192,90120,1,0,0:0:0:75:D5S_s.ogg
375,192,90120,1,0,0:0:0:75:A#5S_Bb5S_s.ogg
83,192,90240,1,0,0:0:0:75:G4S_s.ogg
302,192,90240,1,0,0:0:0:75:D5S.ogg
448,192,90240,1,0,0:0:0:75:A#5S_Bb5S.ogg
10,192,90480,1,0,0:0:0:75:D4S_s.ogg
229,192,90600,1,0,0:0:0:75:G3S_s.ogg
375,192,90600,1,0,0:0:0:75:G4S_s.ogg
156,192,90840,1,0,0:0:0:75:C4S_s.ogg
83,192,90960,1,0,0:0:0:75:F4S_s.ogg
302,192,90960,1,0,0:0:0:75:F5S_s.ogg
448,192,90960,1,0,0:0:0:75:A5S_s.ogg
10,192,91200,1,0,0:0:0:75:G3S_s.ogg
229,192,91200,1,0,0:0:0:75:A5S_s.ogg
375,192,91200,1,0,0:0:0:75:D6S_s.ogg
83,192,91440,1,0,0:0:0:75:G4S_s.ogg
156,192,91440,1,0,0:0:0:75:A5S_s.ogg
448,192,91440,1,0,0:0:0:75:D#6S_Eb6S_s.ogg
10,192,91680,1,0,0:0:0:75:F#3S_Gb3S_s.ogg
302,192,91680,1,0,0:0:0:75:A5S_s.ogg
375,192,91680,1,0,0:0:0:75:C6S_s.ogg
83,192,91920,1,0,0:0:0:75:F#4S_Gb4S_s.ogg
229,192,91920,1,0,0:0:0:75:D#5S_Eb5S_s.ogg
448,192,91920,1,0,0:0:0:75:A#5S_Bb5S_s.ogg
10,192,92160,1,0,0:0:0:75:G3S_s.ogg
156,192,92160,1,0,0:0:0:75:D5S.ogg
375,192,92160,1,0,0:0:0:75:A#5S_Bb5S.ogg
83,192,92400,1,0,0:0:0:75:D4S_s.ogg
302,192,92400,1,0,0:0:0:75:G4S_s.ogg
229,192,92520,1,0,0:0:0:75:G3S_s.ogg
10,192,92760,1,0,0:0:0:75:D4S_s.ogg
448,192,92760,1,0,0:0:0:75:G4S_s.ogg
156,192,92880,1,0,0:0:0:75:G3S_s.ogg
302,192,92880,1,0,0:0:0:75:F5S_s.ogg
375,192,92880,1,0,0:0:0:75:A5S_s.ogg
83,192,93120,1,0,0:0:0:75:G3S_s.ogg
229,192,93120,1,0,0:0:0:75:A#5S_Bb5S_s.ogg
448,192,93120,1,0,0:0:0:75:D6S_s.ogg
10,192,93360,1,0,0:0:0:75:G4S_s.ogg
156,192,93360,1,0,0:0:0:75:C6S_s.ogg
302,192,93360,1,0,0:0:0:75:D#6S_Eb6S_s.ogg
375,192,93480,1,0,0:0:0:75:G3S_s.ogg
83,192,93600,1,0,0:0:0:75:D6S_s.ogg
229,192,93600,1,0,0:0:0:75:F6S_s.ogg
156,192,93720,1,0,0:0:0:75:D4S_s.ogg
448,192,93720,1,0,0:0:0:75:G4S_s.ogg
10,192,93840,1,0,0:0:0:75:G3S_s.ogg
302,192,93840,1,0,0:0:0:75:F6S_s.ogg
375,192,93840,1,0,0:0:0:75:A6S_s.ogg
83,192,94080,1,0,0:0:0:38:D#4S_Eb4S.ogg
229,192,94080,1,0,0:0:0:38:D6S.ogg
448,192,94110,1,0,0:0:0:38:F6S.ogg
156,192,94440,1,0,0:0:0:38:D6S.ogg
375,192,94470,1,0,0:0:0:38:F6S.ogg
10,192,94800,1,0,0:0:0:38:F6S_s.ogg
302,192,94800,1,0,0:0:0:38:A6S_s.ogg
83,192,95040,1,0,0:0:0:38:D6S.ogg
229,192,95070,1,0,0:0:0:38:F6S.ogg
448,192,95400,1,0,0:0:0:38:D6S.ogg
156,192,95430,1,0,0:0:0:38:F6S.ogg
10,192,95760,1,0,0:0:0:38:F6S_s.ogg
375,192,95760,1,0,0:0:0:38:A6S_s.ogg
83,192,96000,1,0,0:0:0:75:F4S_s.ogg
229,192,96000,1,0,0:0:0:75:D6S_s.ogg
302,192,96000,1,0,0:0:0:75:F6S_s.ogg
448,192,96720,1,0,0:0:0:66:A6S_s.ogg
156,192,96960,1,0,0:0:0:68:F#5S_Gb5S.ogg
375,192,96960,1,0,0:0:0:68:D6S_s.ogg
10,192,97200,1,0,0:0:0:70:C6S_s.ogg
302,192,97260,1,0,0:0:0:70:D6S_s.ogg
83,192,97320,1,0,0:0:0:70:C6S_s.ogg
229,192,97440,1,0,0:0:0:71:A#5S_Bb5S_s.ogg
448,192,97680,1,0,0:0:0:73:C6S_s.ogg
10,192,97920,1,0,0:0:0:75:D3S_s.ogg
156,192,97920,1,0,0:0:0:75:G3S_s.ogg
375,192,97920,1,0,0:0:0:75:A#4S_Bb4S.ogg
302,192,98040,1,0,0:0:0:75:D4S_s.ogg
83,192,98160,1,0,0:0:0:75:G3S_s.ogg
229,192,98280,1,0,0:0:0:75:D3S_s.ogg
448,192,98280,1,0,0:0:0:75:G3S_s.ogg
10,192,98400,1,0,0:0:0:75:D4S_s.ogg
375,192,98520,1,0,0:0:0:75:G3S_s.ogg
156,192,98640,1,0,0:0:0:75:D3S_s.ogg
302,192,98640,1,0,0:0:0:75:D4S_s.ogg
83,192,98880,1,0,0:0:0:75:D3S_s.ogg
448,192,98880,1,0,0:0:0:75:G3S_s.ogg
229,192,99000,1,0,0:0:0:75:D4S_s.ogg
10,192,99120,1,0,0:0:0:75:G3S_s.ogg
375,192,99120,1,0,0:0:0:75:D5S_s.ogg
156,192,99240,1,0,0:0:0:75:D3S_s.ogg
302,192,99240,1,0,0:0:0:75:G3S_s.ogg
83,192,99360,1,0,0:0:0:75:D4S_s.ogg
448,192,99360,1,0,0:0:0:75:G4S_s.ogg
229,192,99480,1,0,0:0:0:75:G3S_s.ogg
10,192,99600,1,0,0:0:0:75:D3S_s.ogg
302,192,99600,1,0,0:0:0:75:D4S_s.ogg
375,192,99600,1,0,0:0:0:75:A#4S_Bb4S.ogg
156,192,99840,1,0,0:0:0:75:D3S_s.ogg
448,192,99840,1,0,0:0:0:75:G3S_s.ogg
83,192,99960,1,0,0:0:0:75:D4S_s.ogg
229,192,100080,1,0,0:0:0:75:G3S_s.ogg
302,192,100080,1,0,0:0:0:75:G4S_s.ogg
10,192,100140,1,0,0:0:0:75:A#4S_Bb4S_s.ogg
156,192,100200,1,0,0:0:0:75:D3S_s.ogg
375,192,100200,1,0,0:0:0:75:G3S_s.ogg
448,192,100200,1,0,0:0:0:75:A4S.ogg
83,192,100320,1,0,0:0:0:75:D4S_s.ogg
229,192,100440,1,0,0:0:0:75:G3S_s.ogg
10,192,100560,1,0,0:0:0:75:D3S_s.ogg
302,192,100560,1,0,0:0:0:75:D4S_s.ogg
375,192,100560,1,0,0:0:0:75:A4S.ogg
156,192,100800,1,0,0:0:0:75:D3S_s.ogg
448,192,100800,1,0,0:0:0:75:G3S_s.ogg
83,192,100920,1,0,0:0:0:75:D4S_s.ogg
10,192,101040,1,0,0:0:0:75:G3S_s.ogg
229,192,101040,1,0,0:0:0:75:G4S.ogg
302,192,101160,1,0,0:0:0:75:D3S_s.ogg
375,192,101160,1,0,0:0:0:75:G3S_s.ogg
156,192,101280,1,0,0:0:0:75:D4S_s.ogg
448,192,101400,1,0,0:0:0:75:G3S_s.ogg
10,192,101520,1,0,0:0:0:75:D3S_s.ogg
83,192,101520,1,0,0:0:0:75:D4S_s.ogg
229,192,101520,1,0,0:0:0:75:A#4S_Bb4S.ogg
302,192,101760,1,0,0:0:0:75:D3S_s.ogg
375,192,101760,1,0,0:0:0:75:G3S_s.ogg
156,192,101880,1,0,0:0:0:75:D4S_s.ogg
448,192,101880,1,0,0:0:0:75:D5S.ogg
10,192,102000,1,0,0:0:0:75:G3S_s.ogg
83,192,102120,1,0,0:0:0:75:D3S_s.ogg
229,192,102120,1,0,0:0:0:75:G3S_s.ogg
302,192,102240,1,0,0:0:0:75:D4S_s.ogg
375,192,102240,1,0,0:0:0:75:F5S.ogg
156,192,102360,1,0,0:0:0:75:G3S_s.ogg
10,192,102480,1,0,0:0:0:75:D3S_s.ogg
448,192,102480,1,0,0:0:0:75:D4S_s.ogg
83,192,102720,1,0,0:0:0:75:D3S_s.ogg
229,192,102720,1,0,0:0:0:75:G3S_s.ogg
302,192,102840,1,0,0:0:0:75:D4S_s.ogg
375,192,102960,1,0,0:0:0:75:G3S_s.ogg
156,192,103080,1,0,0:0:0:75:D3S_s.ogg
448,192,103080,1,0,0:0:0:75:G3S_s.ogg
10,192,103200,1,0,0:0:0:75:D4S_s.ogg
229,192,103200,1,0,0:0:0:75:G5S_s.ogg
83,192,103260,1,0,0:0:0:75:A5S_s.ogg
302,192,103320,1,0,0:0:0:75:G3S_s.ogg
156,192,103440,1,0,0:0:0:75:D3S_s.ogg
375,192,103440,1,0,0:0:0:75:D4S_s.ogg
448,192,103440,1,0,0:0:0:75:D5S.ogg
10,192,103680,1,0,0:0:0:75:D3S_s.ogg
229,192,103680,1,0,0:0:0:75:G3S_s.ogg
83,192,103800,1,0,0:0:0:75:D4S_s.ogg
302,192,103920,1,0,0:0:0:75:G3S_s.ogg
156,192,104040,1,0,0:0:0:75:D3S_s.ogg
448,192,104040,1,0,0:0:0:75:G3S_s.ogg
229,192,104160,1,0,0:0:0:75:D4S_s.ogg
375,192,104160,1,0,0:0:0:75:A#5S_Bb5S_s.ogg
10,192,104280,1,0,0:0:0:75:G3S_s.ogg
83,192,104400,1,0,0:0:0:75:D3S_s.ogg
156,192,104400,1,0,0:0:0:75:D4S_s.ogg
302,192,104400,1,0,0:0:0:75:A#4S_Bb4S_s.ogg
229,192,104640,1,0,0:0:0:75:D3S_s.ogg
375,192,104640,1,0,0:0:0:75:G3S_s.ogg
448,192,104640,1,0,0:0:0:75:A5S_s.ogg
10,192,104760,1,0,0:0:0:75:D4S_s.ogg
83,192,104880,1,0,0:0:0:75:G3S_s.ogg
302,192,104880,1,0,0:0:0:75:A4S_s.ogg
156,192,105000,1,0,0:0:0:75:D3S_s.ogg
375,192,105000,1,0,0:0:0:75:G3S_s.ogg
229,192,105120,1,0,0:0:0:75:D4S_s.ogg
448,192,105120,1,0,0:0:0:75:G5S_s.ogg
10,192,105240,1,0,0:0:0:75:G3S_s.ogg
83,192,105360,1,0,0:0:0:75:D3S_s.ogg
302,192,105360,1,0,0:0:0:75:D4S_s.ogg
375,192,105360,1,0,0:0:0:75:G4S_s.ogg
156,192,105600,1,0,0:0:0:75:A#3S_Bb3S_s.ogg
229,192,105600,1,0,0:0:0:75:G4S.ogg
448,192,105600,1,0,0:0:0:75:A#4S_Bb4S.ogg
10,192,105720,1,0,0:0:0:75:D#4S_Eb4S_s.ogg
302,192,105840,1,0,0:0:0:75:A#3S_Bb3S_s.ogg
83,192,105960,1,0,0:0:0:75:A#3S_Bb3S_s.ogg
156,192,105960,1,0,0:0:0:75:A#4S_Bb4S.ogg
375,192,105960,1,0,0:0:0:75:D5S.ogg
229,192,106080,1,0,0:0:0:75:D#4S_Eb4S_s.ogg
448,192,106200,1,0,0:0:0:75:A#3S_Bb3S_s.ogg
10,192,106320,1,0,0:0:0:75:D#4S_Eb4S_s.ogg
83,192,106320,1,0,0:0:0:75:D#5S_Eb5S_s.ogg
302,192,106320,1,0,0:0:0:75:G5S_s.ogg
156,192,106560,1,0,0:0:0:75:A#3S_Bb3S_s.ogg
229,192,106560,1,0,0:0:0:75:F5S.ogg
375,192,106560,1,0,0:0:0:75:A5S.ogg
448,192,106680,1,0,0:0:0:75:D#4S_Eb4S_s.ogg
83,192,106800,1,0,0:0:0:75:A#3S_Bb3S_s.ogg
10,192,106920,1,0,0:0:0:75:A#3S_Bb3S_s.ogg
302,192,106920,1,0,0:0:0:75:G5S.ogg
375,192,106920,1,0,0:0:0:75:A#5S_Bb5S.ogg
229,192,107040,1,0,0:0:0:75:D#4S_Eb4S_s.ogg
156,192,107160,1,0,0:0:0:75:A#3S_Bb3S_s.ogg
83,192,107280,1,0,0:0:0:75:D#4S_Eb4S_s.ogg
375,192,107280,1,0,0:0:0:75:D#5S_Eb5S_s.ogg
448,192,107280,1,0,0:0:0:75:G5S_s.ogg
10,192,107520,1,0,0:0:0:75:A#3S_Bb3S_s.ogg
229,192,107520,1,0,0:0:0:75:D5S.ogg
302,192,107520,1,0,0:0:0:75:F5S.ogg
156,192,107640,1,0,0:0:0:75:D#4S_Eb4S_s.ogg
375,192,107760,1,0,0:0:0:75:A#3S_Bb3S_s.ogg
83,192,107880,1,0,0:0:0:75:D#3S_Eb3S_s.ogg
448,192,107880,1,0,0:0:0:75:A#3S_Bb3S_s.ogg
10,192,108000,1,0,0:0:0:75:D#4S_Eb4S_s.ogg
229,192,108120,1,0,0:0:0:75:A#3S_Bb3S_s.ogg
156,192,108240,1,0,0:0:0:75:D#3S_Eb3S_s.ogg
302,192,108240,1,0,0:0:0:75:D#4S_Eb4S_s.ogg
375,192,108240,1,0,0:0:0:75:F5S_s.ogg
83,192,108300,1,0,0:0:0:75:G5S_s.ogg
10,192,108360,1,0,0:0:0:75:D5S.ogg
448,192,108360,1,0,0:0:0:75:F5S.ogg
156,192,108480,1,0,0:0:0:75:D#3S_Eb3S_s.ogg
229,192,108480,1,0,0:0:0:75:A#3S_Bb3S_s.ogg
375,192,108600,1,0,0:0:0:75:D#4S_Eb4S_s.ogg
302,192,108720,1,0,0:0:0:75:A#3S_Bb3S_s.ogg
83,192,108840,1,0,0:0:0:75:D#3S_Eb3S_s.ogg
448,192,108840,1,0,0:0:0:75:A#3S_Bb3S_s.ogg
10,192,108960,1,0,0:0:0:75:D#4S_Eb4S_s.ogg
156,192,108960,1,0,0:0:0:75:G4S.ogg
229,192,108960,1,0,0:0:0:75:A#4S_Bb4S.ogg
375,192,109080,1,0,0:0:0:75:A#3S_Bb3S_s.ogg
83,192,109200,1,0,0:0:0:75:D#3S_Eb3S_s.ogg
302,192,109200,1,0,0:0:0:75:D#4S_Eb4S_s.ogg
156,192,109440,1,0,0:0:0:75:A#3S_Bb3S_s.ogg
229,192,109440,1,0,0:0:0:75:A4S.ogg
448,192,109440,1,0,0:0:0:75:C5S.ogg
10,192,109560,1,0,0:0:0:75:D#4S_Eb4S_s.ogg
375,192,109680,1,0,0:0:0:75:A#3S_Bb3S_s.ogg
83,192,109800,1,0,0:0:0:75:A#3S_Bb3S_s.ogg
156,192,109800,1,0,0:0:0:75:A#4S_Bb4S_s.ogg
302,192,109800,1,0,0:0:0:75:D5S_s.ogg
448,192,109920,1,0,0:0:0:75:D#4S_Eb4S_s.ogg
229,192,110040,1,0,0:0:0:75:A#3S_Bb3S_s.ogg
10,192,110160,1,0,0:0:0:75:D#4S_Eb4S_s.ogg
83,192,110160,1,0,0:0:0:75:A#4S_Bb4S.ogg
375,192,110160,1,0,0:0:0:75:D5S.ogg
156,192,110400,1,0,0:0:0:75:D#3S_Eb3S_s.ogg
302,192,110400,1,0,0:0:0:75:A#3S_Bb3S_s.ogg
448,192,110520,1,0,0:0:0:75:D#4S_Eb4S_s.ogg
229,192,110640,1,0,0:0:0:75:A#3S_Bb3S_s.ogg
10,192,110760,1,0,0:0:0:75:D#3S_Eb3S_s.ogg
375,192,110760,1,0,0:0:0:75:A#3S_Bb3S_s.ogg
83,192,110880,1,0,0:0:0:75:D#4S_Eb4S_s.ogg
156,192,110880,1,0,0:0:0:75:G4S.ogg
302,192,110880,1,0,0:0:0:75:A#4S_Bb4S.ogg
448,192,111000,1,0,0:0:0:75:A#3S_Bb3S_s.ogg
229,192,111120,1,0,0:0:0:75:D#3S_Eb3S_s.ogg
375,192,111120,1,0,0:0:0:75:D#4S_Eb4S_s.ogg
10,192,111360,1,0,0:0:0:75:A#3S_Bb3S_s.ogg
156,192,111360,1,0,0:0:0:75:A4S.ogg
302,192,111360,1,0,0:0:0:75:C5S.ogg
83,192,111480,1,0,0:0:0:75:D#4S_Eb4S_s.ogg
448,192,111600,1,0,0:0:0:75:A#3S_Bb3S_s.ogg
229,192,111720,1,0,0:0:0:75:D#3S_Eb3S_s.ogg
375,192,111720,1,0,0:0:0:75:A#3S_Bb3S_s.ogg
156,192,111840,1,0,0:0:0:75:D#4S_Eb4S_s.ogg
302,192,111960,1,0,0:0:0:75:A#3S_Bb3S_s.ogg
10,192,112080,1,0,0:0:0:75:D#3S_Eb3S_s.ogg
83,192,112080,1,0,0:0:0:75:D#4S_Eb4S_s.ogg
229,192,112320,1,0,0:0:0:75:A#3S_Bb3S_s.ogg
375,192,112320,1,0,0:0:0:75:G4S.ogg
448,192,112320,1,0,0:0:0:75:A#4S_Bb4S.ogg
156,192,112440,1,0,0:0:0:75:D#4S_Eb4S_s.ogg
302,192,112560,1,0,0:0:0:75:A#3S_Bb3S_s.ogg
10,192,112680,1,0,0:0:0:75:D#3S_Eb3S_s.ogg
83,192,112680,1,0,0:0:0:75:A#3S_Bb3S_s.ogg
229,192,112800,1,0,0:0:0:75:D#4S_Eb4S_s.ogg
375,192,112800,1,0,0:0:0:75:F4S.ogg
448,192,112800,1,0,0:0:0:75:A4S.ogg
156,192,112920,1,0,0:0:0:75:A#3S_Bb3S_s.ogg
83,192,113040,1,0,0:0:0:75:D#3S_Eb3S_s.ogg
302,192,113040,1,0,0:0:0:75:D#4S_Eb4S_s.ogg
10,192,113280,1,0,0:0:0:75:G3S_s.ogg
229,192,113280,1,0,0:0:0:75:A#4S_Bb4S.ogg
448,192,113280,1,0,0:0:0:75:A#5S_Bb5S.ogg
375,192,113400,1,0,0:0:0:75:D4S_s.ogg
156,192,113520,1,0,0:0:0:75:G3S_s.ogg
83,192,113640,1,0,0:0:0:75:D3S_s.ogg
302,192,113640,1,0,0:0:0:75:G3S_s.ogg
448,192,113760,1,0,0:0:0:75:D4S_s.ogg
10,192,113880,1,0,0:0:0:75:G3S_s.ogg
229,192,114000,1,0,0:0:0:75:D3S_s.ogg
375,192,114000,1,0,0:0:0:75:D4S_s.ogg
156,192,114240,1,0,0:0:0:75:D3S_s.ogg
302,192,114240,1,0,0:0:0:75:G3S_s.ogg
83,192,114360,1,0,0:0:0:75:D4S_s.ogg
10,192,114480,1,0,0:0:0:75:G3S_s.ogg
229,192,114480,1,0,0:0:0:75:D5S_s.ogg
448,192,114480,1,0,0:0:0:75:D6S_s.ogg
156,192,114600,1,0,0:0:0:75:D3S_s.ogg
375,192,114600,1,0,0:0:0:75:G3S_s.ogg
83,192,114720,1,0,0:0:0:75:D4S_s.ogg
302,192,114720,1,0,0:0:0:75:G4S_s.ogg
448,192,114720,1,0,0:0:0:75:G5S_s.ogg
10,192,114840,1,0,0:0:0:75:G3S_s.ogg
156,192,114960,1,0,0:0:0:75:D4S_s.ogg
229,192,114960,1,0,0:0:0:75:A#4S_Bb4S.ogg
375,192,114960,1,0,0:0:0:75:A#5S_Bb5S.ogg
83,192,115200,1,0,0:0:0:75:D3S_s.ogg
448,192,115200,1,0,0:0:0:75:G3S_s.ogg
302,192,115320,1,0,0:0:0:75:D4S_s.ogg
10,192,115440,1,0,0:0:0:75:G3S_s.ogg
375,192,115440,1,0,0:0:0:75:G4S_s.ogg
156,192,115500,1,0,0:0:0:75:A#4S_Bb4S_s.ogg
83,192,115560,1,0,0:0:0:75:D3S_s.ogg
229,192,115560,1,0,0:0:0:75:G3S_s.ogg
302,192,115560,1,0,0:0:0:75:A4S.ogg
448,192,115560,1,0,0:0:0:75:A5S.ogg
10,192,115680,1,0,0:0:0:75:D4S_s.ogg
375,192,115800,1,0,0:0:0:75:G3S_s.ogg
83,192,115920,1,0,0:0:0:75:D4S_s.ogg
156,192,115920,1,0,0:0:0:75:A4S.ogg
448,192,115920,1,0,0:0:0:75:A5S.ogg
229,192,116160,1,0,0:0:0:75:D3S_s.ogg
302,192,116160,1,0,0:0:0:75:G3S_s.ogg
10,192,116280,1,0,0:0:0:75:D4S_s.ogg
156,192,116400,1,0,0:0:0:75:G3S_s.ogg
375,192,116400,1,0,0:0:0:75:G4S.ogg
448,192,116400,1,0,0:0:0:75:G5S.ogg
83,192,116520,1,0,0:0:0:75:D3S_s.ogg
229,192,116520,1,0,0:0:0:75:G3S_s.ogg
302,192,116640,1,0,0:0:0:75:D4S_s.ogg
10,192,116760,1,0,0:0:0:75:G3S_s.ogg
156,192,116880,1,0,0:0:0:75:D4S_s.ogg
375,192,116880,1,0,0:0:0:75:A#4S_Bb4S.ogg
448,192,116880,1,0,0:0:0:75:A#5S_Bb5S.ogg
83,192,117120,1,0,0:0:0:75:D3S_s.ogg
229,192,117120,1,0,0:0:0:75:G3S_s.ogg
10,192,117240,1,0,0:0:0:75:D4S_s.ogg
302,192,117240,1,0,0:0:0:75:D5S.ogg
375,192,117240,1,0,0:0:0:75:D6S.ogg
156,192,117360,1,0,0:0:0:75:G3S_s.ogg
83,192,117480,1,0,0:0:0:75:D3S_s.ogg
448,192,117480,1,0,0:0:0:75:G3S_s.ogg
10,192,117600,1,0,0:0:0:75:D4S_s.ogg
229,192,117600,1,0,0:0:0:75:F5S.ogg
375,192,117600,1,0,0:0:0:75:F6S.ogg
302,192,117720,1,0,0:0:0:75:G3S_s.ogg
156,192,117840,1,0,0:0:0:75:D3S_s.ogg
448,192,117840,1,0,0:0:0:75:D4S_s.ogg
83,192,118080,1,0,0:0:0:75:D3S_s.ogg
375,192,118080,1,0,0:0:0:75:G3S_s.ogg
10,192,118200,1,0,0:0:0:75:D4S_s.ogg
229,192,118320,1,0,0:0:0:75:G3S_s.ogg
156,192,118440,1,0,0:0:0:75:D3S_s.ogg
302,192,118440,1,0,0:0:0:75:G3S_s.ogg
83,192,118560,1,0,0:0:0:75:D4S_s.ogg
448,192,118560,1,0,0:0:0:75:G5S_s.ogg
10,192,118620,1,0,0:0:0:75:A5S_s.ogg
375,192,118620,1,0,0:0:0:75:A6S_s.ogg
229,192,118680,1,0,0:0:0:75:G3S_s.ogg
156,192,118800,1,0,0:0:0:75:D4S_s.ogg
302,192,118800,1,0,0:0:0:75:D5S.ogg
448,192,118800,1,0,0:0:0:75:D6S.ogg
83,192,119040,1,0,0:0:0:75:D3S_s.ogg
375,192,119040,1,0,0:0:0:75:G3S_s.ogg
10,192,119160,1,0,0:0:0:75:D4S_s.ogg
229,192,119280,1,0,0:0:0:75:G3S_s.ogg
156,192,119400,1,0,0:0:0:75:D3S_s.ogg
448,192,119400,1,0,0:0:0:75:G3S_s.ogg
83,192,119520,1,0,0:0:0:75:D4S_s.ogg
302,192,119520,1,0,0:0:0:75:A#5S_Bb5S_s.ogg
375,192,119520,1,0,0:0:0:75:A#6S_Bb6S_s.ogg
10,192,119640,1,0,0:0:0:75:G3S_s.ogg
156,192,119760,1,0,0:0:0:75:D4S_s.ogg
229,192,119760,1,0,0:0:0:75:A#4S_Bb4S_s.ogg
448,192,119760,1,0,0:0:0:75:A#5S_Bb5S_s.ogg
83,192,120000,1,0,0:0:0:75:G3S_s.ogg
302,192,120000,1,0,0:0:0:75:A5S_s.ogg
375,192,120000,1,0,0:0:0:75:A6S_s.ogg
10,192,120120,1,0,0:0:0:75:D4S_s.ogg
156,192,120240,1,0,0:0:0:75:G3S_s.ogg
229,192,120240,1,0,0:0:0:75:A4S_s.ogg
448,192,120240,1,0,0:0:0:75:A5S_s.ogg
83,192,120360,1,0,0:0:0:75:D3S_s.ogg
302,192,120360,1,0,0:0:0:75:G3S_s.ogg
10,192,120480,1,0,0:0:0:75:D4S_s.ogg
375,192,120480,1,0,0:0:0:75:G5S_s.ogg
448,192,120480,1,0,0:0:0:75:G6S_s.ogg
229,192,120600,1,0,0:0:0:75:G3S_s.ogg
83,192,120720,1,0,0:0:0:75:D4S_s.ogg
156,192,120720,1,0,0:0:0:75:G4S_s.ogg
302,192,120720,1,0,0:0:0:75:G5S_s.ogg
10,192,120960,1,0,0:0:0:75:G4S.ogg
375,192,120960,1,0,0:0:0:75:A#4S_Bb4S.ogg
448,192,120960,1,0,0:0:0:75:G5S.ogg
229,192,121080,1,0,0:0:0:75:D#4S_Eb4S_s.ogg
83,192,121200,1,0,0:0:0:75:A#3S_Bb3S_s.ogg
156,192,121320,1,0,0:0:0:75:A#4S_Bb4S.ogg
302,192,121320,1,0,0:0:0:75:D5S.ogg
448,192,121320,1,0,0:0:0:75:A#5S_Bb5S.ogg
10,192,121440,1,0,0:0:0:75:D#4S_Eb4S_s.ogg
375,192,121560,1,0,0:0:0:75:A#3S_Bb3S_s.ogg
83,192,121680,1,0,0:0:0:75:D#5S_Eb5S_s.ogg
229,192,121680,1,0,0:0:0:75:G5S_s.ogg
448,192,121680,1,0,0:0:0:75:D#6S_Eb6S_s.ogg
10,192,121920,1,0,0:0:0:75:F5S.ogg
156,192,121920,1,0,0:0:0:75:A5S.ogg
302,192,121920,1,0,0:0:0:75:F6S.ogg
375,192,122040,1,0,0:0:0:75:D#4S_Eb4S_s.ogg
83,192,122160,1,0,0:0:0:75:A#3S_Bb3S_s.ogg
156,192,122280,1,0,0:0:0:75:G5S.ogg
229,192,122280,1,0,0:0:0:75:A#5S_Bb5S.ogg
448,192,122280,1,0,0:0:0:75:G6S.ogg
302,192,122400,1,0,0:0:0:75:D#4S_Eb4S_s.ogg
10,192,122520,1,0,0:0:0:75:A#3S_Bb3S_s.ogg
83,192,122640,1,0,0:0:0:75:D#5S_Eb5S_s.ogg
375,192,122640,1,0,0:0:0:75:G5S_s.ogg
448,192,122640,1,0,0:0:0:75:D#6S_Eb6S_s.ogg
156,192,122880,1,0,0:0:0:75:D5S.ogg
229,192,122880,1,0,0:0:0:75:F5S.ogg
302,192,122880,1,0,0:0:0:75:D6S.ogg
10,192,123000,1,0,0:0:0:75:D#4S_Eb4S_s.ogg
375,192,123120,1,0,0:0:0:75:A#3S_Bb3S_s.ogg
83,192,123240,1,0,0:0:0:75:D#3S_Eb3S_s.ogg
448,192,123240,1,0,0:0:0:75:A#3S_Bb3S_s.ogg
156,192,123360,1,0,0:0:0:75:D#4S_Eb4S_s.ogg
229,192,123480,1,0,0:0:0:75:A#3S_Bb3S_s.ogg
10,192,123600,1,0,0:0:0:75:D#3S_Eb3S_s.ogg
302,192,123600,1,0,0:0:0:75:D#4S_Eb4S_s.ogg
375,192,123600,1,0,0:0:0:75:F5S_s.ogg
83,192,123660,1,0,0:0:0:75:G5S_s.ogg
156,192,123720,1,0,0:0:0:75:D5S.ogg
229,192,123720,1,0,0:0:0:75:F5S.ogg
448,192,123720,1,0,0:0:0:75:D6S.ogg
10,192,123840,1,0,0:0:0:75:D#3S_Eb3S_s.ogg
302,192,123840,1,0,0:0:0:75:A#3S_Bb3S_s.ogg
375,192,123960,1,0,0:0:0:75:D#4S_Eb4S_s.ogg
83,192,124080,1,0,0:0:0:75:A#3S_Bb3S_s.ogg
156,192,124200,1,0,0:0:0:75:D#3S_Eb3S_s.ogg
448,192,124200,1,0,0:0:0:75:A#3S_Bb3S_s.ogg
10,192,124320,1,0,0:0:0:75:G4S.ogg
229,192,124320,1,0,0:0:0:75:A#4S_Bb4S.ogg
302,192,124320,1,0,0:0:0:75:G5S.ogg
375,192,124440,1,0,0:0:0:75:A#3S_Bb3S_s.ogg
83,192,124560,1,0,0:0:0:75:D#3S_Eb3S_s.ogg
448,192,124560,1,0,0:0:0:75:D#4S_Eb4S_s.ogg
156,192,124800,1,0,0:0:0:75:A4S.ogg
229,192,124800,1,0,0:0:0:75:C5S.ogg
302,192,124800,1,0,0:0:0:75:A5S.ogg
10,192,124920,1,0,0:0:0:75:D#4S_Eb4S_s.ogg
375,192,125040,1,0,0:0:0:75:A#3S_Bb3S_s.ogg
83,192,125160,1,0,0:0:0:75:A#4S_Bb4S.ogg
156,192,125160,1,0,0:0:0:75:D5S.ogg
448,192,125160,1,0,0:0:0:75:A#5S_Bb5S.ogg
302,192,125280,1,0,0:0:0:75:D#4S_Eb4S_s.ogg
229,192,125400,1,0,0:0:0:75:A#3S_Bb3S_s.ogg
10,192,125520,1,0,0:0:0:75:A#4S_Bb4S.ogg
156,192,125520,1,0,0:0:0:75:D5S.ogg
375,192,125520,1,0,0:0:0:75:A#5S_Bb5S.ogg
83,192,125760,1,0,0:0:0:75:D#3S_Eb3S_s.ogg
448,192,125760,1,0,0:0:0:75:A#3S_Bb3S_s.ogg
302,192,125880,1,0,0:0:0:75:D#4S_Eb4S_s.ogg
229,192,126000,1,0,0:0:0:75:A#3S_Bb3S_s.ogg
10,192,126120,1,0,0:0:0:75:D#3S_Eb3S_s.ogg
375,192,126120,1,0,0:0:0:75:A#3S_Bb3S_s.ogg
83,192,126240,1,0,0:0:0:75:G4S.ogg
156,192,126240,1,0,0:0:0:75:A#4S_Bb4S.ogg
448,192,126240,1,0,0:0:0:75:G5S.ogg
302,192,126360,1,0,0:0:0:75:A#3S_Bb3S_s.ogg
10,192,126480,1,0,0:0:0:75:D#3S_Eb3S_s.ogg
229,192,126480,1,0,0:0:0:75:D#4S_Eb4S_s.ogg
156,192,126720,1,0,0:0:0:75:A4S.ogg
375,192,126720,1,0,0:0:0:75:C5S.ogg
448,192,126720,1,0,0:0:0:75:A5S.ogg
83,192,126840,1,0,0:0:0:75:D#4S_Eb4S_s.ogg
302,192,126960,1,0,0:0:0:75:A#3S_Bb3S_s.ogg
10,192,127080,1,0,0:0:0:75:D#3S_Eb3S_s.ogg
229,192,127080,1,0,0:0:0:75:A#3S_Bb3S_s.ogg
375,192,127200,1,0,0:0:0:75:D#4S_Eb4S_s.ogg
156,192,127320,1,0,0:0:0:75:A#3S_Bb3S_s.ogg
83,192,127440,1,0,0:0:0:75:D#3S_Eb3S_s.ogg
448,192,127440,1,0,0:0:0:75:D#4S_Eb4S_s.ogg
10,192,127680,1,0,0:0:0:75:G4S.ogg
229,192,127680,1,0,0:0:0:75:A#4S_Bb4S.ogg
302,192,127680,1,0,0:0:0:75:G5S.ogg
375,192,127800,1,0,0:0:0:75:D#4S_Eb4S_s.ogg
156,192,127920,1,0,0:0:0:75:A#3S_Bb3S_s.ogg
83,192,128040,1,0,0:0:0:75:D#3S_Eb3S_s.ogg
448,192,128040,1,0,0:0:0:75:A#3S_Bb3S_s.ogg
10,192,128160,1,0,0:0:0:75:F4S.ogg
229,192,128160,1,0,0:0:0:75:A4S.ogg
302,192,128160,1,0,0:0:0:75:F5S.ogg
375,192,128280,1,0,0:0:0:75:A#3S_Bb3S_s.ogg
156,192,128400,1,0,0:0:0:75:D#3S_Eb3S_s.ogg
448,192,128400,1,0,0:0:0:75:D#4S_Eb4S_s.ogg
83,192,128640,1,0,0:0:0:75:D6S.ogg
229,192,128640,1,0,0:0:0:75:F6S.ogg
302,192,128640,1,0,0:0:0:75:A#6S_Bb6S.ogg
10,192,128760,1,0,0:0:0:75:D#4S_Eb4S_s.ogg
375,192,128880,1,0,0:0:0:75:C4S_s.ogg
156,192,129000,1,0,0:0:0:75:D#3S_Eb3S_s.ogg
448,192,129000,1,0,0:0:0:75:C4S_s.ogg
83,192,129120,1,0,0:0:0:75:D#4S_Eb4S_s.ogg
302,192,129240,1,0,0:0:0:75:C4S_s.ogg
10,192,129360,1,0,0:0:0:75:D#3S_Eb3S_s.ogg
229,192,129360,1,0,0:0:0:75:D#4S_Eb4S_s.ogg
156,192,129600,1,0,0:0:0:75:C4S_s.ogg
375,192,129600,1,0,0:0:0:75:D6S_s.ogg
448,192,129600,1,0,0:0:0:75:A#6S_Bb6S_s.ogg
83,192,129720,1,0,0:0:0:75:D#4S_Eb4S_s.ogg
229,192,129840,1,0,0:0:0:75:C4S_s.ogg
302,192,129840,1,0,0:0:0:75:A6S_s.ogg
10,192,129900,1,0,0:0:0:75:A#6S_Bb6S_s.ogg
156,192,129960,1,0,0:0:0:75:D#3S_Eb3S_s.ogg
375,192,129960,1,0,0:0:0:75:C4S_s.ogg
448,192,129960,1,0,0:0:0:75:A6S_s.ogg
83,192,130080,1,0,0:0:0:75:D#4S_Eb4S_s.ogg
229,192,130080,1,0,0:0:0:75:D6S_s.ogg
302,192,130080,1,0,0:0:0:75:G6S_s.ogg
10,192,130200,1,0,0:0:0:75:C4S_s.ogg
156,192,130320,1,0,0:0:0:75:D#4S_Eb4S_s.ogg
375,192,130320,1,0,0:0:0:75:D6S_s.ogg
448,192,130320,1,0,0:0:0:75:A6S_s.ogg
83,192,130560,1,0,0:0:0:75:D6S.ogg
229,192,130560,1,0,0:0:0:75:G6S.ogg
302,192,130560,1,0,0:0:0:75:A#6S_Bb6S.ogg
10,192,130680,1,0,0:0:0:75:F4S_s.ogg
375,192,130800,1,0,0:0:0:75:D4S_s.ogg
156,192,130920,1,0,0:0:0:75:F3S_s.ogg
448,192,130920,1,0,0:0:0:75:D4S_s.ogg
83,192,131040,1,0,0:0:0:75:F4S_s.ogg
229,192,131160,1,0,0:0:0:75:D4S_s.ogg
10,192,131280,1,0,0:0:0:75:F3S_s.ogg
302,192,131280,1,0,0:0:0:75:F4S_s.ogg
156,192,131520,1,0,0:0:0:75:D4S_s.ogg
375,192,131520,1,0,0:0:0:75:D6S_s.ogg
448,192,131520,1,0,0:0:0:75:A#6S_Bb6S_s.ogg
83,192,131640,1,0,0:0:0:75:F4S_s.ogg
10,192,131760,1,0,0:0:0:75:D4S_s.ogg
229,192,131760,1,0,0:0:0:75:A6S_s.ogg
302,192,131820,1,0,0:0:0:75:A#6S_Bb6S_s.ogg
156,192,131880,1,0,0:0:0:75:F3S_s.ogg
375,192,131880,1,0,0:0:0:75:D4S_s.ogg
448,192,131880,1,0,0:0:0:75:A6S_s.ogg
10,192,132000,1,0,0:0:0:75:F4S_s.ogg
83,192,132000,1,0,0:0:0:75:D6S_s.ogg
229,192,132000,1,0,0:0:0:75:G6S_s.ogg
302,192,132120,1,0,0:0:0:75:D4S_s.ogg
156,192,132240,1,0,0:0:0:75:F4S_s.ogg
375,192,132240,1,0,0:0:0:75:D6S_s.ogg
448,192,132240,1,0,0:0:0:75:A6S_s.ogg
10,192,132480,1,0,0:0:0:75:D6S.ogg
83,192,132480,1,0,0:0:0:75:G6S.ogg
229,192,132480,1,0,0:0:0:75:A#6S_Bb6S.ogg
302,192,132600,1,0,0:0:0:75:D#4S_Eb4S_s.ogg
156,192,132720,1,0,0:0:0:75:A#3S_Bb3S_s.ogg
375,192,132840,1,0,0:0:0:75:D#3S_Eb3S_s.ogg
448,192,132840,1,0,0:0:0:75:A#3S_Bb3S_s.ogg
10,192,132960,1,0,0:0:0:75:D#4S_Eb4S_s.ogg
229,192,132960,1,0,0:0:0:75:D#5S_Eb5S_s.ogg
83,192,133080,1,0,0:0:0:75:A#3S_Bb3S_s.ogg
156,192,133200,1,0,0:0:0:75:D#3S_Eb3S_s.ogg
302,192,133200,1,0,0:0:0:75:D#4S_Eb4S_s.ogg
448,192,133200,1,0,0:0:0:75:A6S_s.ogg
10,192,133440,1,0,0:0:0:75:A5S.ogg
229,192,133440,1,0,0:0:0:75:C6S.ogg
375,192,133440,1,0,0:0:0:75:F6S.ogg
83,192,133560,1,0,0:0:0:75:F4S_s.ogg
448,192,133680,1,0,0:0:0:75:C4S_s.ogg
156,192,133800,1,0,0:0:0:75:F3S_s.ogg
302,192,133800,1,0,0:0:0:75:C4S_s.ogg
10,192,133920,1,0,0:0:0:75:F#4S_Gb4S_s.ogg
229,192,133920,1,0,0:0:0:75:F#5S_Gb5S_s.ogg
375,192,134040,1,0,0:0:0:75:C#4S_Db4S_s.ogg
83,192,134160,1,0,0:0:0:75:F#3S_Gb3S_s.ogg
156,192,134160,1,0,0:0:0:75:F#4S_Gb4S_s.ogg
448,192,134160,1,0,0:0:0:75:C6S_s.ogg
302,192,134220,1,0,0:0:0:75:C#6S_Db6S_s.ogg
229,192,134280,1,0,0:0:0:75:D#6S_Eb6S_s.ogg
10,192,134400,1,0,0:0:0:75:G5S.ogg
83,192,134400,1,0,0:0:0:75:A#5S_Bb5S.ogg
375,192,134400,1,0,0:0:0:75:D6S.ogg
448,192,134520,1,0,0:0:0:75:G4S_s.ogg
156,192,134640,1,0,0:0:0:75:D4S_s.ogg
229,192,134760,1,0,0:0:0:75:G3S_s.ogg
302,192,134760,1,0,0:0:0:75:D4S_s.ogg
83,192,134880,1,0,0:0:0:75:G4S_s.ogg
375,192,134880,1,0,0:0:0:75:A5S_s.ogg
10,192,135000,1,0,0:0:0:75:D4S_s.ogg
156,192,135120,1,0,0:0:0:75:G4S_s.ogg
302,192,135120,1,0,0:0:0:75:G5S_s.ogg
448,192,135120,1,0,0:0:0:75:C6S_s.ogg
83,192,135360,1,0,0:0:0:75:C4S_s.ogg
229,192,135360,1,0,0:0:0:75:F5S_s.ogg
375,192,135360,1,0,0:0:0:75:A#5S_Bb5S_s.ogg
10,192,135480,1,0,0:0:0:75:F4S_s.ogg
156,192,135600,1,0,0:0:0:75:C4S_s.ogg
448,192,135600,1,0,0:0:0:75:C6S_s.ogg
83,192,135720,1,0,0:0:0:75:F3S_s.ogg
302,192,135720,1,0,0:0:0:75:C4S_s.ogg
229,192,135840,1,0,0:0:0:75:F4S_s.ogg
375,192,135840,1,0,0:0:0:75:D6S_s.ogg
10,192,135960,1,0,0:0:0:75:C4S_s.ogg
156,192,136080,1,0,0:0:0:75:F4S_s.ogg
302,192,136080,1,0,0:0:0:75:F5S_s.ogg
448,192,136080,1,0,0:0:0:75:D#6S_Eb6S_s.ogg
83,192,136320,1,0,0:0:0:75:A5S_s.ogg
229,192,136320,1,0,0:0:0:75:C6S_s.ogg
375,192,136320,1,0,0:0:0:75:F6S_s.ogg
10,192,136440,1,0,0:0:0:75:C4S_s.ogg
156,192,136560,1,0,0:0:0:75:A5S_s.ogg
302,192,136560,1,0,0:0:0:75:C6S_s.ogg
448,192,136560,1,0,0:0:0:75:F6S_s.ogg
83,192,136680,1,0,0:0:0:75:C3S_s.ogg
375,192,136680,1,0,0:0:0:75:G3S_s.ogg
10,192,136800,1,0,0:0:0:75:G5S_s.ogg
229,192,136800,1,0,0:0:0:75:C6S_s.ogg
448,192,136800,1,0,0:0:0:75:F6S_s.ogg
156,192,136920,1,0,0:0:0:75:G3S_s.ogg
83,192,137040,1,0,0:0:0:75:G5S_s.ogg
302,192,137040,1,0,0:0:0:75:C6S_s.ogg
375,192,137040,1,0,0:0:0:75:F6S_s.ogg
10,192,137280,1,0,0:0:0:75:F5S.ogg
229,192,137280,1,0,0:0:0:75:C6S.ogg
448,192,137280,1,0,0:0:0:75:F6S.ogg
156,192,137400,1,0,0:0:0:75:C4S_s.ogg
375,192,137520,1,0,0:0:0:75:G3S_s.ogg
83,192,137640,1,0,0:0:0:75:C3S_s.ogg
302,192,137640,1,0,0:0:0:75:G3S_s.ogg
10,192,137760,1,0,0:0:0:75:C4S_s.ogg
229,192,137760,1,0,0:0:0:75:A#5S_Bb5S_s.ogg
448,192,137880,1,0,0:0:0:75:G3S_s.ogg
156,192,137940,1,0,0:0:0:75:C6S_s.ogg
83,192,138000,1,0,0:0:0:75:C3S_s.ogg
302,192,138000,1,0,0:0:0:75:C4S_s.ogg
375,192,138000,1,0,0:0:0:75:D6S_s.ogg
10,192,138240,1,0,0:0:0:75:F5S_s.ogg
229,192,138240,1,0,0:0:0:75:A5S_s.ogg
448,192,138240,1,0,0:0:0:75:C6S_s.ogg
156,192,138360,1,0,0:0:0:75:D4S_s.ogg
83,192,138480,1,0,0:0:0:75:F5S_s.ogg
302,192,138480,1,0,0:0:0:75:A5S_s.ogg
375,192,138480,1,0,0:0:0:75:C6S_s.ogg
10,192,138600,1,0,0:0:0:75:D3S_s.ogg
229,192,138600,1,0,0:0:0:75:A#3S_Bb3S_s.ogg
156,192,138720,1,0,0:0:0:75:D#5S_Eb5S_s.ogg
302,192,138720,1,0,0:0:0:75:A5S_s.ogg
448,192,138720,1,0,0:0:0:75:C6S_s.ogg
83,192,138840,1,0,0:0:0:75:A#3S_Bb3S_s.ogg
10,192,138960,1,0,0:0:0:75:D5S_s.ogg
229,192,138960,1,0,0:0:0:75:A5S_s.ogg
375,192,138960,1,0,0:0:0:75:C6S_s.ogg
156,192,139200,1,0,0:0:0:75:C5S_s.ogg
302,192,139200,1,0,0:0:0:75:A5S_s.ogg
448,192,139200,1,0,0:0:0:75:C6S_s.ogg
83,192,139320,1,0,0:0:0:75:D4S_s.ogg
229,192,139440,1,0,0:0:0:75:A#3S_Bb3S_s.ogg
375,192,139440,1,0,0:0:0:75:G6S_s.ogg
10,192,139500,1,0,0:0:0:75:A6S_s.ogg
156,192,139560,1,0,0:0:0:75:D3S_s.ogg
302,192,139560,1,0,0:0:0:75:A#3S_Bb3S_s.ogg
448,192,139560,1,0,0:0:0:75:A#6S_Bb6S_s.ogg
83,192,139680,1,0,0:0:0:75:D4S_s.ogg
375,192,139680,1,0,0:0:0:75:A#5S_Bb5S_s.ogg
229,192,139740,1,0,0:0:0:75:C6S_s.ogg
10,192,139800,1,0,0:0:0:75:A#3S_Bb3S_s.ogg
448,192,139800,1,0,0:0:0:75:D6S_s.ogg
83,192,139920,1,0,0:0:0:75:D3S_s.ogg
156,192,139920,1,0,0:0:0:75:D4S_s.ogg
302,192,139920,1,0,0:0:0:75:C6S_s.ogg
229,192,140160,1,0,0:0:0:75:D5S.ogg
375,192,140160,1,0,0:0:0:75:F5S.ogg
448,192,140160,1,0,0:0:0:75:A#5S_Bb5S.ogg
10,192,140280,1,0,0:0:0:75:D#4S_Eb4S_s.ogg
302,192,140400,1,0,0:0:0:75:A#3S_Bb3S_s.ogg
83,192,140520,1,0,0:0:0:75:D#3S_Eb3S_s.ogg
156,192,140520,1,0,0:0:0:75:A#3S_Bb3S_s.ogg
375,192,140640,1,0,0:0:0:75:D#4S_Eb4S_s.ogg
448,192,140760,1,0,0:0:0:75:A#3S_Bb3S_s.ogg
10,192,140880,1,0,0:0:0:75:D#4S_Eb4S_s.ogg
229,192,140880,1,0,0:0:0:75:C5S_s.ogg
302,192,140880,1,0,0:0:0:75:F5S_s.ogg
83,192,141120,1,0,0:0:0:75:C4S_s.ogg
156,192,141120,1,0,0:0:0:75:A#5S_Bb5S_s.ogg
375,192,141120,1,0,0:0:0:75:D6S_s.ogg
448,192,141240,1,0,0:0:0:75:F4S_s.ogg
10,192,141360,1,0,0:0:0:75:C4S_s.ogg
229,192,141360,1,0,0:0:0:75:A#5S_Bb5S_s.ogg
302,192,141360,1,0,0:0:0:75:D#6S_Eb6S_s.ogg
156,192,141480,1,0,0:0:0:75:F3S_s.ogg
375,192,141480,1,0,0:0:0:75:C4S_s.ogg
10,192,141600,1,0,0:0:0:75:F#4S_Gb4S_s.ogg
83,192,141600,1,0,0:0:0:75:D5S.ogg
448,192,141600,1,0,0:0:0:75:F#5S_Gb5S.ogg
302,192,141720,1,0,0:0:0:75:C#4S_Db4S_s.ogg
156,192,141840,1,0,0:0:0:75:F#3S_Gb3S_s.ogg
229,192,141840,1,0,0:0:0:75:F#4S_Gb4S_s.ogg
10,192,141960,1,0,0:0:0:75:C5S_s.ogg
375,192,141960,1,0,0:0:0:75:F#5S_Gb5S_s.ogg
83,192,142080,1,0,0:0:0:75:A#4S_Bb4S.ogg
302,192,142080,1,0,0:0:0:75:D5S.ogg
448,192,142080,1,0,0:0:0:75:G5S.ogg
156,192,142200,1,0,0:0:0:75:G4S_s.ogg
229,192,142320,1,0,0:0:0:75:D4S_s.ogg
10,192,142440,1,0,0:0:0:75:G3S_s.ogg
375,192,142440,1,0,0:0:0:75:D4S_s.ogg
83,192,142560,1,0,0:0:0:75:G4S_s.ogg
302,192,142680,1,0,0:0:0:75:D4S_s.ogg
156,192,142800,1,0,0:0:0:75:G3S_s.ogg
448,192,142800,1,0,0:0:0:75:G4S_s.ogg
10,192,143040,1,0,0:0:0:75:C4S_s.ogg
229,192,143040,1,0,0:0:0:75:G5S.ogg
375,192,143040,1,0,0:0:0:75:G6S.ogg
83,192,143160,1,0,0:0:0:75:F4S_s.ogg
302,192,143280,1,0,0:0:0:75:C4S_s.ogg
156,192,143400,1,0,0:0:0:75:F3S_s.ogg
448,192,143400,1,0,0:0:0:75:C4S_s.ogg
10,192,143520,1,0,0:0:0:75:F4S.ogg
229,192,143520,1,0,0:0:0:75:A5S.ogg
375,192,143520,1,0,0:0:0:75:A6S.ogg
83,192,144000,1,0,0:0:0:50:D6S.ogg
156,192,144000,1,0,0:0:0:50:F6S.ogg
302,192,144000,1,0,0:0:0:50:A#6S_Bb6S.ogg
448,192,144120,1,0,0:0:0:50:D#4S_Eb4S_s.ogg
10,192,144240,1,0,0:0:0:50:C4S_s.ogg
229,192,144360,1,0,0:0:0:50:C4S_s.ogg
375,192,144480,1,0,0:0:0:50:D#4S_Eb4S_s.ogg
156,192,144600,1,0,0:0:0:50:C4S_s.ogg
302,192,144720,1,0,0:0:0:50:G3S_s.ogg
10,192,144960,1,0,0:0:0:50:C4S_s.ogg
83,192,144960,1,0,0:0:0:50:D6S_s.ogg
448,192,144960,1,0,0:0:0:50:A#6S_Bb6S_s.ogg
229,192,145080,1,0,0:0:0:50:D#4S_Eb4S_s.ogg
156,192,145200,1,0,0:0:0:50:C4S_s.ogg
375,192,145200,1,0,0:0:0:50:A6S_s.ogg
302,192,145260,1,0,0:0:0:50:A#6S_Bb6S_s.ogg
83,192,145320,1,0,0:0:0:50:C4S_s.ogg
448,192,145320,1,0,0:0:0:50:A6S_s.ogg
10,192,145440,1,0,0:0:0:50:D#4S_Eb4S_s.ogg
156,192,145440,1,0,0:0:0:50:D6S_s.ogg
229,192,145440,1,0,0:0:0:50:G6S_s.ogg
375,192,145560,1,0,0:0:0:50:C4S_s.ogg
83,192,145680,1,0,0:0:0:50:G3S_s.ogg
302,192,145680,1,0,0:0:0:50:D6S_s.ogg
448,192,145680,1,0,0:0:0:50:A6S_s.ogg
10,192,145920,1,0,0:0:0:50:D6S_s.ogg
156,192,145920,1,0,0:0:0:50:G6S_s.ogg
229,192,145920,1,0,0:0:0:50:A#6S_Bb6S_s.ogg
375,192,146040,1,0,0:0:0:50:F4S_s.ogg
83,192,146160,1,0,0:0:0:50:D4S_s.ogg
448,192,146160,1,0,0:0:0:50:A#7S_Bb7S_s.ogg
302,192,146280,1,0,0:0:0:50:D4S_s.ogg
10,192,146400,1,0,0:0:0:50:F4S_s.ogg
156,192,146400,1,0,0:0:0:50:A7S_s.ogg
229,192,146460,1,0,0:0:0:50:A#7S_Bb7S_s.ogg
83,192,146520,1,0,0:0:0:50:D4S_s.ogg
375,192,146520,1,0,0:0:0:50:A7S_s.ogg
302,192,146640,1,0,0:0:0:50:A3S_s.ogg
448,192,146640,1,0,0:0:0:50:G7S_s.ogg
10,192,146880,1,0,0:0:0:50:D4S_s.ogg
156,192,146880,1,0,0:0:0:50:D6S_s.ogg
229,192,146880,1,0,0:0:0:50:A#6S_Bb6S_s.ogg
83,192,147000,1,0,0:0:0:50:F4S_s.ogg
302,192,147120,1,0,0:0:0:50:D4S_s.ogg
375,192,147120,1,0,0:0:0:50:A6S_s.ogg
448,192,147180,1,0,0:0:0:50:A#6S_Bb6S_s.ogg
10,192,147240,1,0,0:0:0:50:D4S_s.ogg
229,192,147240,1,0,0:0:0:50:A6S_s.ogg
83,192,147360,1,0,0:0:0:50:F4S_s.ogg
156,192,147360,1,0,0:0:0:50:D6S_s.ogg
302,192,147360,1,0,0:0:0:50:G6S_s.ogg
375,192,147480,1,0,0:0:0:50:D4S_s.ogg
10,192,147600,1,0,0:0:0:50:D6S_s.ogg
229,192,147600,1,0,0:0:0:50:A6S_s.ogg
448,192,147600,1,0,0:0:0:50:D7S_s.ogg
83,192,147840,1,0,0:0:0:50:F6S.ogg
156,192,147840,1,0,0:0:0:50:A#6S_Bb6S.ogg
302,192,147840,1,0,0:0:0:50:D7S.ogg
375,192,147960,1,0,0:0:0:50:D#4S_Eb4S_s.ogg
10,192,148080,1,0,0:0:0:50:A#3S_Bb3S_s.ogg
448,192,148200,1,0,0:0:0:50:A#3S_Bb3S_s.ogg
229,192,148320,1,0,0:0:0:50:D#4S_Eb4S_s.ogg
302,192,148440,1,0,0:0:0:50:A#3S_Bb3S_s.ogg
83,192,148560,1,0,0:0:0:50:F3S_s.ogg
156,192,148560,1,0,0:0:0:50:G7S_s.ogg
10,192,148620,1,0,0:0:0:50:A6S_s.ogg
375,192,148620,1,0,0:0:0:50:A7S_s.ogg
229,192,148800,1,0,0:0:0:50:A5S.ogg
302,192,148800,1,0,0:0:0:50:C6S.ogg
448,192,148800,1,0,0:0:0:50:F6S.ogg
83,192,148920,1,0,0:0:0:50:F4S_s.ogg
156,192,149040,1,0,0:0:0:50:C4S_s.ogg
375,192,149160,1,0,0:0:0:50:C4S_s.ogg
10,192,149280,1,0,0:0:0:50:F#4S_Gb4S_s.ogg
302,192,149400,1,0,0:0:0:50:C#4S_Db4S_s.ogg
229,192,149520,1,0,0:0:0:50:A#3S_Bb3S_s.ogg
448,192,149520,1,0,0:0:0:50:C6S_s.ogg
83,192,149580,1,0,0:0:0:50:C#6S_Db6S_s.ogg
156,192,149640,1,0,0:0:0:50:D#6S_Eb6S_s.ogg
10,192,149760,1,0,0:0:0:50:G5S.ogg
302,192,149760,1,0,0:0:0:50:A#5S_Bb5S.ogg
375,192,149760,1,0,0:0:0:50:D6S.ogg
448,192,149880,1,0,0:0:0:50:G4S_s.ogg
229,192,150000,1,0,0:0:0:50:D4S_s.ogg
83,192,150120,1,0,0:0:0:50:D4S_s.ogg
156,192,150240,1,0,0:0:0:50:G4S_s.ogg
375,192,150360,1,0,0:0:0:50:D4S_s.ogg
10,192,150480,1,0,0:0:0:50:A#3S_Bb3S_s.ogg
302,192,150480,1,0,0:0:0:50:F5S_s.ogg
448,192,150480,1,0,0:0:0:50:A#5S_Bb5S_s.ogg
83,192,150720,1,0,0:0:0:50:C4S_s.ogg
229,192,150720,1,0,0:0:0:50:G5S_s.ogg
156,192,150840,1,0,0:0:0:50:F4S_s.ogg
10,192,150960,1,0,0:0:0:50:C4S_s.ogg
375,192,150960,1,0,0:0:0:50:A5S_s.ogg
448,192,151080,1,0,0:0:0:50:C4S_s.ogg
229,192,151200,1,0,0:0:0:50:F4S_s.ogg
302,192,151200,1,0,0:0:0:50:A#5S_Bb5S_s.ogg
83,192,151320,1,0,0:0:0:50:C4S_s.ogg
156,192,151440,1,0,0:0:0:50:A3S_s.ogg
375,192,151440,1,0,0:0:0:50:C6S_s.ogg
10,192,151680,1,0,0:0:0:50:A5S_s.ogg
229,192,151680,1,0,0:0:0:50:C6S_s.ogg
448,192,151680,1,0,0:0:0:50:F6S_s.ogg
302,192,151800,1,0,0:0:0:50:C4S_s.ogg
83,192,151920,1,0,0:0:0:50:A5S_s.ogg
156,192,151920,1,0,0:0:0:50:C6S_s.ogg
375,192,151920,1,0,0:0:0:50:F6S_s.ogg
448,192,152040,1,0,0:0:0:50:G3S_s.ogg
10,192,152160,1,0,0:0:0:50:G5S_s.ogg
229,192,152160,1,0,0:0:0:50:C6S_s.ogg
302,192,152160,1,0,0:0:0:50:F6S_s.ogg
156,192,152280,1,0,0:0:0:50:G3S_s.ogg
83,192,152400,1,0,0:0:0:50:G5S_s.ogg
375,192,152400,1,0,0:0:0:50:C6S_s.ogg
448,192,152400,1,0,0:0:0:50:F6S_s.ogg
10,192,152640,1,0,0:0:0:50:F5S.ogg
229,192,152640,1,0,0:0:0:50:C6S.ogg
302,192,152640,1,0,0:0:0:50:F6S.ogg
156,192,152760,1,0,0:0:0:50:C4S_s.ogg
448,192,152880,1,0,0:0:0:50:G3S_s.ogg
83,192,153000,1,0,0:0:0:50:G3S_s.ogg
10,192,153120,1,0,0:0:0:50:C4S_s.ogg
302,192,153120,1,0,0:0:0:50:A#5S_Bb5S_s.ogg
375,192,153120,1,0,0:0:0:50:A#6S_Bb6S_s.ogg
229,192,153240,1,0,0:0:0:50:G3S_s.ogg
156,192,153300,1,0,0:0:0:50:C7S_s.ogg
83,192,153360,1,0,0:0:0:50:D#3S_Eb3S_s.ogg
302,192,153360,1,0,0:0:0:50:D6S_s.ogg
448,192,153360,1,0,0:0:0:50:D7S_s.ogg
10,192,153600,1,0,0:0:0:50:F6S_s.ogg
229,192,153600,1,0,0:0:0:50:A6S_s.ogg
375,192,153600,1,0,0:0:0:50:C7S_s.ogg
156,192,153720,1,0,0:0:0:50:D4S_s.ogg
83,192,153840,1,0,0:0:0:50:F6S_s.ogg
302,192,153840,1,0,0:0:0:50:A6S_s.ogg
448,192,153840,1,0,0:0:0:50:C7S_s.ogg
10,192,153960,1,0,0:0:0:50:A#3S_Bb3S_s.ogg
156,192,154080,1,0,0:0:0:50:D#6S_Eb6S_s.ogg
229,192,154080,1,0,0:0:0:50:A6S_s.ogg
375,192,154080,1,0,0:0:0:50:C7S_s.ogg
302,192,154200,1,0,0:0:0:50:A#3S_Bb3S_s.ogg
10,192,154320,1,0,0:0:0:50:F6S_s.ogg
83,192,154320,1,0,0:0:0:50:A6S_s.ogg
448,192,154320,1,0,0:0:0:50:C7S_s.ogg
156,192,154560,1,0,0:0:0:50:F6S_s.ogg
229,192,154560,1,0,0:0:0:50:A6S_s.ogg
375,192,154560,1,0,0:0:0:50:C7S_s.ogg
302,192,154680,1,0,0:0:0:50:D4S_s.ogg
10,192,154800,1,0,0:0:0:50:A#3S_Bb3S_s.ogg
448,192,154800,1,0,0:0:0:50:G6S_s.ogg
83,192,154860,1,0,0:0:0:50:A6S_s.ogg
229,192,154920,1,0,0:0:0:50:A#3S_Bb3S_s.ogg
375,192,154920,1,0,0:0:0:50:A#6S_Bb6S_s.ogg
156,192,155040,1,0,0:0:0:50:D4S_s.ogg
302,192,155040,1,0,0:0:0:50:A#6S_Bb6S_s.ogg
10,192,155100,1,0,0:0:0:50:C7S_s.ogg
83,192,155160,1,0,0:0:0:50:A#3S_Bb3S_s.ogg
375,192,155160,1,0,0:0:0:50:D6S_s.ogg
448,192,155160,1,0,0:0:0:50:D7S_s.ogg
156,192,155280,1,0,0:0:0:50:F3S_s.ogg
229,192,155280,1,0,0:0:0:50:C6S_s.ogg
302,192,155280,1,0,0:0:0:50:C7S_s.ogg
10,192,155520,1,0,0:0:0:50:F5S.ogg
83,192,155520,1,0,0:0:0:50:A#5S_Bb5S.ogg
375,192,155520,1,0,0:0:0:50:D6S.ogg
448,192,155640,1,0,0:0:0:50:D#4S_Eb4S_s.ogg
156,192,155760,1,0,0:0:0:50:A#3S_Bb3S_s.ogg
229,192,155880,1,0,0:0:0:50:A#3S_Bb3S_s.ogg
302,192,156000,1,0,0:0:0:50:D#4S_Eb4S_s.ogg
10,192,156120,1,0,0:0:0:50:A#3S_Bb3S_s.ogg
83,192,156240,1,0,0:0:0:50:G3S_s.ogg
375,192,156240,1,0,0:0:0:50:F5S_s.ogg
448,192,156240,1,0,0:0:0:50:F6S_s.ogg
156,192,156480,1,0,0:0:0:50:C4S_s.ogg
229,192,156480,1,0,0:0:0:50:D6S_s.ogg
302,192,156480,1,0,0:0:0:50:D7S_s.ogg
10,192,156600,1,0,0:0:0:50:F4S_s.ogg
83,192,156720,1,0,0:0:0:50:C4S_s.ogg
375,192,156720,1,0,0:0:0:50:D#6S_Eb6S_s.ogg
448,192,156720,1,0,0:0:0:50:D#7S_Eb7S_s.ogg
156,192,156840,1,0,0:0:0:50:C4S_s.ogg
10,192,156960,1,0,0:0:0:50:D6S.ogg
229,192,156960,1,0,0:0:0:50:F#6S_Gb6S.ogg
302,192,156960,1,0,0:0:0:50:D7S.ogg
448,192,157080,1,0,0:0:0:50:C#4S_Db4S_s.ogg
83,192,157200,1,0,0:0:0:50:A#3S_Bb3S_s.ogg
156,192,157320,1,0,0:0:0:50:D6S_s.ogg
302,192,157320,1,0,0:0:0:50:F#6S_Gb6S_s.ogg
375,192,157320,1,0,0:0:0:50:C7S_s.ogg
10,192,157440,1,0,0:0:0:50:G5S.ogg
229,192,157440,1,0,0:0:0:50:A#5S_Bb5S.ogg
448,192,157440,1,0,0:0:0:50:A#6S_Bb6S.ogg
