osu file format v14

[General]
AudioFilename: audio.mp3
AudioLeadIn: 0
PreviewTime: -1
Countdown: 0
SampleSet: None
StackLeniency: 0.7
Mode: 3
LetterboxInBreaks: 0
SpecialStyle: 0
WidescreenStoryboard: 0

[Editor]
DistanceSpacing: 1.2
BeatDivisor: 8
GridSize: 4
TimelineZoom: 1

[Metadata]
Title:Chapter 1
TitleUnicode:Chapter 1
Artist:DELTARUNE
ArtistUnicode:DELTARUNE
Creator:[Shana Lesus]
Version:Toby Fox - Chaos King
Source:
Tags:
BeatmapID:2078074
BeatmapSetID:993812

[Difficulty]
HPDrainRate:8
CircleSize:7
OverallDifficulty:8
ApproachRate:5
SliderMultiplier:1.4
SliderTickRate:1

[Events]
//Background and Video events
0,0,"eternal.jpg",0,0
//Break Periods
//Storyboard Layer 0 (Background)
//Storyboard Layer 1 (Fail)
//Storyboard Layer 2 (Pass)
//Storyboard Layer 3 (Foreground)
//Storyboard Sound Samples
Sample,4865,0,"D2S_s.ogg",50
Sample,8108,0,"D2S_s.ogg",50
Sample,11351,0,"D2S_s.ogg",50
Sample,12973,0,"D2S_s.ogg",50
Sample,17838,0,"D2S_s.ogg",75
Sample,17838,0,"A2S_s.ogg",75
Sample,17838,0,"D3S_s.ogg",75
Sample,18750,0,"D2S_s.ogg",75
Sample,19054,0,"D2S_s.ogg",75
Sample,19257,0,"D2S_s.ogg",75
Sample,21081,0,"D2S_s.ogg",75
Sample,21081,0,"A2S_s.ogg",75
Sample,21081,0,"D3S_s.ogg",75
Sample,21993,0,"D2S_s.ogg",75
Sample,22297,0,"D2S_s.ogg",75
Sample,22500,0,"D2S_s.ogg",75
Sample,24324,0,"D2S_s.ogg",75
Sample,24324,0,"A2S_s.ogg",75
Sample,24324,0,"D3S_s.ogg",75
Sample,25946,0,"A2S_s.ogg",75
Sample,25946,0,"D3S_s.ogg",75
Sample,25946,0,"D2S_s.ogg",75
Sample,27568,0,"D2S_s.ogg",75
Sample,27568,0,"A2S_s.ogg",75
Sample,27568,0,"D3S_s.ogg",75
Sample,28480,0,"D2S_s.ogg",75
Sample,28784,0,"D2S_s.ogg",75
Sample,28986,0,"D2S_s.ogg",75
Sample,30811,0,"D2S_s.ogg",75
Sample,30811,0,"A2S_s.ogg",75
Sample,30811,0,"D3S_s.ogg",75
Sample,31723,0,"D2S_s.ogg",75
Sample,32027,0,"D2S_s.ogg",75
Sample,32230,0,"D2S_s.ogg",75
Sample,34054,0,"D2S_s.ogg",75
Sample,34054,0,"A2S_s.ogg",75
Sample,34054,0,"D3S_s.ogg",75
Sample,34966,0,"D2S_s.ogg",75
Sample,35270,0,"D2S_s.ogg",75
Sample,35473,0,"D2S_s.ogg",75
Sample,37297,0,"D2S_s.ogg",75
Sample,37297,0,"A2S_s.ogg",75
Sample,37297,0,"D3S_s.ogg",75
Sample,38919,0,"A2S_s.ogg",75
Sample,38919,0,"D3S_s.ogg",75
Sample,38919,0,"D2S_s.ogg",75
Sample,40541,0,"D2S_s.ogg",75
Sample,40541,0,"A2S_s.ogg",75
Sample,40541,0,"D3S_s.ogg",75
Sample,41757,0,"D2S_s.ogg",75
Sample,41959,0,"D2S_s.ogg",75
Sample,43581,0,"E3S_s.ogg",75
Sample,44392,0,"F3S_s.ogg",75
Sample,45203,0,"E3S_s.ogg",75
Sample,46013,0,"E3S_s.ogg",75
Sample,46824,0,"D#3S_Eb3S_s.ogg",75
Sample,50068,0,"D3S_s.ogg",75
Sample,50878,0,"D#3S_Eb3S_s.ogg",75
Sample,51689,0,"D3S_s.ogg",75
Sample,53311,0,"C#3S_Db3S_s.ogg",75
Sample,56554,0,"E3S_s.ogg",75
Sample,57365,0,"F3S_s.ogg",75
Sample,58176,0,"E3S_s.ogg",75
Sample,58986,0,"E3S_s.ogg",75
Sample,59797,0,"D#3S_Eb3S_s.ogg",75
Sample,63040,0,"D3S_s.ogg",75
Sample,63851,0,"D#3S_Eb3S_s.ogg",75
Sample,64662,0,"D3S_s.ogg",75
Sample,66284,0,"C#3S_Db3S_s.ogg",75
Sample,68311,0,"D2S_s.ogg",75
Sample,68513,0,"D2S_s.ogg",75
Sample,68716,0,"D2S_s.ogg",75
Sample,68919,0,"D2S_s.ogg",75
Sample,70540,0,"C2S_s.ogg",75
Sample,73176,0,"F2S_s.ogg",75
Sample,73378,0,"F2S_s.ogg",75
Sample,73581,0,"F2S_s.ogg",75
Sample,74797,0,"D#2S_Eb2S_s.ogg",75
Sample,75203,0,"D#2S_Eb2S_s.ogg",75
Sample,75405,0,"D#2S_Eb2S_s.ogg",75
Sample,76013,0,"D#2S_Eb2S_s.ogg",75
Sample,76419,0,"D2S_s.ogg",75
Sample,76622,0,"null_s.ogg",75
Sample,77027,0,"F2S_s.ogg",75
Sample,78243,0,"null_s.ogg",75
Sample,78446,0,"D2S_s.ogg",75
Sample,78649,0,"F2S_s.ogg",75
Sample,79054,0,"F2S_s.ogg",75
Sample,79459,0,"F2S_s.ogg",75
Sample,81284,0,"D2S_s.ogg",75
Sample,81486,0,"D2S_s.ogg",75
Sample,81689,0,"D2S_s.ogg",75
Sample,81892,0,"D2S_s.ogg",75
Sample,83513,0,"C2S_s.ogg",75
Sample,86149,0,"F2S_s.ogg",75
Sample,86351,0,"F2S_s.ogg",75
Sample,86554,0,"F2S_s.ogg",75
Sample,87770,0,"D#2S_Eb2S_s.ogg",75
Sample,88176,0,"D#2S_Eb2S_s.ogg",75
Sample,88378,0,"D#2S_Eb2S_s.ogg",75
Sample,88986,0,"D#2S_Eb2S_s.ogg",75
Sample,89392,0,"D2S_s.ogg",75
Sample,89595,0,"null_s.ogg",75
Sample,90000,0,"F2S_s.ogg",75
Sample,91216,0,"null_s.ogg",75
Sample,91419,0,"D2S_s.ogg",75
Sample,91622,0,"F2S_s.ogg",75
Sample,92027,0,"F2S_s.ogg",75
Sample,92635,0,"null_s.ogg",75
Sample,92838,0,"null_s.ogg",75
Sample,93040,0,"null_s.ogg",75
Sample,93243,0,"null_s.ogg",75
Sample,93649,0,"null_s.ogg",75
Sample,94257,0,"null_s.ogg",75
Sample,94459,0,"null_s.ogg",75
Sample,94662,0,"null_s.ogg",75
Sample,94865,0,"null_s.ogg",75
Sample,95270,0,"null_s.ogg",75
Sample,97703,0,"null_s.ogg",75
Sample,97905,0,"null_s.ogg",75
Sample,98108,0,"null_s.ogg",75
Sample,98513,0,"null_s.ogg",75
Sample,99122,0,"null_s.ogg",75
Sample,99324,0,"null_s.ogg",75
Sample,99527,0,"null_s.ogg",75
Sample,99730,0,"null_s.ogg",75
Sample,100135,0,"null_s.ogg",75
Sample,100743,0,"null_s.ogg",75
Sample,100946,0,"null_s.ogg",75
Sample,101149,0,"null_s.ogg",75
Sample,101351,0,"null_s.ogg",75
Sample,101757,0,"null_s.ogg",75
Sample,123243,0,"D2S_s.ogg",75
Sample,123243,0,"A2S_s.ogg",75
Sample,123243,0,"D3S_s.ogg",75
Sample,124155,0,"D2S_s.ogg",75
Sample,124459,0,"D2S_s.ogg",75
Sample,124662,0,"D2S_s.ogg",75
Sample,126486,0,"D2S_s.ogg",75
Sample,126486,0,"A2S_s.ogg",75
Sample,126486,0,"D3S_s.ogg",75
Sample,127398,0,"D2S_s.ogg",75
Sample,127702,0,"D2S_s.ogg",75
Sample,127905,0,"D2S_s.ogg",75
Sample,129729,0,"D2S_s.ogg",75
Sample,129729,0,"A2S_s.ogg",75
Sample,129729,0,"D3S_s.ogg",75
Sample,131351,0,"A2S_s.ogg",75
Sample,131351,0,"D3S_s.ogg",75
Sample,131351,0,"D2S_s.ogg",75
Sample,132973,0,"D2S_s.ogg",75
Sample,132973,0,"A2S_s.ogg",75
Sample,132973,0,"D3S_s.ogg",75
Sample,133885,0,"D2S_s.ogg",75
Sample,134189,0,"D2S_s.ogg",75
Sample,134391,0,"D2S_s.ogg",75
Sample,136216,0,"D2S_s.ogg",75
Sample,136216,0,"A2S_s.ogg",75
Sample,136216,0,"D3S_s.ogg",75
Sample,137128,0,"D2S_s.ogg",75
Sample,137432,0,"D2S_s.ogg",75
Sample,137635,0,"D2S_s.ogg",75
Sample,139459,0,"D2S_s.ogg",75
Sample,139459,0,"A2S_s.ogg",75
Sample,139459,0,"D3S_s.ogg",75
Sample,140371,0,"D2S_s.ogg",75
Sample,140675,0,"D2S_s.ogg",75
Sample,140878,0,"D2S_s.ogg",75
Sample,142702,0,"D2S_s.ogg",75
Sample,142702,0,"A2S_s.ogg",75
Sample,142702,0,"D3S_s.ogg",75
Sample,144324,0,"A2S_s.ogg",75
Sample,144324,0,"D3S_s.ogg",75
Sample,144324,0,"D2S_s.ogg",75
Sample,145946,0,"D2S_s.ogg",75
Sample,145946,0,"A2S_s.ogg",75
Sample,145946,0,"D3S_s.ogg",75
Sample,147162,0,"D2S_s.ogg",75
Sample,147364,0,"D2S_s.ogg",75
Sample,148986,0,"E3S_s.ogg",75
Sample,149797,0,"F3S_s.ogg",75
Sample,150608,0,"E3S_s.ogg",75
Sample,151418,0,"E3S_s.ogg",75
Sample,152229,0,"D#3S_Eb3S_s.ogg",75
Sample,155473,0,"D3S_s.ogg",75
Sample,156283,0,"D#3S_Eb3S_s.ogg",75
Sample,157094,0,"D3S_s.ogg",75
Sample,158716,0,"C#3S_Db3S_s.ogg",75
Sample,161959,0,"E3S_s.ogg",75
Sample,162770,0,"F3S_s.ogg",75
Sample,163581,0,"E3S_s.ogg",75
Sample,164391,0,"E3S_s.ogg",75
Sample,165202,0,"D#3S_Eb3S_s.ogg",75
Sample,168445,0,"D3S_s.ogg",75
Sample,169256,0,"D#3S_Eb3S_s.ogg",75
Sample,170067,0,"D3S_s.ogg",75
Sample,171689,0,"C#3S_Db3S_s.ogg",75
Sample,173716,0,"D2S_s.ogg",75
Sample,173918,0,"D2S_s.ogg",75
Sample,174121,0,"D2S_s.ogg",75
Sample,174324,0,"D2S_s.ogg",75
Sample,175945,0,"C2S_s.ogg",75
Sample,178581,0,"F2S_s.ogg",75
Sample,178783,0,"F2S_s.ogg",75
Sample,178986,0,"F2S_s.ogg",75
Sample,180202,0,"D#2S_Eb2S_s.ogg",75
Sample,180608,0,"D#2S_Eb2S_s.ogg",75
Sample,180810,0,"D#2S_Eb2S_s.ogg",75
Sample,181418,0,"D#2S_Eb2S_s.ogg",75
Sample,181824,0,"D2S_s.ogg",75
Sample,182027,0,"null_s.ogg",75
Sample,182432,0,"F2S_s.ogg",75
Sample,183648,0,"null_s.ogg",75
Sample,183851,0,"D2S_s.ogg",75
Sample,184054,0,"F2S_s.ogg",75
Sample,184459,0,"F2S_s.ogg",75
Sample,184864,0,"F2S_s.ogg",75
Sample,186689,0,"D2S_s.ogg",75
Sample,186891,0,"D2S_s.ogg",75
Sample,187094,0,"D2S_s.ogg",75
Sample,187297,0,"D2S_s.ogg",75
Sample,188918,0,"C2S_s.ogg",75
Sample,191554,0,"F2S_s.ogg",75
Sample,191756,0,"F2S_s.ogg",75
Sample,191959,0,"F2S_s.ogg",75
Sample,193175,0,"D#2S_Eb2S_s.ogg",75
Sample,193581,0,"D#2S_Eb2S_s.ogg",75
Sample,193783,0,"D#2S_Eb2S_s.ogg",75
Sample,194391,0,"D#2S_Eb2S_s.ogg",75
Sample,194797,0,"D2S_s.ogg",75
Sample,195000,0,"null_s.ogg",75
Sample,195405,0,"F2S_s.ogg",75
Sample,196621,0,"null_s.ogg",75
Sample,196824,0,"D2S_s.ogg",75
Sample,197027,0,"F2S_s.ogg",75
Sample,197432,0,"F2S_s.ogg",75
Sample,198040,0,"null_s.ogg",75
Sample,198243,0,"null_s.ogg",75
Sample,198445,0,"null_s.ogg",75
Sample,198648,0,"null_s.ogg",75
Sample,199054,0,"null_s.ogg",75
Sample,199662,0,"null_s.ogg",75
Sample,199864,0,"null_s.ogg",75
Sample,200067,0,"null_s.ogg",75
Sample,200270,0,"null_s.ogg",75
Sample,200675,0,"null_s.ogg",75
Sample,203108,0,"null_s.ogg",75
Sample,203310,0,"null_s.ogg",75
Sample,203513,0,"null_s.ogg",75
Sample,203918,0,"null_s.ogg",75
Sample,204527,0,"null_s.ogg",75
Sample,204729,0,"null_s.ogg",75
Sample,204932,0,"null_s.ogg",75
Sample,205135,0,"null_s.ogg",75
Sample,205540,0,"null_s.ogg",75
Sample,206148,0,"null_s.ogg",75
Sample,206351,0,"null_s.ogg",75
Sample,206554,0,"null_s.ogg",75
Sample,206756,0,"null_s.ogg",75
Sample,207162,0,"null_s.ogg",75

[TimingPoints]
0,405.405,4,1,1,100,1,0

[HitObjects]
156,192,0,5,0,0:0:0:50:D2S_s.ogg
448,192,0,1,0,0:0:0:50:D3S_s.ogg
83,192,304,1,0,0:0:0:50:D2S_s.ogg
302,192,304,1,0,0:0:0:50:D3S_s.ogg
10,192,608,1,0,0:0:0:50:D2S_s.ogg
375,192,608,1,0,0:0:0:50:D3S_s.ogg
156,192,912,1,0,0:0:0:50:D2S_s.ogg
229,192,912,1,0,0:0:0:50:D3S_s.ogg
83,192,1216,1,0,0:0:0:50:D2S_s.ogg
448,192,1216,1,0,0:0:0:50:D3S_s.ogg
10,192,1418,1,0,0:0:0:50:D2S_s.ogg
302,192,1418,1,0,0:0:0:50:D3S_s.ogg
229,192,1621,1,0,0:0:0:50:D2S_s.ogg
375,192,1621,1,0,0:0:0:50:D3S_s.ogg
156,192,1925,1,0,0:0:0:50:D2S_s.ogg
448,192,1925,1,0,0:0:0:50:D3S_s.ogg
83,192,2229,1,0,0:0:0:50:D2S_s.ogg
302,192,2229,1,0,0:0:0:50:D3S_s.ogg
10,192,2533,1,0,0:0:0:50:D2S_s.ogg
229,192,2533,1,0,0:0:0:50:D3S_s.ogg
156,192,2837,1,0,0:0:0:50:D2S_s.ogg
375,192,2837,1,0,0:0:0:50:D3S_s.ogg
83,192,3040,1,0,0:0:0:50:D2S_s.ogg
448,192,3040,1,0,0:0:0:50:D3S_s.ogg
229,192,3243,1,0,0:0:0:50:D2S_s.ogg
302,192,3243,1,0,0:0:0:50:D3S_s.ogg
10,192,3547,1,0,0:0:0:50:D2S_s.ogg
375,192,3547,1,0,0:0:0:50:D3S_s.ogg
156,192,3851,1,0,0:0:0:50:D2S_s.ogg
448,192,3851,1,0,0:0:0:50:D3S_s.ogg
83,192,4054,1,0,0:0:0:62:E3S.ogg
302,192,4054,1,0,0:0:0:62:G#3S_Ab3S.ogg
229,192,4155,1,0,0:0:0:50:D2S_s.ogg
375,192,4155,1,0,0:0:0:50:D3S_s.ogg
10,192,4459,1,0,0:0:0:50:D2S_s.ogg
448,192,4459,1,0,0:0:0:50:D3S_s.ogg
156,192,4662,1,0,0:0:0:50:D2S_s.ogg
302,192,4662,1,0,0:0:0:50:D3S_s.ogg
83,192,4864,1,0,0:0:0:50:D3S_s.ogg
229,192,4864,1,0,0:0:0:62:F3S.ogg
375,192,4864,1,0,0:0:0:62:A3S.ogg
10,192,5168,1,0,0:0:0:50:D2S_s.ogg
448,192,5168,1,0,0:0:0:50:D3S_s.ogg
156,192,5472,1,0,0:0:0:50:D2S_s.ogg
302,192,5472,1,0,0:0:0:50:D3S_s.ogg
83,192,5675,1,0,0:0:0:62:E3S_s.ogg
10,192,5777,1,0,0:0:0:50:D2S_s.ogg
229,192,5777,1,0,0:0:0:50:D3S_s.ogg
375,192,5777,1,0,0:0:0:62:F3S_s.ogg
448,192,5878,1,0,0:0:0:62:E3S_s.ogg
156,192,5979,1,0,0:0:0:62:F3S_s.ogg
83,192,6081,1,0,0:0:0:50:D2S_s.ogg
302,192,6081,1,0,0:0:0:50:D3S_s.ogg
375,192,6081,1,0,0:0:0:62:E3S_s.ogg
229,192,6182,1,0,0:0:0:62:F3S_s.ogg
10,192,6283,1,0,0:0:0:50:D2S_s.ogg
156,192,6283,1,0,0:0:0:50:D3S_s.ogg
448,192,6283,1,0,0:0:0:62:E3S_s.ogg
302,192,6385,1,0,0:0:0:62:F3S_s.ogg
83,192,6486,1,0,0:0:0:50:D2S_s.ogg
375,192,6486,1,0,0:0:0:50:D3S_s.ogg
229,192,6790,1,0,0:0:0:50:D2S_s.ogg
448,192,6790,1,0,0:0:0:50:D3S_s.ogg
10,192,7094,1,0,0:0:0:50:D2S_s.ogg
156,192,7094,1,0,0:0:0:50:D3S_s.ogg
83,192,7297,1,0,0:0:0:62:G#3S_Ab3S.ogg
302,192,7297,1,0,0:0:0:62:C4S.ogg
229,192,7398,1,0,0:0:0:50:D2S_s.ogg
375,192,7398,1,0,0:0:0:50:D3S_s.ogg
156,192,7702,1,0,0:0:0:50:D2S_s.ogg
448,192,7702,1,0,0:0:0:50:D3S_s.ogg
10,192,7905,1,0,0:0:0:50:D2S_s.ogg
302,192,7905,1,0,0:0:0:50:D3S_s.ogg
83,192,8108,1,0,0:0:0:50:D3S_s.ogg
229,192,8108,1,0,0:0:0:62:F3S.ogg
375,192,8108,1,0,0:0:0:62:A3S.ogg
156,192,8412,1,0,0:0:0:50:D2S_s.ogg
448,192,8412,1,0,0:0:0:50:D3S_s.ogg
10,192,8716,1,0,0:0:0:50:D2S_s.ogg
302,192,8716,1,0,0:0:0:50:D3S_s.ogg
375,192,8918,1,0,0:0:0:62:E3S_s.ogg
83,192,9020,1,0,0:0:0:50:D2S_s.ogg
229,192,9020,1,0,0:0:0:50:D3S_s.ogg
448,192,9020,1,0,0:0:0:62:F3S_s.ogg
156,192,9121,1,0,0:0:0:62:E3S_s.ogg
302,192,9222,1,0,0:0:0:62:F3S_s.ogg
10,192,9324,1,0,0:0:0:50:D2S_s.ogg
83,192,9324,1,0,0:0:0:50:D3S_s.ogg
375,192,9324,1,0,0:0:0:62:E3S_s.ogg
229,192,9425,1,0,0:0:0:62:F3S_s.ogg
156,192,9527,1,0,0:0:0:50:D2S_s.ogg
302,192,9527,1,0,0:0:0:50:D3S_s.ogg
448,192,9527,1,0,0:0:0:62:E3S_s.ogg
83,192,9628,1,0,0:0:0:62:F3S_s.ogg
10,192,9729,1,0,0:0:0:50:D2S_s.ogg
375,192,9729,1,0,0:0:0:50:D3S_s.ogg
229,192,10033,1,0,0:0:0:50:D2S_s.ogg
448,192,10033,1,0,0:0:0:50:D3S_s.ogg
156,192,10337,1,0,0:0:0:50:D2S_s.ogg
302,192,10337,1,0,0:0:0:50:D3S_s.ogg
83,192,10540,1,0,0:0:0:62:E3S.ogg
375,192,10540,1,0,0:0:0:62:G#3S_Ab3S.ogg
10,192,10641,1,0,0:0:0:50:D2S_s.ogg
448,192,10641,1,0,0:0:0:50:D3S_s.ogg
229,192,10945,1,0,0:0:0:50:D2S_s.ogg
302,192,10945,1,0,0:0:0:50:D3S_s.ogg
156,192,11148,1,0,0:0:0:50:D2S_s.ogg
375,192,11148,1,0,0:0:0:50:D3S_s.ogg
10,192,11351,1,0,0:0:0:50:D3S_s.ogg
83,192,11351,1,0,0:0:0:62:F3S.ogg
448,192,11351,1,0,0:0:0:62:A3S.ogg
229,192,11655,1,0,0:0:0:50:D2S_s.ogg
302,192,11655,1,0,0:0:0:50:D3S_s.ogg
156,192,11959,1,0,0:0:0:50:D2S_s.ogg
375,192,11959,1,0,0:0:0:50:D3S_s.ogg
83,192,12162,1,0,0:0:0:62:G3S.ogg
448,192,12162,1,0,0:0:0:62:B3S.ogg
10,192,12263,1,0,0:0:0:50:D2S_s.ogg
302,192,12263,1,0,0:0:0:50:D3S_s.ogg
229,192,12567,1,0,0:0:0:50:D2S_s.ogg
375,192,12567,1,0,0:0:0:50:D3S_s.ogg
156,192,12770,1,0,0:0:0:50:D2S_s.ogg
448,192,12770,1,0,0:0:0:50:D3S_s.ogg
10,192,12972,1,0,0:0:0:50:D3S_s.ogg
83,192,12972,1,0,0:0:0:62:G#3S_Ab3S.ogg
302,192,12972,1,0,0:0:0:62:C4S.ogg
229,192,13277,1,0,0:0:0:50:D2S_s.ogg
375,192,13277,1,0,0:0:0:50:D3S_s.ogg
156,192,13581,1,0,0:0:0:50:D2S_s.ogg
448,192,13581,1,0,0:0:0:50:D3S_s.ogg
10,192,13783,1,0,0:0:0:62:E3S.ogg
302,192,13783,1,0,0:0:0:62:G#3S_Ab3S.ogg
83,192,13885,1,0,0:0:0:50:D2S_s.ogg
375,192,13885,1,0,0:0:0:50:D3S_s.ogg
156,192,14189,1,0,0:0:0:50:D2S_s.ogg
229,192,14189,1,0,0:0:0:50:D3S_s.ogg
10,192,14391,1,0,0:0:0:50:D2S_s.ogg
448,192,14391,1,0,0:0:0:50:D3S_s.ogg
83,192,14594,1,0,0:0:0:62:F3S.ogg
302,192,14594,1,0,0:0:0:62:A3S.ogg
375,192,15202,1,0,0:0:0:72:D3S_s.ogg
229,192,15304,1,0,0:0:0:74:C3S_s.ogg
156,192,15405,1,0,0:0:0:75:D3S_s.ogg
448,192,15405,1,0,0:0:0:75:E3S_s.ogg
10,192,15506,1,0,0:0:0:77:F3S_s.ogg
302,192,15608,1,0,0:0:0:78:E3S_s.ogg
83,192,15709,1,0,0:0:0:80:A2S_s.ogg
375,192,15709,1,0,0:0:0:80:F3S_s.ogg
229,192,15760,1,0,0:0:0:80:G#2S_Ab2S_s.ogg
156,192,15810,1,0,0:0:0:81:E3S_s.ogg
10,192,15912,1,0,0:0:0:83:F2S_s.ogg
448,192,15912,1,0,0:0:0:83:F3S_s.ogg
83,192,16013,1,0,0:0:0:85:D2S_s.ogg
302,192,16013,1,0,0:0:0:85:E3S_s.ogg
375,192,16114,1,0,0:0:0:86:F3S_s.ogg
156,192,16216,1,0,0:0:0:75:D2S_s.ogg
229,192,16216,1,0,0:0:0:75:A2S_s.ogg
448,192,16216,1,0,0:0:0:75:D3S_s.ogg
10,192,16520,1,0,0:0:0:75:D2S_s.ogg
83,192,16520,1,0,0:0:0:75:A2S_s.ogg
302,192,16520,1,0,0:0:0:75:D3S_s.ogg
156,192,16824,1,0,0:0:0:75:D2S_s.ogg
229,192,16824,1,0,0:0:0:75:A2S_s.ogg
375,192,16824,1,0,0:0:0:75:D3S_s.ogg
83,192,17027,1,0,0:0:0:88:G#3S_Ab3S.ogg
302,192,17027,1,0,0:0:0:88:E4S.ogg
448,192,17027,1,0,0:0:0:88:G#4S_Ab4S.ogg
10,192,17128,1,0,0:0:0:75:D2S_s.ogg
156,192,17128,1,0,0:0:0:75:A2S_s.ogg
375,192,17128,1,0,0:0:0:75:D3S_s.ogg
83,192,17432,1,0,0:0:0:75:D2S_s.ogg
229,192,17432,1,0,0:0:0:75:A2S_s.ogg
302,192,17432,1,0,0:0:0:75:D3S_s.ogg
156,192,17635,1,0,0:0:0:75:D2S_s.ogg
375,192,17635,1,0,0:0:0:75:A2S_s.ogg
448,192,17635,1,0,0:0:0:75:D3S_s.ogg
10,192,17837,1,0,0:0:0:88:A3S.ogg
229,192,17837,1,0,0:0:0:88:F4S.ogg
302,192,17837,1,0,0:0:0:88:A4S.ogg
83,192,18141,1,0,0:0:0:75:D2S_s.ogg
156,192,18141,1,0,0:0:0:75:A2S_s.ogg
375,192,18141,1,0,0:0:0:75:D3S_s.ogg
10,192,18445,1,0,0:0:0:75:D2S_s.ogg
229,192,18445,1,0,0:0:0:75:A2S_s.ogg
448,192,18445,1,0,0:0:0:75:D3S_s.ogg
302,192,18648,1,0,0:0:0:88:E3S_s.ogg
83,192,18749,1,0,0:0:0:75:A2S_s.ogg
156,192,18749,1,0,0:0:0:75:D3S_s.ogg
375,192,18749,1,0,0:0:0:88:F3S_s.ogg
448,192,18851,1,0,0:0:0:88:E3S_s.ogg
10,192,18952,1,0,0:0:0:88:F3S_s.ogg
156,192,19054,1,0,0:0:0:75:A2S_s.ogg
229,192,19054,1,0,0:0:0:75:D3S_s.ogg
302,192,19054,1,0,0:0:0:88:E3S_s.ogg
375,192,19155,1,0,0:0:0:88:F3S_s.ogg
10,192,19256,1,0,0:0:0:75:A2S_s.ogg
83,192,19256,1,0,0:0:0:75:D3S_s.ogg
448,192,19256,1,0,0:0:0:88:E3S_s.ogg
302,192,19358,1,0,0:0:0:88:F3S_s.ogg
156,192,19459,1,0,0:0:0:75:D2S_s.ogg
229,192,19459,1,0,0:0:0:75:A2S_s.ogg
375,192,19459,1,0,0:0:0:75:D3S_s.ogg
10,192,19763,1,0,0:0:0:75:D2S_s.ogg
83,192,19763,1,0,0:0:0:75:A2S_s.ogg
448,192,19763,1,0,0:0:0:75:D3S_s.ogg
156,192,20067,1,0,0:0:0:75:D2S_s.ogg
229,192,20067,1,0,0:0:0:75:A2S_s.ogg
302,192,20067,1,0,0:0:0:75:D3S_s.ogg
10,192,20270,1,0,0:0:0:88:C4S.ogg
375,192,20270,1,0,0:0:0:88:G#4S_Ab4S.ogg
448,192,20270,1,0,0:0:0:88:C5S.ogg
83,192,20371,1,0,0:0:0:75:D2S_s.ogg
229,192,20371,1,0,0:0:0:75:A2S_s.ogg
302,192,20371,1,0,0:0:0:75:D3S_s.ogg
10,192,20675,1,0,0:0:0:75:D2S_s.ogg
156,192,20675,1,0,0:0:0:75:A2S_s.ogg
375,192,20675,1,0,0:0:0:75:D3S_s.ogg
83,192,20878,1,0,0:0:0:75:D2S_s.ogg
302,192,20878,1,0,0:0:0:75:A2S_s.ogg
448,192,20878,1,0,0:0:0:75:D3S_s.ogg
156,192,21081,1,0,0:0:0:88:A3S.ogg
229,192,21081,1,0,0:0:0:88:F4S.ogg
375,192,21081,1,0,0:0:0:88:A4S.ogg
10,192,21385,1,0,0:0:0:75:D2S_s.ogg
83,192,21385,1,0,0:0:0:75:A2S_s.ogg
302,192,21385,1,0,0:0:0:75:D3S_s.ogg
156,192,21689,1,0,0:0:0:75:D2S_s.ogg
375,192,21689,1,0,0:0:0:75:A2S_s.ogg
448,192,21689,1,0,0:0:0:75:D3S_s.ogg
229,192,21891,1,0,0:0:0:88:E3S_s.ogg
10,192,21993,1,0,0:0:0:75:A2S_s.ogg
83,192,21993,1,0,0:0:0:75:D3S_s.ogg
302,192,21993,1,0,0:0:0:88:F3S_s.ogg
448,192,22094,1,0,0:0:0:88:E3S_s.ogg
156,192,22195,1,0,0:0:0:88:F3S_s.ogg
229,192,22297,1,0,0:0:0:75:A2S_s.ogg
302,192,22297,1,0,0:0:0:75:D3S_s.ogg
375,192,22297,1,0,0:0:0:88:E3S_s.ogg
10,192,22398,1,0,0:0:0:88:F3S_s.ogg
83,192,22499,1,0,0:0:0:75:A2S_s.ogg
156,192,22499,1,0,0:0:0:75:D3S_s.ogg
448,192,22499,1,0,0:0:0:88:E3S_s.ogg
302,192,22601,1,0,0:0:0:88:F3S_s.ogg
10,192,22702,1,0,0:0:0:75:D2S_s.ogg
229,192,22702,1,0,0:0:0:75:A2S_s.ogg
375,192,22702,1,0,0:0:0:75:D3S_s.ogg
83,192,23006,1,0,0:0:0:75:D2S_s.ogg
156,192,23006,1,0,0:0:0:75:A2S_s.ogg
448,192,23006,1,0,0:0:0:75:D3S_s.ogg
10,192,23310,1,0,0:0:0:75:D2S_s.ogg
229,192,23310,1,0,0:0:0:75:A2S_s.ogg
302,192,23310,1,0,0:0:0:75:D3S_s.ogg
83,192,23513,1,0,0:0:0:88:G#3S_Ab3S.ogg
375,192,23513,1,0,0:0:0:88:E4S.ogg
448,192,23513,1,0,0:0:0:88:G#4S_Ab4S.ogg
10,192,23614,1,0,0:0:0:75:D2S_s.ogg
156,192,23614,1,0,0:0:0:75:A2S_s.ogg
302,192,23614,1,0,0:0:0:75:D3S_s.ogg
83,192,23918,1,0,0:0:0:75:D2S_s.ogg
229,192,23918,1,0,0:0:0:75:A2S_s.ogg
448,192,23918,1,0,0:0:0:75:D3S_s.ogg
156,192,24121,1,0,0:0:0:75:D2S_s.ogg
302,192,24121,1,0,0:0:0:75:A2S_s.ogg
375,192,24121,1,0,0:0:0:75:D3S_s.ogg
10,192,24324,1,0,0:0:0:88:A3S.ogg
229,192,24324,1,0,0:0:0:88:F4S.ogg
448,192,24324,1,0,0:0:0:88:A4S.ogg
83,192,24628,1,0,0:0:0:75:D2S_s.ogg
156,192,24628,1,0,0:0:0:75:A2S_s.ogg
375,192,24628,1,0,0:0:0:75:D3S_s.ogg
10,192,24932,1,0,0:0:0:75:D2S_s.ogg
302,192,24932,1,0,0:0:0:75:A2S_s.ogg
448,192,24932,1,0,0:0:0:75:D3S_s.ogg
156,192,25135,1,0,0:0:0:88:B3S.ogg
229,192,25135,1,0,0:0:0:88:G4S.ogg
375,192,25135,1,0,0:0:0:88:B4S.ogg
10,192,25236,1,0,0:0:0:75:D2S_s.ogg
83,192,25236,1,0,0:0:0:75:A2S_s.ogg
302,192,25236,1,0,0:0:0:75:D3S_s.ogg
156,192,25540,1,0,0:0:0:75:D2S_s.ogg
229,192,25540,1,0,0:0:0:75:A2S_s.ogg
448,192,25540,1,0,0:0:0:75:D3S_s.ogg
10,192,25743,1,0,0:0:0:75:D2S_s.ogg
302,192,25743,1,0,0:0:0:75:A2S_s.ogg
375,192,25743,1,0,0:0:0:75:D3S_s.ogg
83,192,25945,1,0,0:0:0:88:C4S.ogg
156,192,25945,1,0,0:0:0:88:G#4S_Ab4S.ogg
448,192,25945,1,0,0:0:0:88:C5S.ogg
10,192,26249,1,0,0:0:0:75:D2S_s.ogg
229,192,26249,1,0,0:0:0:75:A2S_s.ogg
375,192,26249,1,0,0:0:0:75:D3S_s.ogg
156,192,26554,1,0,0:0:0:75:D2S_s.ogg
302,192,26554,1,0,0:0:0:75:A2S_s.ogg
448,192,26554,1,0,0:0:0:75:D3S_s.ogg
10,192,26756,1,0,0:0:0:88:G#3S_Ab3S.ogg
83,192,26756,1,0,0:0:0:88:E4S.ogg
375,192,26756,1,0,0:0:0:88:G#4S_Ab4S.ogg
156,192,26858,1,0,0:0:0:75:D2S_s.ogg
229,192,26858,1,0,0:0:0:75:A2S_s.ogg
448,192,26858,1,0,0:0:0:75:D3S_s.ogg
10,192,27162,1,0,0:0:0:75:D2S_s.ogg
302,192,27162,1,0,0:0:0:75:A2S_s.ogg
375,192,27162,1,0,0:0:0:75:D3S_s.ogg
83,192,27364,1,0,0:0:0:75:D2S_s.ogg
156,192,27364,1,0,0:0:0:75:A2S_s.ogg
448,192,27364,1,0,0:0:0:75:D3S_s.ogg
10,192,27567,1,0,0:0:0:88:A3S.ogg
229,192,27567,1,0,0:0:0:88:F4S.ogg
302,192,27567,1,0,0:0:0:88:A4S.ogg
83,192,27871,1,0,0:0:0:75:D2S_s.ogg
375,192,27871,1,0,0:0:0:75:A2S_s.ogg
448,192,27871,1,0,0:0:0:75:D3S_s.ogg
156,192,28175,1,0,0:0:0:75:D2S_s.ogg
229,192,28175,1,0,0:0:0:75:A2S_s.ogg
302,192,28175,1,0,0:0:0:75:D3S_s.ogg
10,192,28378,1,0,0:0:0:88:E3S_s.ogg
83,192,28479,1,0,0:0:0:75:A2S_s.ogg
375,192,28479,1,0,0:0:0:75:D3S_s.ogg
448,192,28479,1,0,0:0:0:88:F3S_s.ogg
156,192,28581,1,0,0:0:0:88:E3S_s.ogg
302,192,28682,1,0,0:0:0:88:F3S_s.ogg
10,192,28783,1,0,0:0:0:75:A2S_s.ogg
229,192,28783,1,0,0:0:0:75:D3S_s.ogg
448,192,28783,1,0,0:0:0:88:E3S_s.ogg
83,192,28885,1,0,0:0:0:88:F3S_s.ogg
156,192,28986,1,0,0:0:0:75:A2S_s.ogg
302,192,28986,1,0,0:0:0:75:D3S_s.ogg
375,192,28986,1,0,0:0:0:88:E3S_s.ogg
10,192,29087,1,0,0:0:0:88:F3S_s.ogg
83,192,29189,1,0,0:0:0:75:D2S_s.ogg
229,192,29189,1,0,0:0:0:75:A2S_s.ogg
448,192,29189,1,0,0:0:0:75:D3S_s.ogg
156,192,29493,1,0,0:0:0:75:D2S_s.ogg
302,192,29493,1,0,0:0:0:75:A2S_s.ogg
375,192,29493,1,0,0:0:0:75:D3S_s.ogg
10,192,29797,1,0,0:0:0:75:D2S_s.ogg
83,192,29797,1,0,0:0:0:75:A2S_s.ogg
448,192,29797,1,0,0:0:0:75:D3S_s.ogg
156,192,29999,1,0,0:0:0:88:G#3S_Ab3S.ogg
229,192,29999,1,0,0:0:0:88:E4S.ogg
302,192,29999,1,0,0:0:0:88:G#4S_Ab4S.ogg
10,192,30101,1,0,0:0:0:75:D2S_s.ogg
375,192,30101,1,0,0:0:0:75:A2S_s.ogg
448,192,30101,1,0,0:0:0:75:D3S_s.ogg
83,192,30405,1,0,0:0:0:75:D2S_s.ogg
229,192,30405,1,0,0:0:0:75:A2S_s.ogg
302,192,30405,1,0,0:0:0:75:D3S_s.ogg
10,192,30608,1,0,0:0:0:75:D2S_s.ogg
156,192,30608,1,0,0:0:0:75:A2S_s.ogg
448,192,30608,1,0,0:0:0:75:D3S_s.ogg
83,192,30810,1,0,0:0:0:88:A3S.ogg
229,192,30810,1,0,0:0:0:88:F4S.ogg
375,192,30810,1,0,0:0:0:88:A4S.ogg
10,192,31114,1,0,0:0:0:75:D2S_s.ogg
302,192,31114,1,0,0:0:0:75:A2S_s.ogg
448,192,31114,1,0,0:0:0:75:D3S_s.ogg
83,192,31418,1,0,0:0:0:75:D2S_s.ogg
156,192,31418,1,0,0:0:0:75:A2S_s.ogg
375,192,31418,1,0,0:0:0:75:D3S_s.ogg
229,192,31621,1,0,0:0:0:88:D5S_s.ogg
10,192,31722,1,0,0:0:0:75:A2S_s.ogg
302,192,31722,1,0,0:0:0:75:D3S_s.ogg
448,192,31722,1,0,0:0:0:88:A4S.ogg
83,192,31824,1,0,0:0:0:88:C5S_s.ogg
375,192,31925,1,0,0:0:0:88:G4S_s.ogg
156,192,32026,1,0,0:0:0:75:A2S_s.ogg
229,192,32026,1,0,0:0:0:75:D3S_s.ogg
302,192,32026,1,0,0:0:0:88:A#4S_Bb4S_s.ogg
10,192,32128,1,0,0:0:0:88:F4S_s.ogg
83,192,32229,1,0,0:0:0:75:A2S_s.ogg
375,192,32229,1,0,0:0:0:75:D3S_s.ogg
448,192,32229,1,0,0:0:0:88:G#4S_Ab4S_s.ogg
156,192,32331,1,0,0:0:0:88:D4S_s.ogg
10,192,32432,1,0,0:0:0:75:D2S_s.ogg
229,192,32432,1,0,0:0:0:75:A2S_s.ogg
302,192,32432,1,0,0:0:0:75:D3S_s.ogg
83,192,32736,1,0,0:0:0:75:D2S_s.ogg
375,192,32736,1,0,0:0:0:75:A2S_s.ogg
448,192,32736,1,0,0:0:0:75:D3S_s.ogg
10,192,33040,1,0,0:0:0:75:D2S_s.ogg
156,192,33040,1,0,0:0:0:75:A2S_s.ogg
302,192,33040,1,0,0:0:0:75:D3S_s.ogg
83,192,33243,1,0,0:0:0:88:C4S.ogg
229,192,33243,1,0,0:0:0:88:G#4S_Ab4S.ogg
375,192,33243,1,0,0:0:0:88:C5S.ogg
156,192,33344,1,0,0:0:0:75:D2S_s.ogg
302,192,33344,1,0,0:0:0:75:A2S_s.ogg
448,192,33344,1,0,0:0:0:75:D3S_s.ogg
10,192,33648,1,0,0:0:0:75:D2S_s.ogg
229,192,33648,1,0,0:0:0:75:A2S_s.ogg
375,192,33648,1,0,0:0:0:75:D3S_s.ogg
83,192,33851,1,0,0:0:0:75:D2S_s.ogg
156,192,33851,1,0,0:0:0:75:A2S_s.ogg
302,192,33851,1,0,0:0:0:75:D3S_s.ogg
10,192,34054,1,0,0:0:0:88:A3S.ogg
229,192,34054,1,0,0:0:0:88:F4S.ogg
448,192,34054,1,0,0:0:0:88:A4S.ogg
156,192,34358,1,0,0:0:0:75:D2S_s.ogg
302,192,34358,1,0,0:0:0:75:A2S_s.ogg
375,192,34358,1,0,0:0:0:75:D3S_s.ogg
10,192,34662,1,0,0:0:0:75:D2S_s.ogg
83,192,34662,1,0,0:0:0:75:A2S_s.ogg
448,192,34662,1,0,0:0:0:75:D3S_s.ogg
229,192,34864,1,0,0:0:0:88:D4S_s.ogg
156,192,34966,1,0,0:0:0:75:A2S_s.ogg
302,192,34966,1,0,0:0:0:75:D3S_s.ogg
375,192,34966,1,0,0:0:0:88:G#4S_Ab4S_s.ogg
83,192,35067,1,0,0:0:0:88:F4S.ogg
448,192,35168,1,0,0:0:0:88:A#4S_Bb4S_s.ogg
10,192,35270,1,0,0:0:0:75:A2S_s.ogg
229,192,35270,1,0,0:0:0:75:D3S_s.ogg
302,192,35270,1,0,0:0:0:88:G4S_s.ogg
156,192,35371,1,0,0:0:0:88:C5S_s.ogg
83,192,35472,1,0,0:0:0:75:A2S_s.ogg
375,192,35472,1,0,0:0:0:75:D3S_s.ogg
448,192,35472,1,0,0:0:0:88:A4S_s.ogg
10,192,35574,1,0,0:0:0:88:D5S_s.ogg
156,192,35675,1,0,0:0:0:75:D2S_s.ogg
229,192,35675,1,0,0:0:0:75:A2S_s.ogg
302,192,35675,1,0,0:0:0:75:D3S_s.ogg
83,192,35979,1,0,0:0:0:75:D2S_s.ogg
375,192,35979,1,0,0:0:0:75:A2S_s.ogg
448,192,35979,1,0,0:0:0:75:D3S_s.ogg
10,192,36283,1,0,0:0:0:75:D2S_s.ogg
156,192,36283,1,0,0:0:0:75:A2S_s.ogg
302,192,36283,1,0,0:0:0:75:D3S_s.ogg
83,192,36486,1,0,0:0:0:88:G#3S_Ab3S.ogg
229,192,36486,1,0,0:0:0:88:E4S.ogg
375,192,36486,1,0,0:0:0:88:G#4S_Ab4S.ogg
156,192,36587,1,0,0:0:0:75:D2S_s.ogg
302,192,36587,1,0,0:0:0:75:A2S_s.ogg
448,192,36587,1,0,0:0:0:75:D3S_s.ogg
10,192,36891,1,0,0:0:0:75:D2S_s.ogg
229,192,36891,1,0,0:0:0:75:A2S_s.ogg
375,192,36891,1,0,0:0:0:75:D3S_s.ogg
83,192,37094,1,0,0:0:0:75:D2S_s.ogg
156,192,37094,1,0,0:0:0:75:A2S_s.ogg
448,192,37094,1,0,0:0:0:75:D3S_s.ogg
10,192,37297,1,0,0:0:0:88:A3S.ogg
229,192,37297,1,0,0:0:0:88:F4S.ogg
302,192,37297,1,0,0:0:0:88:A4S.ogg
156,192,37601,1,0,0:0:0:75:D2S_s.ogg
375,192,37601,1,0,0:0:0:75:A2S_s.ogg
448,192,37601,1,0,0:0:0:75:D3S_s.ogg
83,192,37905,1,0,0:0:0:75:D2S_s.ogg
229,192,37905,1,0,0:0:0:75:A2S_s.ogg
302,192,37905,1,0,0:0:0:75:D3S_s.ogg
10,192,38108,1,0,0:0:0:88:B3S.ogg
156,192,38108,1,0,0:0:0:88:G4S.ogg
448,192,38108,1,0,0:0:0:88:B4S.ogg
83,192,38209,1,0,0:0:0:75:D2S_s.ogg
302,192,38209,1,0,0:0:0:75:A2S_s.ogg
375,192,38209,1,0,0:0:0:75:D3S_s.ogg
156,192,38513,1,0,0:0:0:75:D2S_s.ogg
229,192,38513,1,0,0:0:0:75:A2S_s.ogg
448,192,38513,1,0,0:0:0:75:D3S_s.ogg
10,192,38716,1,0,0:0:0:75:D2S_s.ogg
83,192,38716,1,0,0:0:0:75:A2S_s.ogg
302,192,38716,1,0,0:0:0:75:D3S_s.ogg
156,192,38918,1,0,0:0:0:88:C4S.ogg
229,192,38918,1,0,0:0:0:88:G#4S_Ab4S.ogg
375,192,38918,1,0,0:0:0:88:C5S.ogg
83,192,39222,1,0,0:0:0:75:D2S_s.ogg
302,192,39222,1,0,0:0:0:75:A2S_s.ogg
448,192,39222,1,0,0:0:0:75:D3S_s.ogg
10,192,39526,1,0,0:0:0:75:D2S_s.ogg
156,192,39526,1,0,0:0:0:75:A2S_s.ogg
375,192,39526,1,0,0:0:0:75:D3S_s.ogg
83,192,39729,1,0,0:0:0:88:F4S.ogg
229,192,39729,1,0,0:0:0:88:C#5S_Db5S.ogg
448,192,39729,1,0,0:0:0:88:F5S.ogg
156,192,39831,1,0,0:0:0:75:D2S_s.ogg
302,192,39831,1,0,0:0:0:75:A2S_s.ogg
375,192,39831,1,0,0:0:0:75:D3S_s.ogg
10,192,40135,1,0,0:0:0:75:D2S_s.ogg
229,192,40135,1,0,0:0:0:75:A2S_s.ogg
448,192,40135,1,0,0:0:0:75:D3S_s.ogg
83,192,40337,1,0,0:0:0:75:D2S_s.ogg
156,192,40337,1,0,0:0:0:75:A2S_s.ogg
375,192,40337,1,0,0:0:0:75:D3S_s.ogg
10,192,40540,1,0,0:0:0:88:D4S.ogg
302,192,40540,1,0,0:0:0:88:A4S.ogg
448,192,40540,1,0,0:0:0:88:D5S.ogg
83,192,40844,1,0,0:0:0:75:D2S_s.ogg
229,192,40844,1,0,0:0:0:75:A2S_s.ogg
375,192,40844,1,0,0:0:0:75:D3S_s.ogg
10,192,41148,1,0,0:0:0:75:D2S_s.ogg
156,192,41148,1,0,0:0:0:75:A2S_s.ogg
448,192,41148,1,0,0:0:0:75:D3S_s.ogg
83,192,41452,1,0,0:0:0:75:D2S_s.ogg
229,192,41452,1,0,0:0:0:75:A2S_s.ogg
302,192,41452,1,0,0:0:0:75:D3S_s.ogg
375,192,41554,1,0,0:0:0:88:D5S_s.ogg
10,192,41756,1,0,0:0:0:75:A2S_s.ogg
156,192,41756,1,0,0:0:0:75:D3S_s.ogg
448,192,41756,1,0,0:0:0:88:F5S_s.ogg
83,192,41959,1,0,0:0:0:75:A2S_s.ogg
229,192,41959,1,0,0:0:0:75:D3S_s.ogg
302,192,41959,1,0,0:0:0:88:G#5S_Ab5S_s.ogg
10,192,42162,1,0,0:0:0:75:F3S_s.ogg
375,192,42162,1,0,0:0:0:75:A#3S_Bb3S_s.ogg
448,192,42162,1,0,0:0:0:88:A5S.ogg
156,192,42466,1,0,0:0:0:75:F3S_s.ogg
302,192,42466,1,0,0:0:0:75:A#3S_Bb3S_s.ogg
229,192,42567,1,0,0:0:0:75:F4S_s.ogg
10,192,42770,1,0,0:0:0:75:F3S_s.ogg
83,192,42770,1,0,0:0:0:75:A#3S_Bb3S_s.ogg
448,192,42770,1,0,0:0:0:75:G4S_s.ogg
156,192,43074,1,0,0:0:0:75:F3S_s.ogg
375,192,43074,1,0,0:0:0:75:A#3S_Bb3S_s.ogg
229,192,43175,1,0,0:0:0:75:F4S_s.ogg
302,192,43175,1,0,0:0:0:88:D5S_s.ogg
448,192,43378,1,0,0:0:0:88:F5S_s.ogg
10,192,43581,1,0,0:0:0:75:A3S_s.ogg
83,192,43581,1,0,0:0:0:75:D4S_s.ogg
375,192,43581,1,0,0:0:0:88:G#5S_Ab5S_s.ogg
156,192,43783,1,0,0:0:0:75:F3S_s.ogg
229,192,43783,1,0,0:0:0:75:A#3S_Bb3S_s.ogg
302,192,43783,1,0,0:0:0:88:A5S_s.ogg
83,192,44087,1,0,0:0:0:75:F3S_s.ogg
448,192,44087,1,0,0:0:0:75:A#3S_Bb3S_s.ogg
10,192,44189,1,0,0:0:0:75:F4S_s.ogg
375,192,44189,1,0,0:0:0:88:D6S_s.ogg
156,192,44391,1,0,0:0:0:75:A#3S_Bb3S_s.ogg
229,192,44391,1,0,0:0:0:75:G4S_s.ogg
302,192,44391,1,0,0:0:0:88:A5S_s.ogg
83,192,44695,1,0,0:0:0:75:F3S_s.ogg
448,192,44695,1,0,0:0:0:75:A#3S_Bb3S_s.ogg
10,192,44797,1,0,0:0:0:75:F4S_s.ogg
375,192,44797,1,0,0:0:0:88:D6S_s.ogg
302,192,44999,1,0,0:0:0:88:A5S_s.ogg
156,192,45202,1,0,0:0:0:75:A3S_s.ogg
229,192,45202,1,0,0:0:0:75:D4S_s.ogg
448,192,45202,1,0,0:0:0:88:F5S_s.ogg
10,192,45405,1,0,0:0:0:75:E3S_s.ogg
83,192,45405,1,0,0:0:0:75:A3S_s.ogg
375,192,45405,1,0,0:0:0:88:G#5S_Ab5S_s.ogg
156,192,45709,1,0,0:0:0:75:E3S_s.ogg
302,192,45709,1,0,0:0:0:75:A3S_s.ogg
229,192,45810,1,0,0:0:0:75:E4S_s.ogg
448,192,45810,1,0,0:0:0:88:G#5S_Ab5S_s.ogg
83,192,45912,1,0,0:0:0:88:G#5S_Ab5S_s.ogg
10,192,46013,1,0,0:0:0:75:A3S_s.ogg
302,192,46013,1,0,0:0:0:75:F#4S_Gb4S_s.ogg
375,192,46013,1,0,0:0:0:88:G#5S_Ab5S_s.ogg
156,192,46114,1,0,0:0:0:88:G#5S_Ab5S_s.ogg
448,192,46216,1,0,0:0:0:88:G#5S_Ab5S_s.ogg
83,192,46317,1,0,0:0:0:75:E3S_s.ogg
229,192,46317,1,0,0:0:0:75:A3S_s.ogg
375,192,46317,1,0,0:0:0:88:G#5S_Ab5S_s.ogg
10,192,46418,1,0,0:0:0:75:E4S_s.ogg
302,192,46418,1,0,0:0:0:88:G#5S_Ab5S_s.ogg
156,192,46520,1,0,0:0:0:88:G#5S_Ab5S_s.ogg
448,192,46621,1,0,0:0:0:88:G#5S_Ab5S_s.ogg
83,192,46722,1,0,0:0:0:88:G#5S_Ab5S_s.ogg
229,192,46824,1,0,0:0:0:75:G#3S_Ab3S_s.ogg
302,192,46824,1,0,0:0:0:75:C#4S_Db4S_s.ogg
375,192,46824,1,0,0:0:0:88:F#5S_Gb5S_s.ogg
10,192,46925,1,0,0:0:0:88:F5S_s.ogg
83,192,47026,1,0,0:0:0:75:E3S_s.ogg
156,192,47026,1,0,0:0:0:75:A3S_s.ogg
448,192,47026,1,0,0:0:0:88:E5S.ogg
302,192,47331,1,0,0:0:0:75:E3S_s.ogg
375,192,47331,1,0,0:0:0:75:A3S_s.ogg
229,192,47432,1,0,0:0:0:75:E4S_s.ogg
10,192,47635,1,0,0:0:0:75:E3S_s.ogg
83,192,47635,1,0,0:0:0:75:A3S_s.ogg
448,192,47635,1,0,0:0:0:75:F#4S_Gb4S_s.ogg
156,192,47837,1,0,0:0:0:88:G#5S_Ab5S.ogg
302,192,47939,1,0,0:0:0:75:E3S_s.ogg
375,192,47939,1,0,0:0:0:75:A3S_s.ogg
229,192,48040,1,0,0:0:0:75:E4S_s.ogg
10,192,48445,1,0,0:0:0:75:D#3S_Eb3S_s.ogg
83,192,48445,1,0,0:0:0:75:G#3S_Ab3S_s.ogg
448,192,48445,1,0,0:0:0:75:C#4S_Db4S_s.ogg
156,192,48648,1,0,0:0:0:75:D#3S_Eb3S_s.ogg
302,192,48648,1,0,0:0:0:75:G#3S_Ab3S_s.ogg
375,192,48648,1,0,0:0:0:88:G5S.ogg
229,192,48952,1,0,0:0:0:75:D#3S_Eb3S_s.ogg
448,192,48952,1,0,0:0:0:75:G#3S_Ab3S_s.ogg
83,192,49054,1,0,0:0:0:75:D#4S_Eb4S_s.ogg
10,192,49256,1,0,0:0:0:75:D#3S_Eb3S_s.ogg
156,192,49256,1,0,0:0:0:75:G#3S_Ab3S_s.ogg
375,192,49256,1,0,0:0:0:75:F4S_s.ogg
302,192,49560,1,0,0:0:0:75:D#3S_Eb3S_s.ogg
448,192,49560,1,0,0:0:0:75:G#3S_Ab3S_s.ogg
83,192,49662,1,0,0:0:0:75:D#4S_Eb4S_s.ogg
229,192,49662,1,0,0:0:0:88:C5S_s.ogg
375,192,49864,1,0,0:0:0:88:D#5S_Eb5S_s.ogg
10,192,50067,1,0,0:0:0:75:G3S_s.ogg
156,192,50067,1,0,0:0:0:75:C4S_s.ogg
448,192,50067,1,0,0:0:0:88:F5S_s.ogg
83,192,50270,1,0,0:0:0:75:D#3S_Eb3S_s.ogg
229,192,50270,1,0,0:0:0:75:G#3S_Ab3S_s.ogg
302,192,50270,1,0,0:0:0:88:G5S_s.ogg
156,192,50574,1,0,0:0:0:75:D#3S_Eb3S_s.ogg
375,192,50574,1,0,0:0:0:75:G#3S_Ab3S_s.ogg
10,192,50675,1,0,0:0:0:75:D#4S_Eb4S_s.ogg
448,192,50675,1,0,0:0:0:88:C6S_s.ogg
83,192,50878,1,0,0:0:0:75:G#3S_Ab3S_s.ogg
229,192,50878,1,0,0:0:0:75:F4S_s.ogg
302,192,50878,1,0,0:0:0:88:G5S_s.ogg
156,192,51182,1,0,0:0:0:75:D#3S_Eb3S_s.ogg
375,192,51182,1,0,0:0:0:75:G#3S_Ab3S_s.ogg
10,192,51283,1,0,0:0:0:75:D#4S_Eb4S_s.ogg
448,192,51283,1,0,0:0:0:88:C6S_s.ogg
302,192,51486,1,0,0:0:0:88:G5S_s.ogg
83,192,51689,1,0,0:0:0:75:G3S_s.ogg
229,192,51689,1,0,0:0:0:75:C4S_s.ogg
375,192,51689,1,0,0:0:0:88:D#5S_Eb5S_s.ogg
10,192,51891,1,0,0:0:0:75:D3S_s.ogg
156,192,51891,1,0,0:0:0:75:G3S_s.ogg
448,192,51891,1,0,0:0:0:88:D5S.ogg
83,192,52195,1,0,0:0:0:75:D3S_s.ogg
302,192,52195,1,0,0:0:0:75:G3S_s.ogg
229,192,52297,1,0,0:0:0:75:D4S_s.ogg
156,192,52499,1,0,0:0:0:75:D3S_s.ogg
375,192,52499,1,0,0:0:0:75:G3S_s.ogg
448,192,52499,1,0,0:0:0:75:E4S_s.ogg
10,192,52702,1,0,0:0:0:88:D5S_s.ogg
83,192,52804,1,0,0:0:0:75:D3S_s.ogg
229,192,52804,1,0,0:0:0:75:G3S_s.ogg
302,192,52804,1,0,0:0:0:88:D5S_s.ogg
156,192,52905,1,0,0:0:0:75:D4S_s.ogg
448,192,52905,1,0,0:0:0:88:D5S_s.ogg
375,192,53006,1,0,0:0:0:88:D5S_s.ogg
10,192,53108,1,0,0:0:0:88:D5S_s.ogg
302,192,53209,1,0,0:0:0:88:D5S_s.ogg
83,192,53310,1,0,0:0:0:75:F#3S_Gb3S_s.ogg
156,192,53310,1,0,0:0:0:75:B3S_s.ogg
229,192,53310,1,0,0:0:0:88:D5S_s.ogg
448,192,53412,1,0,0:0:0:88:D5S_s.ogg
10,192,53513,1,0,0:0:0:75:D3S_s.ogg
302,192,53513,1,0,0:0:0:75:G3S_s.ogg
375,192,53513,1,0,0:0:0:88:D5S.ogg
83,192,53817,1,0,0:0:0:75:D3S_s.ogg
156,192,53817,1,0,0:0:0:75:G3S_s.ogg
229,192,53918,1,0,0:0:0:75:D4S_s.ogg
10,192,54121,1,0,0:0:0:75:D3S_s.ogg
302,192,54121,1,0,0:0:0:75:G3S_s.ogg
448,192,54121,1,0,0:0:0:75:E4S_s.ogg
375,192,54324,1,0,0:0:0:88:A#5S_Bb5S.ogg
83,192,54425,1,0,0:0:0:75:D3S_s.ogg
156,192,54425,1,0,0:0:0:75:G3S_s.ogg
229,192,54526,1,0,0:0:0:75:D4S_s.ogg
10,192,54932,1,0,0:0:0:75:C#3S_Db3S_s.ogg
302,192,54932,1,0,0:0:0:75:F#3S_Gb3S_s.ogg
448,192,54932,1,0,0:0:0:75:B3S_s.ogg
83,192,55135,1,0,0:0:0:75:F3S_s.ogg
156,192,55135,1,0,0:0:0:75:A#3S_Bb3S_s.ogg
375,192,55135,1,0,0:0:0:88:A5S.ogg
10,192,55439,1,0,0:0:0:75:F3S_s.ogg
229,192,55439,1,0,0:0:0:75:A#3S_Bb3S_s.ogg
448,192,55540,1,0,0:0:0:75:F4S_s.ogg
156,192,55743,1,0,0:0:0:75:F3S_s.ogg
302,192,55743,1,0,0:0:0:75:A#3S_Bb3S_s.ogg
375,192,55743,1,0,0:0:0:75:G4S_s.ogg
83,192,56047,1,0,0:0:0:75:F3S_s.ogg
229,192,56047,1,0,0:0:0:75:A#3S_Bb3S_s.ogg
10,192,56148,1,0,0:0:0:75:F4S_s.ogg
448,192,56148,1,0,0:0:0:88:D5S_s.ogg
156,192,56351,1,0,0:0:0:88:F5S_s.ogg
83,192,56553,1,0,0:0:0:75:A3S_s.ogg
302,192,56553,1,0,0:0:0:75:D4S_s.ogg
375,192,56553,1,0,0:0:0:88:G#5S_Ab5S_s.ogg
10,192,56756,1,0,0:0:0:75:F3S_s.ogg
229,192,56756,1,0,0:0:0:75:A#3S_Bb3S_s.ogg
448,192,56756,1,0,0:0:0:88:A5S_s.ogg
156,192,57060,1,0,0:0:0:75:F3S_s.ogg
302,192,57060,1,0,0:0:0:75:A#3S_Bb3S_s.ogg
83,192,57162,1,0,0:0:0:75:F4S_s.ogg
375,192,57162,1,0,0:0:0:88:D6S_s.ogg
10,192,57364,1,0,0:0:0:75:A#3S_Bb3S_s.ogg
229,192,57364,1,0,0:0:0:75:G4S_s.ogg
448,192,57364,1,0,0:0:0:88:A5S_s.ogg
156,192,57668,1,0,0:0:0:75:F3S_s.ogg
302,192,57668,1,0,0:0:0:75:A#3S_Bb3S_s.ogg
83,192,57770,1,0,0:0:0:75:F4S_s.ogg
375,192,57770,1,0,0:0:0:88:D6S_s.ogg
10,192,57972,1,0,0:0:0:88:A5S_s.ogg
156,192,58175,1,0,0:0:0:75:A3S_s.ogg
229,192,58175,1,0,0:0:0:75:D4S_s.ogg
448,192,58175,1,0,0:0:0:88:F5S_s.ogg
83,192,58378,1,0,0:0:0:75:E3S_s.ogg
302,192,58378,1,0,0:0:0:75:A3S_s.ogg
375,192,58378,1,0,0:0:0:88:G#5S_Ab5S_s.ogg
10,192,58682,1,0,0:0:0:75:E3S_s.ogg
448,192,58682,1,0,0:0:0:75:A3S_s.ogg
156,192,58783,1,0,0:0:0:75:E4S_s.ogg
229,192,58783,1,0,0:0:0:88:G#5S_Ab5S_s.ogg
375,192,58885,1,0,0:0:0:88:G#5S_Ab5S_s.ogg
10,192,58986,1,0,0:0:0:75:A3S_s.ogg
83,192,58986,1,0,0:0:0:75:F#4S_Gb4S_s.ogg
302,192,58986,1,0,0:0:0:88:G#5S_Ab5S_s.ogg
448,192,59087,1,0,0:0:0:88:G#5S_Ab5S_s.ogg
229,192,59189,1,0,0:0:0:88:G#5S_Ab5S_s.ogg
83,192,59290,1,0,0:0:0:75:E3S_s.ogg
156,192,59290,1,0,0:0:0:75:A3S_s.ogg
375,192,59290,1,0,0:0:0:88:G#5S_Ab5S_s.ogg
10,192,59391,1,0,0:0:0:75:E4S_s.ogg
302,192,59391,1,0,0:0:0:88:G#5S_Ab5S_s.ogg
448,192,59493,1,0,0:0:0:88:G#5S_Ab5S_s.ogg
229,192,59594,1,0,0:0:0:88:G#5S_Ab5S_s.ogg
375,192,59695,1,0,0:0:0:88:G#5S_Ab5S_s.ogg
83,192,59797,1,0,0:0:0:75:G#3S_Ab3S_s.ogg
156,192,59797,1,0,0:0:0:75:C#4S_Db4S_s.ogg
302,192,59797,1,0,0:0:0:88:F#5S_Gb5S_s.ogg
10,192,59898,1,0,0:0:0:88:F5S_s.ogg
229,192,59999,1,0,0:0:0:75:E3S_s.ogg
375,192,59999,1,0,0:0:0:75:A3S_s.ogg
448,192,59999,1,0,0:0:0:88:E5S.ogg
156,192,60303,1,0,0:0:0:75:E3S_s.ogg
302,192,60303,1,0,0:0:0:75:A3S_s.ogg
83,192,60405,1,0,0:0:0:75:E4S_s.ogg
10,192,60608,1,0,0:0:0:75:E3S_s.ogg
229,192,60608,1,0,0:0:0:75:A3S_s.ogg
448,192,60608,1,0,0:0:0:75:F#4S_Gb4S_s.ogg
375,192,60810,1,0,0:0:0:88:G#5S_Ab5S.ogg
156,192,60912,1,0,0:0:0:75:E3S_s.ogg
302,192,60912,1,0,0:0:0:75:A3S_s.ogg
83,192,61013,1,0,0:0:0:75:E4S_s.ogg
10,192,61418,1,0,0:0:0:75:D#3S_Eb3S_s.ogg
229,192,61418,1,0,0:0:0:75:G#3S_Ab3S_s.ogg
448,192,61418,1,0,0:0:0:75:C#4S_Db4S_s.ogg
156,192,61621,1,0,0:0:0:75:D#3S_Eb3S_s.ogg
302,192,61621,1,0,0:0:0:75:G#3S_Ab3S_s.ogg
375,192,61621,1,0,0:0:0:88:G5S.ogg
83,192,61925,1,0,0:0:0:75:D#3S_Eb3S_s.ogg
448,192,61925,1,0,0:0:0:75:G#3S_Ab3S_s.ogg
229,192,62026,1,0,0:0:0:75:D#4S_Eb4S_s.ogg
10,192,62229,1,0,0:0:0:75:D#3S_Eb3S_s.ogg
156,192,62229,1,0,0:0:0:75:G#3S_Ab3S_s.ogg
302,192,62229,1,0,0:0:0:75:F4S_s.ogg
83,192,62533,1,0,0:0:0:75:D#3S_Eb3S_s.ogg
375,192,62533,1,0,0:0:0:75:G#3S_Ab3S_s.ogg
229,192,62635,1,0,0:0:0:75:D#4S_Eb4S_s.ogg
448,192,62635,1,0,0:0:0:88:C5S_s.ogg
10,192,62837,1,0,0:0:0:88:D#5S_Eb5S_s.ogg
156,192,63040,1,0,0:0:0:75:G3S_s.ogg
302,192,63040,1,0,0:0:0:75:C4S_s.ogg
375,192,63040,1,0,0:0:0:88:F5S_s.ogg
83,192,63243,1,0,0:0:0:75:D#3S_Eb3S_s.ogg
229,192,63243,1,0,0:0:0:75:G#3S_Ab3S_s.ogg
448,192,63243,1,0,0:0:0:88:G5S_s.ogg
10,192,63547,1,0,0:0:0:75:D#3S_Eb3S_s.ogg
375,192,63547,1,0,0:0:0:75:G#3S_Ab3S_s.ogg
156,192,63648,1,0,0:0:0:75:D#4S_Eb4S_s.ogg
302,192,63648,1,0,0:0:0:88:C6S_s.ogg
83,192,63851,1,0,0:0:0:75:G#3S_Ab3S_s.ogg
229,192,63851,1,0,0:0:0:75:F4S_s.ogg
448,192,63851,1,0,0:0:0:88:G5S_s.ogg
10,192,64155,1,0,0:0:0:75:D#3S_Eb3S_s.ogg
375,192,64155,1,0,0:0:0:75:G#3S_Ab3S_s.ogg
156,192,64256,1,0,0:0:0:75:D#4S_Eb4S_s.ogg
302,192,64256,1,0,0:0:0:88:C6S_s.ogg
83,192,64459,1,0,0:0:0:88:G5S_s.ogg
10,192,64662,1,0,0:0:0:75:G3S_s.ogg
229,192,64662,1,0,0:0:0:75:C4S_s.ogg
448,192,64662,1,0,0:0:0:88:D#5S_Eb5S_s.ogg
156,192,64864,1,0,0:0:0:75:D3S_s.ogg
302,192,64864,1,0,0:0:0:75:G3S_s.ogg
375,192,64864,1,0,0:0:0:88:D5S.ogg
83,192,65168,1,0,0:0:0:75:D3S_s.ogg
448,192,65168,1,0,0:0:0:75:G3S_s.ogg
229,192,65270,1,0,0:0:0:75:D4S_s.ogg
10,192,65472,1,0,0:0:0:75:D3S_s.ogg
156,192,65472,1,0,0:0:0:75:G3S_s.ogg
302,192,65472,1,0,0:0:0:75:E4S_s.ogg
375,192,65675,1,0,0:0:0:88:D5S_s.ogg
83,192,65776,1,0,0:0:0:75:D3S_s.ogg
229,192,65776,1,0,0:0:0:75:G3S_s.ogg
448,192,65776,1,0,0:0:0:88:D5S_s.ogg
10,192,65878,1,0,0:0:0:75:D4S_s.ogg
302,192,65878,1,0,0:0:0:88:D5S_s.ogg
156,192,65979,1,0,0:0:0:88:D5S_s.ogg
375,192,66081,1,0,0:0:0:88:D5S_s.ogg
83,192,66182,1,0,0:0:0:88:D5S_s.ogg
10,192,66283,1,0,0:0:0:75:F#3S_Gb3S_s.ogg
229,192,66283,1,0,0:0:0:75:B3S_s.ogg
448,192,66283,1,0,0:0:0:88:D5S_s.ogg
302,192,66385,1,0,0:0:0:88:D5S_s.ogg
83,192,66486,1,0,0:0:0:75:D3S_s.ogg
156,192,66486,1,0,0:0:0:75:G3S_s.ogg
375,192,66486,1,0,0:0:0:88:D5S.ogg
10,192,66790,1,0,0:0:0:75:D3S_s.ogg
448,192,66790,1,0,0:0:0:75:G3S_s.ogg
229,192,66891,1,0,0:0:0:75:D4S_s.ogg
156,192,67094,1,0,0:0:0:75:D3S_s.ogg
302,192,67094,1,0,0:0:0:75:G3S_s.ogg
375,192,67094,1,0,0:0:0:75:E4S_s.ogg
83,192,67297,1,0,0:0:0:75:D3S_s.ogg
448,192,67297,1,0,0:0:0:88:A#5S_Bb5S.ogg
10,192,67601,1,0,0:0:0:75:A2S_s.ogg
229,192,67651,1,0,0:0:0:75:G#2S_Ab2S_s.ogg
302,192,67803,1,0,0:0:0:75:F2S_s.ogg
156,192,67905,1,0,0:0:0:75:D2S_s.ogg
83,192,68108,1,0,0:0:0:75:D2S_s.ogg
375,192,68108,1,0,0:0:0:75:D3S_s.ogg
448,192,68108,1,0,0:0:0:75:A5S_s.ogg
10,192,68310,1,0,0:0:0:75:D3S_s.ogg
229,192,68310,1,0,0:0:0:75:E4S_s.ogg
302,192,68310,1,0,0:0:0:75:E5S_s.ogg
156,192,68412,1,0,0:0:0:75:F4S_s.ogg
375,192,68412,1,0,0:0:0:75:F5S_s.ogg
10,192,68513,1,0,0:0:0:75:D3S_s.ogg
83,192,68513,1,0,0:0:0:75:G4S_s.ogg
448,192,68513,1,0,0:0:0:75:E5S_s.ogg
156,192,68716,1,0,0:0:0:75:D3S_s.ogg
229,192,68716,1,0,0:0:0:75:F4S_s.ogg
302,192,68716,1,0,0:0:0:75:D5S_s.ogg
10,192,68918,1,0,0:0:0:75:D3S_s.ogg
375,192,68918,1,0,0:0:0:75:E4S_s.ogg
448,192,68918,1,0,0:0:0:75:A4S_s.ogg
83,192,69121,1,0,0:0:0:75:D2S_s.ogg
302,192,69121,1,0,0:0:0:75:D3S_s.ogg
229,192,69222,1,0,0:0:0:75:F4S_s.ogg
10,192,69324,1,0,0:0:0:75:D2S_s.ogg
156,192,69324,1,0,0:0:0:75:D3S_s.ogg
375,192,69324,1,0,0:0:0:75:F3S_s.ogg
83,192,69526,1,0,0:0:0:75:D2S_s.ogg
302,192,69526,1,0,0:0:0:75:D3S_s.ogg
448,192,69526,1,0,0:0:0:75:A4S_s.ogg
10,192,69729,1,0,0:0:0:75:C2S_s.ogg
229,192,69729,1,0,0:0:0:75:C3S_s.ogg
375,192,69729,1,0,0:0:0:75:G3S.ogg
83,192,69932,1,0,0:0:0:75:C2S_s.ogg
156,192,69932,1,0,0:0:0:75:C3S_s.ogg
448,192,69932,1,0,0:0:0:75:E5S_s.ogg
302,192,70033,1,0,0:0:0:75:F5S_s.ogg
10,192,70135,1,0,0:0:0:75:C2S_s.ogg
229,192,70135,1,0,0:0:0:75:C3S_s.ogg
375,192,70135,1,0,0:0:0:75:E5S_s.ogg
83,192,70337,1,0,0:0:0:75:C2S_s.ogg
156,192,70337,1,0,0:0:0:75:C3S_s.ogg
448,192,70337,1,0,0:0:0:75:D5S_s.ogg
10,192,70540,1,0,0:0:0:75:C3S_s.ogg
229,192,70540,1,0,0:0:0:75:E4S.ogg
302,192,70540,1,0,0:0:0:75:G5S.ogg
83,192,70743,1,0,0:0:0:75:C2S_s.ogg
375,192,70743,1,0,0:0:0:75:C3S_s.ogg
156,192,70945,1,0,0:0:0:75:C2S_s.ogg
448,192,70945,1,0,0:0:0:75:C3S_s.ogg
10,192,71148,1,0,0:0:0:75:C2S_s.ogg
302,192,71148,1,0,0:0:0:75:C3S_s.ogg
229,192,71351,1,0,0:0:0:75:A#2S_Bb2S_s.ogg
375,192,71351,1,0,0:0:0:75:D4S_s.ogg
83,192,71452,1,0,0:0:0:75:F3S_s.ogg
156,192,71553,1,0,0:0:0:75:A#3S_Bb3S_s.ogg
448,192,71553,1,0,0:0:0:75:E5S_s.ogg
10,192,71655,1,0,0:0:0:75:F3S_s.ogg
302,192,71655,1,0,0:0:0:75:F5S_s.ogg
83,192,71756,1,0,0:0:0:75:A#2S_Bb2S_s.ogg
229,192,71756,1,0,0:0:0:75:E4S_s.ogg
375,192,71756,1,0,0:0:0:75:E5S_s.ogg
448,192,71858,1,0,0:0:0:75:F3S_s.ogg
10,192,71959,1,0,0:0:0:75:A#3S_Bb3S_s.ogg
156,192,71959,1,0,0:0:0:75:F4S_s.ogg
302,192,71959,1,0,0:0:0:75:D5S_s.ogg
375,192,72060,1,0,0:0:0:75:F3S_s.ogg
83,192,72162,1,0,0:0:0:75:C3S_s.ogg
229,192,72162,1,0,0:0:0:75:C4S_s.ogg
448,192,72162,1,0,0:0:0:75:E5S_s.ogg
10,192,72263,1,0,0:0:0:75:G3S_s.ogg
156,192,72364,1,0,0:0:0:75:A#3S_Bb3S_s.ogg
302,192,72364,1,0,0:0:0:75:D4S_s.ogg
83,192,72466,1,0,0:0:0:75:G3S_s.ogg
375,192,72466,1,0,0:0:0:75:C4S_s.ogg
10,192,72567,1,0,0:0:0:75:C3S_s.ogg
229,192,72567,1,0,0:0:0:75:A#3S_Bb3S_s.ogg
448,192,72567,1,0,0:0:0:75:F5S_s.ogg
302,192,72668,1,0,0:0:0:75:G3S_s.ogg
156,192,72770,1,0,0:0:0:75:G3S_s.ogg
375,192,72770,1,0,0:0:0:75:A#3S_Bb3S_s.ogg
83,192,72871,1,0,0:0:0:75:G3S_s.ogg
448,192,72871,1,0,0:0:0:75:C5S_s.ogg
10,192,72972,1,0,0:0:0:75:F2S_s.ogg
229,192,72972,1,0,0:0:0:75:F3S_s.ogg
302,192,72972,1,0,0:0:0:75:A3S_s.ogg
156,192,73074,1,0,0:0:0:75:C5S_s.ogg
83,192,73175,1,0,0:0:0:75:F3S_s.ogg
375,192,73175,1,0,0:0:0:75:A#3S_Bb3S_s.ogg
448,192,73175,1,0,0:0:0:75:A#4S_Bb4S_s.ogg
10,192,73378,1,0,0:0:0:75:F3S_s.ogg
229,192,73378,1,0,0:0:0:75:C4S_s.ogg
302,192,73378,1,0,0:0:0:75:A4S_s.ogg
83,192,73581,1,0,0:0:0:75:F3S_s.ogg
156,192,73581,1,0,0:0:0:75:D4S_s.ogg
375,192,73581,1,0,0:0:0:75:A#4S_Bb4S_s.ogg
10,192,73783,1,0,0:0:0:75:F3S_s.ogg
229,192,73783,1,0,0:0:0:75:F4S.ogg
448,192,73783,1,0,0:0:0:75:A4S.ogg
302,192,73885,1,0,0:0:0:75:C3S_s.ogg
83,192,73986,1,0,0:0:0:75:A#2S_Bb2S_s.ogg
375,192,74087,1,0,0:0:0:75:F3S_s.ogg
156,192,74189,1,0,0:0:0:75:C3S_s.ogg
448,192,74290,1,0,0:0:0:75:A#2S_Bb2S_s.ogg
229,192,74391,1,0,0:0:0:75:F3S_s.ogg
10,192,74493,1,0,0:0:0:75:A#3S_Bb3S_s.ogg
83,192,74594,1,0,0:0:0:75:D#2S_Eb2S_s.ogg
302,192,74594,1,0,0:0:0:75:D#3S_Eb3S_s.ogg
156,192,74797,1,0,0:0:0:75:D#3S_Eb3S_s.ogg
375,192,74797,1,0,0:0:0:75:C4S_s.ogg
448,192,74797,1,0,0:0:0:75:A4S_s.ogg
10,192,74898,1,0,0:0:0:75:D4S_s.ogg
229,192,74898,1,0,0:0:0:75:A#4S_Bb4S_s.ogg
83,192,74999,1,0,0:0:0:75:D#2S_Eb2S_s.ogg
302,192,74999,1,0,0:0:0:75:D#3S_Eb3S_s.ogg
448,192,74999,1,0,0:0:0:75:A#4S_Bb4S_s.ogg
156,192,75050,1,0,0:0:0:75:C4S_s.ogg
375,192,75050,1,0,0:0:0:75:A4S_s.ogg
10,192,75202,1,0,0:0:0:75:D#3S_Eb3S_s.ogg
229,192,75202,1,0,0:0:0:75:A#3S_Bb3S_s.ogg
302,192,75202,1,0,0:0:0:75:G4S_s.ogg
83,192,75405,1,0,0:0:0:75:D#3S_Eb3S_s.ogg
156,192,75405,1,0,0:0:0:75:A3S_s.ogg
448,192,75405,1,0,0:0:0:75:D#4S_Eb4S_s.ogg
10,192,75608,1,0,0:0:0:75:D#2S_Eb2S_s.ogg
375,192,75608,1,0,0:0:0:75:D#3S_Eb3S_s.ogg
229,192,75709,1,0,0:0:0:75:G3S_s.ogg
302,192,75709,1,0,0:0:0:75:A#3S_Bb3S_s.ogg
83,192,75810,1,0,0:0:0:75:D#2S_Eb2S_s.ogg
448,192,75810,1,0,0:0:0:75:D#3S_Eb3S_s.ogg
10,192,76013,1,0,0:0:0:75:D#3S_Eb3S_s.ogg
156,192,76013,1,0,0:0:0:75:G4S_s.ogg
375,192,76013,1,0,0:0:0:75:A#4S_Bb4S_s.ogg
229,192,76114,1,0,0:0:0:75:F4S_s.ogg
302,192,76114,1,0,0:0:0:75:A4S_s.ogg
83,192,76216,1,0,0:0:0:75:D2S_s.ogg
448,192,76216,1,0,0:0:0:75:D3S_s.ogg
10,192,76317,1,0,0:0:0:75:F4S_s.ogg
375,192,76317,1,0,0:0:0:75:A4S_s.ogg
156,192,76418,1,0,0:0:0:75:D3S_s.ogg
229,192,76418,1,0,0:0:0:75:E4S_s.ogg
302,192,76418,1,0,0:0:0:75:G4S_s.ogg
10,192,76621,1,0,0:0:0:75:A2S_s.ogg
83,192,76621,1,0,0:0:0:75:D4S_s.ogg
448,192,76621,1,0,0:0:0:75:F4S_s.ogg
156,192,76824,1,0,0:0:0:75:E3S_s.ogg
302,192,76824,1,0,0:0:0:75:E4S_s.ogg
375,192,76824,1,0,0:0:0:75:G4S_s.ogg
83,192,77026,1,0,0:0:0:75:F3S_s.ogg
229,192,77026,1,0,0:0:0:75:F4S.ogg
448,192,77026,1,0,0:0:0:75:A4S.ogg
10,192,77229,1,0,0:0:0:75:F2S_s.ogg
302,192,77229,1,0,0:0:0:75:F3S_s.ogg
156,192,77432,1,0,0:0:0:75:F2S_s.ogg
375,192,77432,1,0,0:0:0:75:F3S_s.ogg
83,192,77533,1,0,0:0:0:75:E3S_s.ogg
10,192,77635,1,0,0:0:0:75:D3S_s.ogg
229,192,77635,1,0,0:0:0:75:D4S_s.ogg
448,192,77635,1,0,0:0:0:75:F4S_s.ogg
156,192,77837,1,0,0:0:0:75:null_s.ogg
302,192,77837,1,0,0:0:0:75:A2S_s.ogg
83,192,78040,1,0,0:0:0:75:null_s.ogg
375,192,78040,1,0,0:0:0:75:A2S_s.ogg
448,192,78040,1,0,0:0:0:75:G4S_s.ogg
10,192,78091,1,0,0:0:0:75:E4S_s.ogg
229,192,78091,1,0,0:0:0:75:G#4S_Ab4S_s.ogg
83,192,78243,1,0,0:0:0:75:A2S_s.ogg
156,192,78243,1,0,0:0:0:75:C4S_s.ogg
302,192,78243,1,0,0:0:0:75:E4S_s.ogg
229,192,78445,1,0,0:0:0:75:D3S_s.ogg
375,192,78445,1,0,0:0:0:75:G#3S_Ab3S_s.ogg
448,192,78445,1,0,0:0:0:75:C4S_s.ogg
10,192,78648,1,0,0:0:0:75:E3S_s.ogg
156,192,78648,1,0,0:0:0:75:F3S_s.ogg
302,192,78648,1,0,0:0:0:75:G#3S_Ab3S_s.ogg
83,192,78851,1,0,0:0:0:75:F2S_s.ogg
229,192,78851,1,0,0:0:0:75:F3S_s.ogg
10,192,79053,1,0,0:0:0:75:F3S_s.ogg
375,192,79053,1,0,0:0:0:75:E4S_s.ogg
448,192,79053,1,0,0:0:0:75:G#4S_Ab4S_s.ogg
156,192,79256,1,0,0:0:0:75:F2S_s.ogg
302,192,79256,1,0,0:0:0:75:F3S_s.ogg
83,192,79459,1,0,0:0:0:75:A2S_s.ogg
229,192,79459,1,0,0:0:0:75:D4S.ogg
448,192,79459,1,0,0:0:0:75:A4S.ogg
10,192,79560,1,0,0:0:0:75:D3S_s.ogg
375,192,79662,1,0,0:0:0:75:E3S_s.ogg
156,192,79864,1,0,0:0:0:75:F2S_s.ogg
302,192,79864,1,0,0:0:0:75:A2S_s.ogg
83,192,79966,1,0,0:0:0:75:F3S_s.ogg
229,192,80067,1,0,0:0:0:75:E3S_s.ogg
448,192,80067,1,0,0:0:0:75:C#4S_Db4S_s.ogg
10,192,80168,1,0,0:0:0:75:D3S_s.ogg
375,192,80168,1,0,0:0:0:75:D4S_s.ogg
83,192,80270,1,0,0:0:0:75:F2S_s.ogg
156,192,80270,1,0,0:0:0:75:A2S_s.ogg
302,192,80270,1,0,0:0:0:75:C#4S_Db4S.ogg
448,192,80371,1,0,0:0:0:75:D3S_s.ogg
229,192,80472,1,0,0:0:0:75:E3S_s.ogg
375,192,80574,1,0,0:0:0:75:F3S_s.ogg
10,192,80675,1,0,0:0:0:75:F2S_s.ogg
302,192,80675,1,0,0:0:0:75:A2S_s.ogg
83,192,80776,1,0,0:0:0:75:F3S_s.ogg
156,192,80878,1,0,0:0:0:75:E3S_s.ogg
448,192,80979,1,0,0:0:0:75:D3S_s.ogg
10,192,81081,1,0,0:0:0:75:D2S_s.ogg
229,192,81081,1,0,0:0:0:75:D3S_s.ogg
375,192,81081,1,0,0:0:0:75:A5S_s.ogg
83,192,81283,1,0,0:0:0:75:D3S_s.ogg
156,192,81283,1,0,0:0:0:75:E4S_s.ogg
302,192,81283,1,0,0:0:0:75:E5S_s.ogg
10,192,81385,1,0,0:0:0:75:F4S_s.ogg
448,192,81385,1,0,0:0:0:75:F5S_s.ogg
156,192,81486,1,0,0:0:0:75:D3S_s.ogg
229,192,81486,1,0,0:0:0:75:G4S_s.ogg
375,192,81486,1,0,0:0:0:75:E5S_s.ogg
83,192,81689,1,0,0:0:0:75:D3S_s.ogg
302,192,81689,1,0,0:0:0:75:F4S_s.ogg
448,192,81689,1,0,0:0:0:75:D5S_s.ogg
10,192,81891,1,0,0:0:0:75:D3S_s.ogg
156,192,81891,1,0,0:0:0:75:E4S_s.ogg
375,192,81891,1,0,0:0:0:75:A4S_s.ogg
229,192,82094,1,0,0:0:0:75:D2S_s.ogg
448,192,82094,1,0,0:0:0:75:D3S_s.ogg
83,192,82195,1,0,0:0:0:75:F4S_s.ogg
10,192,82297,1,0,0:0:0:75:D2S_s.ogg
302,192,82297,1,0,0:0:0:75:D3S_s.ogg
375,192,82297,1,0,0:0:0:75:F3S_s.ogg
156,192,82499,1,0,0:0:0:75:D2S_s.ogg
229,192,82499,1,0,0:0:0:75:D3S_s.ogg
448,192,82499,1,0,0:0:0:75:A4S_s.ogg
10,192,82702,1,0,0:0:0:75:C2S_s.ogg
83,192,82702,1,0,0:0:0:75:C3S_s.ogg
375,192,82702,1,0,0:0:0:75:G3S.ogg
156,192,82905,1,0,0:0:0:75:C2S_s.ogg
229,192,82905,1,0,0:0:0:75:C3S_s.ogg
302,192,82905,1,0,0:0:0:75:E5S_s.ogg
448,192,83006,1,0,0:0:0:75:F5S_s.ogg
10,192,83108,1,0,0:0:0:75:C2S_s.ogg
83,192,83108,1,0,0:0:0:75:C3S_s.ogg
375,192,83108,1,0,0:0:0:75:E5S_s.ogg
156,192,83310,1,0,0:0:0:75:C2S_s.ogg
229,192,83310,1,0,0:0:0:75:C3S_s.ogg
302,192,83310,1,0,0:0:0:75:D5S_s.ogg
83,192,83513,1,0,0:0:0:75:C3S_s.ogg
375,192,83513,1,0,0:0:0:75:E4S.ogg
448,192,83513,1,0,0:0:0:75:G5S.ogg
10,192,83716,1,0,0:0:0:75:C2S_s.ogg
302,192,83716,1,0,0:0:0:75:C3S_s.ogg
156,192,83918,1,0,0:0:0:75:C2S_s.ogg
229,192,83918,1,0,0:0:0:75:C3S_s.ogg
83,192,84121,1,0,0:0:0:75:C2S_s.ogg
375,192,84121,1,0,0:0:0:75:C3S_s.ogg
10,192,84324,1,0,0:0:0:75:A#2S_Bb2S_s.ogg
448,192,84324,1,0,0:0:0:75:D4S_s.ogg
302,192,84425,1,0,0:0:0:75:F3S_s.ogg
156,192,84526,1,0,0:0:0:75:A#3S_Bb3S_s.ogg
229,192,84526,1,0,0:0:0:75:E5S_s.ogg
83,192,84628,1,0,0:0:0:75:F3S_s.ogg
375,192,84628,1,0,0:0:0:75:F5S_s.ogg
10,192,84729,1,0,0:0:0:75:A#2S_Bb2S_s.ogg
302,192,84729,1,0,0:0:0:75:E4S_s.ogg
448,192,84729,1,0,0:0:0:75:E5S_s.ogg
229,192,84830,1,0,0:0:0:75:F3S_s.ogg
83,192,84932,1,0,0:0:0:75:A#3S_Bb3S_s.ogg
156,192,84932,1,0,0:0:0:75:F4S_s.ogg
375,192,84932,1,0,0:0:0:75:D5S_s.ogg
302,192,85033,1,0,0:0:0:75:F3S_s.ogg
10,192,85135,1,0,0:0:0:75:C3S_s.ogg
229,192,85135,1,0,0:0:0:75:C4S_s.ogg
448,192,85135,1,0,0:0:0:75:E5S_s.ogg
375,192,85236,1,0,0:0:0:75:G3S_s.ogg
83,192,85337,1,0,0:0:0:75:A#3S_Bb3S_s.ogg
156,192,85337,1,0,0:0:0:75:D4S_s.ogg
10,192,85439,1,0,0:0:0:75:G3S_s.ogg
302,192,85439,1,0,0:0:0:75:C4S_s.ogg
229,192,85540,1,0,0:0:0:75:C3S_s.ogg
375,192,85540,1,0,0:0:0:75:A#3S_Bb3S_s.ogg
448,192,85540,1,0,0:0:0:75:F5S_s.ogg
156,192,85641,1,0,0:0:0:75:G3S_s.ogg
83,192,85743,1,0,0:0:0:75:G3S_s.ogg
302,192,85743,1,0,0:0:0:75:A#3S_Bb3S_s.ogg
10,192,85844,1,0,0:0:0:75:G3S_s.ogg
375,192,85844,1,0,0:0:0:75:C5S_s.ogg
156,192,85945,1,0,0:0:0:75:F2S_s.ogg
229,192,85945,1,0,0:0:0:75:F3S_s.ogg
448,192,85945,1,0,0:0:0:75:A3S_s.ogg
302,192,86047,1,0,0:0:0:75:C5S_s.ogg
10,192,86148,1,0,0:0:0:75:F3S_s.ogg
83,192,86148,1,0,0:0:0:75:A#3S_Bb3S_s.ogg
375,192,86148,1,0,0:0:0:75:A#4S_Bb4S_s.ogg
156,192,86351,1,0,0:0:0:75:F3S_s.ogg
229,192,86351,1,0,0:0:0:75:C4S_s.ogg
448,192,86351,1,0,0:0:0:75:A4S_s.ogg
10,192,86553,1,0,0:0:0:75:F3S_s.ogg
302,192,86553,1,0,0:0:0:75:D4S_s.ogg
375,192,86553,1,0,0:0:0:75:A#4S_Bb4S_s.ogg
83,192,86756,1,0,0:0:0:75:F3S_s.ogg
229,192,86756,1,0,0:0:0:75:F4S.ogg
448,192,86756,1,0,0:0:0:75:A4S.ogg
156,192,86858,1,0,0:0:0:75:C3S_s.ogg
302,192,86959,1,0,0:0:0:75:A#2S_Bb2S_s.ogg
10,192,87060,1,0,0:0:0:75:F3S_s.ogg
375,192,87162,1,0,0:0:0:75:C3S_s.ogg
83,192,87263,1,0,0:0:0:75:A#2S_Bb2S_s.ogg
448,192,87364,1,0,0:0:0:75:F3S_s.ogg
229,192,87466,1,0,0:0:0:75:A#3S_Bb3S_s.ogg
156,192,87567,1,0,0:0:0:75:D#2S_Eb2S_s.ogg
302,192,87567,1,0,0:0:0:75:D#3S_Eb3S_s.ogg
10,192,87770,1,0,0:0:0:75:D#3S_Eb3S_s.ogg
83,192,87770,1,0,0:0:0:75:C4S_s.ogg
375,192,87770,1,0,0:0:0:75:A4S_s.ogg
229,192,87871,1,0,0:0:0:75:D4S_s.ogg
448,192,87871,1,0,0:0:0:75:A#4S_Bb4S_s.ogg
83,192,87972,1,0,0:0:0:75:D#2S_Eb2S_s.ogg
156,192,87972,1,0,0:0:0:75:D#3S_Eb3S_s.ogg
302,192,87972,1,0,0:0:0:75:A#4S_Bb4S_s.ogg
10,192,88023,1,0,0:0:0:75:C4S_s.ogg
375,192,88023,1,0,0:0:0:75:A4S_s.ogg
156,192,88175,1,0,0:0:0:75:D#3S_Eb3S_s.ogg
229,192,88175,1,0,0:0:0:75:A#3S_Bb3S_s.ogg
448,192,88175,1,0,0:0:0:75:G4S_s.ogg
83,192,88378,1,0,0:0:0:75:D#3S_Eb3S_s.ogg
302,192,88378,1,0,0:0:0:75:A3S_s.ogg
375,192,88378,1,0,0:0:0:75:D#4S_Eb4S_s.ogg
10,192,88580,1,0,0:0:0:75:D#2S_Eb2S_s.ogg
448,192,88580,1,0,0:0:0:75:D#3S_Eb3S_s.ogg
156,192,88682,1,0,0:0:0:75:G3S_s.ogg
229,192,88682,1,0,0:0:0:75:A#3S_Bb3S_s.ogg
83,192,88783,1,0,0:0:0:75:D#2S_Eb2S_s.ogg
302,192,88783,1,0,0:0:0:75:D#3S_Eb3S_s.ogg
10,192,88986,1,0,0:0:0:75:D#3S_Eb3S_s.ogg
375,192,88986,1,0,0:0:0:75:G4S_s.ogg
448,192,88986,1,0,0:0:0:75:A#4S_Bb4S_s.ogg
156,192,89087,1,0,0:0:0:75:F4S_s.ogg
229,192,89087,1,0,0:0:0:75:A4S_s.ogg
83,192,89189,1,0,0:0:0:75:D2S_s.ogg
302,192,89189,1,0,0:0:0:75:D3S_s.ogg
10,192,89290,1,0,0:0:0:75:F4S_s.ogg
375,192,89290,1,0,0:0:0:75:A4S_s.ogg
156,192,89391,1,0,0:0:0:75:D3S_s.ogg
229,192,89391,1,0,0:0:0:75:E4S_s.ogg
448,192,89391,1,0,0:0:0:75:G4S_s.ogg
83,192,89594,1,0,0:0:0:75:A2S_s.ogg
302,192,89594,1,0,0:0:0:75:D4S_s.ogg
375,192,89594,1,0,0:0:0:75:F4S_s.ogg
10,192,89797,1,0,0:0:0:75:E3S_s.ogg
229,192,89797,1,0,0:0:0:75:E4S_s.ogg
448,192,89797,1,0,0:0:0:75:G4S_s.ogg
83,192,89999,1,0,0:0:0:75:F3S_s.ogg
156,192,89999,1,0,0:0:0:75:F4S.ogg
302,192,89999,1,0,0:0:0:75:A4S.ogg
10,192,90202,1,0,0:0:0:75:F2S_s.ogg
375,192,90202,1,0,0:0:0:75:F3S_s.ogg
229,192,90405,1,0,0:0:0:75:F2S_s.ogg
448,192,90405,1,0,0:0:0:75:F3S_s.ogg
156,192,90506,1,0,0:0:0:75:E3S_s.ogg
83,192,90608,1,0,0:0:0:75:D3S_s.ogg
302,192,90608,1,0,0:0:0:75:D4S_s.ogg
375,192,90608,1,0,0:0:0:75:F4S_s.ogg
10,192,90810,1,0,0:0:0:75:null_s.ogg
448,192,90810,1,0,0:0:0:75:A2S_s.ogg
156,192,91013,1,0,0:0:0:75:null_s.ogg
229,192,91013,1,0,0:0:0:75:A2S_s.ogg
302,192,91013,1,0,0:0:0:75:G4S_s.ogg
83,192,91064,1,0,0:0:0:75:E4S_s.ogg
375,192,91064,1,0,0:0:0:75:G#4S_Ab4S_s.ogg
10,192,91216,1,0,0:0:0:75:A2S_s.ogg
156,192,91216,1,0,0:0:0:75:C4S_s.ogg
448,192,91216,1,0,0:0:0:75:E4S_s.ogg
229,192,91418,1,0,0:0:0:75:D3S_s.ogg
302,192,91418,1,0,0:0:0:75:G#3S_Ab3S_s.ogg
375,192,91418,1,0,0:0:0:75:C4S_s.ogg
83,192,91621,1,0,0:0:0:75:E3S_s.ogg
156,192,91621,1,0,0:0:0:75:F3S_s.ogg
448,192,91621,1,0,0:0:0:75:G#3S_Ab3S_s.ogg
10,192,91824,1,0,0:0:0:75:F2S_s.ogg
302,192,91824,1,0,0:0:0:75:F3S_s.ogg
156,192,92026,1,0,0:0:0:75:F3S_s.ogg
229,192,92026,1,0,0:0:0:75:E4S_s.ogg
375,192,92026,1,0,0:0:0:75:G#4S_Ab4S_s.ogg
83,192,92229,1,0,0:0:0:75:F2S_s.ogg
448,192,92229,1,0,0:0:0:75:F3S_s.ogg
10,192,92432,1,0,0:0:0:75:null_s.ogg
302,192,92432,1,0,0:0:0:75:A2S_s.ogg
156,192,92635,1,0,0:0:0:75:A2S_s.ogg
229,192,92635,1,0,0:0:0:75:F4S_s.ogg
375,192,92635,1,0,0:0:0:75:A4S_s.ogg
83,192,92837,1,0,0:0:0:75:A2S_s.ogg
302,192,92837,1,0,0:0:0:75:C#4S_Db4S_s.ogg
448,192,92837,1,0,0:0:0:75:F4S_s.ogg
10,192,93040,1,0,0:0:0:75:A2S_s.ogg
156,192,93040,1,0,0:0:0:75:A3S_s.ogg
375,192,93040,1,0,0:0:0:75:C#4S_Db4S_s.ogg
83,192,93243,1,0,0:0:0:75:A2S_s.ogg
229,192,93243,1,0,0:0:0:75:F3S_s.ogg
302,192,93243,1,0,0:0:0:75:A3S_s.ogg
10,192,93445,1,0,0:0:0:75:null_s.ogg
448,192,93445,1,0,0:0:0:75:A2S_s.ogg
156,192,93648,1,0,0:0:0:75:A2S_s.ogg
302,192,93648,1,0,0:0:0:75:F4S_s.ogg
375,192,93648,1,0,0:0:0:75:A4S_s.ogg
83,192,93851,1,0,0:0:0:75:null_s.ogg
229,192,93851,1,0,0:0:0:75:A2S_s.ogg
10,192,94053,1,0,0:0:0:75:null_s.ogg
448,192,94053,1,0,0:0:0:75:A2S_s.ogg
156,192,94256,1,0,0:0:0:75:A2S_s.ogg
302,192,94256,1,0,0:0:0:75:F#4S_Gb4S_s.ogg
375,192,94256,1,0,0:0:0:75:A#4S_Bb4S_s.ogg
83,192,94459,1,0,0:0:0:75:A2S_s.ogg
229,192,94459,1,0,0:0:0:75:D4S_s.ogg
448,192,94459,1,0,0:0:0:75:F#4S_Gb4S_s.ogg
10,192,94662,1,0,0:0:0:75:A2S_s.ogg
156,192,94662,1,0,0:0:0:75:A#3S_Bb3S_s.ogg
375,192,94662,1,0,0:0:0:75:D4S_s.ogg
83,192,94864,1,0,0:0:0:75:A2S_s.ogg
229,192,94864,1,0,0:0:0:75:F#3S_Gb3S_s.ogg
302,192,94864,1,0,0:0:0:75:A#3S_Bb3S_s.ogg
156,192,95067,1,0,0:0:0:75:null_s.ogg
448,192,95067,1,0,0:0:0:75:A2S_s.ogg
10,192,95270,1,0,0:0:0:75:A2S_s.ogg
302,192,95270,1,0,0:0:0:75:F#4S_Gb4S_s.ogg
375,192,95270,1,0,0:0:0:75:A#4S_Bb4S_s.ogg
83,192,95472,1,0,0:0:0:75:null_s.ogg
229,192,95472,1,0,0:0:0:75:A2S_s.ogg
448,192,95675,1,0,0:0:0:75:null_s.ogg
156,192,95726,1,0,0:0:0:75:A2S_s.ogg
302,192,95776,1,0,0:0:0:75:null_s.ogg
10,192,95827,1,0,0:0:0:75:A2S_s.ogg
375,192,95878,1,0,0:0:0:75:null_s.ogg
83,192,95878,1,0,0:0:0:75:F4S_s.ogg
229,192,95878,1,0,0:0:0:75:A4S_s.ogg
448,192,95928,1,0,0:0:0:75:A2S_s.ogg
156,192,95979,1,0,0:0:0:75:null_s.ogg
302,192,96030,1,0,0:0:0:75:A2S_s.ogg
10,192,96080,1,0,0:0:0:75:null_s.ogg
229,192,96080,1,0,0:0:0:75:C#4S_Db4S_s.ogg
375,192,96080,1,0,0:0:0:75:F4S_s.ogg
83,192,96131,1,0,0:0:0:75:A2S_s.ogg
448,192,96182,1,0,0:0:0:75:null_s.ogg
156,192,96233,1,0,0:0:0:75:A2S_s.ogg
302,192,96283,1,0,0:0:0:75:null_s.ogg
10,192,96283,1,0,0:0:0:75:A3S_s.ogg
229,192,96283,1,0,0:0:0:75:C#4S_Db4S_s.ogg
375,192,96334,1,0,0:0:0:75:A2S_s.ogg
83,192,96385,1,0,0:0:0:75:null_s.ogg
448,192,96435,1,0,0:0:0:75:A2S_s.ogg
156,192,96486,1,0,0:0:0:75:null_s.ogg
10,192,96486,1,0,0:0:0:75:F3S_s.ogg
302,192,96486,1,0,0:0:0:75:A3S_s.ogg
229,192,96537,1,0,0:0:0:75:A2S_s.ogg
375,192,96587,1,0,0:0:0:75:null_s.ogg
83,192,96638,1,0,0:0:0:75:A2S_s.ogg
448,192,96689,1,0,0:0:0:75:null_s.ogg
156,192,96739,1,0,0:0:0:75:A2S_s.ogg
302,192,96790,1,0,0:0:0:75:null_s.ogg
10,192,96841,1,0,0:0:0:75:A2S_s.ogg
229,192,96891,1,0,0:0:0:75:null_s.ogg
83,192,96891,1,0,0:0:0:75:F4S_s.ogg
375,192,96891,1,0,0:0:0:75:A4S_s.ogg
448,192,96942,1,0,0:0:0:75:A2S_s.ogg
156,192,96993,1,0,0:0:0:75:null_s.ogg
302,192,97043,1,0,0:0:0:75:A2S_s.ogg
10,192,97094,1,0,0:0:0:75:null_s.ogg
229,192,97145,1,0,0:0:0:75:A2S_s.ogg
375,192,97195,1,0,0:0:0:75:null_s.ogg
83,192,97246,1,0,0:0:0:75:A2S_s.ogg
156,192,97297,1,0,0:0:0:75:null_s.ogg
448,192,97297,1,0,0:0:0:75:A2S_s.ogg
10,192,97499,1,0,0:0:0:75:null_s.ogg
229,192,97499,1,0,0:0:0:75:A2S_s.ogg
302,192,97499,1,0,0:0:0:75:G4S_s.ogg
83,192,97550,1,0,0:0:0:75:E4S_s.ogg
375,192,97550,1,0,0:0:0:75:G#4S_Ab4S_s.ogg
156,192,97702,1,0,0:0:0:75:A2S_s.ogg
302,192,97702,1,0,0:0:0:75:C4S_s.ogg
448,192,97702,1,0,0:0:0:75:E4S_s.ogg
10,192,97905,1,0,0:0:0:75:A2S_s.ogg
83,192,97905,1,0,0:0:0:75:G#3S_Ab3S_s.ogg
229,192,97905,1,0,0:0:0:75:C4S_s.ogg
156,192,98108,1,0,0:0:0:75:A2S_s.ogg
375,192,98108,1,0,0:0:0:75:E3S_s.ogg
448,192,98108,1,0,0:0:0:75:G#3S_Ab3S_s.ogg
229,192,98310,1,0,0:0:0:75:null_s.ogg
302,192,98310,1,0,0:0:0:75:A2S_s.ogg
10,192,98513,1,0,0:0:0:75:A2S_s.ogg
83,192,98513,1,0,0:0:0:75:E4S_s.ogg
448,192,98513,1,0,0:0:0:75:G#4S_Ab4S_s.ogg
156,192,98716,1,0,0:0:0:75:null_s.ogg
375,192,98716,1,0,0:0:0:75:A2S_s.ogg
229,192,98918,1,0,0:0:0:75:null_s.ogg
302,192,98918,1,0,0:0:0:75:A2S_s.ogg
10,192,99121,1,0,0:0:0:75:A2S_s.ogg
83,192,99121,1,0,0:0:0:75:F4S_s.ogg
448,192,99121,1,0,0:0:0:75:A4S_s.ogg
156,192,99324,1,0,0:0:0:75:A2S_s.ogg
229,192,99324,1,0,0:0:0:75:C#4S_Db4S_s.ogg
375,192,99324,1,0,0:0:0:75:F4S_s.ogg
10,192,99526,1,0,0:0:0:75:A2S_s.ogg
302,192,99526,1,0,0:0:0:75:A3S_s.ogg
448,192,99526,1,0,0:0:0:75:C#4S_Db4S_s.ogg
83,192,99729,1,0,0:0:0:75:A2S_s.ogg
229,192,99729,1,0,0:0:0:75:F3S_s.ogg
375,192,99729,1,0,0:0:0:75:A3S_s.ogg
156,192,99932,1,0,0:0:0:75:null_s.ogg
302,192,99932,1,0,0:0:0:75:A2S_s.ogg
10,192,100135,1,0,0:0:0:75:A2S_s.ogg
83,192,100135,1,0,0:0:0:75:F4S_s.ogg
448,192,100135,1,0,0:0:0:75:A4S_s.ogg
229,192,100337,1,0,0:0:0:75:null_s.ogg
375,192,100337,1,0,0:0:0:75:A2S_s.ogg
156,192,100540,1,0,0:0:0:75:null_s.ogg
302,192,100540,1,0,0:0:0:75:A2S_s.ogg
10,192,100743,1,0,0:0:0:75:A2S_s.ogg
83,192,100743,1,0,0:0:0:75:F#4S_Gb4S_s.ogg
448,192,100743,1,0,0:0:0:75:A#4S_Bb4S_s.ogg
229,192,100945,1,0,0:0:0:75:A2S_s.ogg
302,192,100945,1,0,0:0:0:75:D4S_s.ogg
375,192,100945,1,0,0:0:0:75:F#4S_Gb4S_s.ogg
10,192,101148,1,0,0:0:0:75:A2S_s.ogg
156,192,101148,1,0,0:0:0:75:A#3S_Bb3S_s.ogg
448,192,101148,1,0,0:0:0:75:D4S_s.ogg
83,192,101351,1,0,0:0:0:75:A2S_s.ogg
229,192,101351,1,0,0:0:0:75:F#3S_Gb3S_s.ogg
302,192,101351,1,0,0:0:0:75:A#3S_Bb3S_s.ogg
156,192,101553,1,0,0:0:0:75:null_s.ogg
375,192,101553,1,0,0:0:0:75:A2S_s.ogg
10,192,101756,1,0,0:0:0:75:A2S_s.ogg
302,192,101756,1,0,0:0:0:75:F#4S_Gb4S_s.ogg
448,192,101756,1,0,0:0:0:75:A#4S_Bb4S_s.ogg
83,192,101959,1,0,0:0:0:75:null_s.ogg
229,192,101959,1,0,0:0:0:75:A2S_s.ogg
156,192,102364,1,0,0:0:0:75:A5S_s.ogg
375,192,102364,1,0,0:0:0:75:C#6S_Db6S_s.ogg
10,192,102567,1,0,0:0:0:75:F5S_s.ogg
302,192,102567,1,0,0:0:0:75:A5S_s.ogg
229,192,102770,1,0,0:0:0:75:C#5S_Db5S_s.ogg
448,192,102770,1,0,0:0:0:75:F5S_s.ogg
83,192,102972,1,0,0:0:0:75:A4S_s.ogg
375,192,102972,1,0,0:0:0:75:C#5S_Db5S_s.ogg
156,192,103378,1,0,0:0:0:75:A5S_s.ogg
302,192,103378,1,0,0:0:0:75:C#6S_Db6S_s.ogg
10,192,103986,1,0,0:0:0:75:C#5S_Db5S_s.ogg
448,192,104189,1,0,0:0:0:75:A4S_s.ogg
229,192,104391,1,0,0:0:0:75:F4S_s.ogg
83,192,104594,1,0,0:0:0:75:C#4S_Db4S_s.ogg
375,192,104999,1,0,0:0:0:75:C#3S_Db3S_s.ogg
156,192,105405,1,0,0:0:0:50:D2S_s.ogg
302,192,105405,1,0,0:0:0:50:D3S_s.ogg
