osu file format v14

[General]
AudioFilename: audio.mp3
AudioLeadIn: 0
PreviewTime: -1
Countdown: 0
SampleSet: None
StackLeniency: 0.7
Mode: 3
LetterboxInBreaks: 0
SpecialStyle: 0
WidescreenStoryboard: 0

[Editor]
DistanceSpacing: 1.2
BeatDivisor: 4
GridSize: 4
TimelineZoom: 1

[Metadata]
Title:Chapter 1
TitleUnicode:Chapter 1
Artist:DELTARUNE
ArtistUnicode:DELTARUNE
Creator:[Shana Lesus]
Version:Toby Fox - Beginning
Source:
Tags:
BeatmapID:2078072
BeatmapSetID:993812

[Difficulty]
HPDrainRate:8
CircleSize:7
OverallDifficulty:8
ApproachRate:5
SliderMultiplier:1.4
SliderTickRate:1

[Events]
//Background and Video events
0,0,"eternal.jpg",0,0
//Break Periods
//Storyboard Layer 0 (Background)
//Storyboard Layer 1 (Fail)
//Storyboard Layer 2 (Pass)
//Storyboard Layer 3 (Foreground)
//Storyboard Sound Samples
Sample,20786,0,"E4S_s.ogg",75
Sample,21214,0,"E4S_s.ogg",75
Sample,22071,0,"E4S_s.ogg",75
Sample,22500,0,"D#4S_Eb4S_s.ogg",75
Sample,22929,0,"D#4S_Eb4S_s.ogg",75
Sample,24214,0,"C#4S_Db4S_s.ogg",75
Sample,24643,0,"C#4S_Db4S_s.ogg",75
Sample,25071,0,"C#4S_Db4S_s.ogg",75
Sample,25500,0,"C#4S_Db4S_s.ogg",75
Sample,26357,0,"F#3S_Gb3S_s.ogg",75
Sample,27643,0,"E4S_s.ogg",75
Sample,28071,0,"E4S_s.ogg",75
Sample,28929,0,"E4S_s.ogg",75
Sample,29357,0,"D#4S_Eb4S_s.ogg",75
Sample,29786,0,"D#4S_Eb4S_s.ogg",75
Sample,30643,0,"D#4S_Eb4S_s.ogg",75
Sample,31500,0,"E4S_s.ogg",73
Sample,31929,0,"F#3S_Gb3S_s.ogg",71

[TimingPoints]
0,428.572,4,1,1,100,1,0

[HitObjects]
10,192,0,5,0,0:0:0:75:B3S_s.ogg
302,192,0,1,0,0:0:0:75:F#4S_Gb4S_s.ogg
156,192,214,1,0,0:0:0:62:B3S_s.ogg
375,192,214,1,0,0:0:0:62:F#4S_Gb4S_s.ogg
229,192,428,1,0,0:0:0:75:B3S_s.ogg
448,192,428,1,0,0:0:0:75:F#4S_Gb4S_s.ogg
83,192,642,1,0,0:0:0:75:B3S_s.ogg
302,192,642,1,0,0:0:0:75:F#4S_Gb4S_s.ogg
10,192,857,1,0,0:0:0:62:B3S_s.ogg
375,192,857,1,0,0:0:0:62:F#4S_Gb4S_s.ogg
156,192,1071,1,0,0:0:0:75:B3S_s.ogg
229,192,1071,1,0,0:0:0:75:F#4S_Gb4S_s.ogg
83,192,1285,1,0,0:0:0:75:B3S_s.ogg
448,192,1285,1,0,0:0:0:75:F#4S_Gb4S_s.ogg
10,192,1500,1,0,0:0:0:62:F#3S_Gb3S_s.ogg
302,192,1500,1,0,0:0:0:62:F#4S_Gb4S_s.ogg
156,192,1714,1,0,0:0:0:75:B3S_s.ogg
375,192,1714,1,0,0:0:0:75:G4S_s.ogg
83,192,1928,1,0,0:0:0:62:B3S_s.ogg
229,192,1928,1,0,0:0:0:62:G4S_s.ogg
10,192,2142,1,0,0:0:0:62:B3S_s.ogg
448,192,2142,1,0,0:0:0:62:G4S_s.ogg
156,192,2357,1,0,0:0:0:75:B3S_s.ogg
302,192,2357,1,0,0:0:0:75:G4S_s.ogg
83,192,2571,1,0,0:0:0:62:B3S_s.ogg
375,192,2571,1,0,0:0:0:62:G4S_s.ogg
10,192,2785,1,0,0:0:0:62:B3S_s.ogg
229,192,2785,1,0,0:0:0:62:G4S_s.ogg
156,192,3000,1,0,0:0:0:75:B3S_s.ogg
448,192,3000,1,0,0:0:0:75:G4S_s.ogg
83,192,3214,1,0,0:0:0:62:F#3S_Gb3S_s.ogg
302,192,3214,1,0,0:0:0:62:G4S_s.ogg
229,192,3428,1,0,0:0:0:75:B3S_s.ogg
375,192,3428,1,0,0:0:0:75:G#4S_Ab4S_s.ogg
10,192,3642,1,0,0:0:0:62:B3S_s.ogg
448,192,3642,1,0,0:0:0:62:G#4S_Ab4S_s.ogg
156,192,3857,1,0,0:0:0:62:B3S_s.ogg
302,192,3857,1,0,0:0:0:62:G#4S_Ab4S_s.ogg
83,192,4071,1,0,0:0:0:75:B3S_s.ogg
229,192,4071,1,0,0:0:0:75:G#4S_Ab4S_s.ogg
10,192,4285,1,0,0:0:0:62:B3S_s.ogg
375,192,4285,1,0,0:0:0:62:G#4S_Ab4S_s.ogg
156,192,4500,1,0,0:0:0:62:B3S_s.ogg
448,192,4500,1,0,0:0:0:62:G#4S_Ab4S_s.ogg
229,192,4714,1,0,0:0:0:75:B3S_s.ogg
302,192,4714,1,0,0:0:0:75:G#4S_Ab4S_s.ogg
83,192,4928,1,0,0:0:0:62:F#3S_Gb3S_s.ogg
375,192,4928,1,0,0:0:0:62:G#4S_Ab4S_s.ogg
10,192,5142,1,0,0:0:0:75:B3S_s.ogg
448,192,5142,1,0,0:0:0:75:A4S_s.ogg
156,192,5357,1,0,0:0:0:62:B3S_s.ogg
302,192,5357,1,0,0:0:0:62:A4S_s.ogg
83,192,5571,1,0,0:0:0:62:B3S_s.ogg
229,192,5571,1,0,0:0:0:62:A4S_s.ogg
10,192,5785,1,0,0:0:0:75:B3S_s.ogg
375,192,5785,1,0,0:0:0:75:A4S_s.ogg
156,192,6000,1,0,0:0:0:62:B3S_s.ogg
448,192,6000,1,0,0:0:0:62:A4S_s.ogg
83,192,6214,1,0,0:0:0:62:B3S_s.ogg
302,192,6214,1,0,0:0:0:62:A4S_s.ogg
10,192,6428,1,0,0:0:0:75:B3S_s.ogg
229,192,6428,1,0,0:0:0:75:A4S_s.ogg
156,192,6642,1,0,0:0:0:62:F#3S_Gb3S_s.ogg
375,192,6642,1,0,0:0:0:62:A4S_s.ogg
448,192,6642,1,0,0:0:0:62:D#5S_Eb5S_s.ogg
83,192,6750,1,0,0:0:0:62:E5S_s.ogg
10,192,6857,1,0,0:0:0:75:B3S_s.ogg
229,192,6857,1,0,0:0:0:75:F#4S_Gb4S_s.ogg
302,192,6857,1,0,0:0:0:75:F#5S_Gb5S_s.ogg
156,192,7071,1,0,0:0:0:62:B3S_s.ogg
375,192,7071,1,0,0:0:0:62:F#4S_Gb4S_s.ogg
448,192,7071,1,0,0:0:0:62:F#5S_Gb5S_s.ogg
10,192,7285,1,0,0:0:0:62:B3S_s.ogg
83,192,7285,1,0,0:0:0:62:F#4S_Gb4S_s.ogg
302,192,7285,1,0,0:0:0:62:F#5S_Gb5S_s.ogg
156,192,7500,1,0,0:0:0:75:B3S_s.ogg
229,192,7500,1,0,0:0:0:75:F#4S_Gb4S_s.ogg
375,192,7500,1,0,0:0:0:75:F#5S_Gb5S_s.ogg
10,192,7714,1,0,0:0:0:62:B3S_s.ogg
302,192,7714,1,0,0:0:0:62:F#4S_Gb4S_s.ogg
448,192,7714,1,0,0:0:0:62:F#5S_Gb5S_s.ogg
83,192,7928,1,0,0:0:0:62:B3S_s.ogg
375,192,7928,1,0,0:0:0:62:F#4S_Gb4S_s.ogg
156,192,8142,1,0,0:0:0:75:B3S_s.ogg
229,192,8142,1,0,0:0:0:75:F#4S_Gb4S_s.ogg
302,192,8142,1,0,0:0:0:75:B4S_s.ogg
10,192,8357,1,0,0:0:0:62:F#3S_Gb3S_s.ogg
83,192,8357,1,0,0:0:0:62:F#4S_Gb4S_s.ogg
448,192,8357,1,0,0:0:0:62:D#5S_Eb5S_s.ogg
156,192,8571,1,0,0:0:0:75:B3S_s.ogg
302,192,8571,1,0,0:0:0:75:G4S_s.ogg
375,192,8571,1,0,0:0:0:75:C#5S_Db5S_s.ogg
10,192,8785,1,0,0:0:0:62:B3S_s.ogg
229,192,8785,1,0,0:0:0:62:G4S_s.ogg
448,192,8785,1,0,0:0:0:62:C#5S_Db5S_s.ogg
83,192,9000,1,0,0:0:0:62:B3S_s.ogg
156,192,9000,1,0,0:0:0:62:G4S_s.ogg
375,192,9000,1,0,0:0:0:62:C#5S_Db5S_s.ogg
10,192,9214,1,0,0:0:0:75:B3S_s.ogg
229,192,9214,1,0,0:0:0:75:G4S_s.ogg
302,192,9214,1,0,0:0:0:75:C#5S_Db5S_s.ogg
83,192,9428,1,0,0:0:0:62:B3S_s.ogg
375,192,9428,1,0,0:0:0:62:G4S_s.ogg
448,192,9428,1,0,0:0:0:62:C#5S_Db5S.ogg
156,192,9642,1,0,0:0:0:62:B3S_s.ogg
302,192,9642,1,0,0:0:0:62:G4S_s.ogg
10,192,9857,1,0,0:0:0:75:B3S_s.ogg
229,192,9857,1,0,0:0:0:75:G4S_s.ogg
83,192,10071,1,0,0:0:0:62:F#3S_Gb3S_s.ogg
375,192,10071,1,0,0:0:0:62:G4S_s.ogg
448,192,10071,1,0,0:0:0:62:D#5S_Eb5S_s.ogg
156,192,10178,1,0,0:0:0:62:C#5S_Db5S_s.ogg
10,192,10285,1,0,0:0:0:75:B3S_s.ogg
229,192,10285,1,0,0:0:0:75:G#4S_Ab4S_s.ogg
302,192,10285,1,0,0:0:0:75:B4S_s.ogg
83,192,10500,1,0,0:0:0:62:B3S_s.ogg
375,192,10500,1,0,0:0:0:62:G#4S_Ab4S_s.ogg
448,192,10500,1,0,0:0:0:62:B4S_s.ogg
156,192,10714,1,0,0:0:0:62:B3S_s.ogg
229,192,10714,1,0,0:0:0:62:G#4S_Ab4S_s.ogg
302,192,10714,1,0,0:0:0:62:B4S_s.ogg
10,192,10928,1,0,0:0:0:75:B3S_s.ogg
83,192,10928,1,0,0:0:0:75:G#4S_Ab4S_s.ogg
448,192,10928,1,0,0:0:0:75:B4S_s.ogg
156,192,11142,1,0,0:0:0:62:B3S_s.ogg
229,192,11142,1,0,0:0:0:62:G#4S_Ab4S_s.ogg
375,192,11142,1,0,0:0:0:62:B4S_s.ogg
83,192,11357,1,0,0:0:0:62:B3S_s.ogg
302,192,11357,1,0,0:0:0:62:G#4S_Ab4S_s.ogg
10,192,11571,1,0,0:0:0:75:B3S_s.ogg
375,192,11571,1,0,0:0:0:75:G#4S_Ab4S_s.ogg
448,192,11571,1,0,0:0:0:75:D#5S_Eb5S_s.ogg
83,192,11785,1,0,0:0:0:62:F#3S_Gb3S_s.ogg
156,192,11785,1,0,0:0:0:62:G#4S_Ab4S_s.ogg
229,192,11785,1,0,0:0:0:62:E5S_s.ogg
10,192,12000,1,0,0:0:0:75:B3S_s.ogg
302,192,12000,1,0,0:0:0:75:A4S_s.ogg
375,192,12000,1,0,0:0:0:75:D#5S_Eb5S.ogg
156,192,12214,1,0,0:0:0:62:B3S_s.ogg
448,192,12214,1,0,0:0:0:62:A4S_s.ogg
83,192,12428,1,0,0:0:0:62:B3S_s.ogg
229,192,12428,1,0,0:0:0:62:A4S_s.ogg
10,192,12642,1,0,0:0:0:75:B3S_s.ogg
302,192,12642,1,0,0:0:0:75:A4S_s.ogg
375,192,12642,1,0,0:0:0:75:C#5S_Db5S_s.ogg
83,192,12857,1,0,0:0:0:62:B3S_s.ogg
156,192,12857,1,0,0:0:0:62:A4S_s.ogg
448,192,12857,1,0,0:0:0:62:C#5S_Db5S_s.ogg
229,192,13071,1,0,0:0:0:62:B3S_s.ogg
302,192,13071,1,0,0:0:0:62:A4S_s.ogg
10,192,13285,1,0,0:0:0:75:B3S_s.ogg
375,192,13285,1,0,0:0:0:75:A4S_s.ogg
83,192,13500,1,0,0:0:0:62:F#3S_Gb3S_s.ogg
156,192,13500,1,0,0:0:0:62:A4S_s.ogg
448,192,13500,1,0,0:0:0:62:D#5S_Eb5S_s.ogg
302,192,13607,1,0,0:0:0:62:E5S_s.ogg
10,192,13714,1,0,0:0:0:75:B3S_s.ogg
229,192,13714,1,0,0:0:0:75:F#4S_Gb4S_s.ogg
375,192,13714,1,0,0:0:0:75:F#5S_Gb5S_s.ogg
83,192,13928,1,0,0:0:0:62:B3S_s.ogg
156,192,13928,1,0,0:0:0:62:F#4S_Gb4S_s.ogg
448,192,13928,1,0,0:0:0:62:F#5S_Gb5S_s.ogg
10,192,14142,1,0,0:0:0:62:B3S_s.ogg
302,192,14142,1,0,0:0:0:62:F#4S_Gb4S_s.ogg
375,192,14142,1,0,0:0:0:62:F#5S_Gb5S_s.ogg
156,192,14357,1,0,0:0:0:75:B3S_s.ogg
229,192,14357,1,0,0:0:0:75:F#4S_Gb4S_s.ogg
448,192,14357,1,0,0:0:0:75:F#5S_Gb5S_s.ogg
10,192,14571,1,0,0:0:0:62:B3S_s.ogg
83,192,14571,1,0,0:0:0:62:F#4S_Gb4S_s.ogg
302,192,14571,1,0,0:0:0:62:F#5S_Gb5S_s.ogg
156,192,14785,1,0,0:0:0:62:B3S_s.ogg
375,192,14785,1,0,0:0:0:62:F#4S_Gb4S_s.ogg
83,192,15000,1,0,0:0:0:75:B3S_s.ogg
229,192,15000,1,0,0:0:0:75:F#4S_Gb4S_s.ogg
448,192,15000,1,0,0:0:0:75:B4S_s.ogg
10,192,15214,1,0,0:0:0:62:F#3S_Gb3S_s.ogg
302,192,15214,1,0,0:0:0:62:F#4S_Gb4S_s.ogg
375,192,15214,1,0,0:0:0:62:D#5S_Eb5S_s.ogg
83,192,15428,1,0,0:0:0:75:B3S_s.ogg
156,192,15428,1,0,0:0:0:75:G4S_s.ogg
448,192,15428,1,0,0:0:0:75:C#5S_Db5S_s.ogg
10,192,15642,1,0,0:0:0:62:B3S_s.ogg
229,192,15642,1,0,0:0:0:62:G4S_s.ogg
375,192,15642,1,0,0:0:0:62:C#5S_Db5S_s.ogg
83,192,15857,1,0,0:0:0:62:B3S_s.ogg
302,192,15857,1,0,0:0:0:62:G4S_s.ogg
448,192,15857,1,0,0:0:0:62:C#5S_Db5S_s.ogg
10,192,16071,1,0,0:0:0:75:B3S_s.ogg
156,192,16071,1,0,0:0:0:75:G4S_s.ogg
375,192,16071,1,0,0:0:0:75:C#5S_Db5S_s.ogg
83,192,16285,1,0,0:0:0:62:B3S_s.ogg
229,192,16285,1,0,0:0:0:62:G4S_s.ogg
302,192,16285,1,0,0:0:0:62:C#5S_Db5S_s.ogg
156,192,16500,1,0,0:0:0:62:B3S_s.ogg
448,192,16500,1,0,0:0:0:62:G4S_s.ogg
10,192,16714,1,0,0:0:0:75:B3S_s.ogg
302,192,16714,1,0,0:0:0:75:G4S_s.ogg
375,192,16714,1,0,0:0:0:75:D#5S_Eb5S_s.ogg
83,192,16928,1,0,0:0:0:62:F#3S_Gb3S_s.ogg
229,192,16928,1,0,0:0:0:62:G4S_s.ogg
448,192,16928,1,0,0:0:0:62:C#5S_Db5S_s.ogg
10,192,17142,1,0,0:0:0:75:B3S_s.ogg
156,192,17142,1,0,0:0:0:75:G#4S_Ab4S_s.ogg
302,192,17142,1,0,0:0:0:75:B4S.ogg
83,192,17357,1,0,0:0:0:62:B3S_s.ogg
375,192,17357,1,0,0:0:0:62:G#4S_Ab4S_s.ogg
229,192,17571,1,0,0:0:0:62:B3S_s.ogg
448,192,17571,1,0,0:0:0:62:G#4S_Ab4S_s.ogg
10,192,17785,1,0,0:0:0:75:B3S_s.ogg
156,192,17785,1,0,0:0:0:75:F#4S_Gb4S_s.ogg
302,192,17785,1,0,0:0:0:75:G#4S_Ab4S_s.ogg
83,192,18000,1,0,0:0:0:62:B3S_s.ogg
375,192,18000,1,0,0:0:0:62:G#4S_Ab4S_s.ogg
448,192,18000,1,0,0:0:0:62:D#5S_Eb5S_s.ogg
10,192,18214,1,0,0:0:0:62:B3S_s.ogg
229,192,18214,1,0,0:0:0:62:G#4S_Ab4S_s.ogg
302,192,18214,1,0,0:0:0:62:E5S_s.ogg
83,192,18428,1,0,0:0:0:75:B3S_s.ogg
156,192,18428,1,0,0:0:0:75:G#4S_Ab4S_s.ogg
448,192,18428,1,0,0:0:0:75:C#5S_Db5S_s.ogg
10,192,18642,1,0,0:0:0:62:F#3S_Gb3S_s.ogg
375,192,18642,1,0,0:0:0:62:G#4S_Ab4S_s.ogg
302,192,18750,1,0,0:0:0:62:B4S_s.ogg
83,192,18857,1,0,0:0:0:62:B4S.ogg
229,192,18857,1,0,0:0:0:62:C#5S_Db5S.ogg
448,192,18857,1,0,0:0:0:62:F#5S_Gb5S.ogg
156,192,20357,1,0,0:0:0:74:D#6S_Eb6S_s.ogg
375,192,20464,1,0,0:0:0:74:E6S_s.ogg
10,192,20571,1,0,0:0:0:75:E3S_s.ogg
83,192,20571,1,0,0:0:0:75:F#5S_Gb5S_s.ogg
302,192,20571,1,0,0:0:0:75:F#6S_Gb6S_s.ogg
156,192,20785,1,0,0:0:0:75:G#4S_Ab4S_s.ogg
229,192,20785,1,0,0:0:0:75:F#5S_Gb5S_s.ogg
448,192,20785,1,0,0:0:0:75:F#6S_Gb6S_s.ogg
10,192,21000,1,0,0:0:0:75:B2S_s.ogg
302,192,21000,1,0,0:0:0:75:F#5S_Gb5S_s.ogg
375,192,21000,1,0,0:0:0:75:F#6S_Gb6S_s.ogg
83,192,21214,1,0,0:0:0:75:G#4S_Ab4S_s.ogg
156,192,21214,1,0,0:0:0:75:F#5S_Gb5S_s.ogg
448,192,21214,1,0,0:0:0:75:F#6S_Gb6S_s.ogg
10,192,21428,1,0,0:0:0:75:E3S_s.ogg
229,192,21428,1,0,0:0:0:75:F#5S_Gb5S_s.ogg
375,192,21428,1,0,0:0:0:75:F#6S_Gb6S_s.ogg
156,192,21642,1,0,0:0:0:75:E4S_s.ogg
302,192,21642,1,0,0:0:0:75:G#4S_Ab4S_s.ogg
83,192,21857,1,0,0:0:0:75:B2S_s.ogg
375,192,21857,1,0,0:0:0:75:B4S_s.ogg
448,192,21857,1,0,0:0:0:75:B5S_s.ogg
10,192,22071,1,0,0:0:0:75:G#4S_Ab4S_s.ogg
156,192,22071,1,0,0:0:0:75:D#5S_Eb5S_s.ogg
229,192,22071,1,0,0:0:0:75:D#6S_Eb6S_s.ogg
83,192,22285,1,0,0:0:0:75:D#3S_Eb3S_s.ogg
302,192,22285,1,0,0:0:0:75:C#5S_Db5S_s.ogg
448,192,22285,1,0,0:0:0:75:C#6S_Db6S_s.ogg
156,192,22500,1,0,0:0:0:75:F#4S_Gb4S_s.ogg
229,192,22500,1,0,0:0:0:75:C#5S_Db5S_s.ogg
375,192,22500,1,0,0:0:0:75:C#6S_Db6S_s.ogg
10,192,22714,1,0,0:0:0:75:B2S_s.ogg
83,192,22714,1,0,0:0:0:75:C#5S_Db5S_s.ogg
448,192,22714,1,0,0:0:0:75:C#6S_Db6S_s.ogg
156,192,22928,1,0,0:0:0:75:F#4S_Gb4S_s.ogg
229,192,22928,1,0,0:0:0:75:C#5S_Db5S_s.ogg
302,192,22928,1,0,0:0:0:75:C#6S_Db6S_s.ogg
83,192,23142,1,0,0:0:0:75:D#3S_Eb3S_s.ogg
375,192,23142,1,0,0:0:0:75:C#5S_Db5S_s.ogg
448,192,23142,1,0,0:0:0:75:C#6S_Db6S_s.ogg
10,192,23357,1,0,0:0:0:75:D#4S_Eb4S_s.ogg
302,192,23357,1,0,0:0:0:75:F#4S_Gb4S_s.ogg
156,192,23571,1,0,0:0:0:75:B2S_s.ogg
83,192,23785,1,0,0:0:0:75:D#4S_Eb4S_s.ogg
229,192,23785,1,0,0:0:0:75:F#4S_Gb4S_s.ogg
375,192,23785,1,0,0:0:0:75:D#6S_Eb6S_s.ogg
448,192,23892,1,0,0:0:0:75:C#6S_Db6S_s.ogg
10,192,24000,1,0,0:0:0:75:C#3S_Db3S_s.ogg
156,192,24000,1,0,0:0:0:75:B4S_s.ogg
302,192,24000,1,0,0:0:0:75:B5S_s.ogg
83,192,24214,1,0,0:0:0:75:E4S_s.ogg
229,192,24214,1,0,0:0:0:75:B4S_s.ogg
375,192,24214,1,0,0:0:0:75:B5S_s.ogg
10,192,24428,1,0,0:0:0:75:F#2S_Gb2S_s.ogg
302,192,24428,1,0,0:0:0:75:B4S_s.ogg
448,192,24428,1,0,0:0:0:75:B5S_s.ogg
83,192,24642,1,0,0:0:0:75:E4S_s.ogg
156,192,24642,1,0,0:0:0:75:B4S_s.ogg
375,192,24642,1,0,0:0:0:75:B5S_s.ogg
10,192,24857,1,0,0:0:0:75:C#3S_Db3S_s.ogg
229,192,24857,1,0,0:0:0:75:E5S_s.ogg
302,192,24857,1,0,0:0:0:75:E6S_s.ogg
83,192,25071,1,0,0:0:0:75:E4S_s.ogg
375,192,25071,1,0,0:0:0:75:D#5S_Eb5S_s.ogg
448,192,25071,1,0,0:0:0:75:D#6S_Eb6S_s.ogg
10,192,25285,1,0,0:0:0:75:F#2S_Gb2S_s.ogg
156,192,25285,1,0,0:0:0:75:B4S_s.ogg
302,192,25285,1,0,0:0:0:75:B5S_s.ogg
83,192,25500,1,0,0:0:0:75:E4S_s.ogg
229,192,25500,1,0,0:0:0:75:C#5S_Db5S_s.ogg
448,192,25500,1,0,0:0:0:75:C#6S_Db6S_s.ogg
10,192,25714,1,0,0:0:0:75:B2S_s.ogg
302,192,25714,1,0,0:0:0:75:C#5S_Db5S.ogg
375,192,25714,1,0,0:0:0:75:C#6S_Db6S.ogg
156,192,25928,1,0,0:0:0:75:F#3S_Gb3S_s.ogg
448,192,25928,1,0,0:0:0:75:B3S_s.ogg
229,192,26142,1,0,0:0:0:75:C#3S_Db3S_s.ogg
10,192,26357,1,0,0:0:0:75:B3S_s.ogg
83,192,26357,1,0,0:0:0:75:D#5S_Eb5S_s.ogg
375,192,26357,1,0,0:0:0:75:D#6S_Eb6S_s.ogg
156,192,26571,1,0,0:0:0:75:D#3S_Eb3S_s.ogg
302,192,26571,1,0,0:0:0:75:D#5S_Eb5S.ogg
448,192,26571,1,0,0:0:0:75:D#6S_Eb6S.ogg
229,192,26785,1,0,0:0:0:75:D#4S_Eb4S_s.ogg
375,192,26785,1,0,0:0:0:75:F#4S_Gb4S_s.ogg
83,192,27000,1,0,0:0:0:75:F#3S_Gb3S_s.ogg
10,192,27214,1,0,0:0:0:75:D#4S_Eb4S_s.ogg
156,192,27214,1,0,0:0:0:75:F#4S_Gb4S_s.ogg
448,192,27214,1,0,0:0:0:75:D#6S_Eb6S_s.ogg
302,192,27321,1,0,0:0:0:75:E6S_s.ogg
83,192,27428,1,0,0:0:0:75:E3S_s.ogg
229,192,27428,1,0,0:0:0:75:F#5S_Gb5S_s.ogg
375,192,27428,1,0,0:0:0:75:F#6S_Gb6S_s.ogg
10,192,27642,1,0,0:0:0:75:G#4S_Ab4S_s.ogg
156,192,27642,1,0,0:0:0:75:F#5S_Gb5S_s.ogg
448,192,27642,1,0,0:0:0:75:F#6S_Gb6S_s.ogg
83,192,27857,1,0,0:0:0:75:B2S_s.ogg
302,192,27857,1,0,0:0:0:75:F#5S_Gb5S_s.ogg
375,192,27857,1,0,0:0:0:75:F#6S_Gb6S_s.ogg
10,192,28071,1,0,0:0:0:75:G#4S_Ab4S_s.ogg
229,192,28071,1,0,0:0:0:75:F#5S_Gb5S_s.ogg
448,192,28071,1,0,0:0:0:75:F#6S_Gb6S_s.ogg
83,192,28285,1,0,0:0:0:75:E3S_s.ogg
156,192,28285,1,0,0:0:0:75:F#5S_Gb5S_s.ogg
375,192,28285,1,0,0:0:0:75:F#6S_Gb6S_s.ogg
10,192,28500,1,0,0:0:0:75:E4S_s.ogg
302,192,28500,1,0,0:0:0:75:G#4S_Ab4S_s.ogg
229,192,28714,1,0,0:0:0:75:B2S_s.ogg
375,192,28714,1,0,0:0:0:75:B4S_s.ogg
448,192,28714,1,0,0:0:0:75:B5S_s.ogg
83,192,28928,1,0,0:0:0:75:G#4S_Ab4S_s.ogg
156,192,28928,1,0,0:0:0:75:D#5S_Eb5S_s.ogg
302,192,28928,1,0,0:0:0:75:D#6S_Eb6S_s.ogg
10,192,29142,1,0,0:0:0:75:D#3S_Eb3S_s.ogg
229,192,29142,1,0,0:0:0:75:C#5S_Db5S_s.ogg
375,192,29142,1,0,0:0:0:75:C#6S_Db6S_s.ogg
156,192,29357,1,0,0:0:0:75:F#4S_Gb4S_s.ogg
302,192,29357,1,0,0:0:0:75:C#5S_Db5S_s.ogg
448,192,29357,1,0,0:0:0:75:C#6S_Db6S_s.ogg
10,192,29571,1,0,0:0:0:75:B2S_s.ogg
83,192,29571,1,0,0:0:0:75:C#5S_Db5S_s.ogg
375,192,29571,1,0,0:0:0:75:C#6S_Db6S_s.ogg
156,192,29785,1,0,0:0:0:75:F#4S_Gb4S_s.ogg
229,192,29785,1,0,0:0:0:75:C#5S_Db5S_s.ogg
448,192,29785,1,0,0:0:0:75:C#6S_Db6S_s.ogg
10,192,30000,1,0,0:0:0:75:D#3S_Eb3S_s.ogg
302,192,30000,1,0,0:0:0:75:C#5S_Db5S_s.ogg
375,192,30000,1,0,0:0:0:75:C#6S_Db6S_s.ogg
83,192,30214,1,0,0:0:0:75:D#4S_Eb4S_s.ogg
448,192,30214,1,0,0:0:0:75:F#4S_Gb4S_s.ogg
10,192,30428,1,0,0:0:0:75:B2S_s.ogg
156,192,30428,1,0,0:0:0:75:D#5S_Eb5S_s.ogg
229,192,30428,1,0,0:0:0:75:D#6S_Eb6S_s.ogg
83,192,30642,1,0,0:0:0:75:F#4S_Gb4S_s.ogg
302,192,30642,1,0,0:0:0:75:C#5S_Db5S_s.ogg
375,192,30642,1,0,0:0:0:75:C#6S_Db6S_s.ogg
156,192,30857,1,0,0:0:0:75:C#3S_Db3S_s.ogg
229,192,30857,1,0,0:0:0:75:B4S.ogg
448,192,30857,1,0,0:0:0:75:B5S.ogg
10,192,31071,1,0,0:0:0:74:E4S_s.ogg
375,192,31071,1,0,0:0:0:74:G#4S_Ab4S_s.ogg
83,192,31285,1,0,0:0:0:74:C#3S_Db3S_s.ogg
156,192,31500,1,0,0:0:0:73:F#4S_Gb4S_s.ogg
302,192,31500,1,0,0:0:0:73:G#4S_Ab4S_s.ogg
448,192,31500,1,0,0:0:0:73:F#5S_Gb5S_s.ogg
10,192,31714,1,0,0:0:0:72:D#3S_Eb3S_s.ogg
229,192,31714,1,0,0:0:0:72:D#5S_Eb5S_s.ogg
375,192,31714,1,0,0:0:0:72:D#6S_Eb6S_s.ogg
83,192,31928,1,0,0:0:0:71:C#4S_Db4S_s.ogg
156,192,31928,1,0,0:0:0:71:E5S_s.ogg
302,192,31928,1,0,0:0:0:71:E6S_s.ogg
10,192,32142,1,0,0:0:0:70:D#3S_Eb3S_s.ogg
375,192,32142,1,0,0:0:0:70:C#5S_Db5S_s.ogg
448,192,32142,1,0,0:0:0:70:C#6S_Db6S_s.ogg
229,192,32357,1,0,0:0:0:70:F#3S_Gb3S_s.ogg
302,192,32357,1,0,0:0:0:70:C#4S_Db4S_s.ogg
83,192,32464,1,0,0:0:0:70:B4S_s.ogg
156,192,32464,1,0,0:0:0:70:B5S_s.ogg
10,192,32571,1,0,0:0:0:69:E3S_s.ogg
375,192,32571,1,0,0:0:0:69:B4S.ogg
448,192,32571,1,0,0:0:0:69:B5S.ogg
229,192,32785,1,0,0:0:0:68:C#4S_Db4S_s.ogg
302,192,32785,1,0,0:0:0:68:E4S_s.ogg
156,192,33000,1,0,0:0:0:67:E3S_s.ogg
10,192,33214,1,0,0:0:0:66:C#4S_Db4S_s.ogg
83,192,33214,1,0,0:0:0:66:E4S_s.ogg
448,192,33214,1,0,0:0:0:66:F#5S_Gb5S_s.ogg
229,192,33428,1,0,0:0:0:66:F#3S_Gb3S_s.ogg
375,192,33428,1,0,0:0:0:66:D#6S_Eb6S_s.ogg
156,192,33642,1,0,0:0:0:65:D#4S_Eb4S_s.ogg
302,192,33642,1,0,0:0:0:65:F#4S_Gb4S_s.ogg
448,192,33642,1,0,0:0:0:65:E6S_s.ogg
10,192,33857,1,0,0:0:0:64:F#3S_Gb3S_s.ogg
83,192,33857,1,0,0:0:0:64:C#6S_Db6S_s.ogg
156,192,34071,1,0,0:0:0:63:D#4S_Eb4S_s.ogg
229,192,34071,1,0,0:0:0:63:F#4S_Gb4S_s.ogg
375,192,34071,1,0,0:0:0:63:B5S_s.ogg
302,192,34285,1,0,0:0:0:62:C#3S_Db3S_s.ogg
448,192,34285,1,0,0:0:0:62:B5S.ogg
10,192,34500,1,0,0:0:0:62:F#3S_Gb3S_s.ogg
83,192,34500,1,0,0:0:0:62:C#4S_Db4S_s.ogg
375,192,34714,1,0,0:0:0:62:C#3S_Db3S_s.ogg
156,192,34928,1,0,0:0:0:62:F#3S_Gb3S_s.ogg
229,192,34928,1,0,0:0:0:62:C#4S_Db4S_s.ogg
302,192,34928,1,0,0:0:0:62:F#5S_Gb5S_s.ogg
83,192,35142,1,0,0:0:0:62:D#3S_Eb3S_s.ogg
448,192,35142,1,0,0:0:0:62:D#6S_Eb6S_s.ogg
10,192,35357,1,0,0:0:0:62:D#4S_Eb4S_s.ogg
156,192,35357,1,0,0:0:0:62:F#4S_Gb4S_s.ogg
375,192,35357,1,0,0:0:0:62:E6S_s.ogg
229,192,35571,1,0,0:0:0:62:D#3S_Eb3S_s.ogg
302,192,35571,1,0,0:0:0:62:C#6S_Db6S_s.ogg
83,192,35785,1,0,0:0:0:62:D#4S_Eb4S_s.ogg
448,192,35785,1,0,0:0:0:62:F#4S_Gb4S_s.ogg
10,192,35892,1,0,0:0:0:62:B5S_s.ogg
156,192,36000,1,0,0:0:0:62:F#3S_Gb3S.ogg
375,192,36000,1,0,0:0:0:62:B5S.ogg
229,192,36642,1,0,0:0:0:62:F#5S_Gb5S_s.ogg
83,192,36857,1,0,0:0:0:62:F#4S_Gb4S.ogg
302,192,36857,1,0,0:0:0:62:D#6S_Eb6S_s.ogg
448,192,37071,1,0,0:0:0:62:E6S_s.ogg
10,192,37285,1,0,0:0:0:62:C#6S_Db6S_s.ogg
375,192,37500,1,0,0:0:0:62:B5S_s.ogg
156,192,37714,1,0,0:0:0:62:B5S.ogg
229,192,37714,1,0,0:0:0:62:F#7S_Gb7S_s.ogg
302,192,38142,1,0,0:0:0:62:B6S_s.ogg
83,192,38571,1,0,0:0:0:62:C#7S_Db7S_s.ogg
448,192,39000,1,0,0:0:0:62:B6S_s.ogg
10,192,39428,1,0,0:0:0:62:F5S.ogg
375,192,39428,1,0,0:0:0:62:F6S_s.ogg
229,192,39857,1,0,0:0:0:62:B6S_s.ogg
156,192,40285,1,0,0:0:0:62:C#5S_Db5S.ogg
302,192,40285,1,0,0:0:0:62:C#7S_Db7S_s.ogg
83,192,40714,1,0,0:0:0:62:B6S_s.ogg
10,192,41142,1,0,0:0:0:62:E5S.ogg
448,192,41142,1,0,0:0:0:62:E6S_s.ogg
375,192,41571,1,0,0:0:0:62:B6S_s.ogg
229,192,42000,1,0,0:0:0:62:C#7S_Db7S_s.ogg
156,192,42428,1,0,0:0:0:62:E7S_s.ogg
83,192,42857,1,0,0:0:0:62:D#5S_Eb5S.ogg
302,192,42857,1,0,0:0:0:62:D#7S_Eb7S_s.ogg
448,192,43285,1,0,0:0:0:62:C#7S_Db7S_s.ogg
10,192,43714,1,0,0:0:0:62:B6S_s.ogg
375,192,44142,1,0,0:0:0:62:F#6S_Gb6S_s.ogg
156,192,44571,1,0,0:0:0:62:B5S.ogg
229,192,44571,1,0,0:0:0:62:F#7S_Gb7S_s.ogg
302,192,45000,1,0,0:0:0:62:B6S_s.ogg
83,192,45428,1,0,0:0:0:62:C#7S_Db7S_s.ogg
448,192,45857,1,0,0:0:0:62:B6S_s.ogg
10,192,46285,1,0,0:0:0:62:F5S.ogg
375,192,46285,1,0,0:0:0:62:F6S_s.ogg
156,192,46714,1,0,0:0:0:62:B6S_s.ogg
229,192,47142,1,0,0:0:0:62:C#5S_Db5S.ogg
302,192,47142,1,0,0:0:0:62:C#7S_Db7S_s.ogg
83,192,47571,1,0,0:0:0:62:B6S_s.ogg
10,192,48000,1,0,0:0:0:62:E5S.ogg
448,192,48000,1,0,0:0:0:62:E6S_s.ogg
375,192,48428,1,0,0:0:0:62:B6S_s.ogg
156,192,48857,1,0,0:0:0:62:C#7S_Db7S_s.ogg
302,192,49285,1,0,0:0:0:62:E7S_s.ogg
83,192,49714,1,0,0:0:0:62:D#5S_Eb5S.ogg
229,192,49714,1,0,0:0:0:62:D#7S_Eb7S_s.ogg
448,192,50142,1,0,0:0:0:62:C#7S_Db7S_s.ogg
10,192,50571,1,0,0:0:0:62:B6S_s.ogg
375,192,51000,1,0,0:0:0:62:C#7S_Db7S_s.ogg
83,192,51428,1,0,0:0:0:62:E6S.ogg
156,192,51428,1,0,0:0:0:62:F#6S_Gb6S.ogg
302,192,51428,1,0,0:0:0:62:B6S.ogg
