osu file format v14

[General]
AudioFilename: audio.mp3
AudioLeadIn: 0
PreviewTime: -1
Countdown: 0
SampleSet: None
StackLeniency: 0.7
Mode: 3
LetterboxInBreaks: 0
SpecialStyle: 0
WidescreenStoryboard: 0

[Editor]
DistanceSpacing: 1.2
BeatDivisor: 8
GridSize: 4
TimelineZoom: 1

[Metadata]
Title:Chapter 1
TitleUnicode:Chapter 1
Artist:DELTARUNE
ArtistUnicode:DELTARUNE
Creator:[Shana Lesus]
Version:Toby Fox - Before the Story
Source:
Tags:
BeatmapID:2078071
BeatmapSetID:993812

[Difficulty]
HPDrainRate:8
CircleSize:7
OverallDifficulty:8
ApproachRate:5
SliderMultiplier:1.4
SliderTickRate:1

[Events]
//Background and Video events
0,0,"eternal.jpg",0,0
//Break Periods
//Storyboard Layer 0 (Background)
//Storyboard Layer 1 (Fail)
//Storyboard Layer 2 (Pass)
//Storyboard Layer 3 (Foreground)
//Storyboard Sound Samples
Sample,29538,0,"D#4S_Eb4S.ogg",62
Sample,29538,0,"B3S_s.ogg",62
Sample,33231,0,"F4S.ogg",62
Sample,33231,0,"C#4S_Db4S_s.ogg",62
Sample,36923,0,"F4S.ogg",62
Sample,36923,0,"D#4S_Eb4S_s.ogg",62
Sample,40615,0,"F#4S_Gb4S.ogg",62
Sample,40615,0,"D#4S_Eb4S_s.ogg",62
Sample,44308,0,"D#4S_Eb4S.ogg",62
Sample,44308,0,"B3S_s.ogg",62
Sample,48000,0,"F4S.ogg",62
Sample,48000,0,"C#4S_Db4S_s.ogg",62
Sample,51692,0,"F4S.ogg",62
Sample,51692,0,"D#4S_Eb4S_s.ogg",62
Sample,55385,0,"F#4S_Gb4S.ogg",62
Sample,55385,0,"D#4S_Eb4S_s.ogg",62
Sample,59077,0,"D#4S_Eb4S.ogg",62
Sample,59077,0,"B3S_s.ogg",62
Sample,60000,0,"C#5S_Db5S.ogg",62
Sample,60923,0,"G#6S_Ab6S_s.ogg",62
Sample,62769,0,"F4S.ogg",62
Sample,62769,0,"C#4S_Db4S_s.ogg",62
Sample,63692,0,"C#7S_Db7S_s.ogg",62
Sample,63692,0,"D#5S_Eb5S.ogg",62
Sample,64615,0,"F5S.ogg",62
Sample,66461,0,"D#4S_Eb4S_s.ogg",62
Sample,66461,0,"F4S.ogg",62
Sample,67385,0,"F5S.ogg",62
Sample,70154,0,"F#4S_Gb4S.ogg",62
Sample,70154,0,"D#4S_Eb4S_s.ogg",62
Sample,71077,0,"G#6S_Ab6S_s.ogg",62
Sample,71077,0,"F#5S_Gb5S.ogg",62
Sample,73846,0,"D#4S_Eb4S.ogg",62
Sample,73846,0,"B3S_s.ogg",62
Sample,74769,0,"C#5S_Db5S.ogg",62
Sample,75692,0,"G#6S_Ab6S_s.ogg",62
Sample,77538,0,"F4S.ogg",62
Sample,77538,0,"C#4S_Db4S_s.ogg",62
Sample,78461,0,"C#7S_Db7S_s.ogg",62
Sample,78461,0,"D#5S_Eb5S.ogg",62
Sample,79385,0,"F5S.ogg",62
Sample,81231,0,"D#4S_Eb4S_s.ogg",62
Sample,81231,0,"F4S.ogg",62
Sample,82154,0,"F5S.ogg",62

[TimingPoints]
0,461.538,4,1,1,100,1,0

[HitObjects]
375,192,0,5,0,0:0:0:62:B3S_s.ogg
83,192,461,1,0,0:0:0:62:F#4S_Gb4S_s.ogg
302,192,923,1,0,0:0:0:62:C#5S_Db5S.ogg
156,192,3692,1,0,0:0:0:62:C#4S_Db4S_s.ogg
448,192,4153,1,0,0:0:0:62:G#4S_Ab4S_s.ogg
10,192,4615,1,0,0:0:0:62:D#5S_Eb5S.ogg
229,192,7384,1,0,0:0:0:62:D#4S_Eb4S_s.ogg
375,192,7846,1,0,0:0:0:62:A#4S_Bb4S_s.ogg
83,192,8307,1,0,0:0:0:62:F5S.ogg
302,192,11076,1,0,0:0:0:62:D#4S_Eb4S_s.ogg
156,192,11538,1,0,0:0:0:62:A#4S_Bb4S_s.ogg
448,192,11999,1,0,0:0:0:62:F#5S_Gb5S.ogg
10,192,12057,1,0,0:0:0:62:A#5S_Bb5S.ogg
229,192,12923,1,0,0:0:0:62:G#5S_Ab5S.ogg
375,192,13846,1,0,0:0:0:62:F#5S_Gb5S.ogg
83,192,14769,1,0,0:0:0:62:B3S_s.ogg
302,192,14769,1,0,0:0:0:62:C#6S_Db6S.ogg
156,192,15230,1,0,0:0:0:62:F#4S_Gb4S_s.ogg
448,192,15692,1,0,0:0:0:62:C#5S_Db5S.ogg
10,192,18461,1,0,0:0:0:62:C#4S_Db4S_s.ogg
229,192,18461,1,0,0:0:0:62:D#6S_Eb6S.ogg
375,192,18923,1,0,0:0:0:62:G#4S_Ab4S_s.ogg
83,192,19384,1,0,0:0:0:62:D#5S_Eb5S.ogg
302,192,21230,1,0,0:0:0:62:F#5S_Gb5S.ogg
156,192,22153,1,0,0:0:0:62:D#4S_Eb4S_s.ogg
448,192,22153,1,0,0:0:0:62:F5S.ogg
10,192,22615,1,0,0:0:0:62:A#4S_Bb4S_s.ogg
229,192,23076,1,0,0:0:0:62:F5S.ogg
83,192,25846,1,0,0:0:0:62:D#4S_Eb4S_s.ogg
375,192,25846,1,0,0:0:0:62:F#5S_Gb5S.ogg
302,192,26307,1,0,0:0:0:62:A#4S_Bb4S_s.ogg
156,192,26769,1,0,0:0:0:62:F#5S_Gb5S.ogg
10,192,29538,1,0,0:0:0:62:A#4S_Bb4S.ogg
229,192,29538,1,0,0:0:0:62:C#6S_Db6S.ogg
448,192,29538,1,0,0:0:0:62:C#7S_Db7S.ogg
83,192,29999,1,0,0:0:0:62:F#4S_Gb4S_s.ogg
156,192,30461,1,0,0:0:0:62:C#5S_Db5S.ogg
302,192,30461,1,0,0:0:0:62:C#7S_Db7S.ogg
375,192,30461,1,0,0:0:0:62:C#8S_Db8S.ogg
10,192,31384,1,0,0:0:0:62:G#6S_Ab6S.ogg
448,192,31384,1,0,0:0:0:62:G#7S_Ab7S.ogg
83,192,33230,1,0,0:0:0:62:G#4S_Ab4S.ogg
229,192,33230,1,0,0:0:0:62:F#6S_Gb6S.ogg
375,192,33230,1,0,0:0:0:62:F#7S_Gb7S.ogg
156,192,33692,1,0,0:0:0:62:G#4S_Ab4S.ogg
10,192,34153,1,0,0:0:0:62:D#5S_Eb5S.ogg
302,192,34153,1,0,0:0:0:62:C#7S_Db7S.ogg
448,192,34153,1,0,0:0:0:62:C#8S_Db8S.ogg
83,192,35076,1,0,0:0:0:62:F5S.ogg
229,192,35076,1,0,0:0:0:62:C#6S_Db6S.ogg
375,192,35076,1,0,0:0:0:62:C#7S_Db7S.ogg
10,192,36923,1,0,0:0:0:62:G#4S_Ab4S.ogg
156,192,36923,1,0,0:0:0:62:C#6S_Db6S.ogg
302,192,36923,1,0,0:0:0:62:C#7S_Db7S.ogg
448,192,37384,1,0,0:0:0:62:A#4S_Bb4S_s.ogg
83,192,37846,1,0,0:0:0:62:F5S.ogg
229,192,37846,1,0,0:0:0:62:F6S.ogg
375,192,37846,1,0,0:0:0:62:F7S.ogg
10,192,38769,1,0,0:0:0:62:C#7S_Db7S.ogg
302,192,38769,1,0,0:0:0:62:C#8S_Db8S.ogg
156,192,40153,1,0,0:0:0:62:D#7S_Eb7S_s.ogg
448,192,40153,1,0,0:0:0:62:D#8S_Eb8S_s.ogg
83,192,40615,1,0,0:0:0:62:A#4S_Bb4S.ogg
229,192,40615,1,0,0:0:0:62:C#7S_Db7S.ogg
375,192,40615,1,0,0:0:0:62:C#8S_Db8S.ogg
10,192,41076,1,0,0:0:0:62:A#4S_Bb4S.ogg
156,192,41538,1,0,0:0:0:62:F#5S_Gb5S.ogg
302,192,41538,1,0,0:0:0:62:G#6S_Ab6S.ogg
448,192,41538,1,0,0:0:0:62:G#7S_Ab7S.ogg
83,192,42461,1,0,0:0:0:62:F#6S_Gb6S.ogg
375,192,42461,1,0,0:0:0:62:F#7S_Gb7S.ogg
10,192,44307,1,0,0:0:0:62:A#4S_Bb4S.ogg
229,192,44307,1,0,0:0:0:62:C#6S_Db6S.ogg
302,192,44307,1,0,0:0:0:62:C#7S_Db7S.ogg
156,192,44769,1,0,0:0:0:62:F#4S_Gb4S_s.ogg
83,192,45230,1,0,0:0:0:62:C#5S_Db5S.ogg
375,192,45230,1,0,0:0:0:62:C#7S_Db7S.ogg
448,192,45230,1,0,0:0:0:62:C#8S_Db8S.ogg
10,192,46153,1,0,0:0:0:62:G#6S_Ab6S.ogg
229,192,46153,1,0,0:0:0:62:G#7S_Ab7S.ogg
156,192,47999,1,0,0:0:0:62:G#4S_Ab4S.ogg
302,192,47999,1,0,0:0:0:62:F#6S_Gb6S.ogg
375,192,47999,1,0,0:0:0:62:F#7S_Gb7S.ogg
83,192,48461,1,0,0:0:0:62:G#4S_Ab4S.ogg
10,192,48923,1,0,0:0:0:62:D#5S_Eb5S.ogg
229,192,48923,1,0,0:0:0:62:C#7S_Db7S.ogg
448,192,48923,1,0,0:0:0:62:C#8S_Db8S.ogg
156,192,49846,1,0,0:0:0:62:F5S.ogg
302,192,49846,1,0,0:0:0:62:C#6S_Db6S.ogg
375,192,49846,1,0,0:0:0:62:C#7S_Db7S.ogg
10,192,51692,1,0,0:0:0:62:G#4S_Ab4S.ogg
83,192,51692,1,0,0:0:0:62:C#6S_Db6S.ogg
448,192,51692,1,0,0:0:0:62:C#7S_Db7S.ogg
229,192,52153,1,0,0:0:0:62:A#4S_Bb4S_s.ogg
156,192,52615,1,0,0:0:0:62:F5S.ogg
302,192,52615,1,0,0:0:0:62:F6S.ogg
375,192,52615,1,0,0:0:0:62:F7S.ogg
10,192,53538,1,0,0:0:0:62:C#7S_Db7S.ogg
448,192,53538,1,0,0:0:0:62:C#8S_Db8S.ogg
83,192,54923,1,0,0:0:0:62:D#7S_Eb7S_s.ogg
229,192,54923,1,0,0:0:0:62:D#8S_Eb8S_s.ogg
156,192,55384,1,0,0:0:0:62:A#4S_Bb4S.ogg
302,192,55384,1,0,0:0:0:62:C#7S_Db7S.ogg
375,192,55384,1,0,0:0:0:62:C#8S_Db8S.ogg
10,192,55846,1,0,0:0:0:62:A#4S_Bb4S.ogg
83,192,56307,1,0,0:0:0:62:F#5S_Gb5S.ogg
229,192,56307,1,0,0:0:0:62:G#6S_Ab6S.ogg
448,192,56307,1,0,0:0:0:62:G#7S_Ab7S.ogg
156,192,57230,1,0,0:0:0:62:F#6S_Gb6S.ogg
375,192,57230,1,0,0:0:0:62:F#7S_Gb7S.ogg
10,192,59076,1,0,0:0:0:62:A#4S_Bb4S.ogg
302,192,59076,1,0,0:0:0:62:C#6S_Db6S_s.ogg
448,192,59076,1,0,0:0:0:62:C#7S_Db7S_s.ogg
83,192,59538,1,0,0:0:0:62:F#4S_Gb4S_s.ogg
229,192,59538,1,0,0:0:0:37:C#7S_Db7S_s.ogg
375,192,59538,1,0,0:0:0:37:F7S_s.ogg
156,192,59769,1,0,0:0:0:40:D#7S_Eb7S_s.ogg
302,192,59769,1,0,0:0:0:40:F#7S_Gb7S_s.ogg
10,192,59999,1,0,0:0:0:62:C#7S_Db7S_s.ogg
83,192,59999,1,0,0:0:0:47:F7S_s.ogg
448,192,59999,1,0,0:0:0:62:C#8S_Db8S_s.ogg
229,192,60230,1,0,0:0:0:50:D#7S_Eb7S_s.ogg
375,192,60230,1,0,0:0:0:50:F#7S_Gb7S_s.ogg
156,192,60461,1,0,0:0:0:53:C#7S_Db7S_s.ogg
302,192,60461,1,0,0:0:0:53:F7S_s.ogg
10,192,60692,1,0,0:0:0:59:D#7S_Eb7S_s.ogg
448,192,60692,1,0,0:0:0:59:F#7S_Gb7S_s.ogg
83,192,60923,1,0,0:0:0:62:C#7S_Db7S_s.ogg
229,192,60923,1,0,0:0:0:62:F7S_s.ogg
375,192,60923,1,0,0:0:0:62:G#7S_Ab7S_s.ogg
156,192,61153,1,0,0:0:0:59:D#7S_Eb7S_s.ogg
302,192,61153,1,0,0:0:0:59:F#7S_Gb7S_s.ogg
10,192,61384,1,0,0:0:0:53:C#7S_Db7S_s.ogg
448,192,61384,1,0,0:0:0:53:F7S_s.ogg
83,192,61615,1,0,0:0:0:50:D#7S_Eb7S_s.ogg
375,192,61615,1,0,0:0:0:50:F#7S_Gb7S_s.ogg
156,192,62769,1,0,0:0:0:62:G#4S_Ab4S.ogg
229,192,62769,1,0,0:0:0:62:F#6S_Gb6S_s.ogg
302,192,62769,1,0,0:0:0:62:F#7S_Gb7S_s.ogg
10,192,63230,1,0,0:0:0:62:G#4S_Ab4S.ogg
375,192,63230,1,0,0:0:0:37:D#7S_Eb7S_s.ogg
448,192,63230,1,0,0:0:0:37:F#7S_Gb7S_s.ogg
83,192,63461,1,0,0:0:0:40:F7S_s.ogg
302,192,63461,1,0,0:0:0:40:G#7S_Ab7S_s.ogg
156,192,63692,1,0,0:0:0:47:D#7S_Eb7S_s.ogg
229,192,63692,1,0,0:0:0:47:F#7S_Gb7S_s.ogg
375,192,63692,1,0,0:0:0:62:C#8S_Db8S_s.ogg
10,192,63923,1,0,0:0:0:50:F7S_s.ogg
448,192,63923,1,0,0:0:0:50:G#7S_Ab7S_s.ogg
83,192,64153,1,0,0:0:0:53:D#7S_Eb7S_s.ogg
302,192,64153,1,0,0:0:0:53:F#7S_Gb7S_s.ogg
156,192,64384,1,0,0:0:0:59:F7S_s.ogg
229,192,64384,1,0,0:0:0:59:G#7S_Ab7S_s.ogg
10,192,64615,1,0,0:0:0:62:C#6S_Db6S.ogg
375,192,64615,1,0,0:0:0:62:C#7S_Db7S_s.ogg
448,192,64615,1,0,0:0:0:62:F7S_s.ogg
83,192,64846,1,0,0:0:0:59:D#7S_Eb7S_s.ogg
302,192,64846,1,0,0:0:0:59:F#7S_Gb7S_s.ogg
156,192,65076,1,0,0:0:0:53:C#7S_Db7S_s.ogg
229,192,65076,1,0,0:0:0:53:F7S_s.ogg
10,192,65307,1,0,0:0:0:50:D#7S_Eb7S_s.ogg
375,192,65307,1,0,0:0:0:50:F#7S_Gb7S_s.ogg
83,192,66461,1,0,0:0:0:62:G#4S_Ab4S.ogg
302,192,66461,1,0,0:0:0:62:C#6S_Db6S_s.ogg
448,192,66461,1,0,0:0:0:62:C#7S_Db7S_s.ogg
10,192,66923,1,0,0:0:0:62:A#4S_Bb4S_s.ogg
156,192,66923,1,0,0:0:0:37:C#7S_Db7S_s.ogg
229,192,66923,1,0,0:0:0:37:F7S_s.ogg
83,192,67153,1,0,0:0:0:40:D#7S_Eb7S_s.ogg
375,192,67153,1,0,0:0:0:40:F#7S_Gb7S_s.ogg
156,192,67384,1,0,0:0:0:62:F6S.ogg
302,192,67384,1,0,0:0:0:47:C#7S_Db7S_s.ogg
448,192,67384,1,0,0:0:0:47:F7S_s.ogg
10,192,67615,1,0,0:0:0:50:D#7S_Eb7S_s.ogg
229,192,67615,1,0,0:0:0:50:F#7S_Gb7S_s.ogg
83,192,67846,1,0,0:0:0:53:C#7S_Db7S_s.ogg
375,192,67846,1,0,0:0:0:53:F7S_s.ogg
156,192,68076,1,0,0:0:0:59:D#7S_Eb7S_s.ogg
448,192,68076,1,0,0:0:0:59:F#7S_Gb7S_s.ogg
10,192,68307,1,0,0:0:0:62:C#7S_Db7S_s.ogg
229,192,68307,1,0,0:0:0:62:F7S_s.ogg
302,192,68307,1,0,0:0:0:62:C#8S_Db8S_s.ogg
83,192,68538,1,0,0:0:0:59:D#7S_Eb7S_s.ogg
375,192,68538,1,0,0:0:0:59:F#7S_Gb7S_s.ogg
156,192,68769,1,0,0:0:0:53:C#7S_Db7S_s.ogg
448,192,68769,1,0,0:0:0:53:F7S_s.ogg
229,192,68999,1,0,0:0:0:50:D#7S_Eb7S_s.ogg
302,192,68999,1,0,0:0:0:50:F#7S_Gb7S_s.ogg
10,192,69692,1,0,0:0:0:62:D#7S_Eb7S_s.ogg
375,192,69692,1,0,0:0:0:62:D#8S_Eb8S_s.ogg
83,192,70153,1,0,0:0:0:62:A#4S_Bb4S.ogg
156,192,70153,1,0,0:0:0:62:C#7S_Db7S_s.ogg
448,192,70153,1,0,0:0:0:62:C#8S_Db8S_s.ogg
10,192,70615,1,0,0:0:0:62:A#4S_Bb4S.ogg
229,192,70615,1,0,0:0:0:37:D#7S_Eb7S_s.ogg
302,192,70615,1,0,0:0:0:37:F#7S_Gb7S_s.ogg
156,192,70846,1,0,0:0:0:40:F7S_s.ogg
375,192,70846,1,0,0:0:0:40:G#7S_Ab7S_s.ogg
83,192,71076,1,0,0:0:0:47:D#7S_Eb7S_s.ogg
302,192,71076,1,0,0:0:0:47:F#7S_Gb7S_s.ogg
448,192,71076,1,0,0:0:0:62:G#7S_Ab7S_s.ogg
10,192,71307,1,0,0:0:0:50:F7S_s.ogg
229,192,71307,1,0,0:0:0:50:G#7S_Ab7S_s.ogg
156,192,71538,1,0,0:0:0:53:D#7S_Eb7S_s.ogg
375,192,71538,1,0,0:0:0:53:F#7S_Gb7S_s.ogg
83,192,71769,1,0,0:0:0:59:F7S_s.ogg
448,192,71769,1,0,0:0:0:59:G#7S_Ab7S_s.ogg
10,192,71999,1,0,0:0:0:62:F#6S_Gb6S.ogg
229,192,71999,1,0,0:0:0:62:F#7S_Gb7S_s.ogg
302,192,71999,1,0,0:0:0:62:A#7S_Bb7S_s.ogg
156,192,72230,1,0,0:0:0:59:F7S_s.ogg
375,192,72230,1,0,0:0:0:59:G#7S_Ab7S_s.ogg
83,192,72461,1,0,0:0:0:53:D#7S_Eb7S_s.ogg
448,192,72461,1,0,0:0:0:53:F#7S_Gb7S_s.ogg
229,192,72692,1,0,0:0:0:50:F7S_s.ogg
302,192,72692,1,0,0:0:0:50:G#7S_Ab7S_s.ogg
10,192,73846,1,0,0:0:0:62:A#4S_Bb4S.ogg
156,192,73846,1,0,0:0:0:62:C#6S_Db6S_s.ogg
375,192,73846,1,0,0:0:0:62:C#7S_Db7S_s.ogg
83,192,74307,1,0,0:0:0:62:F#4S_Gb4S_s.ogg
229,192,74307,1,0,0:0:0:37:C#7S_Db7S_s.ogg
448,192,74307,1,0,0:0:0:37:F7S_s.ogg
10,192,74538,1,0,0:0:0:40:D#7S_Eb7S_s.ogg
302,192,74538,1,0,0:0:0:40:F#7S_Gb7S_s.ogg
156,192,74769,1,0,0:0:0:62:C#7S_Db7S_s.ogg
375,192,74769,1,0,0:0:0:47:F7S_s.ogg
448,192,74769,1,0,0:0:0:62:C#8S_Db8S_s.ogg
83,192,74999,1,0,0:0:0:50:D#7S_Eb7S_s.ogg
229,192,74999,1,0,0:0:0:50:F#7S_Gb7S_s.ogg
10,192,75230,1,0,0:0:0:53:C#7S_Db7S_s.ogg
302,192,75230,1,0,0:0:0:53:F7S_s.ogg
156,192,75461,1,0,0:0:0:59:D#7S_Eb7S_s.ogg
375,192,75461,1,0,0:0:0:59:F#7S_Gb7S_s.ogg
83,192,75692,1,0,0:0:0:62:C#7S_Db7S_s.ogg
229,192,75692,1,0,0:0:0:62:F7S_s.ogg
448,192,75692,1,0,0:0:0:62:G#7S_Ab7S_s.ogg
10,192,75923,1,0,0:0:0:59:D#7S_Eb7S_s.ogg
302,192,75923,1,0,0:0:0:59:F#7S_Gb7S_s.ogg
156,192,76153,1,0,0:0:0:53:C#7S_Db7S_s.ogg
375,192,76153,1,0,0:0:0:53:F7S_s.ogg
83,192,76384,1,0,0:0:0:50:D#7S_Eb7S_s.ogg
448,192,76384,1,0,0:0:0:50:F#7S_Gb7S_s.ogg
10,192,77538,1,0,0:0:0:62:G#4S_Ab4S.ogg
229,192,77538,1,0,0:0:0:62:F#6S_Gb6S_s.ogg
302,192,77538,1,0,0:0:0:62:F#7S_Gb7S_s.ogg
156,192,77999,1,0,0:0:0:62:G#4S_Ab4S.ogg
375,192,77999,1,0,0:0:0:37:D#7S_Eb7S_s.ogg
448,192,77999,1,0,0:0:0:37:F#7S_Gb7S_s.ogg
83,192,78230,1,0,0:0:0:40:F7S_s.ogg
302,192,78230,1,0,0:0:0:40:G#7S_Ab7S_s.ogg
10,192,78461,1,0,0:0:0:47:D#7S_Eb7S_s.ogg
156,192,78461,1,0,0:0:0:47:F#7S_Gb7S_s.ogg
229,192,78461,1,0,0:0:0:62:C#8S_Db8S_s.ogg
375,192,78692,1,0,0:0:0:50:F7S_s.ogg
448,192,78692,1,0,0:0:0:50:G#7S_Ab7S_s.ogg
83,192,78922,1,0,0:0:0:53:D#7S_Eb7S_s.ogg
302,192,78922,1,0,0:0:0:53:F#7S_Gb7S_s.ogg
156,192,79153,1,0,0:0:0:59:F7S_s.ogg
229,192,79153,1,0,0:0:0:59:G#7S_Ab7S_s.ogg
10,192,79384,1,0,0:0:0:62:C#6S_Db6S.ogg
375,192,79384,1,0,0:0:0:62:C#7S_Db7S_s.ogg
448,192,79384,1,0,0:0:0:62:F7S_s.ogg
83,192,79615,1,0,0:0:0:59:D#7S_Eb7S_s.ogg
302,192,79615,1,0,0:0:0:59:F#7S_Gb7S_s.ogg
156,192,79846,1,0,0:0:0:53:C#7S_Db7S_s.ogg
229,192,79846,1,0,0:0:0:53:F7S_s.ogg
10,192,80076,1,0,0:0:0:50:D#7S_Eb7S_s.ogg
448,192,80076,1,0,0:0:0:50:F#7S_Gb7S_s.ogg
83,192,81230,1,0,0:0:0:62:G#4S_Ab4S.ogg
302,192,81230,1,0,0:0:0:62:C#6S_Db6S_s.ogg
375,192,81230,1,0,0:0:0:62:C#7S_Db7S_s.ogg
156,192,81692,1,0,0:0:0:62:A#4S_Bb4S_s.ogg
229,192,81692,1,0,0:0:0:37:C#7S_Db7S_s.ogg
448,192,81692,1,0,0:0:0:37:F7S_s.ogg
10,192,81922,1,0,0:0:0:40:D#7S_Eb7S_s.ogg
302,192,81922,1,0,0:0:0:40:F#7S_Gb7S_s.ogg
83,192,82153,1,0,0:0:0:62:F6S.ogg
156,192,82153,1,0,0:0:0:47:C#7S_Db7S_s.ogg
375,192,82153,1,0,0:0:0:47:F7S_s.ogg
229,192,82384,1,0,0:0:0:50:D#7S_Eb7S_s.ogg
448,192,82384,1,0,0:0:0:50:F#7S_Gb7S_s.ogg
10,192,82615,1,0,0:0:0:53:C#7S_Db7S_s.ogg
302,192,82615,1,0,0:0:0:53:F7S_s.ogg
83,192,82846,1,0,0:0:0:59:D#7S_Eb7S_s.ogg
375,192,82846,1,0,0:0:0:59:F#7S_Gb7S_s.ogg
156,192,83076,1,0,0:0:0:62:C#7S_Db7S_s.ogg
229,192,83076,1,0,0:0:0:62:F7S_s.ogg
448,192,83076,1,0,0:0:0:62:C#8S_Db8S_s.ogg
10,192,83307,1,0,0:0:0:59:D#7S_Eb7S_s.ogg
302,192,83307,1,0,0:0:0:59:F#7S_Gb7S_s.ogg
83,192,83538,1,0,0:0:0:53:C#7S_Db7S_s.ogg
375,192,83538,1,0,0:0:0:53:F7S_s.ogg
156,192,83769,1,0,0:0:0:50:D#7S_Eb7S_s.ogg
229,192,83769,1,0,0:0:0:50:F#7S_Gb7S_s.ogg
10,192,84461,1,0,0:0:0:62:D#7S_Eb7S_s.ogg
448,192,84461,1,0,0:0:0:62:D#8S_Eb8S_s.ogg
83,192,84922,1,0,0:0:0:62:D#4S_Eb4S_s.ogg
302,192,84922,1,0,0:0:0:62:C#7S_Db7S.ogg
375,192,84922,1,0,0:0:0:62:C#8S_Db8S.ogg
156,192,85384,1,0,0:0:0:62:A#4S_Bb4S_s.ogg
10,192,85846,1,0,0:0:0:62:A#5S_Bb5S.ogg
229,192,85846,1,0,0:0:0:62:G#6S_Ab6S.ogg
448,192,85846,1,0,0:0:0:62:G#7S_Ab7S.ogg
83,192,86769,1,0,0:0:0:62:F#6S_Gb6S.ogg
375,192,86769,1,0,0:0:0:62:F#7S_Gb7S.ogg
