osu file format v14

[General]
AudioFilename: audio.mp3
AudioLeadIn: 0
PreviewTime: -1
Countdown: 0
SampleSet: None
StackLeniency: 0.7
Mode: 3
LetterboxInBreaks: 0
SpecialStyle: 0
WidescreenStoryboard: 0

[Editor]
DistanceSpacing: 1.2
BeatDivisor: 4
GridSize: 4
TimelineZoom: 1

[Metadata]
Title:Chapter 1
TitleUnicode:Chapter 1
Artist:DELTARUNE
ArtistUnicode:DELTARUNE
Creator:[Shana Lesus]
Version:Toby Fox - ANOTHER HIM
Source:
Tags:
BeatmapID:2078069
BeatmapSetID:993812

[Difficulty]
HPDrainRate:8
CircleSize:7
OverallDifficulty:8
ApproachRate:5
SliderMultiplier:1.4
SliderTickRate:1

[Events]
//Background and Video events
0,0,"eternal.jpg",0,0
//Break Periods
//Storyboard Layer 0 (Background)
//Storyboard Layer 1 (Fail)
//Storyboard Layer 2 (Pass)
//Storyboard Layer 3 (Foreground)
//Storyboard Sound Samples
Sample,17455,0,"D#3S_Eb3S.ogg",62
Sample,26182,0,"C#3S_Db3S.ogg",62
Sample,30546,0,"D#3S_Eb3S.ogg",62
Sample,34909,0,"E3S.ogg",62
Sample,39273,0,"F#3S_Gb3S.ogg",62

[TimingPoints]
0,545.456,4,1,1,100,1,0

[HitObjects]
156,192,9272,5,0,0:0:0:62:E6S_s.ogg
375,192,9818,1,0,0:0:0:62:F6S_s.ogg
229,192,10363,1,0,0:0:0:62:C7S.ogg
10,192,11454,1,0,0:0:0:62:F6S_s.ogg
448,192,12000,1,0,0:0:0:62:E6S_s.ogg
83,192,13636,1,0,0:0:0:62:E6S_s.ogg
302,192,14181,1,0,0:0:0:62:F6S_s.ogg
156,192,14727,1,0,0:0:0:62:C7S.ogg
375,192,15818,1,0,0:0:0:62:F6S_s.ogg
229,192,16363,1,0,0:0:0:62:E6S_s.ogg
10,192,17454,1,0,0:0:0:62:G3S.ogg
83,192,17454,1,0,0:0:0:62:A#3S_Bb3S.ogg
448,192,17454,1,0,0:0:0:62:D4S.ogg
302,192,18000,1,0,0:0:0:62:D6S_s.ogg
156,192,18545,1,0,0:0:0:62:D#6S_Eb6S_s.ogg
375,192,19090,1,0,0:0:0:62:A#6S_Bb6S.ogg
229,192,20181,1,0,0:0:0:62:D#6S_Eb6S_s.ogg
10,192,20727,1,0,0:0:0:62:D6S_s.ogg
448,192,22363,1,0,0:0:0:62:D6S_s.ogg
83,192,22909,1,0,0:0:0:62:D#6S_Eb6S_s.ogg
302,192,23454,1,0,0:0:0:62:A#6S_Bb6S.ogg
156,192,24545,1,0,0:0:0:62:D#6S_Eb6S_s.ogg
375,192,25090,1,0,0:0:0:62:D6S_s.ogg
10,192,26181,1,0,0:0:0:62:F3S.ogg
229,192,26181,1,0,0:0:0:62:G#3S_Ab3S.ogg
448,192,26181,1,0,0:0:0:62:C4S.ogg
83,192,26727,1,0,0:0:0:62:C6S_s.ogg
302,192,27272,1,0,0:0:0:62:C#6S_Db6S_s.ogg
156,192,27818,1,0,0:0:0:62:G#6S_Ab6S.ogg
375,192,28909,1,0,0:0:0:62:C#6S_Db6S_s.ogg
10,192,29454,1,0,0:0:0:62:C6S_s.ogg
83,192,30545,1,0,0:0:0:62:G3S.ogg
229,192,30545,1,0,0:0:0:62:A#3S_Bb3S.ogg
448,192,30545,1,0,0:0:0:62:D4S.ogg
302,192,31090,1,0,0:0:0:62:D6S_s.ogg
156,192,31636,1,0,0:0:0:62:D#6S_Eb6S_s.ogg
375,192,32181,1,0,0:0:0:62:A#6S_Bb6S.ogg
10,192,33272,1,0,0:0:0:62:D#6S_Eb6S_s.ogg
448,192,33818,1,0,0:0:0:62:D6S_s.ogg
83,192,34909,1,0,0:0:0:62:G#3S_Ab3S.ogg
229,192,34909,1,0,0:0:0:62:B3S.ogg
302,192,34909,1,0,0:0:0:62:D#4S_Eb4S.ogg
156,192,35454,1,0,0:0:0:62:D#6S_Eb6S_s.ogg
375,192,36000,1,0,0:0:0:62:E6S_s.ogg
10,192,36545,1,0,0:0:0:62:B6S.ogg
448,192,37636,1,0,0:0:0:62:E6S_s.ogg
83,192,38181,1,0,0:0:0:62:D#6S_Eb6S_s.ogg
156,192,39272,1,0,0:0:0:62:A#3S_Bb3S.ogg
229,192,39272,1,0,0:0:0:62:C#4S_Db4S.ogg
302,192,39272,1,0,0:0:0:62:F4S.ogg
375,192,39818,1,0,0:0:0:62:F6S_s.ogg
10,192,40363,1,0,0:0:0:62:F#6S_Gb6S_s.ogg
448,192,40909,1,0,0:0:0:62:C#7S_Db7S.ogg
83,192,42000,1,0,0:0:0:62:F#6S_Gb6S_s.ogg
302,192,42545,1,0,0:0:0:62:F6S_s.ogg
