osu file format v14

[General]
AudioFilename: audio.mp3
AudioLeadIn: 0
PreviewTime: -1
Countdown: 0
SampleSet: None
StackLeniency: 0.7
Mode: 3
LetterboxInBreaks: 0
SpecialStyle: 0
WidescreenStoryboard: 0

[Editor]
DistanceSpacing: 1.2
BeatDivisor: 8
GridSize: 4
TimelineZoom: 1

[Metadata]
Title:Chapter 1
TitleUnicode:Chapter 1
Artist:DELTARUNE
ArtistUnicode:DELTARUNE
Creator:[Shana Lesus]
Version:Toby Fox - A Town Called Hometown
Source:
Tags:
BeatmapID:2078068
BeatmapSetID:993812

[Difficulty]
HPDrainRate:8
CircleSize:7
OverallDifficulty:8
ApproachRate:5
SliderMultiplier:1.4
SliderTickRate:1

[Events]
//Background and Video events
0,0,"eternal.jpg",0,0
//Break Periods
2,112057,120086
//Storyboard Layer 0 (Background)
//Storyboard Layer 1 (Fail)
//Storyboard Layer 2 (Pass)
//Storyboard Layer 3 (Foreground)
//Storyboard Sound Samples
Sample,24857,0,"C4S_s.ogg",62
Sample,25286,0,"C4S_s.ogg",62
Sample,26571,0,"C4S_s.ogg",62
Sample,33429,0,"G3S_s.ogg",62
Sample,34286,0,"G3S_s.ogg",62
Sample,34714,0,"F#3S_Gb3S.ogg",62
Sample,38571,0,"G3S.ogg",62
Sample,39857,0,"G3S_s.ogg",62
Sample,45429,0,"C4S_s.ogg",62
Sample,45857,0,"C4S_s.ogg",62
Sample,47143,0,"C4S_s.ogg",62
Sample,54000,0,"G3S_s.ogg",62
Sample,54857,0,"G3S_s.ogg",62
Sample,55286,0,"F#3S_Gb3S.ogg",62
Sample,59143,0,"G3S.ogg",62
Sample,60429,0,"G3S_s.ogg",62
Sample,76714,0,"E5S_s.ogg",62
Sample,77143,0,"A4S_s.ogg",62
Sample,111857,0,"D5S.ogg",62
Sample,138000,0,"C4S_s.ogg",62
Sample,138429,0,"C4S_s.ogg",62
Sample,139714,0,"C4S_s.ogg",62
Sample,146572,0,"G3S_s.ogg",62
Sample,147429,0,"G3S_s.ogg",62
Sample,147857,0,"F#3S_Gb3S.ogg",62
Sample,151714,0,"G3S.ogg",62
Sample,153000,0,"G3S_s.ogg",62
Sample,158572,0,"C4S_s.ogg",62
Sample,159000,0,"C4S_s.ogg",62
Sample,160286,0,"C4S_s.ogg",62
Sample,167143,0,"G3S_s.ogg",62
Sample,168000,0,"G3S_s.ogg",62
Sample,168429,0,"F#3S_Gb3S.ogg",62
Sample,172286,0,"G3S.ogg",62
Sample,173572,0,"G3S_s.ogg",62
Sample,189857,0,"E5S_s.ogg",62
Sample,190286,0,"A4S_s.ogg",62
Sample,225000,0,"D5S.ogg",62

[TimingPoints]
0,428.572,4,1,1,100,1,0
113143,428.572,4,1,1,100,1,0

[HitObjects]
10,192,0,5,0,0:0:0:62:C6S_s.ogg
302,192,0,1,0,0:0:0:62:E7S_s.ogg
156,192,428,1,0,0:0:0:62:E6S_s.ogg
448,192,428,1,0,0:0:0:62:G6S_s.ogg
83,192,857,1,0,0:0:0:62:E6S_s.ogg
375,192,857,1,0,0:0:0:62:G6S_s.ogg
10,192,1285,1,0,0:0:0:62:C6S_s.ogg
229,192,1285,1,0,0:0:0:62:B6S_s.ogg
156,192,1714,1,0,0:0:0:62:E6S_s.ogg
302,192,1714,1,0,0:0:0:62:G6S_s.ogg
83,192,2142,1,0,0:0:0:62:E6S_s.ogg
448,192,2142,1,0,0:0:0:62:G6S_s.ogg
229,192,2571,1,0,0:0:0:62:C6S_s.ogg
375,192,2571,1,0,0:0:0:62:A6S_s.ogg
10,192,3000,1,0,0:0:0:62:F6S_s.ogg
302,192,3000,1,0,0:0:0:62:G6S_s.ogg
156,192,3214,1,0,0:0:0:62:B6S_s.ogg
83,192,3428,1,0,0:0:0:62:F6S_s.ogg
375,192,3428,1,0,0:0:0:62:G6S_s.ogg
448,192,3428,1,0,0:0:0:62:C7S_s.ogg
229,192,3857,1,0,0:0:0:62:C6S_s.ogg
302,192,3857,1,0,0:0:0:62:G7S_s.ogg
10,192,4285,1,0,0:0:0:62:F6S_s.ogg
156,192,4285,1,0,0:0:0:62:G6S_s.ogg
83,192,4714,1,0,0:0:0:62:F6S_s.ogg
375,192,4714,1,0,0:0:0:62:G6S_s.ogg
302,192,5142,1,0,0:0:0:62:C6S_s.ogg
448,192,5142,1,0,0:0:0:62:E7S_s.ogg
10,192,5571,1,0,0:0:0:62:E6S_s.ogg
229,192,5571,1,0,0:0:0:62:G6S_s.ogg
156,192,6000,1,0,0:0:0:62:E6S_s.ogg
375,192,6000,1,0,0:0:0:62:G6S_s.ogg
83,192,6428,1,0,0:0:0:62:C6S_s.ogg
448,192,6428,1,0,0:0:0:62:B6S_s.ogg
10,192,6857,1,0,0:0:0:62:E6S_s.ogg
302,192,6857,1,0,0:0:0:62:G6S_s.ogg
229,192,7285,1,0,0:0:0:62:E6S_s.ogg
375,192,7285,1,0,0:0:0:62:G6S_s.ogg
156,192,7714,1,0,0:0:0:62:C6S_s.ogg
448,192,7714,1,0,0:0:0:62:A6S_s.ogg
83,192,8142,1,0,0:0:0:62:F6S_s.ogg
302,192,8142,1,0,0:0:0:62:G6S_s.ogg
10,192,8357,1,0,0:0:0:62:B6S_s.ogg
229,192,8571,1,0,0:0:0:62:F6S_s.ogg
375,192,8571,1,0,0:0:0:62:G6S_s.ogg
448,192,8571,1,0,0:0:0:62:C7S_s.ogg
156,192,9000,1,0,0:0:0:62:C6S_s.ogg
302,192,9000,1,0,0:0:0:62:B7S_s.ogg
10,192,9428,1,0,0:0:0:62:F6S_s.ogg
83,192,9428,1,0,0:0:0:62:G6S_s.ogg
229,192,9857,1,0,0:0:0:62:F6S_s.ogg
375,192,9857,1,0,0:0:0:62:G6S_s.ogg
156,192,10285,1,0,0:0:0:62:C6S_s.ogg
448,192,10285,1,0,0:0:0:62:E7S_s.ogg
83,192,10714,1,0,0:0:0:62:E6S_s.ogg
302,192,10714,1,0,0:0:0:62:G6S_s.ogg
10,192,11142,1,0,0:0:0:62:E6S_s.ogg
229,192,11142,1,0,0:0:0:62:G6S_s.ogg
156,192,11571,1,0,0:0:0:62:C6S_s.ogg
375,192,11571,1,0,0:0:0:62:B6S_s.ogg
83,192,12000,1,0,0:0:0:62:E6S_s.ogg
302,192,12000,1,0,0:0:0:62:G6S_s.ogg
448,192,12000,1,0,0:0:0:62:G7S_s.ogg
10,192,12428,1,0,0:0:0:62:E6S_s.ogg
156,192,12428,1,0,0:0:0:62:G6S_s.ogg
229,192,12428,1,0,0:0:0:62:A7S_s.ogg
83,192,12857,1,0,0:0:0:62:C6S_s.ogg
375,192,12857,1,0,0:0:0:62:A6S_s.ogg
302,192,13285,1,0,0:0:0:62:F6S_s.ogg
448,192,13285,1,0,0:0:0:62:G6S_s.ogg
156,192,13500,1,0,0:0:0:62:B6S_s.ogg
10,192,13714,1,0,0:0:0:62:F6S_s.ogg
229,192,13714,1,0,0:0:0:62:G6S_s.ogg
375,192,13714,1,0,0:0:0:62:C7S_s.ogg
83,192,14142,1,0,0:0:0:62:F6S_s.ogg
448,192,14142,1,0,0:0:0:62:A7S_s.ogg
156,192,14571,1,0,0:0:0:62:E6S_s.ogg
302,192,14571,1,0,0:0:0:62:G7S_s.ogg
10,192,15000,1,0,0:0:0:62:D6S_s.ogg
375,192,15000,1,0,0:0:0:62:F7S_s.ogg
83,192,15428,1,0,0:0:0:62:F6S_s.ogg
229,192,15428,1,0,0:0:0:62:E7S_s.ogg
448,192,16071,1,0,0:0:0:62:F7S_s.ogg
156,192,16285,1,0,0:0:0:62:E7S_s.ogg
10,192,16714,1,0,0:0:0:62:G6S.ogg
302,192,16714,1,0,0:0:0:62:D7S.ogg
375,192,17571,1,0,0:0:0:62:C7S_s.ogg
83,192,18000,1,0,0:0:0:62:C7S_s.ogg
229,192,18428,1,0,0:0:0:62:G6S_s.ogg
448,192,18857,1,0,0:0:0:62:F6S_s.ogg
156,192,19285,1,0,0:0:0:62:E6S.ogg
10,192,20571,1,0,0:0:0:62:C4S_s.ogg
302,192,20571,1,0,0:0:0:62:G5S.ogg
375,192,20571,1,0,0:0:0:62:E6S.ogg
83,192,21000,1,0,0:0:0:62:E4S_s.ogg
229,192,21000,1,0,0:0:0:62:G4S_s.ogg
156,192,21428,1,0,0:0:0:62:E4S_s.ogg
302,192,21428,1,0,0:0:0:62:G4S_s.ogg
448,192,21428,1,0,0:0:0:62:D6S_s.ogg
10,192,21857,1,0,0:0:0:62:B3S_s.ogg
229,192,21857,1,0,0:0:0:62:G5S_s.ogg
375,192,21857,1,0,0:0:0:62:E6S_s.ogg
83,192,22285,1,0,0:0:0:62:E4S_s.ogg
302,192,22285,1,0,0:0:0:62:G4S_s.ogg
156,192,22500,1,0,0:0:0:62:F6S_s.ogg
10,192,22714,1,0,0:0:0:62:E4S_s.ogg
375,192,22714,1,0,0:0:0:62:G4S_s.ogg
448,192,22714,1,0,0:0:0:62:G6S_s.ogg
83,192,23142,1,0,0:0:0:62:A3S_s.ogg
229,192,23142,1,0,0:0:0:62:E6S.ogg
302,192,23142,1,0,0:0:0:62:C7S.ogg
156,192,23571,1,0,0:0:0:62:C4S_s.ogg
448,192,23571,1,0,0:0:0:62:E4S_s.ogg
10,192,24000,1,0,0:0:0:62:C4S_s.ogg
375,192,24000,1,0,0:0:0:62:E4S_s.ogg
83,192,24428,1,0,0:0:0:62:G3S_s.ogg
156,192,24857,1,0,0:0:0:62:E4S_s.ogg
229,192,24857,1,0,0:0:0:62:D6S_s.ogg
302,192,24857,1,0,0:0:0:62:B6S_s.ogg
10,192,25285,1,0,0:0:0:62:E4S_s.ogg
375,192,25285,1,0,0:0:0:62:E6S_s.ogg
448,192,25285,1,0,0:0:0:62:C7S_s.ogg
83,192,25714,1,0,0:0:0:62:F3S_s.ogg
229,192,25714,1,0,0:0:0:62:D6S.ogg
302,192,25714,1,0,0:0:0:62:B6S.ogg
156,192,26142,1,0,0:0:0:62:C4S_s.ogg
375,192,26142,1,0,0:0:0:62:D4S_s.ogg
10,192,26571,1,0,0:0:0:62:D4S_s.ogg
83,192,26571,1,0,0:0:0:62:C6S_s.ogg
448,192,26571,1,0,0:0:0:62:A6S_s.ogg
229,192,27000,1,0,0:0:0:62:E3S_s.ogg
302,192,27000,1,0,0:0:0:62:B5S.ogg
375,192,27000,1,0,0:0:0:62:G6S.ogg
156,192,27428,1,0,0:0:0:62:D4S_s.ogg
448,192,27428,1,0,0:0:0:62:G4S_s.ogg
10,192,27857,1,0,0:0:0:62:D4S_s.ogg
83,192,27857,1,0,0:0:0:62:G4S_s.ogg
375,192,27857,1,0,0:0:0:62:F6S_s.ogg
229,192,28285,1,0,0:0:0:62:D3S_s.ogg
302,192,28285,1,0,0:0:0:62:G5S_s.ogg
448,192,28285,1,0,0:0:0:62:E6S_s.ogg
156,192,28714,1,0,0:0:0:62:A3S_s.ogg
375,192,28714,1,0,0:0:0:62:C4S_s.ogg
10,192,28928,1,0,0:0:0:62:F6S_s.ogg
83,192,29142,1,0,0:0:0:62:D3S_s.ogg
448,192,29142,1,0,0:0:0:62:E6S_s.ogg
156,192,29571,1,0,0:0:0:62:G3S.ogg
229,192,29571,1,0,0:0:0:62:G5S.ogg
302,192,29571,1,0,0:0:0:62:D6S.ogg
10,192,30428,1,0,0:0:0:62:G#3S_Ab3S_s.ogg
375,192,30428,1,0,0:0:0:62:F5S_s.ogg
448,192,30428,1,0,0:0:0:62:E6S_s.ogg
83,192,30857,1,0,0:0:0:62:A3S_s.ogg
156,192,30857,1,0,0:0:0:62:E5S.ogg
302,192,30857,1,0,0:0:0:62:C6S.ogg
10,192,31285,1,0,0:0:0:62:E4S_s.ogg
229,192,31285,1,0,0:0:0:62:G4S_s.ogg
83,192,31714,1,0,0:0:0:62:E4S_s.ogg
375,192,31714,1,0,0:0:0:62:G4S_s.ogg
448,192,31714,1,0,0:0:0:62:B5S_s.ogg
156,192,32142,1,0,0:0:0:62:G#3S_Ab3S_s.ogg
229,192,32142,1,0,0:0:0:62:F5S_s.ogg
302,192,32142,1,0,0:0:0:62:C6S_s.ogg
10,192,32571,1,0,0:0:0:62:F4S_s.ogg
375,192,32571,1,0,0:0:0:62:G4S_s.ogg
83,192,32785,1,0,0:0:0:62:D6S_s.ogg
156,192,33000,1,0,0:0:0:62:F4S_s.ogg
302,192,33000,1,0,0:0:0:62:G4S_s.ogg
448,192,33000,1,0,0:0:0:62:E6S_s.ogg
10,192,33428,1,0,0:0:0:62:E5S.ogg
229,192,33428,1,0,0:0:0:62:E6S.ogg
375,192,33428,1,0,0:0:0:62:B6S.ogg
83,192,33857,1,0,0:0:0:62:E4S_s.ogg
302,192,33857,1,0,0:0:0:62:G4S_s.ogg
10,192,34285,1,0,0:0:0:62:D5S_s.ogg
156,192,34285,1,0,0:0:0:62:D6S_s.ogg
448,192,34285,1,0,0:0:0:62:A6S_s.ogg
83,192,34714,1,0,0:0:0:62:C5S.ogg
229,192,34714,1,0,0:0:0:62:C6S.ogg
375,192,34714,1,0,0:0:0:62:E6S.ogg
302,192,35571,1,0,0:0:0:62:C6S_s.ogg
10,192,36000,1,0,0:0:0:62:F3S.ogg
448,192,36000,1,0,0:0:0:62:C6S.ogg
156,192,37285,1,0,0:0:0:62:F#3S_Gb3S_s.ogg
83,192,37714,1,0,0:0:0:62:F#4S_Gb4S_s.ogg
375,192,37714,1,0,0:0:0:62:E6S_s.ogg
229,192,38142,1,0,0:0:0:62:F#3S_Gb3S_s.ogg
302,192,38142,1,0,0:0:0:62:C6S_s.ogg
10,192,38571,1,0,0:0:0:62:E4S.ogg
156,192,38571,1,0,0:0:0:62:G5S_s.ogg
448,192,38571,1,0,0:0:0:62:E6S_s.ogg
375,192,39214,1,0,0:0:0:62:F6S_s.ogg
83,192,39428,1,0,0:0:0:62:E6S_s.ogg
10,192,39857,1,0,0:0:0:62:D4S_s.ogg
229,192,39857,1,0,0:0:0:62:F5S_s.ogg
302,192,39857,1,0,0:0:0:62:D6S_s.ogg
448,192,40285,1,0,0:0:0:62:G4S_s.ogg
156,192,40714,1,0,0:0:0:62:D4S_s.ogg
83,192,41142,1,0,0:0:0:62:C4S_s.ogg
302,192,41142,1,0,0:0:0:62:G5S.ogg
375,192,41142,1,0,0:0:0:62:E6S.ogg
10,192,41571,1,0,0:0:0:62:E4S_s.ogg
229,192,41571,1,0,0:0:0:62:G4S_s.ogg
156,192,42000,1,0,0:0:0:62:E4S_s.ogg
302,192,42000,1,0,0:0:0:62:G4S_s.ogg
448,192,42000,1,0,0:0:0:62:D6S_s.ogg
10,192,42428,1,0,0:0:0:62:B3S_s.ogg
83,192,42428,1,0,0:0:0:62:G5S_s.ogg
375,192,42428,1,0,0:0:0:62:E6S_s.ogg
156,192,42857,1,0,0:0:0:62:E4S_s.ogg
229,192,42857,1,0,0:0:0:62:G4S_s.ogg
302,192,43071,1,0,0:0:0:62:F6S_s.ogg
83,192,43285,1,0,0:0:0:62:E4S_s.ogg
375,192,43285,1,0,0:0:0:62:G4S_s.ogg
448,192,43285,1,0,0:0:0:62:G6S_s.ogg
10,192,43714,1,0,0:0:0:62:A3S_s.ogg
156,192,43714,1,0,0:0:0:62:E6S.ogg
229,192,43714,1,0,0:0:0:62:C7S.ogg
83,192,44142,1,0,0:0:0:62:C4S_s.ogg
302,192,44142,1,0,0:0:0:62:E4S_s.ogg
375,192,44571,1,0,0:0:0:62:C4S_s.ogg
448,192,44571,1,0,0:0:0:62:E4S_s.ogg
156,192,45000,1,0,0:0:0:62:G3S_s.ogg
10,192,45428,1,0,0:0:0:62:E4S_s.ogg
229,192,45428,1,0,0:0:0:62:D6S_s.ogg
302,192,45428,1,0,0:0:0:62:B6S_s.ogg
83,192,45857,1,0,0:0:0:62:E4S_s.ogg
375,192,45857,1,0,0:0:0:62:E6S_s.ogg
448,192,45857,1,0,0:0:0:62:C7S_s.ogg
10,192,46285,1,0,0:0:0:62:F3S_s.ogg
156,192,46285,1,0,0:0:0:62:D6S.ogg
302,192,46285,1,0,0:0:0:62:B6S.ogg
229,192,46714,1,0,0:0:0:62:C4S_s.ogg
375,192,46714,1,0,0:0:0:62:D4S_s.ogg
10,192,47142,1,0,0:0:0:62:D4S_s.ogg
83,192,47142,1,0,0:0:0:62:C6S_s.ogg
448,192,47142,1,0,0:0:0:62:A6S_s.ogg
156,192,47571,1,0,0:0:0:62:E3S_s.ogg
229,192,47571,1,0,0:0:0:62:B5S.ogg
302,192,47571,1,0,0:0:0:62:G6S.ogg
83,192,48000,1,0,0:0:0:62:D4S_s.ogg
375,192,48000,1,0,0:0:0:62:G4S_s.ogg
10,192,48428,1,0,0:0:0:62:D4S_s.ogg
302,192,48428,1,0,0:0:0:62:G4S_s.ogg
448,192,48428,1,0,0:0:0:62:F6S_s.ogg
156,192,48857,1,0,0:0:0:62:D3S_s.ogg
229,192,48857,1,0,0:0:0:62:G5S_s.ogg
375,192,48857,1,0,0:0:0:62:E6S_s.ogg
83,192,49285,1,0,0:0:0:62:A3S_s.ogg
302,192,49285,1,0,0:0:0:62:C4S_s.ogg
10,192,49500,1,0,0:0:0:62:F6S_s.ogg
156,192,49714,1,0,0:0:0:62:D3S_s.ogg
448,192,49714,1,0,0:0:0:62:E6S_s.ogg
83,192,50142,1,0,0:0:0:62:G3S.ogg
229,192,50142,1,0,0:0:0:62:G5S.ogg
375,192,50142,1,0,0:0:0:62:D6S.ogg
10,192,51000,1,0,0:0:0:62:G#3S_Ab3S_s.ogg
302,192,51000,1,0,0:0:0:62:F5S_s.ogg
448,192,51000,1,0,0:0:0:62:E6S_s.ogg
156,192,51428,1,0,0:0:0:62:A3S_s.ogg
229,192,51428,1,0,0:0:0:62:E5S.ogg
375,192,51428,1,0,0:0:0:62:C6S.ogg
83,192,51857,1,0,0:0:0:62:E4S_s.ogg
302,192,51857,1,0,0:0:0:62:G4S_s.ogg
10,192,52285,1,0,0:0:0:62:E4S_s.ogg
156,192,52285,1,0,0:0:0:62:G4S_s.ogg
448,192,52285,1,0,0:0:0:62:B5S_s.ogg
83,192,52714,1,0,0:0:0:62:G#3S_Ab3S_s.ogg
229,192,52714,1,0,0:0:0:62:F5S_s.ogg
375,192,52714,1,0,0:0:0:62:C6S_s.ogg
156,192,53142,1,0,0:0:0:62:F4S_s.ogg
302,192,53142,1,0,0:0:0:62:G4S_s.ogg
448,192,53357,1,0,0:0:0:62:D6S_s.ogg
10,192,53571,1,0,0:0:0:62:F4S_s.ogg
83,192,53571,1,0,0:0:0:62:G4S_s.ogg
375,192,53571,1,0,0:0:0:62:E6S_s.ogg
156,192,54000,1,0,0:0:0:62:E5S.ogg
229,192,54000,1,0,0:0:0:62:E6S.ogg
302,192,54000,1,0,0:0:0:62:B6S.ogg
10,192,54428,1,0,0:0:0:62:E4S_s.ogg
448,192,54428,1,0,0:0:0:62:G4S_s.ogg
83,192,54857,1,0,0:0:0:62:D5S_s.ogg
302,192,54857,1,0,0:0:0:62:D6S_s.ogg
375,192,54857,1,0,0:0:0:62:A6S_s.ogg
156,192,55285,1,0,0:0:0:62:C5S.ogg
229,192,55285,1,0,0:0:0:62:C6S.ogg
448,192,55285,1,0,0:0:0:62:E6S.ogg
10,192,56142,1,0,0:0:0:62:C6S_s.ogg
83,192,56571,1,0,0:0:0:62:F3S.ogg
302,192,56571,1,0,0:0:0:62:C6S_s.ogg
375,192,57857,1,0,0:0:0:62:F#3S_Gb3S_s.ogg
156,192,58285,1,0,0:0:0:62:F#4S_Gb4S_s.ogg
448,192,58285,1,0,0:0:0:62:B5S_s.ogg
10,192,58714,1,0,0:0:0:62:F#3S_Gb3S_s.ogg
229,192,58714,1,0,0:0:0:62:C6S_s.ogg
83,192,59142,1,0,0:0:0:62:E4S.ogg
302,192,59142,1,0,0:0:0:62:G5S_s.ogg
375,192,59142,1,0,0:0:0:62:E6S_s.ogg
156,192,59785,1,0,0:0:0:62:F6S_s.ogg
448,192,60000,1,0,0:0:0:62:E6S_s.ogg
10,192,60428,1,0,0:0:0:62:D4S_s.ogg
83,192,60428,1,0,0:0:0:62:F5S_s.ogg
229,192,60428,1,0,0:0:0:62:D6S_s.ogg
302,192,60857,1,0,0:0:0:62:G4S_s.ogg
156,192,61285,1,0,0:0:0:62:D4S_s.ogg
375,192,61285,1,0,0:0:0:62:E7S_s.ogg
448,192,61500,1,0,0:0:0:62:D7S_s.ogg
10,192,61714,1,0,0:0:0:62:A4S_s.ogg
83,192,61714,1,0,0:0:0:62:C7S.ogg
229,192,62142,1,0,0:0:0:62:C5S_s.ogg
156,192,62571,1,0,0:0:0:62:E5S_s.ogg
302,192,62571,1,0,0:0:0:62:G6S_s.ogg
375,192,63000,1,0,0:0:0:62:G4S_s.ogg
448,192,63000,1,0,0:0:0:62:E7S_s.ogg
83,192,63428,1,0,0:0:0:62:C5S_s.ogg
10,192,63642,1,0,0:0:0:62:F7S_s.ogg
229,192,63857,1,0,0:0:0:62:E5S_s.ogg
302,192,63857,1,0,0:0:0:62:D7S_s.ogg
156,192,64071,1,0,0:0:0:62:C7S_s.ogg
375,192,64285,1,0,0:0:0:62:F4S_s.ogg
448,192,64285,1,0,0:0:0:62:C7S.ogg
83,192,64714,1,0,0:0:0:62:C5S_s.ogg
10,192,65142,1,0,0:0:0:62:E5S_s.ogg
229,192,65571,1,0,0:0:0:62:F4S_s.ogg
302,192,66000,1,0,0:0:0:62:C5S_s.ogg
156,192,66428,1,0,0:0:0:62:E5S_s.ogg
448,192,66428,1,0,0:0:0:62:E7S_s.ogg
375,192,66642,1,0,0:0:0:62:D7S_s.ogg
10,192,66857,1,0,0:0:0:62:A4S_s.ogg
83,192,66857,1,0,0:0:0:62:C7S.ogg
229,192,67285,1,0,0:0:0:62:C5S_s.ogg
156,192,67714,1,0,0:0:0:62:E5S_s.ogg
302,192,67714,1,0,0:0:0:62:G6S_s.ogg
375,192,68142,1,0,0:0:0:62:G4S_s.ogg
448,192,68142,1,0,0:0:0:62:E7S_s.ogg
83,192,68571,1,0,0:0:0:62:C5S_s.ogg
10,192,68785,1,0,0:0:0:62:F7S_s.ogg
229,192,69000,1,0,0:0:0:62:E5S_s.ogg
302,192,69000,1,0,0:0:0:62:D7S_s.ogg
156,192,69214,1,0,0:0:0:62:C7S_s.ogg
375,192,69428,1,0,0:0:0:62:F4S_s.ogg
448,192,69428,1,0,0:0:0:62:C7S_s.ogg
10,192,69857,1,0,0:0:0:62:C5S_s.ogg
83,192,69857,1,0,0:0:0:62:C8S_s.ogg
229,192,70285,1,0,0:0:0:62:E5S_s.ogg
302,192,70285,1,0,0:0:0:62:B7S_s.ogg
156,192,70714,1,0,0:0:0:62:F4S_s.ogg
448,192,70714,1,0,0:0:0:62:G7S_s.ogg
83,192,71142,1,0,0:0:0:62:C5S_s.ogg
375,192,71142,1,0,0:0:0:62:E7S_s.ogg
10,192,71571,1,0,0:0:0:62:E5S_s.ogg
229,192,71571,1,0,0:0:0:62:G6S_s.ogg
302,192,71571,1,0,0:0:0:62:D7S_s.ogg
83,192,72000,1,0,0:0:0:62:A4S_s.ogg
156,192,72000,1,0,0:0:0:62:C7S.ogg
448,192,72000,1,0,0:0:0:62:E7S.ogg
375,192,72428,1,0,0:0:0:62:C5S_s.ogg
10,192,72857,1,0,0:0:0:62:E5S_s.ogg
229,192,72857,1,0,0:0:0:62:G6S_s.ogg
156,192,73285,1,0,0:0:0:62:G4S_s.ogg
302,192,73285,1,0,0:0:0:62:E7S_s.ogg
448,192,73714,1,0,0:0:0:62:C5S_s.ogg
83,192,73928,1,0,0:0:0:62:F7S_s.ogg
10,192,74142,1,0,0:0:0:62:E5S_s.ogg
375,192,74142,1,0,0:0:0:62:D7S_s.ogg
229,192,74357,1,0,0:0:0:62:C7S_s.ogg
156,192,74571,1,0,0:0:0:62:F4S_s.ogg
302,192,74571,1,0,0:0:0:62:C7S_s.ogg
83,192,75000,1,0,0:0:0:62:C5S_s.ogg
448,192,75000,1,0,0:0:0:62:C7S_s.ogg
10,192,75428,1,0,0:0:0:62:E5S_s.ogg
375,192,75428,1,0,0:0:0:62:D7S_s.ogg
229,192,75857,1,0,0:0:0:62:F4S_s.ogg
302,192,75857,1,0,0:0:0:62:E7S_s.ogg
156,192,76285,1,0,0:0:0:62:C5S_s.ogg
448,192,76285,1,0,0:0:0:62:F7S_s.ogg
10,192,76714,1,0,0:0:0:62:G6S_s.ogg
83,192,76714,1,0,0:0:0:62:D7S_s.ogg
375,192,76714,1,0,0:0:0:62:G7S_s.ogg
156,192,77142,1,0,0:0:0:62:A6S.ogg
229,192,77142,1,0,0:0:0:62:C7S.ogg
302,192,77142,1,0,0:0:0:62:E7S.ogg
448,192,77571,1,0,0:0:0:62:C5S_s.ogg
83,192,78000,1,0,0:0:0:62:E5S_s.ogg
375,192,78000,1,0,0:0:0:62:G6S_s.ogg
10,192,78428,1,0,0:0:0:62:G4S_s.ogg
302,192,78428,1,0,0:0:0:62:E7S_s.ogg
229,192,78857,1,0,0:0:0:62:C5S_s.ogg
156,192,79071,1,0,0:0:0:62:F7S_s.ogg
83,192,79285,1,0,0:0:0:62:E5S_s.ogg
448,192,79285,1,0,0:0:0:62:D7S_s.ogg
375,192,79500,1,0,0:0:0:62:C7S_s.ogg
10,192,79714,1,0,0:0:0:62:D4S_s.ogg
302,192,79714,1,0,0:0:0:62:C7S.ogg
229,192,80142,1,0,0:0:0:62:F#4S_Gb4S_s.ogg
156,192,80571,1,0,0:0:0:62:C5S_s.ogg
448,192,80571,1,0,0:0:0:62:A6S_s.ogg
83,192,81000,1,0,0:0:0:62:F#4S_Gb4S_s.ogg
375,192,81000,1,0,0:0:0:62:E7S_s.ogg
10,192,81428,1,0,0:0:0:62:C5S_s.ogg
302,192,81642,1,0,0:0:0:62:D7S_s.ogg
229,192,81857,1,0,0:0:0:62:E5S_s.ogg
448,192,81857,1,0,0:0:0:62:C7S_s.ogg
156,192,82071,1,0,0:0:0:62:E7S_s.ogg
83,192,82285,1,0,0:0:0:62:G4S_s.ogg
375,192,82285,1,0,0:0:0:62:D7S_s.ogg
10,192,82714,1,0,0:0:0:62:C5S_s.ogg
302,192,83142,1,0,0:0:0:62:D5S_s.ogg
229,192,83571,1,0,0:0:0:62:G4S_s.ogg
448,192,83571,1,0,0:0:0:62:G7S_s.ogg
156,192,84428,1,0,0:0:0:62:B6S_s.ogg
375,192,84428,1,0,0:0:0:62:E7S_s.ogg
10,192,84857,1,0,0:0:0:62:D4S_s.ogg
83,192,84857,1,0,0:0:0:62:C7S_s.ogg
302,192,84857,1,0,0:0:0:62:F7S_s.ogg
448,192,85285,1,0,0:0:0:62:G4S_s.ogg
229,192,85500,1,0,0:0:0:62:D7S_s.ogg
375,192,85500,1,0,0:0:0:62:G7S_s.ogg
10,192,85714,1,0,0:0:0:62:C5S_s.ogg
156,192,85714,1,0,0:0:0:62:E7S_s.ogg
302,192,85714,1,0,0:0:0:62:A7S_s.ogg
83,192,86142,1,0,0:0:0:62:B4S_s.ogg
229,192,86142,1,0,0:0:0:62:D7S.ogg
448,192,86142,1,0,0:0:0:62:G7S.ogg
375,192,86571,1,0,0:0:0:62:C5S_s.ogg
156,192,87000,1,0,0:0:0:62:D5S_s.ogg
302,192,87428,1,0,0:0:0:62:E4S_s.ogg
10,192,87857,1,0,0:0:0:62:G4S_s.ogg
448,192,87857,1,0,0:0:0:62:G6S_s.ogg
83,192,88285,1,0,0:0:0:62:C5S_s.ogg
229,192,88285,1,0,0:0:0:62:G6S_s.ogg
156,192,88714,1,0,0:0:0:62:D5S.ogg
375,192,88714,1,0,0:0:0:62:G6S_s.ogg
302,192,89357,1,0,0:0:0:62:F6S_s.ogg
10,192,89571,1,0,0:0:0:62:E6S_s.ogg
448,192,89785,1,0,0:0:0:62:F6S_s.ogg
83,192,90000,1,0,0:0:0:62:F4S_s.ogg
229,192,90000,1,0,0:0:0:62:G6S.ogg
375,192,90428,1,0,0:0:0:62:A4S_s.ogg
156,192,90857,1,0,0:0:0:62:C5S_s.ogg
302,192,90857,1,0,0:0:0:62:C7S_s.ogg
10,192,91285,1,0,0:0:0:62:D5S.ogg
448,192,91285,1,0,0:0:0:62:G6S.ogg
229,192,92571,1,0,0:0:0:62:E4S_s.ogg
83,192,93000,1,0,0:0:0:62:G4S_s.ogg
375,192,93000,1,0,0:0:0:62:G6S_s.ogg
156,192,93428,1,0,0:0:0:62:C5S_s.ogg
302,192,93428,1,0,0:0:0:62:G6S_s.ogg
10,192,93857,1,0,0:0:0:62:D5S.ogg
448,192,93857,1,0,0:0:0:62:G6S_s.ogg
229,192,94500,1,0,0:0:0:62:F6S_s.ogg
83,192,94714,1,0,0:0:0:62:E6S_s.ogg
375,192,94928,1,0,0:0:0:62:F6S_s.ogg
156,192,95142,1,0,0:0:0:62:G4S_s.ogg
302,192,95142,1,0,0:0:0:62:G6S_s.ogg
10,192,95571,1,0,0:0:0:62:C5S_s.ogg
448,192,95571,1,0,0:0:0:62:D6S_s.ogg
83,192,96000,1,0,0:0:0:62:D5S_s.ogg
229,192,96000,1,0,0:0:0:62:B5S_s.ogg
156,192,96428,1,0,0:0:0:62:E5S.ogg
375,192,96428,1,0,0:0:0:62:C6S_s.ogg
302,192,97714,1,0,0:0:0:62:E4S_s.ogg
10,192,98142,1,0,0:0:0:62:G4S_s.ogg
448,192,98142,1,0,0:0:0:62:G6S_s.ogg
83,192,98571,1,0,0:0:0:62:C5S_s.ogg
229,192,98571,1,0,0:0:0:62:G6S_s.ogg
156,192,99000,1,0,0:0:0:62:D5S.ogg
375,192,99000,1,0,0:0:0:62:G6S_s.ogg
302,192,99642,1,0,0:0:0:62:F6S_s.ogg
10,192,99857,1,0,0:0:0:62:E6S_s.ogg
448,192,100071,1,0,0:0:0:62:F6S_s.ogg
83,192,100285,1,0,0:0:0:62:F4S_s.ogg
229,192,100285,1,0,0:0:0:62:G6S.ogg
375,192,100714,1,0,0:0:0:62:A4S_s.ogg
156,192,101142,1,0,0:0:0:62:C5S_s.ogg
302,192,101142,1,0,0:0:0:62:C7S_s.ogg
10,192,101571,1,0,0:0:0:62:D5S.ogg
448,192,101571,1,0,0:0:0:62:G6S.ogg
229,192,102428,1,0,0:0:0:62:C6S_s.ogg
83,192,102642,1,0,0:0:0:62:D6S_s.ogg
156,192,102857,1,0,0:0:0:62:D4S_s.ogg
375,192,102857,1,0,0:0:0:62:F6S_s.ogg
10,192,103285,1,0,0:0:0:62:F4S_s.ogg
302,192,103285,1,0,0:0:0:62:E6S_s.ogg
229,192,103714,1,0,0:0:0:62:A4S_s.ogg
448,192,103714,1,0,0:0:0:62:C6S_s.ogg
83,192,104142,1,0,0:0:0:62:G4S.ogg
375,192,104142,1,0,0:0:0:62:G5S_s.ogg
156,192,104571,1,0,0:0:0:62:C6S_s.ogg
302,192,105214,1,0,0:0:0:62:B5S_s.ogg
10,192,105428,1,0,0:0:0:62:A4S_s.ogg
448,192,105428,1,0,0:0:0:62:C6S_s.ogg
83,192,105857,1,0,0:0:0:62:E5S_s.ogg
229,192,105857,1,0,0:0:0:62:E7S_s.ogg
375,192,106071,1,0,0:0:0:62:D7S_s.ogg
156,192,106285,1,0,0:0:0:62:C5S_s.ogg
302,192,106285,1,0,0:0:0:62:C7S_s.ogg
10,192,106500,1,0,0:0:0:62:D7S_s.ogg
229,192,106714,1,0,0:0:0:62:G4S.ogg
448,192,106714,1,0,0:0:0:62:E7S_s.ogg
83,192,107571,1,0,0:0:0:62:C7S_s.ogg
375,192,107785,1,0,0:0:0:62:D7S_s.ogg
10,192,108000,1,0,0:0:0:62:F6S_s.ogg
156,192,108000,1,0,0:0:0:62:A6S_s.ogg
302,192,108000,1,0,0:0:0:62:F7S_s.ogg
229,192,108428,1,0,0:0:0:62:E7S_s.ogg
448,192,108857,1,0,0:0:0:62:C7S_s.ogg
83,192,109285,1,0,0:0:0:62:G6S_s.ogg
375,192,109714,1,0,0:0:0:62:C7S_s.ogg
10,192,110357,1,0,0:0:0:62:B6S_s.ogg
156,192,110571,1,0,0:0:0:62:C6S.ogg
229,192,110571,1,0,0:0:0:62:E6S.ogg
302,192,110571,1,0,0:0:0:62:C7S.ogg
83,192,111857,1,0,0:0:0:62:G5S.ogg
375,192,111857,1,0,0:0:0:62:B5S.ogg
448,192,111857,1,0,0:0:0:62:G6S.ogg
