osu file format v14

[General]
AudioFilename: audio.mp3
AudioLeadIn: 0
PreviewTime:62270
Countdown: 0
SampleSet: Soft
StackLeniency: 0.3
Mode: 0
LetterboxInBreaks: 0
WidescreenStoryboard: 1

[Editor]
Bookmarks:7788,21502,35216,48931,62645,76359
DistanceSpacing: 1
BeatDivisor: 4
GridSize: 4
TimelineZoom: 2.3

[Metadata]
Title:chocolate box (Short Ver.)
TitleUnicode:chocolate box (Short Ver.)
Artist:DELRUKI
ArtistUnicode:デルルキ
Creator:Finshie
Version:Hyper
Source:
Tags:でるたや delutaya キルノルキ kirino ruki vtuber delta dezzy IchiokuenP 一億円P vocaloid cover electronic japanese ムムム Mumumu electro house chocolatebox virtual youtuber
BeatmapID:2874812
BeatmapSetID:1375617

[Difficulty]
HPDrainRate:5
CircleSize:3.8
OverallDifficulty:7
ApproachRate:8.2
SliderMultiplier:1.8
SliderTickRate:1

[Events]
//Background and Video events
0,0,"chocobox.jpg",0,0
Video,-39,"Ed No Audio-1.mp4"
//Break Periods
//Storyboard Layer 0 (Background)
//Storyboard Layer 1 (Fail)
//Storyboard Layer 2 (Pass)
//Storyboard Layer 3 (Foreground)
//Storyboard Layer 4 (Overlay)
//Storyboard Sound Samples

[TimingPoints]
931,428.571428571429,4,2,1,60,1,0
931,-100,4,2,1,60,0,0
3931,-100,4,2,2,60,0,0
4359,-100,4,2,1,60,0,0
7788,-90.9090909090909,4,2,1,70,0,0
10145,-90.9090909090909,4,2,1,70,0,0
11859,-90.9090909090909,4,2,1,70,0,0
15288,-90.9090909090909,4,2,1,70,0,0
21502,-100,4,2,1,60,0,0
35216,-90.9090909090909,4,2,1,70,0,0
48716,-200,4,2,1,70,0,0
48823,-200,4,2,1,5,0,0
48931,-83.3333333333333,4,2,1,80,0,1
62216,-83.3333333333333,4,2,1,80,0,0
62645,-83.3333333333333,4,2,1,80,0,1
75502,-83.3333333333333,4,2,1,80,0,0
76359,-83.3333333333333,4,2,1,80,0,1
76573,-83.3333333333333,4,2,1,80,0,0

[Colours]
Combo1 : 255,0,255
Combo2 : 0,202,0
Combo3 : 255,0,0
Combo4 : 255,255,0

[HitObjects]
13,146,931,5,6,0:0:0:0:
46,239,1145,1,2,0:0:0:0:
46,239,1252,1,2,0:0:0:0:
46,239,1359,2,0,P|115:207|153:212,1,90,2|2,0:0|0:0,0:0:0:0:
165,222,1681,1,2,0:0:0:0:
165,222,1788,2,0,L|188:157,3,45,2|2|2|2,0:0|0:0|0:0|0:0,0:0:0:0:
193,146,2216,1,2,0:0:0:0:
270,70,2431,6,0,P|331:57|342:58,2,45,10|2|10,3:3|0:0|3:3,0:0:0:0:
329,139,2859,2,0,P|391:142|401:146,2,45,10|2|10,3:3|0:0|3:3,0:0:0:0:
373,228,3288,1,10,3:3:0:0:
373,228,3395,1,2,0:0:0:0:
373,228,3502,2,0,P|432:246|440:253,3,45,2|2|2|2,3:2|0:0|0:0|0:0,0:0:0:0:
440,264,3931,1,10,3:3:0:0:
367,321,4145,2,0,P|327:337|307:339,1,45,10|10,3:3|3:3,0:0:0:0:
281,347,4359,5,6,0:0:0:0:
200,335,4573,1,2,0:0:0:0:
200,335,4681,1,2,0:0:0:0:
200,335,4788,2,0,P|197:278|212:228,1,90,2|2,0:0|0:0,0:0:0:0:
220,206,5109,1,2,0:0:0:0:
220,206,5216,2,0,L|140:215,3,45,2|2|2|2,0:0|0:0|0:0|0:0,0:0:0:0:
130,215,5645,1,2,0:0:0:0:
159,130,5859,6,0,L|171:66,2,45,10|2|10,3:3|0:0|3:3,0:0:0:0:
249,128,6288,2,0,L|261:64,2,45,10|2|10,3:3|0:0|3:3,0:0:0:0:
339,126,6716,1,10,3:3:0:0:
339,126,6823,1,2,0:0:0:0:
339,126,6931,2,0,L|351:62,3,45,2|2|2|2,3:2|0:0|0:0|0:0,0:0:0:0:
357,37,7359,1,2,1:2:0:0:
473,197,7788,5,4,1:2:0:0:
405,265,8002,2,0,P|340:242|323:238,1,49.5000015106202,2|2,0:0|0:0,0:0:0:0:
309,241,8216,1,8,1:2:0:0:
220,283,8431,1,0,0:0:0:0:
220,283,8538,1,0,0:0:0:0:
220,283,8645,2,0,P|195:265|143:245,1,49.5000015106202,2|2,1:2|0:0,0:0:0:0:
134,279,8859,2,0,P|109:297|57:317,1,49.5000015106202,10|2,0:0|0:0,0:0:0:0:
43,310,9073,1,10,1:2:0:0:
18,210,9288,6,0,P|-1:141|-3:128,1,49.5000015106202,2|2,0:2|0:2,0:0:0:0:
0,112,9502,1,0,1:2:0:0:
98,131,9716,2,0,P|115:61|118:49,1,49.5000015106202,2|2,0:2|0:2,0:0:0:0:
130,38,9931,1,10,1:2:0:0:
228,81,10145,1,2,0:2:0:0:
228,81,10252,1,2,0:2:0:0:
228,81,10359,2,0,P|296:60|309:58,3,49.5000015106202,2|2|10|2,1:2|0:2|0:2|0:2,0:0:0:0:
324,67,10788,2,0,P|392:84|404:88,3,49.5000015106202,10|2|2|10,1:2|0:2|0:2|0:2,0:0:0:0:
418,96,11216,5,4,1:0:0:0:
494,159,11431,2,0,P|472:203|470:227,1,49.5000015106202,2|2,0:0|0:0,0:0:0:0:
468,252,11645,1,8,1:2:0:0:
382,293,11859,1,0,0:0:0:0:
382,293,11966,1,2,0:0:0:0:
382,293,12073,2,0,P|331:249|321:244,1,49.5000015106202,2|2,1:2|0:0,0:0:0:0:
300,239,12288,2,0,P|234:244|223:247,1,49.5000015106202,10|2,0:0|0:0,0:0:0:0:
207,265,12502,1,10,1:2:0:0:
158,350,12716,6,0,P|223:359|246:352,1,49.5000015106202,2|2,0:0|0:0,0:0:0:0:
255,355,12931,1,0,1:0:0:0:
207,265,13145,2,0,P|155:225|144:204,1,49.5000015106202,10|2,0:0|0:0,0:0:0:0:
135,199,13359,1,0,1:0:0:0:
220,153,13573,2,0,P|228:88|221:65,1,49.5000015106202,10|2,1:2|0:2,0:0:0:0:
225,55,13788,1,2,1:2:0:0:
129,31,14002,1,10,1:2:0:0:
37,67,14216,2,0,P|46:131|58:152,1,49.5000015106202,10|2,1:2|0:2,0:0:0:0:
57,162,14431,1,2,1:2:0:0:
17,252,14645,5,4,1:0:0:0:
45,346,14859,2,0,L|92:331,1,49.5000015106202,0|2,0:0|0:0,0:0:0:0:
140,319,15073,1,8,1:2:0:0:
250,316,15288,1,0,0:0:0:0:
250,316,15395,1,2,0:0:0:0:
250,316,15502,2,0,L|286:374,1,49.5000015106202,2|2,1:2|0:2,0:0:0:0:
325,360,15716,2,0,L|391:340,1,49.5000015106202,10|2,0:2|0:2,0:0:0:0:
420,333,15931,1,10,1:2:0:0:
459,242,16145,6,0,P|450:194|452:172,1,49.5000015106202,2|2,0:0|0:0,0:0:0:0:
457,144,16359,1,0,1:0:0:0:
352,155,16573,2,0,P|361:107|359:85,1,49.5000015106202,2|2,0:0|0:0,0:0:0:0:
356,56,16788,1,10,1:2:0:0:
277,14,17002,1,2,0:0:0:0:
277,14,17109,1,2,0:0:0:0:
277,14,17216,2,0,P|226:5|198:9,3,49.5000015106202,2|2|10|2,1:2|0:2|0:2|0:2,0:0:0:0:
178,11,17645,2,0,P|130:28|107:46,3,49.5000015106202,10|2|2|10,1:2|0:2|0:2|0:2,0:0:0:0:
94,60,18073,5,4,1:0:0:0:
36,144,18288,2,0,P|28:188|22:204,1,49.5000015106202,2|2,0:0|0:0,0:0:0:0:
0,234,18502,1,8,1:2:0:0:
88,296,18716,1,0,0:0:0:0:
88,296,18823,1,0,0:0:0:0:
88,296,18931,2,0,P|120:339|141:355,1,49.5000015106202,2|2,1:2|0:2,0:0:0:0:
155,366,19145,2,0,P|208:373|234:370,1,49.5000015106202,10|2,0:2|0:2,0:0:0:0:
252,362,19359,1,10,1:2:0:0:
201,276,19573,6,0,P|172:236|165:222,1,49.5000015106202,2|2,0:0|0:0,0:0:0:0:
158,188,19788,1,0,1:0:0:0:
171,91,20002,2,0,P|178:43|183:28,1,49.5000015106202,10|2,0:0|0:0,0:0:0:0:
210,4,20216,1,2,1:2:0:0:
316,24,20431,1,10,0:0:0:0:
316,24,20538,1,2,0:0:0:0:
316,24,20645,2,0,P|307:53|304:92,1,49.5000015106202,2|2,1:2|0:2,0:0:0:0:
310,123,20859,2,0,P|319:155|335:189,1,49.5000015106202,10|2,0:2|0:2,0:0:0:0:
361,207,21073,1,2,1:2:0:0:
450,249,21288,1,2,0:0:0:0:
408,333,21502,6,0,P|326:295|289:299,1,90,6|2,0:0|0:0,0:0:0:0:
283,293,21823,2,0,L|197:301,1,45,0|2,0:0|1:2,0:0:0:0:
148,303,22145,2,0,L|62:311,1,45,2|0,0:0|0:0,0:0:0:0:
58,309,22359,2,0,P|26:233|29:190,1,90,2|2,1:2|0:0,0:0:0:0:
28,181,22681,1,2,0:0:0:0:
28,181,22788,1,10,0:2:0:0:
46,93,23002,1,2,0:2:0:0:
122,140,23216,6,0,L|236:133,1,90,2|2,1:2|0:0,0:0:0:0:
286,83,23645,1,2,1:2:0:0:
286,83,23752,2,0,L|375:88,1,90
420,93,24073,1,2,1:2:0:0:
370,168,24288,2,0,P|356:219|360:245,1,45,2|2,0:0|0:0,0:0:0:0:
355,255,24502,1,10,0:2:0:0:
386,338,24716,1,2,0:0:0:0:
475,351,24931,6,0,P|499:276|494:235,1,90,2|2,1:2|0:0,0:0:0:0:
468,232,25252,2,0,P|456:167|461:148,1,45,0|2,0:0|1:2,0:0:0:0:
499,111,25573,2,0,P|511:46|506:27,1,45,2|0,0:0|0:0,0:0:0:0:
504,23,25788,2,0,L|380:41,1,90,2|2,1:2|0:0,0:0:0:0:
374,46,26109,1,2,0:0:0:0:
374,46,26216,1,10,0:2:0:0:
287,72,26431,1,2,0:0:0:0:
209,27,26645,6,0,L|94:14,1,90,2|0,1:2|0:0,0:0:0:0:
28,25,27073,2,0,P|5:76|4:96,1,45,2|0,1:2|0:0,0:0:0:0:
37,98,27288,2,0,P|60:149|61:169,1,45,2|0,0:0|0:0,0:0:0:0:
61,182,27502,2,0,P|51:273|49:308,1,90,2|10,1:2|0:0,0:0:0:0:
19,302,27823,1,2,0:0:0:0:
19,302,27931,1,2,1:2:0:0:
71,384,28145,1,10,0:2:0:0:
71,384,28252,1,2,0:2:0:0:
71,384,28359,6,0,P|141:373|196:377,1,90,6|2,1:2|0:0,0:0:0:0:
154,283,28788,2,0,P|224:294|279:290,1,90,2|2,1:2|0:0,0:0:0:0:
336,305,29216,1,2,1:2:0:0:
336,305,29323,2,0,L|353:204,1,90,0|2,0:0|0:0,0:0:0:0:
324,179,29645,2,0,L|313:110,1,45,10|2,0:2|0:2,0:0:0:0:
310,90,29859,1,2,0:2:0:0:
352,14,30073,5,2,1:2:0:0:
352,14,30181,2,0,P|417:11|463:18,1,90
485,24,30502,1,2,1:2:0:0:
492,110,30716,2,0,L|501:173,1,45,2|0,0:0|0:0,0:0:0:0:
489,199,30931,2,0,P|444:202|399:198,1,90,2|2,1:2|0:0,0:0:0:0:
360,189,31252,1,2,0:0:0:0:
360,189,31359,1,10,0:0:0:0:
284,140,31573,1,2,0:0:0:0:
216,54,31788,6,0,P|154:44|106:52,1,90,2|2,1:2|0:0,0:0:0:0:
44,74,32216,1,2,1:2:0:0:
44,74,32323,2,0,P|14:136|7:187,1,90
2,191,32645,1,2,1:2:0:0:
109,181,32859,2,0,P|128:214|143:249,1,45,2|2,0:0|0:0,0:0:0:0:
147,271,33073,2,0,P|159:338|153:389,1,90,2|2,1:2|0:0,0:0:0:0:
260,319,33502,5,2,1:2:0:0:
260,319,33609,2,0,P|309:340|352:347,1,90
399,341,33931,1,2,1:2:0:0:
477,296,34145,2,0,L|496:231,1,45,10|0,0:0|0:0,0:0:0:0:
497,208,34359,2,0,L|476:86,1,90,2|10,1:2|0:0,0:0:0:0:
474,79,34681,1,2,0:0:0:0:
474,79,34788,1,10,0:0:0:0:
386,59,35002,1,2,1:2:0:0:
313,126,35216,6,0,P|235:156|200:153,1,99.0000030212403,6|2,1:2|0:0,0:0:0:0:
183,131,35538,1,0,0:0:0:0:
183,131,35645,2,0,P|106:97|84:70,1,99.0000030212403,8|2,1:2|0:0,0:0:0:0:
25,18,36073,1,2,1:2:0:0:
0,115,36288,1,2,0:0:0:0:
0,115,36395,1,2,0:0:0:0:
0,115,36502,2,0,P|0:162|-23:246,1,99.0000030212403,8|2,1:2|0:0,0:0:0:0:
88,202,36931,6,0,L|110:333,1,99.0000030212403,2|2,1:2|0:0,0:0:0:0:
118,351,37252,1,0,0:0:0:0:
118,351,37359,2,0,P|176:301|212:295,1,99.0000030212403,8|2,1:2|0:0,0:0:0:0:
249,300,37681,1,0,0:0:0:0:
249,300,37788,1,2,1:2:0:0:
324,379,38002,1,10,0:0:0:0:
324,379,38109,1,2,0:0:0:0:
324,379,38216,2,0,L|446:359,1,99.0000030212403,10|2,1:2|0:0,0:0:0:0:
469,343,38538,1,10,0:0:0:0:
469,343,38645,6,0,P|494:286|495:215,1,99.0000030212403,2|2,1:2|0:0,0:0:0:0:
399,241,39073,2,0,P|374:188|368:166,1,49.5000015106202,8|0,1:2|0:0,0:0:0:0:
366,155,39288,1,2,0:0:0:0:
465,132,39502,2,0,P|490:75|491:4,1,99.0000030212403,2|2,1:2|0:2,0:0:0:0:
462,8,39823,1,2,0:2:0:0:
462,8,39931,2,0,P|387:10|378:14,1,49.5000015106202,10|2,1:2|0:2,0:0:0:0:
363,6,40145,1,2,0:2:0:0:
291,74,40359,6,0,L|153:63,1,99.0000030212403,2|2,1:2|0:0,0:0:0:0:
146,69,40681,1,2,0:0:0:0:
146,69,40788,2,0,L|183:176,1,99.0000030212403,10|2,1:2|0:0,0:0:0:0:
192,204,41109,1,2,0:0:0:0:
192,204,41216,1,10,1:2:0:0:
287,176,41431,1,2,0:0:0:0:
312,271,41645,2,0,P|256:277|203:322,1,99.0000030212403,10|10,1:2|0:2,0:0:0:0:
143,361,42073,6,0,L|120:279,3,49.5000015106202,6|2|2|2,1:2|0:2|0:2|0:2,0:0:0:0:
82,296,42502,2,0,L|93:207,3,49.5000015106202,10|2|2|2,1:2|0:0|0:0|0:0,0:0:0:0:
109,202,42931,2,0,L|98:118,1,49.5000015106202,2|0,1:2|0:0,0:0:0:0:
94,104,43145,1,2,0:0:0:0:
52,14,43359,2,0,P|127:25|175:12,1,99.0000030212403,10|2,1:2|0:2,0:0:0:0:
247,55,43788,5,2,1:2:0:0:
247,55,43895,2,0,P|323:38|351:43,1,99.0000030212403
386,15,44216,1,10,1:2:0:0:
386,15,44323,2,0,P|451:56|468:80,1,99.0000030212403,0|2,0:0|0:0,0:0:0:0:
481,121,44645,2,0,P|480:159|458:207,1,49.5000015106202,2|2,1:2|0:2,0:0:0:0:
452,212,44859,1,10,0:0:0:0:
370,156,45073,2,0,P|295:133|257:135,1,99.0000030212403,10|2,1:2|0:2,0:0:0:0:
235,157,45395,1,10,0:2:0:0:
235,157,45502,6,0,L|246:270,1,99.0000030212403,2|2,1:2|0:0,0:0:0:0:
238,307,45823,1,0,0:0:0:0:
238,307,45931,2,0,P|163:330|147:330,1,49.5000015106202,10|2,1:2|0:2,0:0:0:0:
143,329,46145,1,2,0:0:0:0:
65,285,46359,1,2,1:2:0:0:
65,285,46466,1,2,0:2:0:0:
65,285,46573,1,2,0:0:0:0:
48,189,46788,2,0,L|38:90,1,99.0000030212403,10|2,1:2|0:0,0:0:0:0:
33,45,47109,1,2,0:0:0:0:
33,45,47216,6,0,P|132:79|151:75,1,99.0000030212403,2|2,1:2|0:0,0:0:0:0:
223,67,47645,2,0,P|270:50|288:52,1,49.5000015106202,10|2,1:2|0:2,0:0:0:0:
317,54,47859,1,2,0:0:0:0:
412,82,48073,1,8,1:2:0:0:
43,278,48716,5,2,0:0:0:0:
43,278,48931,2,0,P|94:307|149:317,1,107.999996704102,6|0,1:2|0:0,0:0:0:0:
249,311,49359,2,0,P|290:300|313:290,1,53.9999983520508,8|0,1:0|0:0,0:0:0:0:
350,274,49573,2,0,L|337:388,1,107.999996704102,2|0,0:0|1:0,0:0:0:0:
455,384,50002,2,0,L|466:287,1,53.9999983520508,2|0,0:0|0:0,0:0:0:0:
466,287,50216,1,8,1:0:0:0:
403,204,50431,1,2,0:0:0:0:
476,131,50645,5,2,1:2:0:0:
452,31,50859,1,2,0:0:0:0:
353,0,51073,1,8,1:0:0:0:
279,70,51288,1,2,0:0:0:0:
303,169,51502,2,0,P|210:190|178:185,1,107.999996704102,2|0,1:2|0:0,0:0:0:0:
151,173,51823,1,0,0:0:0:0:
151,173,51931,1,8,1:0:0:0:
136,67,52145,2,0,P|77:37|64:34,1,53.9999983520508,2|0,0:0|0:0,0:0:0:0:
36,28,52359,6,0,L|49:170,1,107.999996704102,4|2,1:0|0:0,0:0:0:0:
151,173,52788,2,0,L|135:261,1,53.9999983520508,8|0,1:0|0:0,0:0:0:0:
136,279,53002,2,0,P|183:253|235:242,1,107.999996704102,2|0,0:0|1:0,0:0:0:0:
343,230,53431,1,2,0:0:0:0:
307,331,53645,1,8,1:0:0:0:
412,324,53859,1,2,0:0:0:0:
343,230,54073,6,0,P|357:167|371:144,1,53.9999983520508,2|0,1:2|0:0,0:0:0:0:
394,142,54288,1,2,0:0:0:0:
306,93,54502,2,0,P|292:30|278:7,1,53.9999983520508,8|0,1:0|0:0,0:0:0:0:
257,3,54716,1,2,0:0:0:0:
218,98,54931,2,0,L|151:117,1,53.9999983520508,2|0,1:2|0:0,0:0:0:0:
113,102,55145,1,2,0:0:0:0:
7,78,55359,1,10,1:0:0:0:
48,182,55573,1,10,1:0:0:0:
48,182,55681,1,2,0:2:0:0:
48,182,55788,6,0,L|179:203,1,107.999996704102,4|0,1:0|0:0,0:0:0:0:
258,227,56216,2,0,P|270:272|271:311,1,53.9999983520508,8|0,1:0|0:0,0:0:0:0:
270,333,56431,1,2,0:0:0:0:
377,326,56645,2,0,P|377:279|386:241,1,53.9999983520508,2|0,1:2|0:0,0:0:0:0:
398,222,56859,1,2,0:0:0:0:
460,133,57073,1,8,1:0:0:0:
351,127,57288,2,0,P|302:118|278:99,1,53.9999983520508,2|0,0:0|0:0,0:0:0:0:
270,73,57502,6,0,P|235:28|157:0,1,107.999996704102,0|2,1:0|0:0,0:0:0:0:
82,3,57931,1,8,1:0:0:0:
9,83,58145,2,0,P|7:136|28:185,1,107.999996704102,2|2,0:0|1:2,0:0:0:0:
73,224,58466,1,2,0:0:0:0:
73,224,58573,2,0,L|152:215,1,53.9999983520508,2|2,0:2|0:0,0:0:0:0:
180,213,58788,1,10,1:0:0:0:
136,311,59002,1,2,0:2:0:0:
242,295,59216,6,0,L|335:282,1,53.9999983520508,4|0,1:0|0:0,0:0:0:0:
349,281,59431,1,0,0:0:0:0:
440,337,59645,1,8,1:0:0:0:
476,228,59859,1,2,0:0:0:0:
381,175,60073,1,0,1:2:0:0:
414,72,60288,1,2,0:0:0:0:
381,175,60502,2,0,P|274:157|239:167,1,107.999996704102,8|2,1:0|0:0,0:0:0:0:
242,198,60823,1,0,0:0:0:0:
242,198,60931,6,0,P|135:216|100:206,1,107.999996704102,2|2,1:2|0:0,0:0:0:0:
108,177,61252,1,0,0:0:0:0:
108,177,61359,2,0,L|117:107,1,53.9999983520508,8|0,1:0|0:0,0:0:0:0:
123,81,61573,1,2,0:0:0:0:
24,126,61788,2,0,L|7:261,1,107.999996704102,2|0,1:2|0:0,0:0:0:0:
32,287,62109,1,0,0:0:0:0:
32,287,62216,2,0,P|88:272|104:274,1,53.9999983520508,12|0,1:1|0:0,0:3:0:0:
128,302,62431,2,0,P|152:313|179:317,1,53.9999983520508,0|0,1:0|0:0,0:3:0:0:
231,328,62645,6,0,P|211:242|217:179,1,107.999996704102,6|0,1:2|0:0,0:0:0:0:
285,143,63073,2,0,P|291:116|288:90,1,53.9999983520508,8|0,1:0|0:0,0:0:0:0:
279,36,63288,2,0,P|338:59|412:45,1,107.999996704102,2|0,0:0|1:0,0:0:0:0:
479,109,63716,2,0,P|423:136|397:135,1,53.9999983520508,2|0,0:0|0:0,0:0:0:0:
379,145,63931,1,8,1:0:0:0:
289,91,64145,1,2,0:0:0:0:
294,193,64359,5,2,1:2:0:0:
209,247,64573,1,2,0:0:0:0:
119,200,64788,1,8,1:0:0:0:
114,100,65002,1,2,0:0:0:0:
199,45,65216,2,0,P|154:20|88:15,1,107.999996704102,2|2,1:2|0:0,0:0:0:0:
49,30,65538,1,2,0:2:0:0:
49,30,65645,2,0,P|14:76|17:104,1,53.9999983520508,8|0,1:0|0:0,0:0:0:0:
3,122,65859,1,2,0:0:0:0:
103,159,66073,6,0,P|117:217|108:286,1,107.999996704102,4|2,1:0|0:0,0:0:0:0:
70,364,66502,2,0,L|156:336,1,53.9999983520508,8|0,1:0|0:0,0:0:0:0:
173,334,66716,2,0,P|245:357|297:359,1,107.999996704102,2|0,0:0|1:0,0:0:0:0:
370,309,67145,1,2,0:0:0:0:
477,303,67359,1,8,1:0:0:0:
471,196,67573,1,2,0:0:0:0:
364,202,67788,6,0,P|310:216|274:222,1,53.9999983520508,2|0,1:2|0:0,0:0:0:0:
257,211,68002,1,2,0:0:0:0:
263,105,68216,2,0,P|209:91|173:85,1,53.9999983520508,8|0,1:0|0:0,0:0:0:0:
156,93,68431,1,10,1:0:0:0:
162,202,68645,2,0,P|108:216|72:222,1,53.9999983520508,2|0,1:2|0:0,0:0:0:0:
55,214,68859,1,10,1:0:0:0:
0,120,69073,1,10,1:0:0:0:
56,35,69288,1,10,1:0:0:0:
56,35,69395,1,2,0:2:0:0:
56,35,69502,6,0,P|105:-4|133:-10,1,53.9999983520508,4|0,1:0|0:0,0:0:0:0:
149,2,69716,2,0,P|169:33|167:70,1,53.9999983520508,2|0,0:0|0:0,0:0:0:0:
172,103,69931,1,8,1:0:0:0:
269,56,70145,2,0,L|416:35,1,107.999996704102,2|0,0:0|1:0,0:0:0:0:
482,25,70573,1,2,0:0:0:0:
463,129,70788,1,8,1:0:0:0:
356,147,71002,2,0,L|270:159,1,53.9999983520508,2|0,0:0|0:0,0:0:0:0:
249,165,71216,6,0,P|279:224|283:289,1,107.999996704102,0|2,1:0|0:0,0:0:0:0:
234,361,71645,1,8,1:0:0:0:
132,324,71859,1,2,0:0:0:0:
43,292,72073,1,2,1:2:0:0:
43,292,72181,1,2,0:0:0:0:
43,292,72288,2,0,L|27:211,1,53.9999983520508,10|2,1:0|0:0,0:0:0:0:
66,197,72502,2,0,L|82:116,1,53.9999983520508,10|2,1:0|0:0,0:0:0:0:
86,91,72716,1,2,1:2:0:0:
164,160,72931,6,0,P|220:126|281:116,1,107.999996704102,6|2,1:2|0:0,0:0:0:0:
306,128,73252,1,0,0:0:0:0:
306,128,73359,2,0,P|362:162|423:172,1,107.999996704102,8|2,1:0|0:0,0:0:0:0:
446,170,73681,1,0,0:0:0:0:
446,170,73788,2,0,P|475:156|503:129,1,53.9999983520508,2|0,1:2|0:0,0:0:0:0:
506,101,74002,1,2,0:0:0:0:
402,71,74216,1,8,1:0:0:0:
306,128,74431,2,0,L|326:223,1,53.9999983520508,2|0,0:0|0:0,0:0:0:0:
322,223,74645,6,0,P|257:274|196:290,1,107.999996704102,6|2,1:2|0:0,0:0:0:0:
206,316,74966,1,0,0:0:0:0:
206,316,75073,2,0,P|141:265|80:249,1,107.999996704102,8|2,1:0|1:2,0:0:0:0:
74,250,75395,1,0,0:0:0:0:
74,250,75502,1,6,0:0:0:0:
74,250,76145,6,0,L|61:171,1,53.9999983520508,8|10,3:3|3:3,0:0:0:0:
55,154,76359,1,6,0:0:0:0:
