osu file format v14

[General]
AudioFilename: audio.mp3
AudioLeadIn: 0
PreviewTime: 62270
Countdown: 0
SampleSet: Soft
StackLeniency: 0.7
Mode: 0
LetterboxInBreaks: 0
WidescreenStoryboard: 1

[Editor]
Bookmarks: 7788,21502,35216,47645,48931,62645,76359
DistanceSpacing: 1.2
BeatDivisor: 4
GridSize: 4
TimelineZoom: 2.3

[Metadata]
Title:chocolate box (Short Ver.)
TitleUnicode:chocolate box (Short Ver.)
Artist:DELRUKI
ArtistUnicode:デルルキ
Creator:Finshie
Version:Hard
Source:
Tags:でるたや delutaya キルノルキ kirino ruki vtuber delta dezzy IchiokuenP 一億円P vocaloid cover electronic japanese ムムム Mumumu electro house chocolatebox virtual youtuber
BeatmapID:2847827
BeatmapSetID:1375617

[Difficulty]
HPDrainRate:4
CircleSize:3
OverallDifficulty:6
ApproachRate:7
SliderMultiplier:1.4
SliderTickRate:1

[Events]
//Background and Video events
0,0,"chocobox.jpg",0,0
Video,-39,"Ed No Audio-1.mp4"
//Break Periods
//Storyboard Layer 0 (Background)
//Storyboard Layer 1 (Fail)
//Storyboard Layer 2 (Pass)
//Storyboard Layer 3 (Foreground)
//Storyboard Layer 4 (Overlay)
//Storyboard Sound Samples

[TimingPoints]
931,428.571428571429,4,2,1,60,1,0
931,-100,4,2,1,60,0,0
3931,-100,4,2,2,60,0,0
4359,-100,4,2,1,60,0,0
7788,-100,4,2,1,70,0,0
21502,-100,4,2,1,60,0,0
35216,-100,4,2,1,70,0,0
48716,-100,4,2,1,70,0,0
48823,-100,4,2,1,5,0,0
48931,-90.9090909090909,4,2,1,80,0,1
62216,-90.9090909090909,4,2,1,80,0,0
62645,-90.9090909090909,4,2,1,80,0,1
75502,-90.9090909090909,4,2,1,80,0,0
75783,-90.9090909090909,4,2,1,80,0,0
76359,-90.9090909090909,4,2,1,80,0,1
76573,-90.9090909090909,4,2,1,80,0,0

[Colours]
Combo1 : 255,0,255
Combo2 : 0,202,0
Combo3 : 255,0,0
Combo4 : 255,255,0

[HitObjects]
32,131,931,6,0,P|29:216|44:286,1,140,6|2,0:0|0:0,0:0:0:0:
121,298,1573,1,2,0:0:0:0:
196,261,1788,2,0,P|198:185|193:163,1,70,2|2,0:0|0:0,0:0:0:0:
273,152,2216,2,0,P|268:117|270:82,1,70,2|10,0:0|3:3,0:0:0:0:
346,45,2645,6,0,L|511:68,1,140,10|10,3:3|3:3,0:0:0:0:
468,147,3288,1,10,3:3:0:0:
415,212,3502,2,0,P|401:258|398:299,1,70,2|2,3:2|0:0,0:0:0:0:
391,365,3931,2,0,L|356:366,3,35,10|2|10|10,3:3|0:0|3:3|3:3,0:0:0:0:
317,350,4359,6,0,P|302:290|323:201,1,140,6|2,0:0|0:0,0:0:0:0:
339,133,5002,1,2,0:0:0:0:
297,59,5216,2,0,P|230:44|210:46,1,70,2|2,0:0|0:0,0:0:0:0:
160,92,5645,2,0,P|93:107|73:105,1,70,2|10,0:0|3:3,0:0:0:0:
10,86,6073,6,0,L|7:237,1,140,10|10,3:3|3:3,0:0:0:0:
83,279,6716,1,10,3:3:0:0:
155,236,6931,2,0,P|223:219|241:221,1,70,2|2,3:2|0:0,0:0:0:0:
303,237,7359,1,2,1:2:0:0:
194,365,7788,6,0,P|132:372|87:366,1,105,4|2,1:2|0:0,0:0:0:0:
51,350,8216,2,0,P|19:297|9:235,1,105,8|0,1:2|0:0,0:0:0:0:
2,213,8645,1,2,1:2:0:0:
85,214,8859,1,10,0:0:0:0:
169,191,9073,2,0,P|172:159|162:113,1,70,10|2,1:2|0:2,0:0:0:0:
129,45,9502,6,0,L|258:24,1,105,0|2,1:2|0:2,0:0:0:0:
269,49,9931,2,0,L|398:28,1,105,10|2,1:2|0:2,0:0:0:0:
411,47,10359,2,0,P|431:71|438:91,3,35,2|2|10|2,1:2|0:2|0:2|0:2,0:0:0:0:
439,115,10788,2,0,P|442:146|437:166,3,35,10|2|2|10,1:2|0:2|0:2|0:2,0:0:0:0:
430,190,11216,6,0,P|357:208|300:203,1,105,4|2,1:0|0:0,0:0:0:0:
281,196,11645,2,0,P|279:258|291:326,1,105,8|2,1:2|0:0,0:0:0:0:
299,339,12073,1,2,1:2:0:0:
379,364,12288,1,10,0:0:0:0:
454,328,12502,2,0,P|458:275|451:227,1,70,10|2,1:2|0:0,0:0:0:0:
423,180,12931,6,0,L|504:173,1,70,0|10,1:0|0:0,0:0:0:0:
512,90,13359,2,0,L|505:9,1,70,0|10,1:0|1:2,0:0:0:0:
419,0,13788,1,2,1:2:0:0:
335,2,14002,1,10,1:2:0:0:
283,68,14216,2,0,L|290:149,1,70,10|2,1:2|1:2,0:0:0:0:
263,217,14645,6,0,P|192:187|160:187,1,105,4|2,1:0|0:0,0:0:0:0:
123,183,15073,2,0,P|59:195|19:226,1,105,8|2,1:2|0:0,0:0:0:0:
1,251,15502,1,2,1:2:0:0:
16,333,15716,1,10,0:2:0:0:
97,311,15931,2,0,P|161:302|193:308,1,70,10|2,1:2|0:0,0:0:0:0:
234,350,16359,6,0,L|368:377,1,105,0|2,1:0|0:0,0:0:0:0:
371,346,16788,2,0,L|494:323,1,105,10|2,1:2|0:0,0:0:0:0:
496,291,17216,2,0,P|504:238|503:226,3,35,2|2|10|2,1:2|0:2|0:2|0:2,0:0:0:0:
495,215,17645,2,0,P|486:162|481:151,3,35,10|2|2|10,1:2|0:2|0:2|0:2,0:0:0:0:
472,143,18073,6,0,L|359:126,1,105,4|2,1:0|0:0,0:0:0:0:
326,120,18502,2,0,L|216:103,1,105,8|0,1:2|0:0,0:0:0:0:
187,128,18931,1,2,1:2:0:0:
135,194,19145,1,10,0:2:0:0:
58,158,19359,2,0,P|28:123|18:79,1,70,10|2,1:2|0:0,0:0:0:0:
30,17,19788,6,0,P|103:11|157:24,1,105,0|2,1:0|0:0,0:0:0:0:
171,33,20216,2,0,P|244:39|286:31,1,105,2|2,1:2|0:0,0:0:0:0:
317,30,20645,2,0,L|330:79,3,35,2|2|10|2,1:2|0:2|0:2|0:2,0:0:0:0:
333,105,21073,1,2,1:2:0:0:
495,88,21502,6,0,L|485:183,1,70,6|2,0:0|0:0,0:0:0:0:
480,241,21931,2,0,L|470:336,1,70,2|2,1:2|0:0,0:0:0:0:
388,312,22359,2,0,L|366:221,1,70,2|2,1:2|0:0,0:0:0:0:
364,207,22681,1,2,0:0:0:0:
364,207,22788,1,10,0:2:0:0:
292,150,23002,1,2,0:2:0:0:
228,203,23216,6,0,P|177:223|156:226,1,70,2|2,1:2|0:0,0:0:0:0:
77,224,23645,2,0,P|23:212|5:204,1,70,2|0,1:2|0:0,0:0:0:0:
11,122,24073,2,0,P|43:109|78:104,1,70,2|2,1:2|0:0,0:0:0:0:
123,101,24395,1,2,0:0:0:0:
123,101,24502,1,10,0:2:0:0:
210,126,24716,1,2,0:0:0:0:
290,100,24931,6,0,L|376:83,1,70,2|2,1:2|0:0,0:0:0:0:
418,144,25359,2,0,L|486:157,1,70,2|2,1:2|0:0,0:0:0:0:
501,240,25788,2,0,L|487:308,1,70,2|2,1:2|0:0,0:0:0:0:
456,337,26109,1,2,0:0:0:0:
456,337,26216,1,10,0:2:0:0:
363,344,26431,1,2,0:0:0:0:
321,270,26645,6,0,P|246:253|224:255,1,70,2|0,1:2|0:0,0:0:0:0:
168,220,27073,2,0,P|93:237|71:235,1,70,2|2,1:2|0:0,0:0:0:0:
54,166,27502,2,0,P|44:130|42:113,3,35,2|0|10|2,1:2|0:0|0:0|0:0,0:0:0:0:
50,86,27931,2,0,P|61:50|68:35,3,35,2|2|10|2,1:2|0:2|0:2|0:2,0:0:0:0:
98,26,28359,6,0,L|189:19,1,70,6|2,1:2|0:0,0:0:0:0:
245,53,28788,2,0,L|336:46,1,70,2|2,1:2|0:0,0:0:0:0:
401,43,29216,1,2,1:2:0:0:
401,43,29323,2,0,L|385:145,1,70,0|2,0:0|0:0,0:0:0:0:
367,147,29645,2,0,L|351:249,1,70,10|2,0:2|0:2,0:0:0:0:
430,255,30073,6,0,P|450:299|455:347,1,70,2|2,1:2|0:0,0:0:0:0:
396,381,30502,2,0,P|350:364|313:333,1,70,2|2,1:2|0:0,0:0:0:0:
306,327,30823,1,0,0:0:0:0:
306,327,30931,2,0,P|275:280|258:236,1,70,2|2,1:2|0:0,0:0:0:0:
253,185,31359,1,10,0:0:0:0:
276,104,31573,1,2,0:0:0:0:
237,31,31788,6,0,P|171:49|153:51,1,70,2|2,1:2|0:0,0:0:0:0:
85,43,32216,2,0,P|19:22|3:14,1,70,2|0,1:2|0:0,0:0:0:0:
8,105,32645,1,2,1:2:0:0:
8,105,32752,2,0,L|8:206,1,70,2|2,0:0|0:0,0:0:0:0:
10,216,33073,2,0,P|47:206|111:196,1,70,2|2,1:2|0:0,0:0:0:0:
160,229,33502,6,0,P|128:277|115:331,1,105,2|0,1:2|0:0,0:0:0:0:
138,358,33931,2,0,P|184:362|229:352,1,70,2|10,1:2|0:0,0:0:0:0:
289,341,34359,2,0,P|288:298|279:248,1,70,2|10,1:2|0:0,0:0:0:0:
327,198,34788,2,0,P|332:153|344:113,1,70,10|2,0:0|1:2,0:0:0:0:
416,176,35216,6,0,P|467:191|495:209,1,70,6|2,1:2|0:0,0:0:0:0:
488,240,35538,1,0,0:0:0:0:
488,240,35645,2,0,P|432:274|408:278,1,70,8|2,1:2|0:0,0:0:0:0:
367,332,36073,2,0,P|309:293|279:288,1,70,2|2,1:2|0:0,0:0:0:0:
271,291,36395,1,2,0:0:0:0:
271,291,36502,1,8,1:2:0:0:
78,297,36931,6,0,P|50:233|47:216,1,70,2|2,1:2|0:0,0:0:0:0:
67,151,37359,2,0,P|78:82|85:66,1,70,8|2,1:2|0:0,0:0:0:0:
118,66,37681,1,0,0:0:0:0:
118,66,37788,2,0,L|219:61,1,70,2|10,1:2|0:0,0:0:0:0:
233,67,38109,1,2,0:0:0:0:
233,67,38216,1,10,1:2:0:0:
413,90,38645,6,0,P|431:163|430:187,1,70,2|2,1:2|0:0,0:0:0:0:
383,226,39073,1,8,1:2:0:0:
440,287,39288,1,2,0:0:0:0:
372,336,39502,2,0,P|312:328|271:334,1,70,2|2,1:2|0:2,0:0:0:0:
261,336,39823,1,2,0:2:0:0:
261,336,39931,2,0,P|206:361|175:389,1,70,10|2,1:2|0:2,0:0:0:0:
115,374,40359,6,0,L|97:294,1,70,2|2,1:2|0:0,0:0:0:0:
67,287,40681,1,2,0:0:0:0:
67,287,40788,2,0,L|49:207,1,70,10|2,1:2|0:0,0:0:0:0:
128,185,41216,2,0,L|142:88,1,70,10|2,1:2|0:0,0:0:0:0:
53,113,41645,2,0,L|29:10,1,105,10|10,1:2|0:2,0:0:0:0:
69,21,42073,6,0,P|105:31|155:27,1,70,6|2,1:2|0:2,0:0:0:0:
179,32,42395,1,2,0:2:0:0:
179,32,42502,2,0,P|212:22|247:21,1,70,10|2,1:2|0:0,0:0:0:0:
331,26,42931,1,2,1:2:0:0:
395,79,43145,1,2,0:0:0:0:
480,64,43359,2,0,L|470:175,1,105,10|2,1:2|0:2,0:0:0:0:
465,210,43788,6,0,P|416:231|381:279,1,105,2|0,1:2|0:0,0:0:0:0:
369,309,44216,2,0,P|358:357|362:393,1,70,10|2,1:2|0:0,0:0:0:0:
268,380,44645,1,2,1:2:0:0:
253,297,44859,1,10,0:0:0:0:
238,214,45073,2,0,P|170:179|155:180,1,70,10|2,1:2|0:2,0:0:0:0:
95,188,45502,6,0,L|117:278,1,70,2|2,1:2|0:0,0:0:0:0:
119,301,45823,1,0,0:0:0:0:
119,301,45931,2,0,L|97:391,1,70,10|2,1:2|0:0,0:0:0:0:
18,371,46359,1,2,1:2:0:0:
1,288,46573,1,2,0:0:0:0:
8,204,46788,2,0,L|28:112,1,70,10|2,1:2|0:0,0:0:0:0:
34,95,47109,1,2,0:0:0:0:
34,95,47216,6,0,P|86:113|128:109,1,70,2|2,1:2|0:0,0:0:0:0:
178,81,47645,2,0,P|182:46|196:14,1,70,10|2,1:2|0:0,0:0:0:0:
279,5,48073,1,8,1:2:0:0:
249,267,48716,5,2,0:0:0:0:
336,295,48931,2,0,P|375:295|422:289,1,77.0000023498536,6|0,1:2|0:0,0:0:0:0:
457,210,49359,1,8,1:0:0:0:
408,131,49573,2,0,P|369:126|331:127,1,77.0000023498536,2|0,0:0|1:0,0:0:0:0:
252,175,50002,2,0,L|240:81,1,77.0000023498536,2|8,0:0|1:0,0:0:0:0:
198,17,50431,1,2,0:0:0:0:
118,64,50645,6,0,P|69:77|30:75,1,77.0000023498536,2|2,1:2|0:0,0:0:0:0:
81,160,51073,1,8,1:0:0:0:
27,235,51288,1,2,0:0:0:0:
41,327,51502,2,0,P|84:357|166:372,1,115.50000352478,2|0,1:2|0:0,0:0:0:0:
190,364,51931,1,8,1:0:0:0:
274,326,52145,1,2,0:0:0:0:
355,370,52359,6,0,P|391:345|454:323,1,77.0000023498536,4|2,1:0|0:0,0:0:0:0:
510,308,52788,1,8,1:0:0:0:
477,221,53002,2,0,P|481:139|491:113,1,77.0000023498536,2|0,0:0|1:0,0:0:0:0:
512,56,53431,1,2,0:0:0:0:
421,37,53645,1,8,1:0:0:0:
330,16,53859,1,2,0:0:0:0:
248,58,54073,6,0,L|145:49,1,77.0000023498536,2|2,1:2|0:0,0:0:0:0:
78,44,54502,2,0,L|-25:35,1,77.0000023498536,8|2,1:0|0:0,0:0:0:0:
9,129,54931,1,2,1:2:0:0:
6,221,55145,2,0,L|82:214,1,77.0000023498536,2|10,0:0|1:0,0:0:0:0:
174,204,55573,1,10,1:0:0:0:
261,170,55788,6,0,P|332:192|368:220,1,115.50000352478,4|0,1:0|0:0,0:0:0:0:
395,250,56216,1,8,1:0:0:0:
371,339,56431,1,2,0:0:0:0:
280,357,56645,2,0,P|218:320|186:317,1,77.0000023498536,2|2,1:2|0:0,0:0:0:0:
124,338,57073,1,8,1:0:0:0:
65,266,57288,6,0,P|35:290|0:303,2,77.0000023498536,2|0|2,0:0|1:0|0:0,0:0:0:0:
102,181,57931,1,8,1:0:0:0:
147,101,58145,2,0,P|212:120|239:120,1,77.0000023498536,2|2,0:0|1:2,0:0:0:0:
270,126,58466,1,2,0:0:0:0:
270,126,58573,1,2,0:2:0:0:
358,99,58788,1,10,1:0:0:0:
381,9,59002,1,2,0:2:0:0:
469,39,59216,6,0,L|491:116,1,77.0000023498536,4|0,1:0|0:0,0:0:0:0:
417,170,59645,2,0,L|439:247,1,77.0000023498536,8|2,1:0|0:0,0:0:0:0:
475,328,60073,2,0,P|402:298|334:313,1,115.50000352478,0|0,1:2|0:0,0:0:0:0:
325,322,60502,2,0,P|259:349|245:348,1,77.0000023498536,8|2,1:0|0:0,0:0:0:0:
165,326,60931,5,2,1:2:0:0:
123,243,61145,1,2,0:0:0:0:
197,188,61359,2,0,P|232:141|243:103,1,77.0000023498536,8|2,1:0|0:0,0:0:0:0:
188,46,61788,2,0,P|108:37|49:49,1,115.50000352478,2|0,1:2|0:0,0:0:0:0:
33,63,62216,1,12,1:1:0:0:
11,153,62431,1,0,1:0:0:0:
46,237,62645,6,0,P|104:244|148:239,1,77.0000023498536,6|0,1:2|0:0,0:0:0:0:
203,198,63073,1,8,1:0:0:0:
279,250,63288,2,0,P|337:243|381:248,1,77.0000023498536,2|0,0:0|1:0,0:0:0:0:
442,274,63716,2,0,L|455:367,1,77.0000023498536,2|8,0:0|1:0,0:0:0:0:
367,384,64145,1,2,0:0:0:0:
278,356,64359,6,0,P|203:371|180:369,1,77.0000023498536,2|2,1:2|0:0,0:0:0:0:
110,373,64788,1,8,1:0:0:0:
68,290,65002,1,2,0:0:0:0:
109,207,65216,2,0,P|146:149|154:88,1,115.50000352478,2|2,1:2|0:2,0:0:0:0:
154,57,65645,1,8,1:0:0:0:
70,17,65859,1,2,0:0:0:0:
3,80,66073,6,0,P|-3:125|2:173,1,77.0000023498536,4|2,1:0|0:0,0:0:0:0:
13,248,66502,1,8,1:0:0:0:
57,328,66716,2,0,P|101:358|140:371,1,77.0000023498536,2|0,0:0|1:0,0:0:0:0:
211,336,67145,1,2,0:0:0:0:
200,244,67359,1,8,1:0:0:0:
186,152,67573,1,2,0:0:0:0:
270,190,67788,6,0,L|345:175,1,77.0000023498536,2|2,1:2|0:0,0:0:0:0:
436,158,68216,2,0,L|511:143,1,77.0000023498536,8|10,1:0|1:0,0:0:0:0:
510,50,68645,1,2,1:2:0:0:
418,35,68859,1,10,1:0:0:0:
342,88,69073,1,10,1:0:0:0:
250,73,69287,1,10,1:0:0:0:
177,15,69502,6,0,L|100:26,1,77.0000023498536,4|2,1:0|0:0,0:0:0:0:
9,39,69931,1,8,1:0:0:0:
33,127,70145,2,0,P|39:213|34:225,1,77.0000023498536,2|0,0:0|1:0,0:0:0:0:
133,189,70573,1,2,0:0:0:0:
165,276,70788,1,8,1:0:0:0:
196,361,71002,6,0,P|132:372|103:367,2,77.0000023498536,2|0|2,0:0|1:0|0:0,0:0:0:0:
277,316,71645,1,8,1:0:0:0:
319,234,71859,2,0,P|314:173|321:140,1,77.0000023498536,2|2,0:0|1:2,0:0:0:0:
329,115,72181,1,2,0:0:0:0:
329,115,72288,1,10,1:0:0:0:
367,31,72502,1,10,1:0:0:0:
459,27,72716,1,2,1:2:0:0:
509,104,72931,6,0,P|512:174|507:211,1,77.0000023498536,6|2,1:2|0:0,0:0:0:0:
431,226,73359,2,0,P|361:228|324:224,1,77.0000023498536,8|2,1:0|0:0,0:0:0:0:
295,156,73788,1,2,1:2:0:0:
291,63,74002,1,2,0:0:0:0:
207,23,74216,2,0,P|137:20|100:25,1,77.0000023498536,8|2,1:0|0:0,0:0:0:0:
49,66,74645,6,0,P|46:136|51:173,1,77.0000023498536,6|2,1:2|0:0,0:0:0:0:
123,193,75073,2,0,P|126:263|121:300,1,77.0000023498536,8|2,1:0|1:2,0:0:0:0:
117,362,75502,1,6,0:0:0:0:
385,268,76145,6,0,P|384:230|389:192,1,77.0000023498536,8|6,3:3|0:0,0:0:0:0:
