osu file format v14

[General]
AudioFilename: audio.mp3
AudioLeadIn: 0
PreviewTime: 62270
Countdown: 0
SampleSet: Soft
StackLeniency: 0.3
Mode: 0
LetterboxInBreaks: 0
WidescreenStoryboard: 1

[Editor]
Bookmarks: 7788,21502,35216,48931,62645,76359
DistanceSpacing: 1.3
BeatDivisor: 4
GridSize: 8
TimelineZoom: 2.3

[Metadata]
Title:chocolate box (Short Ver.)
TitleUnicode:chocolate box (Short Ver.)
Artist:DELRUKI
ArtistUnicode:デルルキ
Creator:Finshie
Version:Extra
Source:
Tags:でるたや delutaya キルノルキ kirino ruki vtuber delta dezzy IchiokuenP 一億円P vocaloid cover electronic japanese ムムム Mumumu electro house chocolatebox virtual youtuber
BeatmapID:2844636
BeatmapSetID:1375617

[Difficulty]
HPDrainRate:6
CircleSize:4
OverallDifficulty:8.7
ApproachRate:9.4
SliderMultiplier:2.4
SliderTickRate:1

[Events]
//Background and Video events
0,0,"chocobox.jpg",0,0
Video,-39,"Ed No Audio-1.mp4"
//Break Periods
//Storyboard Layer 0 (Background)
//Storyboard Layer 1 (Fail)
//Storyboard Layer 2 (Pass)
//Storyboard Layer 3 (Foreground)
//Storyboard Layer 4 (Overlay)
//Storyboard Sound Samples

[TimingPoints]
931,428.571428571429,4,2,1,60,1,0
931,-133.333333333333,4,2,1,60,0,0
3931,-133.333333333333,4,2,2,60,0,0
4359,-133.333333333333,4,2,1,60,0,0
7788,-79.9999999999999,4,2,1,70,0,0
21502,-100,4,2,1,60,0,0
35216,-80,4,2,1,70,0,0
48716,-200,4,2,1,70,0,0
48823,-200,4,2,1,5,0,0
48931,-66.6666666666667,4,2,1,80,0,1
62216,-66.6666666666667,4,2,1,80,0,0
62645,-66.6666666666667,4,2,1,80,0,1
75502,-66.6666666666667,4,2,1,80,0,0
76359,-66.6666666666667,4,2,1,80,0,1
76573,-66.6666666666667,4,2,1,80,0,0

[Colours]
Combo1 : 255,0,255
Combo2 : 0,202,0
Combo3 : 255,0,0
Combo4 : 255,255,0

[HitObjects]
173,162,931,6,0,L|159:74,1,90.0000034332276,6|2,0:0|0:0,0:0:0:0:
153,37,1252,1,2,0:0:0:0:
281,14,1359,2,0,L|261:140,1,90.0000034332276,2|2,0:0|0:0,0:0:0:0:
261,138,1681,1,2,0:0:0:0:
368,69,1788,5,2,0:0:0:0:
374,104,1895,1,2,0:0:0:0:
380,139,2002,1,2,0:0:0:0:
386,174,2109,1,2,0:0:0:0:
392,209,2216,1,2,0:0:0:0:
485,363,2431,5,10,3:3:0:0:
491,318,2538,1,2,0:0:0:0:
497,273,2645,1,10,3:3:0:0:
316,324,2859,1,10,3:3:0:0:
310,279,2966,1,2,0:0:0:0:
304,234,3073,1,10,3:3:0:0:
135,273,3288,1,10,3:3:0:0:
129,318,3395,1,2,0:0:0:0:
123,363,3502,5,2,3:2:0:0:
117,318,3609,1,2,0:0:0:0:
111,273,3716,1,2,0:0:0:0:
105,228,3823,1,2,0:0:0:0:
99,183,3931,2,0,L|91:121,1,45.0000017166138,10|2,3:3|0:0,0:0:0:0:
228,120,4145,1,10,3:3:0:0:
219,209,4252,1,10,3:3:0:0:
211,299,4359,6,0,P|256:284|310:291,1,90.0000034332277,6|2,0:0|0:0,0:0:0:0:
331,300,4681,1,2,0:0:0:0:
325,193,4788,2,0,P|369:196|412:182,1,90.0000034332277,2|2,0:0|0:0,0:0:0:0:
443,164,5109,1,2,0:0:0:0:
428,69,5216,5,2,0:0:0:0:
396,51,5323,1,2,0:0:0:0:
359,54,5431,1,2,0:0:0:0:
324,64,5538,1,2,0:0:0:0:
296,87,5645,1,2,0:0:0:0:
126,26,5859,5,10,3:3:0:0:
170,35,5966,1,2,0:0:0:0:
214,44,6073,1,10,3:3:0:0:
45,175,6288,1,10,3:3:0:0:
89,166,6395,1,2,0:0:0:0:
133,157,6502,1,10,3:3:0:0:
126,288,6716,1,10,3:3:0:0:
170,297,6823,1,2,0:0:0:0:
214,306,6931,5,2,3:2:0:0:
160,312,7038,1,2,0:0:0:0:
106,320,7145,1,2,0:0:0:0:
53,327,7252,1,2,0:0:0:0:
0,335,7359,1,2,1:2:0:0:
358,341,7788,6,0,P|310:252|344:184,1,150,4|2,1:2|0:0,0:0:0:0:
413,256,8109,1,2,0:0:0:0:
503,301,8216,2,0,P|511:228|467:170,1,150,8|0,1:2|0:0,0:0:0:0:
389,175,8538,1,0,0:0:0:0:
334,123,8645,5,2,1:2:0:0:
338,63,8752,1,2,0:0:0:0:
381,21,8859,1,10,0:0:0:0:
440,15,8966,1,2,0:0:0:0:
492,42,9073,1,10,1:2:0:0:
252,80,9288,5,2,0:2:0:0:
252,80,9395,1,2,0:2:0:0:
179,62,9502,1,0,1:2:0:0:
52,149,9716,5,2,0:2:0:0:
52,149,9823,1,2,0:2:0:0:
125,131,9931,1,10,1:2:0:0:
252,218,10145,5,2,0:2:0:0:
252,218,10252,1,2,0:2:0:0:
179,200,10359,1,2,1:2:0:0:
187,259,10466,1,2,0:2:0:0:
195,318,10573,1,10,0:2:0:0:
203,377,10681,1,2,0:2:0:0:
269,339,10788,5,10,1:2:0:0:
298,344,10895,1,2,0:2:0:0:
327,349,11002,1,2,0:2:0:0:
356,354,11109,1,10,0:2:0:0:
337,272,11216,6,0,L|194:318,1,150,4|2,1:0|0:0,0:0:0:0:
259,203,11538,1,2,0:0:0:0:
324,89,11645,2,0,L|181:135,1,150,8|0,1:2|0:0,0:0:0:0:
104,136,11966,1,2,0:0:0:0:
52,194,12073,5,2,1:2:0:0:
110,211,12181,1,2,0:0:0:0:
138,264,12288,1,10,0:0:0:0:
120,322,12395,1,2,0:0:0:0:
67,349,12502,1,10,1:2:0:0:
194,317,12716,5,2,0:0:0:0:
194,317,12823,1,2,0:0:0:0:
267,335,12931,1,0,1:0:0:0:
411,200,13145,5,10,0:0:0:0:
411,200,13252,1,2,0:0:0:0:
347,239,13359,1,0,1:0:0:0:
400,76,13573,5,10,1:2:0:0:
400,76,13681,1,2,0:2:0:0:
461,32,13788,2,0,P|425:20|394:0,1,75,2|2,1:2|0:2,0:0:0:0:
323,92,14002,2,0,P|288:104|257:125,1,75,10|2,1:2|0:2,0:0:0:0:
12,23,14216,5,10,1:2:0:0:
55,51,14323,1,2,0:2:0:0:
114,62,14431,1,2,1:2:0:0:
180,48,14538,1,10,0:2:0:0:
251,19,14645,6,0,P|209:34|159:177,1,150,4|0,1:0|0:0,0:0:0:0:
257,125,14966,1,2,0:0:0:0:
343,184,15073,2,0,P|281:223|208:219,1,150,8|0,1:2|0:0,0:0:0:0:
135,195,15395,1,2,0:0:0:0:
64,220,15502,5,2,1:2:0:0:
38,274,15609,1,2,0:2:0:0:
60,329,15716,1,10,0:2:0:0:
113,356,15823,1,2,0:2:0:0:
172,343,15931,1,10,1:2:0:0:
398,344,16145,5,2,0:0:0:0:
398,344,16252,1,2,0:0:0:0:
330,310,16359,1,0,1:0:0:0:
454,280,16573,5,2,0:0:0:0:
454,280,16681,1,2,0:0:0:0:
386,246,16788,1,10,1:2:0:0:
510,216,17002,5,2,0:0:0:0:
510,216,17109,1,2,0:0:0:0:
442,182,17216,1,2,1:2:0:0:
433,122,17323,1,2,0:2:0:0:
424,62,17431,1,10,0:2:0:0:
415,2,17538,1,2,0:2:0:0:
347,36,17645,5,10,1:2:0:0:
318,46,17752,1,2,0:2:0:0:
289,56,17859,1,2,0:2:0:0:
260,66,17966,1,10,0:2:0:0:
201,0,18073,6,0,L|224:175,1,150,4|2,1:0|0:0,0:0:0:0:
123,74,18395,1,2,0:0:0:0:
23,0,18502,2,0,L|46:175,1,150,8|0,1:2|0:0,0:0:0:0:
51,222,18823,1,0,0:0:0:0:
58,295,18931,5,2,1:2:0:0:
111,269,19038,1,2,0:2:0:0:
169,282,19145,1,10,0:2:0:0:
207,327,19252,1,2,0:2:0:0:
208,384,19359,1,10,1:2:0:0:
335,252,19573,5,2,0:0:0:0:
335,252,19681,1,2,0:0:0:0:
331,327,19788,1,0,1:0:0:0:
203,252,20002,5,10,0:0:0:0:
203,252,20109,1,2,0:0:0:0:
207,327,20216,1,2,1:2:0:0:
335,252,20431,5,10,0:0:0:0:
335,252,20538,1,2,0:0:0:0:
331,327,20645,5,2,1:2:0:0:
335,252,20752,1,2,0:2:0:0:
339,177,20859,1,10,0:2:0:0:
343,102,20966,1,2,0:2:0:0:
347,27,21073,1,2,1:2:0:0:
95,337,21502,6,0,P|153:326|197:286,1,120,6|2,0:0|0:0,0:0:0:0:
247,231,21823,1,0,0:0:0:0:
247,231,21931,2,0,P|305:241|349:281,1,120,2|2,1:2|0:0,0:0:0:0:
391,346,22252,1,0,0:0:0:0:
391,346,22359,2,0,P|449:335|493:295,1,120,2|2,1:2|0:0,0:0:0:0:
451,235,22681,1,2,0:0:0:0:
475,167,22788,2,0,P|497:108|500:83,1,60,10|2,0:2|0:2,0:0:0:0:
398,117,23002,2,0,P|372:132|344:142,1,60,2|2,0:2|0:2,0:0:0:0:
215,16,23216,6,0,P|264:49|323:63,1,120,2|2,1:2|0:0,0:0:0:0:
188,97,23538,1,0,0:0:0:0:
116,93,23645,1,2,1:2:0:0:
116,93,23752,2,0,P|66:108|25:145,1,60
117,185,23966,1,0,0:0:0:0:
117,185,24073,2,0,P|67:200|26:237,1,60,2|0,1:2|0:0,0:0:0:0:
191,281,24288,2,0,P|218:293|247:299,1,60,2|2,0:0|0:0,0:0:0:0:
343,350,24502,5,10,0:2:0:0:
372,329,24609,1,2,0:0:0:0:
407,320,24716,1,2,0:0:0:0:
442,325,24823,1,2,0:0:0:0:
505,366,24931,6,0,P|523:305|505:199,1,120,2|2,1:2|0:0,0:0:0:0:
466,203,25252,1,0,0:0:0:0:
466,203,25359,2,0,P|448:146|450:86,1,120,2|2,1:2|0:0,0:0:0:0:
402,30,25681,1,0,0:0:0:0:
402,30,25788,2,0,P|282:39|244:23,1,120,2|2,1:2|0:0,0:0:0:0:
213,49,26109,1,2,0:0:0:0:
156,94,26216,2,0,P|122:167|123:189,1,60,10|2,0:2|0:0,0:0:0:0:
92,54,26431,2,0,P|58:-19|59:-41,1,60,2|2,0:0|0:0,0:0:0:0:
215,166,26645,6,0,P|242:224|222:319,1,120,2|0,1:2|0:0,0:0:0:0:
196,335,26966,1,0,0:0:0:0:
124,345,27073,2,0,P|96:333|72:315,1,60,2|0,1:2|0:0,0:0:0:0:
23,261,27288,2,0,P|13:233|10:203,1,60,2|0,0:0|0:0,0:0:0:0:
240,278,27502,2,0,P|298:236|357:223,1,120,2|10,1:2|0:0,0:0:0:0:
414,238,27823,1,2,0:0:0:0:
387,305,27931,5,2,1:2:0:0:
360,329,28038,1,2,0:2:0:0:
329,347,28145,1,10,0:2:0:0:
295,358,28252,1,2,0:2:0:0:
221,358,28359,6,0,P|157:318|71:314,1,120,6|2,1:2|0:0,0:0:0:0:
47,256,28681,1,0,0:0:0:0:
47,256,28788,2,0,P|101:231|141:188,1,120,2|2,1:2|0:0,0:0:0:0:
223,157,29109,1,0,0:0:0:0:
223,157,29216,2,0,P|220:232|259:308,1,120,2|0,1:2|0:0,0:0:0:0:
308,281,29538,1,2,0:0:0:0:
298,209,29645,2,0,P|314:149|330:129,1,60,10|2,0:2|0:2,0:0:0:0:
379,196,29859,2,0,P|382:225|393:253,1,60,2|2,0:2|0:2,0:0:0:0:
377,55,30073,5,2,1:2:0:0:
306,45,30181,2,0,L|201:32,1,60,0|2,0:0|0:0,0:0:0:0:
175,27,30395,1,0,0:0:0:0:
191,101,30502,2,0,L|25:80,1,120,2|2,1:2|0:0,0:0:0:0:
0,78,30823,1,0,0:0:0:0:
17,198,30931,2,0,L|136:183,1,120,2|2,1:2|0:0,0:0:0:0:
207,175,31252,1,2,0:0:0:0:
190,287,31359,5,10,0:0:0:0:
154,282,31466,1,2,0:0:0:0:
118,278,31573,1,2,0:0:0:0:
82,273,31681,1,2,0:0:0:0:
90,380,31788,6,0,P|128:370|197:366,1,60,2|0,1:2|0:0,0:0:0:0:
224,366,32002,2,0,P|252:374|281:385,1,60,2|0,0:0|0:0,0:0:0:0:
391,353,32216,1,2,1:2:0:0:
327,314,32323,2,0,P|294:263|281:205,1,120
378,247,32645,2,0,P|388:218|402:192,1,60,2|2,1:2|0:0,0:0:0:0:
444,131,32859,2,0,P|462:107|484:87,1,60,2|2,0:0|0:0,0:0:0:0:
336,84,33073,5,2,1:2:0:0:
300,79,33181,1,2,0:0:0:0:
263,73,33288,1,2,0:0:0:0:
226,67,33395,1,2,0:0:0:0:
325,4,33502,5,2,1:2:0:0:
393,27,33609,2,0,P|479:18|490:20,1,60,0|10,0:0|0:0,0:0:0:0:
502,119,33823,2,0,P|473:127|443:130,1,60,0|2,0:0|1:2,0:0:0:0:
324,210,34038,1,0,0:0:0:0:
392,233,34145,2,0,P|422:230|451:223,1,60,10|0,0:0|0:0,0:0:0:0:
270,291,34359,6,0,P|218:263|157:261,1,120,2|10,1:2|0:0,0:0:0:0:
73,216,34681,1,2,0:0:0:0:
135,170,34788,2,0,P|200:168|226:180,1,60,10|2,0:0|0:0,0:0:0:0:
272,180,35002,2,0,P|327:213|342:237,1,60,2|2,1:2|0:0,0:0:0:0:
277,30,35216,6,0,P|205:67|121:49,1,150,6|2,1:2|0:0,0:0:0:0:
57,17,35538,1,0,0:0:0:0:
73,110,35645,2,0,P|18:91|-38:105,1,75,8|0,1:2|0:0,0:0:0:0:
3,235,35859,2,0,P|40:232|74:216,1,75,2|0,0:0|0:0,0:0:0:0:
301,127,36073,2,0,L|274:299,1,150,2|2,1:2|0:0,0:0:0:0:
208,217,36395,1,2,0:0:0:0:
372,185,36502,2,0,L|399:357,1,150,8|2,1:2|0:0,0:0:0:0:
465,275,36823,1,0,0:0:0:0:
317,357,36931,6,0,P|246:309|146:338,1,150,2|2,1:2|0:0,0:0:0:0:
112,367,37252,1,0,0:0:0:0:
18,306,37359,2,0,P|7:220|24:193,1,75,8|0,1:2|0:0,0:0:0:0:
18,77,37573,2,0,P|2:111|2:149,1,75,2|0,0:0|0:0,0:0:0:0:
69,9,37788,2,0,P|174:44|245:31,1,150,2|10,1:2|0:0,0:0:0:0:
296,13,38109,1,2,0:0:0:0:
281,105,38216,5,10,1:2:0:0:
320,83,38323,1,2,0:0:0:0:
363,70,38431,1,2,0:0:0:0:
408,69,38538,1,10,0:0:0:0:
471,106,38645,6,0,L|447:266,1,150,2|2,1:2|0:0,0:0:0:0:
377,199,38966,1,0,0:0:0:0:
283,106,39073,2,0,L|307:266,1,150,8|2,1:2|0:0,0:0:0:0:
377,199,39395,1,0,0:0:0:0:
377,311,39502,5,2,1:2:0:0:
333,320,39609,1,2,0:2:0:0:
293,341,39716,1,2,0:2:0:0:
261,372,39823,1,2,0:2:0:0:
200,327,39931,5,10,1:2:0:0:
156,317,40038,1,2,0:2:0:0:
116,296,40145,1,2,0:2:0:0:
84,265,40252,1,2,0:2:0:0:
15,323,40359,6,0,P|49:246|31:140,1,150,2|2,1:2|0:0,0:0:0:0:
21,96,40681,1,2,0:0:0:0:
135,202,40788,1,10,1:2:0:0:
135,202,40895,2,0,P|134:127|166:60,1,150,0|2,0:0|0:0,0:0:0:0:
249,27,41216,1,10,1:2:0:0:
249,27,41323,1,2,0:0:0:0:
243,117,41431,2,0,P|311:111|365:132,1,75,2|2,0:0|0:0,0:0:0:0:
339,26,41645,5,10,1:2:0:0:
374,53,41752,1,2,0:2:0:0:
415,72,41859,1,10,0:2:0:0:
458,82,41966,1,10,0:2:0:0:
403,152,42073,5,6,1:2:0:0:
408,181,42181,1,2,0:2:0:0:
413,210,42288,1,2,0:2:0:0:
418,239,42395,1,2,0:2:0:0:
504,213,42502,6,0,L|488:309,1,75,10|2,1:2|0:0,0:0:0:0:
481,379,42716,1,2,0:0:0:0:
481,379,42823,1,2,0:0:0:0:
382,322,42931,2,0,P|299:291|270:296,1,75,2|0,1:2|0:0,0:0:0:0:
218,348,43145,2,0,L|98:364,1,75,2|0,0:0|0:0,0:0:0:0:
63,212,43359,2,0,L|212:231,1,150,10|2,1:2|0:2,0:0:0:0:
215,141,43681,1,2,0:2:0:0:
290,91,43788,5,2,1:2:0:0:
290,91,43895,2,0,P|252:13|251:-27,1,75,0|2,0:0|0:0,0:0:0:0:
215,235,44109,1,0,0:0:0:0:
215,235,44216,2,0,P|128:241|63:285,1,150,10|2,1:2|0:0,0:0:0:0:
81,362,44538,1,2,0:0:0:0:
81,362,44645,2,0,P|110:377|156:384,1,75,2|2,1:2|0:2,0:0:0:0:
310,358,44859,2,0,P|281:373|235:380,1,75,10|0,0:0|0:0,0:0:0:0:
377,317,45073,5,10,1:2:0:0:
419,303,45181,1,2,0:2:0:0:
464,300,45288,1,2,0:2:0:0:
508,308,45395,1,10,0:2:0:0:
473,224,45502,6,0,P|439:152|439:62,1,150,2|2,1:2|0:0,0:0:0:0:
457,0,45823,1,0,0:0:0:0:
354,80,45931,2,0,P|351:19|336:-17,1,75,10|2,1:2|0:2,0:0:0:0:
165,6,46145,2,0,P|156:42|158:80,1,75,2|0,0:0|0:0,0:0:0:0:
176,172,46359,1,2,1:2:0:0:
176,172,46466,1,2,0:2:0:0:
85,141,46573,2,0,P|55:117|20:105,1,75,2|2,0:0|0:0,0:0:0:0:
248,110,46788,2,0,P|294:140|322:146,1,75,10|2,1:2|0:0,0:0:0:0:
176,172,47002,5,2,0:0:0:0:
248,110,47109,1,2,0:0:0:0:
231,243,47216,2,0,L|216:350,1,75,2|0,1:2|0:0,0:0:0:0:
318,234,47431,2,0,L|303:341,1,75,2|0,0:0|0:0,0:0:0:0:
405,225,47645,1,10,1:2:0:0:
393,314,47752,1,2,0:2:0:0:
491,215,47859,2,0,L|481:141,1,75,2|0,0:0|0:0,0:0:0:0:
461,0,48073,1,8,1:2:0:0:
220,317,48716,6,0,L|249:309,1,30,2|0,0:0|0:0,0:0:0:0:
327,293,48931,6,0,L|110:272,1,180.000006866455,6|0,1:2|0:0,0:0:0:0:
40,265,49252,1,0,0:0:0:0:
129,164,49359,2,0,P|123:125|63:20,1,90.0000034332277,8|0,1:0|0:0,0:0:0:0:
288,16,49573,2,0,P|230:113|227:193,1,180.000006866455,2|0,0:0|1:0,0:0:0:0:
238,285,49895,1,0,0:0:0:0:
129,164,50002,2,0,P|63:146|15:152,1,90.0000034332277,2|0,0:0|0:0,0:0:0:0:
342,133,50216,2,0,P|465:183|527:177,1,180.000006866455,8|2,1:0|0:0,0:0:0:0:
445,92,50538,1,0,0:0:0:0:
473,267,50645,6,0,L|486:365,1,90.0000034332277,2|0,1:2|0:0,0:0:0:0:
367,241,50859,2,0,L|354:339,1,90.0000034332277,2|0,0:0|0:0,0:0:0:0:
225,177,51073,2,0,L|248:355,1,180.000006866455,8|2,1:0|0:0,0:0:0:0:
355,330,51395,1,0,0:0:0:0:
248,355,51502,2,0,P|138:309|54:330,1,180.000006866455,2|0,1:2|0:0,0:0:0:0:
0,384,51823,1,0,0:0:0:0:
159,235,51931,2,0,P|228:170|237:134,1,90.0000034332277,8|0,1:0|0:0,0:0:0:0:
117,59,52145,2,0,P|48:124|39:160,1,90.0000034332277,2|0,0:0|0:0,0:0:0:0:
159,235,52359,6,0,L|112:38,1,180.000006866455,4|2,1:0|0:0,0:0:0:0:
209,97,52681,1,0,0:0:0:0:
71,203,52788,2,0,L|-23:187,1,90.0000034332277,8|0,1:0|0:0,0:0:0:0:
209,97,53002,2,0,L|397:65,1,180.000006866455,2|0,0:0|1:0,0:0:0:0:
492,47,53323,1,0,0:0:0:0:
451,145,53431,2,0,P|433:251|442:285,1,90.0000034332277,2|0,0:0|0:0,0:0:0:0:
390,383,53645,2,0,P|361:279|366:244,1,90.0000034332277,8|0,1:0|0:0,0:0:0:0:
305,152,53859,2,0,P|287:258|296:292,1,90.0000034332277,2|0,0:0|0:0,0:0:0:0:
390,383,54073,6,0,L|287:370,1,90.0000034332277,2|0,1:2|0:0,0:0:0:0:
121,320,54288,2,0,L|211:309,1,90.0000034332277,2|0,0:0|0:0,0:0:0:0:
472,384,54502,1,8,1:0:0:0:
39,321,54716,1,2,0:0:0:0:
300,371,54931,2,0,L|282:230,1,90.0000034332277,2|0,1:2|0:0,0:0:0:0:
264,89,55145,2,0,L|278:209,1,90.0000034332277,2|0,0:0|0:0,0:0:0:0:
300,371,55359,1,10,1:0:0:0:
264,89,55573,6,0,L|257:40,3,45.0000017166138,10|2|2|2,1:0|0:2|0:2|0:2,0:0:0:0:
264,89,55788,6,0,L|451:30,1,180.000006866455,4|0,1:0|0:0,0:0:0:0:
389,133,56109,1,0,0:0:0:0:
448,243,56216,2,0,P|363:215|317:222,1,90.0000034332277,8|0,1:0|0:0,0:0:0:0:
371,384,56431,2,0,P|416:377|456:357,1,90.0000034332277,2|0,0:0|0:0,0:0:0:0:
288,277,56645,2,0,P|166:227|79:240,1,180.000006866455,2|2,1:2|0:0,0:0:0:0:
15,254,56966,1,0,0:0:0:0:
65,108,57073,2,0,P|76:13|65:-32,1,90.0000034332277,8|0,1:0|0:0,0:0:0:0:
196,145,57288,2,0,P|185:50|196:5,1,90.0000034332277,2|0,0:0|0:0,0:0:0:0:
353,13,57502,6,0,P|359:139|330:221,1,180.000006866455,0|2,1:0|0:0,0:0:0:0:
272,96,57823,1,0,0:0:0:0:
445,156,57931,2,0,P|490:241|501:253,1,90.0000034332277,8|0,1:0|0:0,0:0:0:0:
288,277,58145,2,0,L|40:324,1,180.000006866455,2|2,0:0|1:2,0:0:0:0:
153,211,58466,1,2,0:0:0:0:
260,368,58573,2,0,L|348:384,1,90.0000034332277,2|2,0:2|0:0,0:0:0:0:
111,310,58788,2,0,L|23:326,1,90.0000034332277,10|2,1:0|0:2,0:0:0:0:
288,277,59002,2,0,L|376:293,1,90.0000034332277,2|2,0:2|0:2,0:0:0:0:
153,211,59216,6,0,P|121:113|121:14,1,180.000006866455,4|0,1:0|0:0,0:0:0:0:
210,94,59538,1,0,0:0:0:0:
330,26,59645,2,0,P|318:131|305:160,1,90.0000034332277,8|0,1:0|0:0,0:0:0:0:
494,24,59859,2,0,P|506:129|519:158,1,90.0000034332277,2|0,0:0|0:0,0:0:0:0:
471,325,60073,2,0,P|451:235|350:189,1,180.000006866455,0|2,1:2|0:0,0:0:0:0:
288,277,60395,1,0,0:0:0:0:
132,190,60502,6,0,P|90:207|46:213,1,90.0000034332277,8|0,1:0|0:0,0:0:0:0:
5,32,60716,2,0,P|47:14|91:8,1,90.0000034332277,2|0,0:0|0:0,0:0:0:0:
380,190,60931,2,0,P|421:208|465:214,1,90.0000034332277,2|0,1:2|0:0,0:0:0:0:
506,32,61145,2,0,P|464:14|420:8,1,90.0000034332277,2|0,0:0|0:0,0:0:0:0:
256,192,61359,2,0,L|234:7,1,180.000006866455,8|2,1:0|0:0,0:0:0:0:
154,86,61681,1,0,0:0:0:0:
380,189,61788,2,0,P|413:109|461:217,1,270.000010299683,2|0,1:2|0:0,0:0:0:0:
255,191,62216,6,0,L|274:352,1,90.0000034332277,12|0,1:1|0:0,0:3:0:0:
234,13,62431,2,0,L|253:174,1,90.0000034332277,0|0,1:0|0:0,0:3:0:0:
182,342,62645,6,0,L|375:294,1,180.000006866455,6|0,1:2|0:0,0:0:0:0:
453,346,62966,1,0,0:0:0:0:
466,213,63073,2,0,P|473:146|513:62,1,90.0000034332277,8|0,1:0|0:0,0:0:0:0:
318,9,63288,2,0,P|362:158|344:238,1,180.000006866455,2|0,0:0|1:0,0:0:0:0:
356,298,63609,1,0,0:0:0:0:
466,213,63716,2,0,P|473:146|513:62,1,90.0000034332277,2|0,0:0|0:0,0:0:0:0:
259,108,63931,2,0,P|184:168|44:136,1,180.000006866455,8|2,1:0|0:0,0:0:0:0:
0,137,64252,1,0,0:0:0:0:
50,277,64359,6,0,L|30:421,1,90.0000034332277,2|0,1:2|0:0,0:0:0:0:
156,286,64573,2,0,L|176:430,1,90.0000034332277,2|0,0:0|0:0,0:0:0:0:
298,187,64788,2,0,L|274:366,1,180.000006866455,8|2,1:0|0:0,0:0:0:0:
168,375,65109,1,0,0:0:0:0:
274,366,65216,5,2,1:2:0:0:
313,305,65323,1,2,0:2:0:0:
379,275,65431,1,2,0:0:0:0:
448,292,65538,1,2,0:2:0:0:
511,325,65645,2,0,P|511:237|523:215,1,90.0000034332277,8|0,1:0|0:0,0:0:0:0:
511,39,65859,2,0,P|520:82|512:126,1,90.0000034332277,2|0,0:0|0:0,0:0:0:0:
316,89,66073,6,0,B|294:45|294:45|421:79,1,180.000006866455,4|2,1:0|0:0,0:0:0:0:
353,164,66395,1,0,0:0:0:0:
248,190,66502,2,0,L|77:235,1,90.0000034332277,8|0,1:0|0:0,0:0:0:0:
142,43,66716,2,0,L|342:95,1,180.000006866455,2|0,0:0|1:0,0:0:0:0:
248,190,67038,1,0,0:0:0:0:
87,233,67145,2,0,L|-84:278,1,90.0000034332277,2|0,0:0|0:0,0:0:0:0:
142,43,67359,2,0,L|229:65,1,90.0000034332277,8|0,1:0|0:0,0:0:0:0:
62,152,67573,2,0,L|149:129,1,90.0000034332277,2|0,0:0|0:0,0:0:0:0:
363,129,67788,6,0,P|341:168|331:212,1,90.0000034332277,2|0,1:2|0:0,0:0:0:0:
481,276,68002,2,0,P|502:236|512:192,1,90.0000034332277,2|0,0:0|0:0,0:0:0:0:
149,129,68216,2,0,P|170:168|180:212,1,90.0000034332277,8|0,1:0|0:0,0:0:0:0:
31,276,68431,2,0,P|9:236|0:192,1,90.0000034332277,10|0,1:0|0:0,0:0:0:0:
331,211,68645,1,2,1:2:0:0:
31,276,68859,1,10,1:0:0:0:
353,143,69073,5,10,1:0:0:0:
331,211,69181,1,2,0:2:0:0:
353,279,69288,1,10,1:0:0:0:
415,315,69395,1,2,0:2:0:0:
502,350,69502,6,0,P|355:346|302:376,1,180.000006866455,4|2,1:0|0:0,0:0:0:0:
233,308,69823,1,0,0:0:0:0:
101,352,69931,2,0,P|-15:322|-33:307,1,90.0000034332277,8|0,1:0|0:0,0:0:0:0:
1,98,70145,2,0,P|149:110|220:169,1,180.000006866455,2|0,0:0|1:0,0:0:0:0:
243,205,70466,1,0,0:0:0:0:
339,156,70573,2,0,L|361:61,1,90.0000034332277,2|0,0:0|0:0,0:0:0:0:
243,205,70788,2,0,P|296:254|358:277,1,90.0000034332277,8|0,1:0|0:0,0:0:0:0:
427,125,71002,2,0,P|374:76|312:53,1,90.0000034332277,2|0,0:0|0:0,0:0:0:0:
512,38,71216,6,0,P|459:142|458:272,1,180.000006866455,0|2,1:0|0:0,0:0:0:0:
458,312,71538,1,0,0:0:0:0:
311,262,71645,2,0,P|221:239|195:246,1,90.0000034332277,8|0,1:0|0:0,0:0:0:0:
358,67,71859,2,0,P|317:87|273:91,1,90.0000034332277,2|0,0:0|0:0,0:0:0:0:
16,16,72073,5,2,1:2:0:0:
87,18,72181,1,2,0:0:0:0:
147,56,72288,1,10,1:0:0:0:
178,120,72395,1,2,0:0:0:0:
173,190,72502,1,10,1:0:0:0:
131,248,72609,1,2,0:0:0:0:
79,298,72716,5,2,1:2:0:0:
102,293,72788,5,2,0:0:0:0:
125,288,72859,5,2,0:0:0:0:
148,283,72931,6,0,L|353:308,1,180.000006866455,6|2,1:2|0:0,0:0:0:0:
434,315,73252,1,0,0:0:0:0:
235,340,73359,2,0,L|112:379,1,90.0000034332277,8|0,1:0|0:0,0:0:0:0:
301,210,73573,2,0,L|387:238,1,90.0000034332277,2|0,0:0|0:0,0:0:0:0:
235,81,73788,2,0,L|45:141,1,180.000006866455,2|2,1:2|0:0,0:0:0:0:
108,37,74109,1,0,0:0:0:0:
125,208,74216,2,0,P|112:300|119:338,1,90.0000034332277,8|0,1:0|0:0,0:0:0:0:
0,212,74431,2,0,P|13:304|6:342,1,90.0000034332277,2|0,0:0|0:0,0:0:0:0:
214,261,74645,6,0,P|331:203|402:206,1,180.000006866455,6|2,1:2|0:0,0:0:0:0:
335,301,74966,1,0,0:0:0:0:
252,139,75073,2,0,P|190:82|142:71,1,90.0000034332277,8|0,1:0|0:0,0:0:0:0:
377,202,75288,5,2,1:2:0:0:
400,204,75359,5,2,0:0:0:0:
423,206,75431,5,2,0:0:0:0:
446,208,75502,6,0,P|508:151|556:140,1,90.0000034332277,6|0,0:0|0:0,0:0:0:0:
511,149,76145,6,0,L|497:60,1,90.0000034332277,8|10,3:3|3:3,0:0:0:0:
492,286,76359,1,6,0:0:0:0:
