osu file format v14

[General]
AudioFilename: audio.mp3
AudioLeadIn: 0
PreviewTime: 57875
Countdown: 0
SampleSet: Soft
StackLeniency: 0.7
Mode: 0
LetterboxInBreaks: 1
WidescreenStoryboard: 1

[Editor]
Bookmarks: 1739,8784,23557,27193,30829,38102,49011,50829,58102,61511,63329,85375,89011,92648,96284,99920,114466,129011,131739,154466,158102,159920,161739,170829,178102,181739,196284,207193,209011,229693,236284,250829
DistanceSpacing: 1.6
BeatDivisor: 4
GridSize: 8
TimelineZoom: 3.199999

[Metadata]
Title:SAI
TitleUnicode:サイ
Artist:DECO*27/Ef
ArtistUnicode:DECO*27/Ef
Creator:Kongou Hikari
Version:remap
Source:Voltage of Imagination III
Tags:空想活劇·叁
BeatmapID:1581650
BeatmapSetID:623954

[Difficulty]
HPDrainRate:6
CircleSize:4.4
OverallDifficulty:7
ApproachRate:8
SliderMultiplier:1.7
SliderTickRate:1

[Events]
//Background and Video events
0,0,"60006073_p0_master1200.jpg",0,0
//Break Periods
2,100120,113414
2,181484,195414
//Storyboard Layer 0 (Background)
//Storyboard Layer 1 (Fail)
//Storyboard Layer 2 (Pass)
//Storyboard Layer 3 (Foreground)
//Storyboard Sound Samples

[TimingPoints]
1739,454.545454545455,4,2,2,50,1,0
1739,-133.333333333333,4,2,2,50,0,0
9011,-125,4,2,2,50,0,0
16284,-125,4,2,2,50,0,0
22648,-166.666666666667,4,2,2,50,0,0
23557,-125,4,2,2,50,0,0
30829,-100,4,2,2,50,0,0
34466,-100,4,2,2,50,0,0
38102,-125,4,2,2,50,0,0
50829,-111.111111111111,4,2,2,50,0,0
58102,-83.3333333333333,4,2,2,50,0,1
84466,-71.4285714285714,4,2,2,50,0,1
84920,-133.333333333333,4,2,2,50,0,1
85375,-100,4,2,2,50,0,0
99920,-100,4,2,2,50,0,0
114466,-133.333333333333,4,2,2,50,0,0
129011,-125,4,2,2,50,0,0
130829,-102.38,4,2,2,50,0,0
132648,-102.38,4,2,2,50,0,0
134466,-100,4,2,2,50,0,0
136284,-125,4,2,2,50,0,0
143557,-117.647058823529,4,2,2,50,0,0
158102,-125,4,2,2,50,0,0
169920,-111.111111111111,4,2,2,50,0,0
179011,-111.111111111111,4,2,2,50,0,0
179920,-111.111111111111,4,2,2,50,0,0
181284,-100,4,2,2,50,0,0
196284,-142.857142857143,4,2,2,50,0,0
206284,-133.333333333333,4,2,2,50,0,0
206739,-200,4,2,2,50,0,0
207193,-100,4,2,2,50,0,0
208102,-200,4,2,2,50,0,0
208557,-100,4,2,2,50,0,0
209011,-76.9230769230769,4,2,2,50,0,1
229011,-76.9230769230769,4,2,2,50,0,1
230829,-71.4285714285714,4,2,2,50,0,1
234920,-76.9230769230769,4,2,2,50,0,1
235375,-80,4,2,2,50,0,1
235829,-90.9090909090909,4,2,2,50,0,1
236284,-111.111111111111,4,2,2,50,0,0

[HitObjects]
61,270,1739,6,0,L|134:251,1,63.7500024318696
217,242,2193,2,0,L|356:263,2,127.500004863739
130,283,3329,1,0,0:0:0:0:
147,88,3557,6,0,L|157:166,1,63.7500024318696
249,136,4011,2,0,L|276:11,2,127.500004863739
384,235,5375,6,0,L|311:216,1,63.7500024318696
228,207,5829,2,0,L|89:228,2,127.500004863739
255,114,6966,1,0,0:0:0:0:
408,152,7194,6,0,L|332:131,1,63.7500024318696
374,44,7648,2,0,L|501:34,2,127.500004863739
170,57,9011,5,0,0:0:0:0:
86,115,9238,1,0,0:0:0:0:
20,36,9466,1,0,0:0:0:0:
120,50,9693,1,0,0:0:0:0:
148,188,9920,2,0,L|142:265,1,68
50,336,10375,2,0,L|55:268,1,68
144,195,10829,6,0,L|156:276,1,68
54,362,11284,2,0,L|44:294,1,68
127,353,11739,1,0,0:0:0:0:
228,354,11966,1,0,0:0:0:0:
326,326,12193,1,0,0:0:0:0:
391,248,12420,1,0,0:0:0:0:
447,383,12648,6,0,L|455:315,1,68
401,220,13102,2,0,L|409:152,1,68
476,75,13557,1,0,0:0:0:0:
382,114,13784,1,0,0:0:0:0:
314,37,14011,1,0,0:0:0:0:
415,32,14238,1,0,0:0:0:0:
287,132,14466,6,0,P|255:145|214:136,1,68
158,219,14920,2,0,P|130:197|118:157,1,68
7,179,15375,2,0,P|11:144|40:113,1,68
9,11,15829,2,0,P|41:-1|82:7,1,68
205,53,16284,6,0,B|183:56|183:56|138:46,2,68
299,12,16966,1,0,0:0:0:0:
398,34,17193,2,0,L|477:54,1,68
492,156,17648,1,0,0:0:0:0:
400,211,17875,1,0,0:0:0:0:
300,125,18102,6,0,B|321:121|321:121|366:131,2,68
201,154,18784,1,0,0:0:0:0:
103,182,19011,2,0,L|27:172,1,68
174,193,19466,1,0,0:0:0:0:
229,302,19693,1,0,0:0:0:0:
45,318,19920,6,0,P|80:304|120:309,1,68
321,300,20375,2,0,P|285:313|245:308,1,68
468,275,20829,2,0,P|463:308|445:337,1,68,0|0,0:3|0:0,0:0:0:0:
201,273,21284,2,0,P|235:288|260:319,1,68
45,318,21739,6,0,P|21:287|15:248,1,68
182,141,22193,2,0,P|205:171|211:210,1,68
0,141,22648,2,0,B|31:106|60:163|60:163|37:163,1,101.999996887207
38,163,23557,6,0,B|98:199,1,68
240,175,24011,2,0,B|181:140,1,68
190,241,24466,1,0,0:0:0:0:
127,321,24693,1,0,0:0:0:0:
25,331,24920,1,0,0:0:0:0:
121,299,25147,1,0,0:0:0:0:
219,358,25375,6,0,L|228:273,1,68
309,175,25829,2,0,B|321:272,1,68
415,273,26284,1,0,0:0:0:0:
472,188,26511,1,0,0:0:0:0:
393,122,26739,1,0,0:0:0:0:
211,30,27193,6,0,B|223:127,1,68
276,184,27648,2,0,B|264:281,1,68
324,336,28102,2,0,L|417:322,1,68
468,256,28557,2,0,L|370:253,1,68
300,232,29011,5,0,0:0:0:0:
229,157,29239,1,0,0:0:0:0:
147,217,29466,1,0,0:0:0:0:
46,201,29693,1,0,0:0:0:0:
4,107,29920,1,0,0:0:0:0:
69,28,30148,1,0,0:0:0:0:
173,37,30375,1,0,0:0:0:0:
211,24,30829,6,0,P|173:43|131:43,2,85
337,5,31511,1,0,0:0:0:0:
461,33,31739,2,0,L|371:35,1,85
249,49,32193,1,0,0:0:0:0:
93,251,32648,6,0,P|131:232|173:232,2,85
209,302,33329,1,0,0:0:0:0:
336,300,33557,2,0,B|421:293,1,85
331,216,34011,2,0,P|288:216|251:235,1,85
105,335,34466,6,0,B|92:250,1,85
136,132,34920,2,0,B|123:47,1,85
252,56,35375,2,0,B|264:140,1,85
264,318,35829,2,0,B|251:233,1,85
95,320,36284,6,0,P|148:299|177:307,1,85,0|0,0:3|0:3,0:3:0:0:
342,303,36739,2,0,P|289:324|260:316,1,85,0|0,0:3|0:3,0:3:0:0:
501,342,37193,2,0,L|410:351,3,85
360,282,38102,5,0,0:0:0:0:
285,274,38329,1,0,0:0:0:0:
246,210,38557,1,0,0:0:0:0:
304,259,39011,5,0,0:0:0:0:
234,230,39239,1,0,0:0:0:0:
242,303,39466,1,0,0:0:0:0:
111,232,39920,5,0,0:0:0:0:
129,305,40147,1,0,0:0:0:0:
83,363,40375,1,0,0:0:0:0:
108,293,40829,5,0,0:0:0:0:
105,367,41057,1,0,0:0:0:0:
171,335,41284,1,0,0:0:0:0:
106,200,41739,5,0,0:0:0:0:
72,133,41966,1,0,0:0:0:0:
0,111,42194,1,0,0:0:0:0:
65,156,42648,5,0,0:0:0:0:
14,102,42876,1,0,0:0:0:0:
85,82,43103,1,0,0:0:0:0:
223,137,43557,5,0,0:0:0:0:
232,61,43784,1,0,0:0:0:0:
296,24,44012,1,0,0:0:0:0:
247,80,44466,5,0,0:0:0:0:
277,13,44694,1,0,0:0:0:0:
204,19,44921,1,0,0:0:0:0:
326,105,45375,5,0,0:0:0:0:
399,114,45602,1,0,0:0:0:0:
451,62,45830,1,0,0:0:0:0:
385,95,46284,5,0,0:0:0:0:
457,83,46512,1,0,0:0:0:0:
434,153,46739,1,0,0:0:0:0:
292,196,47193,5,0,0:0:0:0:
321,266,47420,1,0,0:0:0:0:
285,329,47648,1,0,0:0:0:0:
299,257,48102,5,0,0:0:0:0:
306,329,48330,1,0,0:0:0:0:
366,288,48557,1,0,0:0:0:0:
224,332,49011,5,0,0:0:0:0:
149,325,49238,1,0,0:0:0:0:
109,264,49466,1,0,0:0:0:0:
167,310,49920,5,0,0:0:0:0:
99,282,50148,1,0,0:0:0:0:
107,356,50375,1,0,0:0:0:0:
0,268,50829,6,0,B|81:278,1,76.4999976654053
182,293,51284,1,0,0:0:0:0:
264,260,51511,2,0,B|339:250,1,76.4999976654053
432,308,51966,1,0,0:0:0:0:
182,293,52193,2,0,B|106:283,1,76.4999976654053
63,133,52648,6,0,L|84:206,1,76.4999976654053
115,308,53102,1,0,0:0:0:0:
161,211,53329,1,0,0:0:0:0:
33,112,53557,6,0,L|54:185,1,76.4999976654053
101,328,54011,1,0,0:0:0:0:
131,190,54239,1,0,0:0:0:0:
139,174,54352,1,0,0:0:0:0:
147,158,54466,6,0,L|233:146,1,76.4999976654053
321,66,54920,1,0,0:0:0:0:
452,116,55148,1,0,0:0:0:0:
462,257,55375,1,0,0:0:0:0:
446,273,55488,1,0,0:0:0:0:
430,289,55602,1,0,0:0:0:0:
430,289,55829,5,0,0:0:0:0:
287,276,56057,1,0,0:0:0:0:
220,170,56284,5,0,0:0:0:0:
220,170,56511,1,0,0:0:0:0:
61,205,56739,1,0,0:0:0:0:
128,163,56966,1,0,0:0:0:0:
220,170,57193,1,0,0:0:0:0:
289,252,57420,1,0,0:0:0:0:
260,378,57648,1,0,0:0:0:0:
242,371,58102,6,0,L|353:376,1,101.999996887207
165,318,58557,2,0,L|63:313,1,101.999996887207
2,141,59011,2,0,P|38:187|57:245,1,101.999996887207
131,8,59466,2,0,P|120:65|90:118,1,101.999996887207
83,120,59807,1,0,0:0:0:0:
61,130,59920,1,0,0:0:0:0:
204,121,60148,1,0,0:0:0:0:
352,86,60375,2,0,P|401:54|437:5,1,101.999996887207
286,18,60829,5,0,0:0:0:0:
286,101,61057,1,0,0:0:0:0:
356,60,61284,1,0,0:0:0:0:
214,79,61511,5,0,0:0:0:0:
357,82,61739,1,0,0:0:0:0:
484,145,61966,1,0,0:0:0:0:
343,170,62193,5,0,0:0:0:0:
279,115,62420,1,0,0:0:0:0:
401,41,62648,5,0,0:0:0:0:
432,180,62876,1,0,0:0:0:0:
402,319,63103,1,0,0:0:0:0:
254,362,63329,5,0,0:0:0:0:
218,362,63443,1,0,0:0:0:0:
182,358,63557,2,0,L|69:339,1,101.999996887207
301,302,64011,2,0,L|414:321,1,101.999996887207
142,251,64466,5,0,0:0:0:0:
221,262,64693,1,0,0:0:0:0:
193,185,64920,2,0,B|196:246|196:246|218:281,1,101.999996887207
344,373,65375,6,0,L|360:261,1,101.999996887207
482,202,65829,2,0,L|487:319,1,101.999996887207
349,261,66284,2,0,P|319:219|303:171,1,101.999996887207
300,148,66625,1,0,0:0:0:0:
298,123,66739,2,0,P|307:65|336:11,1,101.999996887207
466,0,67193,2,0,P|442:54|399:98,1,101.999996887207
344,212,67648,2,0,P|286:202|232:173,1,101.999996887207
247,42,68102,5,0,0:0:0:0:
325,26,68329,1,0,0:0:0:0:
300,101,68557,1,0,0:0:0:0:
123,12,68784,5,0,0:0:0:0:
261,46,69011,2,0,L|367:71,1,101.999996887207
456,192,69466,1,0,0:0:0:0:
317,226,69693,2,0,L|211:251,1,101.999996887207
88,311,70148,2,0,L|194:336,1,101.999996887207
330,353,70602,5,0,0:0:0:0:
460,296,70829,1,0,0:0:0:0:
318,270,71057,1,0,0:0:0:0:
406,368,71284,1,0,0:0:0:0:
493,229,71511,1,0,0:0:0:0:
451,92,71739,5,0,0:0:0:0:
376,58,71966,1,0,0:0:0:0:
381,139,72193,2,0,B|396:79|396:79|386:39,1,101.999996887207
198,73,72648,6,0,L|321:99,1,101.999996887207
167,152,73102,2,0,L|67:130,1,101.999996887207
163,237,73557,2,0,P|159:287|141:335,1,101.999996887207
36,239,74011,1,0,0:0:0:0:
36,95,74239,1,0,0:0:0:0:
53,77,74353,1,0,0:0:0:0:
70,57,74466,1,0,0:0:0:0:
177,151,74693,1,0,0:0:0:0:
319,150,74920,2,0,P|369:143|415:122,1,101.999996887207
295,43,75375,5,0,0:0:0:0:
241,101,75602,1,0,0:0:0:0:
321,120,75829,1,0,0:0:0:0:
214,23,76057,5,0,0:0:0:0:
276,151,76284,1,0,0:0:0:0:
404,213,76511,1,0,0:0:0:0:
367,74,76739,5,0,0:0:0:0:
278,76,76966,1,0,0:0:0:0:
243,214,77193,5,0,0:0:0:0:
380,176,77420,1,0,0:0:0:0:
449,50,77648,1,0,0:0:0:0:
310,16,77875,1,0,0:0:0:0:
284,22,77989,1,0,0:0:0:0:
259,14,78102,6,0,P|208:9|158:19,1,101.999996887207
50,112,78557,2,0,P|100:116|150:106,1,101.999996887207
291,129,79011,5,0,0:0:0:0:
351,75,79239,1,0,0:0:0:0:
277,47,79466,1,0,0:0:0:0:
312,211,79693,6,0,B|294:141|294:141|304:99,1,101.999996887207
420,29,80148,1,0,0:0:0:0:
472,161,80375,2,0,P|467:211|449:258,1,101.999996887207
332,341,80829,2,0,P|302:299|286:251,1,101.999996887207
283,228,81170,1,0,0:0:0:0:
281,203,81284,2,0,P|290:145|319:91,1,101.999996887207
448,61,81739,6,0,L|474:173,1,101.999996887207
464,302,82193,1,0,0:0:0:0:
464,302,82420,5,0,0:0:0:0:
407,352,82647,1,0,0:0:0:0:
393,277,82875,1,0,0:0:0:0:
104,321,83329,5,0,0:0:0:0:
238,369,83557,2,0,P|259:322|265:272,1,101.999996887207
208,116,84011,1,0,0:0:0:0:
67,142,84239,1,0,0:0:0:0:
54,157,84352,1,0,0:0:0:0:
43,179,84466,2,0,P|28:265|76:338,1,178.499994552612
143,357,84920,2,0,L|49:343,1,95.6250036478044
234,366,85375,5,0,0:0:0:0:
407,322,85716,1,0,0:0:0:0:
490,164,86057,1,0,0:0:0:0:
487,282,86284,5,0,0:0:0:0:
374,320,86511,1,0,0:0:0:0:
346,314,86625,1,0,0:0:0:0:
314,308,86739,1,0,0:0:0:0:
271,183,86966,6,0,L|270:121,1,42.5
250,260,87193,2,0,P|235:281|112:295,1,127.5
26,172,87875,1,0,0:0:0:0:
61,58,88102,6,0,P|90:99|101:148,1,85
51,288,88557,2,0,P|68:248|98:218,1,85
184,138,89011,5,0,0:0:0:0:
362,148,89352,1,0,0:0:0:0:
474,287,89693,1,0,0:0:0:0:
448,172,89920,5,0,0:0:0:0:
330,156,90147,1,0,0:0:0:0:
304,168,90261,1,0,0:0:0:0:
274,180,90375,1,0,0:0:0:0:
155,190,90602,6,0,L|114:171,1,42.5
221,246,90829,2,0,P|223:271|138:362,1,127.5,0|0,0:3|0:3,0:3:0:0:
22,250,91511,1,0,0:0:0:0:
141,269,91739,6,0,P|183:264|220:245,1,85
353,156,92193,2,0,P|310:160|273:179,1,85
278,18,92648,5,0,0:0:0:0:
105,62,92989,1,0,0:0:0:0:
22,220,93330,1,0,0:0:0:0:
25,102,93557,5,0,0:0:0:0:
138,64,93784,1,0,0:0:0:0:
166,70,93898,1,0,0:0:0:0:
198,76,94012,1,0,0:0:0:0:
241,201,94239,6,0,L|242:263,1,42.5
262,124,94466,2,0,P|277:103|399:88,1,127.5
486,212,95148,1,0,0:0:0:0:
451,326,95375,6,0,P|422:285|411:236,1,85
461,96,95830,2,0,P|444:136|414:166,1,85
328,246,96284,5,0,0:0:0:0:
150,236,96625,1,0,0:0:0:0:
38,97,96966,1,0,0:0:0:0:
64,212,97193,5,0,0:0:0:0:
182,228,97420,1,0,0:0:0:0:
208,216,97534,1,0,0:0:0:0:
238,204,97648,1,0,0:0:0:0:
357,194,97875,6,0,L|398:213,1,42.5
291,138,98102,2,0,P|288:112|373:21,1,127.5,0|0,0:3|0:3,0:3:0:0:
490,134,98784,1,0,0:0:0:0:
486,253,99012,6,0,P|460:286|425:309,1,85
292,334,99466,2,0,B|218:304|292:225|292:225|305:262,1,170
379,357,114466,6,0,B|461:361,1,63.7500024318696
442,360,114807,1,0,0:0:0:0:
442,360,114920,1,0,0:0:0:0:
468,274,115148,1,0,0:0:0:0:
389,231,115375,1,0,0:0:0:0:
308,272,115602,1,0,0:0:0:0:
295,272,115715,1,0,0:0:0:0:
283,271,115829,2,0,P|233:260|213:251,1,63.7500024318696
109,215,116284,6,0,P|143:252|153:271,1,63.7500024318696
155,277,116625,1,0,0:0:0:0:
157,291,116739,2,0,P|160:341|157:363,1,63.7500024318696
18,289,117193,2,0,P|-8:236|6:165,1,127.500004863739
119,35,118102,6,0,L|50:29,1,63.7500024318696
54,30,118443,1,0,0:0:0:0:
54,30,118557,1,0,0:0:0:0:
30,115,118784,1,0,0:0:0:0:
90,180,119011,1,0,2:0:0:0:
178,177,119238,1,0,2:0:0:0:
190,177,119351,1,0,2:0:0:0:
202,180,119466,2,0,P|248:159|266:147,1,63.7500024318696,0|0,2:0|2:0,2:0:0:0:
305,76,119920,6,0,P|346:46|366:38,1,63.7500024318696
372,38,120261,1,0,0:0:0:0:
387,37,120375,2,0,P|437:39|458:45,1,63.7500024318696
500,156,120829,2,0,P|468:161|436:160,1,63.7500024318696,0|0,2:0|2:0,2:0:0:0:
412,158,121170,1,0,0:0:0:0:
390,155,121284,1,0,0:0:0:0:
368,152,121398,1,0,0:0:0:0:
349,150,121511,1,0,0:0:0:0:
201,167,121739,6,0,P|250:153|271:151,1,63.7500024318696,0|0,2:0|2:0,2:0:0:0:
263,152,122079,1,0,0:0:0:0:
263,152,122193,1,0,0:0:0:0:
316,223,122420,1,0,0:0:0:0:
299,311,122648,1,0,2:0:0:0:
222,357,122875,1,0,2:0:0:0:
210,354,122988,1,0,2:0:0:0:
198,352,123103,2,0,P|158:319|145:302,1,63.7500024318696,0|0,2:0|2:0,2:0:0:0:
46,322,123557,6,0,P|53:271|60:251,1,63.7500024318696,0|0,2:0|2:0,2:0:0:0:
57,259,123898,1,0,0:0:0:0:
57,259,124011,1,0,0:0:0:0:
144,187,124239,1,0,0:0:0:0:
208,125,124466,2,0,P|212:80|205:47,1,63.7500024318696
209,61,124807,1,0,0:0:0:0:
209,61,124920,1,0,0:0:0:0:
141,2,125148,1,0,0:0:0:0:
0,73,125375,6,0,P|33:103|63:118,1,63.7500024318696
49,111,125716,1,0,0:0:0:0:
49,111,125829,1,0,0:0:0:0:
133,141,126057,1,0,0:0:0:0:
255,147,126284,1,0,0:0:0:0:
331,115,126511,1,0,0:0:0:0:
353,112,126625,1,0,0:0:0:0:
374,108,126739,1,0,0:0:0:0:
456,110,126966,1,0,0:0:0:0:
331,115,127193,6,0,P|299:107|267:106,1,63.7500024318696
254,106,127534,1,0,0:0:0:0:
239,106,127648,2,0,P|207:112|178:124,1,63.7500024318696
111,173,128102,1,0,0:0:0:0:
204,277,128329,5,0,0:0:0:0:
224,282,128443,1,0,0:0:0:0:
244,287,128557,1,0,0:0:0:0:
260,291,128670,1,0,0:0:0:0:
276,296,128784,1,0,0:0:0:0:
292,300,128898,1,0,0:0:0:0:
320,307,129011,6,0,B|401:357|432:274|496:340|496:340|450:344|450:344|411:300,1,272
379,42,130829,2,0,B|469:64|418:163|418:163|390:171|390:171|318:113|228:137,1,332.096121431229
135,138,131966,1,0,0:0:0:0:
122,142,132079,1,0,0:0:0:0:
108,143,132193,1,0,0:0:0:0:
95,137,132307,1,0,0:0:0:0:
84,130,132420,1,0,0:0:0:0:
7,42,132648,6,0,B|36:24|36:24|95:27|130:43|130:43|162:142|18:236,1,332.096121431229
233,327,134466,2,0,B|250:341|250:341|272:346|290:328|290:328|302:302|288:280|288:280|272:259|231:252|231:252|204:255|174:277|174:277|152:303|159:342|159:342|176:372,1,340
350,381,135602,1,0,0:0:0:0:
363,370,135716,1,0,0:0:0:0:
372,356,135829,1,0,0:0:0:0:
375,339,135943,1,0,0:0:0:0:
377,322,136057,1,0,0:0:0:0:
437,182,136284,6,0,P|429:215|417:246,1,68
331,249,136739,2,0,P|310:276|285:299,1,68
202,272,137193,2,0,P|171:287|139:298,1,68
82,235,137648,2,0,P|48:236|14:232,1,68
59,380,138102,6,0,L|64:313,1,68
102,225,138557,2,0,L|106:157,1,68
148,71,139011,1,0,0:0:0:0:
236,36,139239,1,0,0:0:0:0:
235,54,139353,1,0,0:0:0:0:
234,73,139467,1,0,0:0:0:0:
232,92,139580,1,0,0:0:0:0:
231,110,139694,1,0,0:0:0:0:
305,177,139920,6,0,P|317:146|325:113,1,68
419,126,140375,2,0,P|417:92|409:58,1,68
322,21,140829,2,0,P|289:29|257:42,1,68
168,8,141284,2,0,P|159:40|157:74,1,68
63,92,141739,6,0,L|57:174,1,68
120,232,142194,2,0,L|115:299,1,68
197,346,142648,1,0,0:0:0:0:
305,308,142875,1,0,0:0:0:0:
332,304,142988,1,0,0:0:0:0:
360,301,143102,1,0,0:0:0:0:
387,297,143216,1,0,0:0:0:0:
414,294,143329,1,0,0:0:0:0:
512,189,143557,6,0,L|426:180,1,72.2500013780594
339,219,144011,2,0,L|303:224,3,36.1250006890297
319,205,144466,2,0,P|283:196|250:182,1,72.2500013780594
148,166,144920,2,0,L|128:135,2,36.1250006890297
199,86,145375,6,0,P|193:50|192:14,1,72.2500013780594
286,13,145829,1,0,0:0:0:0:
286,31,145942,1,0,0:0:0:0:
285,49,146056,1,0,0:0:0:0:
273,142,146284,6,0,P|265:182|250:220,1,72.2500013780594,0|0,2:0|0:0,0:0:0:0:
245,237,146625,1,0,0:0:0:0:
228,258,146739,1,0,0:0:0:0:
208,276,146853,1,0,0:0:0:0:
185,290,146966,1,0,0:0:0:0:
35,243,147193,6,0,L|106:233,1,72.2500013780594
186,183,147648,2,0,L|221:177,3,36.1250006890297
206,197,148103,2,0,P|241:205|274:219,1,72.2500013780594
334,129,148557,2,0,L|366:143,2,36.1250006890297
369,235,149011,6,0,P|383:268|392:302,1,72.2500013780594
316,359,149466,1,0,0:0:0:0:
299,353,149579,1,0,0:0:0:0:
282,348,149693,1,0,0:0:0:0:
165,263,149920,6,0,P|201:271|237:273,1,72.2500013780594
263,271,150261,1,0,0:0:0:0:
290,266,150374,1,0,0:0:0:0:
316,258,150488,1,0,0:0:0:0:
342,247,150602,1,0,0:0:0:0:
382,104,150829,6,0,L|409:171,1,72.2500013780594
466,349,151284,1,0,0:0:0:0:
466,349,151397,1,0,0:0:0:0:
466,349,151511,1,0,0:0:0:0:
466,349,151625,1,0,0:0:0:0:
466,349,151739,2,0,L|422:290,1,72.2500013780594
498,204,152193,1,0,0:0:0:0:
498,204,152306,1,0,0:0:0:0:
498,204,152420,1,0,0:0:0:0:
380,167,152648,6,0,P|344:159|308:157,1,72.2500013780594
190,190,153102,1,0,0:0:0:0:
171,189,153216,1,0,0:0:0:0:
153,189,153329,1,0,0:0:0:0:
41,137,153557,5,0,0:0:0:0:
131,54,153784,1,0,0:0:0:0:
155,41,153898,1,0,0:0:0:0:
180,33,154011,1,0,0:0:0:0:
206,28,154125,1,0,0:0:0:0:
232,27,154238,1,0,0:0:0:0:
374,35,154466,6,0,P|366:70|353:103,1,72.2500013780594
378,289,154920,1,0,0:0:0:0:
378,289,155033,1,0,0:0:0:0:
378,289,155147,1,0,0:0:0:0:
378,289,155261,1,0,0:0:0:0:
378,289,155375,2,0,L|384:216,1,72.2500013780594
262,200,155829,1,0,0:0:0:0:
264,218,155943,1,0,0:0:0:0:
265,236,156057,1,0,0:0:0:0:
170,314,156284,6,0,P|134:313|99:307,1,72.2500013780594
33,202,156739,1,0,0:0:0:0:
31,184,156853,1,0,0:0:0:0:
30,166,156967,1,0,0:0:0:0:
133,56,157193,5,0,0:0:0:0:
140,78,157306,1,0,0:0:0:0:
146,101,157420,1,0,0:0:0:0:
149,125,157533,1,0,0:0:0:0:
151,149,157647,1,0,0:0:0:0:
151,173,157761,1,0,0:0:0:0:
149,197,157874,1,0,0:0:0:0:
34,307,158102,5,0,0:0:0:0:
120,287,158329,1,0,0:0:0:0:
205,309,158557,1,0,0:0:0:0:
379,280,159011,5,0,0:0:0:0:
302,235,159239,1,0,0:0:0:0:
300,323,159466,1,0,0:0:0:0:
474,349,159920,5,0,0:0:0:0:
408,289,160147,1,0,0:0:0:0:
393,201,160375,1,0,0:0:0:0:
453,35,160829,5,0,0:0:0:0:
393,100,161057,1,0,0:0:0:0:
478,121,161284,1,0,0:0:0:0:
304,84,161739,5,0,0:0:0:0:
217,68,161966,1,0,0:0:0:0:
131,91,162194,1,0,0:0:0:0:
15,224,162648,5,0,0:0:0:0:
100,202,162876,1,0,0:0:0:0:
44,133,163103,1,0,0:0:0:0:
178,252,163557,5,0,0:0:0:0:
265,263,163784,1,0,0:0:0:0:
350,238,164012,1,0,0:0:0:0:
483,353,164466,5,0,0:0:0:0:
458,267,164694,1,0,0:0:0:0:
397,330,164921,1,0,0:0:0:0:
503,187,165375,5,0,0:0:0:0:
496,98,165602,1,0,0:0:0:0:
449,22,165830,1,0,0:0:0:0:
277,65,166284,5,0,0:0:0:0:
359,97,166512,1,0,0:0:0:0:
348,9,166739,1,0,0:0:0:0:
202,96,167193,5,0,0:0:0:0:
113,91,167420,1,0,0:0:0:0:
39,41,167648,1,0,0:0:0:0:
158,170,168102,5,0,0:0:0:0:
108,243,168330,1,0,0:0:0:0:
66,165,168557,1,0,0:0:0:0:
217,252,169011,5,0,0:0:0:0:
278,188,169238,1,0,0:0:0:0:
365,174,169466,1,0,0:0:0:0:
483,14,169920,5,0,0:0:0:0:
392,56,170148,1,0,0:0:0:0:
468,117,170375,2,0,P|467:178|450:223,1,76.4999976654053
370,323,170829,6,0,L|383:223,1,76.4999976654053
264,384,171284,2,0,P|274:323|298:282,1,76.4999976654053
358,248,171738,1,0,0:0:0:0:
453,278,171966,1,0,0:0:0:0:
355,328,172193,1,0,0:0:0:0:
262,292,172420,1,0,0:0:0:0:
157,234,172648,6,0,B|58:251,1,76.4999976654053
13,346,173102,1,0,0:0:0:0:
112,346,173329,1,0,0:0:0:0:
170,220,173557,6,0,B|71:237,1,76.4999976654053
8,331,174011,1,0,0:0:0:0:
123,346,174238,1,0,0:0:0:0:
294,381,174466,6,0,P|269:325|265:277,1,76.4999976654053
264,203,174920,1,0,0:0:0:0:
301,102,175148,1,0,0:0:0:0:
226,25,175375,1,0,0:0:0:0:
279,117,175602,1,0,0:0:0:0:
389,48,175829,2,0,P|425:35|463:31,1,76.4999976654053
512,170,176284,6,0,L|503:253,1,76.4999976654053
492,352,176739,1,0,0:0:0:0:
424,269,176966,1,0,0:0:0:0:
293,330,177193,6,0,L|205:342,1,76.4999976654053
133,272,177648,1,0,0:0:0:0:
239,265,177875,1,0,0:0:0:0:
118,382,178102,6,0,P|81:372|49:351,1,76.4999976654053
38,244,178557,2,0,P|12:214|-1:179,1,76.4999976654053
0,48,179011,6,0,P|24:56|48:69,2,38.2499988327027
143,82,179466,1,0,0:0:0:0:
174,83,179579,1,0,0:0:0:0:
204,75,179693,1,0,0:0:0:0:
354,91,179920,6,0,P|388:77|419:54,1,76.4999976654053
298,24,180375,2,0,P|261:36|231:59,1,76.4999976654053
204,75,180716,1,0,0:0:0:0:
174,83,180829,5,0,0:0:0:0:
284,118,181057,1,0,0:0:0:0:
351,236,181284,1,0,0:0:0:0:
195,281,196284,6,0,P|159:256|117:184,1,118.999996368408
187,42,197193,2,0,P|169:72|147:91,1,59.4999981842042
103,156,197648,2,0,P|71:170|42:174,1,59.4999981842042
13,98,198102,5,0,0:0:0:0:
91,125,198329,1,0,0:0:0:0:
174,125,198557,1,0,0:0:0:0:
251,98,198784,1,0,0:0:0:0:
353,7,199011,6,0,P|335:37|313:56,1,59.4999981842042
290,176,199466,2,0,P|308:146|330:127,1,59.4999981842042
452,67,199920,6,0,P|471:96|478:124,1,59.4999981842042
326,129,200375,2,0,P|360:123|389:128,1,59.4999981842042
421,314,200829,2,0,P|429:272|480:205,1,118.999996368408
504,374,201739,5,0,0:0:0:0:
426,347,201966,1,0,0:0:0:0:
343,347,202194,1,0,0:0:0:0:
266,374,202421,1,0,0:0:0:0:
159,377,202648,6,0,P|177:347|199:328,1,59.4999981842042
222,208,203103,2,0,P|204:238|182:257,1,59.4999981842042
54,327,203557,6,0,P|111:340|158:376,1,118.999996368408
54,245,204466,2,0,P|35:215|28:187,1,59.4999981842042
84,130,204920,2,0,P|85:95|96:67,1,59.4999981842042
145,5,205375,5,0,0:0:0:0:
132,87,205602,1,0,0:0:0:0:
146,167,205830,1,0,0:0:0:0:
186,239,206057,1,0,0:0:0:0:
269,271,206284,2,0,L|232:216,1,63.7500024318696
191,330,206739,6,0,L|217:368,1,42.5
332,304,207193,6,0,L|279:220,1,85
119,333,207648,2,0,L|202:359,1,85
415,345,208102,6,0,L|458:312,1,42.5
484,163,208557,1,0,0:0:0:0:
478,132,208670,1,0,0:0:0:0:
465,103,208784,1,0,0:0:0:0:
442,80,208898,1,0,0:0:0:0:
408,56,209011,6,0,P|359:34|291:33,1,110.499994941712
162,172,209466,2,0,P|208:142|262:132,1,110.499994941712
456,173,209920,2,0,B|473:228|473:228|468:286,1,110.499994941712
297,383,210375,2,0,B|280:328|280:328|285:270,1,110.499994941712
287,253,210716,1,0,0:0:0:0:
290,231,210829,1,0,0:0:0:0:
401,65,211057,1,0,0:0:0:0:
217,140,211284,2,0,P|162:144|109:129,1,110.499994941712
303,83,211739,5,0,0:0:0:0:
285,191,211966,1,0,0:0:0:0:
199,120,212193,1,0,0:0:0:0:
396,139,212420,5,0,0:0:0:0:
271,249,212648,1,0,0:0:0:0:
105,248,212875,1,0,0:0:0:0:
216,125,213102,5,0,0:0:0:0:
302,158,213329,1,0,0:0:0:0:
348,317,213557,5,0,0:0:0:0:
216,216,213784,1,0,0:0:0:0:
230,51,214011,1,0,0:0:0:0:
388,0,214239,5,0,0:0:0:0:
413,10,214352,1,0,0:0:0:0:
437,22,214466,2,0,L|301:28,1,110.499994941712
184,87,214920,2,0,L|48:93,1,110.499994941712
227,28,215375,5,8,0:0:0:0:
213,136,215602,1,8,0:0:0:0:
125,68,215829,1,8,0:0:0:0:
287,32,216057,5,0,0:0:0:0:
390,160,216284,2,0,L|385:49,1,110.499994941712
313,199,216739,1,0,0:0:0:0:
237,361,216966,2,0,L|241:250,1,110.499994941712
390,160,217420,1,0,0:0:0:0:
391,190,217534,1,0,0:0:0:0:
393,221,217648,1,0,0:0:0:0:
256,315,217875,5,0,0:0:0:0:
139,197,218102,2,0,B|88:169|88:169|30:163,1,110.499994941712
135,297,218557,2,0,B|185:324|185:324|243:330,1,110.499994941712
363,221,219011,2,0,P|308:217|255:232,1,110.499994941712
367,354,219466,1,0,0:0:0:0:
481,234,219693,1,0,0:0:0:0:
476,206,219807,1,0,0:0:0:0:
471,178,219920,2,0,P|441:131|398:97,1,110.499994941712
235,68,220375,2,0,P|290:66|341:45,1,110.499994941712
179,9,220829,6,0,L|70:23,1,110.499994941712
2,175,221284,2,0,L|112:181,1,110.499994941712
227,302,221739,5,0,0:0:0:0:
68,351,221966,1,0,0:0:0:0:
37,201,222193,1,0,0:0:0:0:
196,157,222420,1,0,0:0:0:0:
319,267,222648,5,8,0:0:0:0:
247,349,222875,1,8,0:0:0:0:
211,243,223102,1,8,0:0:0:0:
203,222,223216,5,0,0:0:0:0:
196,201,223329,1,0,0:0:0:0:
190,179,223443,1,0,0:0:0:0:
184,157,223557,2,0,P|186:102|208:51,1,110.499994941712
43,52,224011,2,0,P|86:18|138:1,1,110.499994941712
298,47,224466,2,0,P|353:45|404:25,1,110.499994941712
297,152,224920,1,0,0:0:0:0:
441,233,225148,2,0,B|458:178|458:178|453:120,1,110.499994941712
338,244,225602,2,0,B|321:299|321:299|326:357,1,110.499994941712
182,267,226057,1,0,0:0:0:0:
172,263,226170,1,0,0:0:0:0:
163,259,226284,5,0,0:0:0:0:
63,305,226511,1,0,0:0:0:0:
155,368,226738,1,0,0:0:0:0:
303,276,226966,5,0,0:0:0:0:
143,230,227193,1,0,0:0:0:0:
8,327,227420,1,0,0:0:0:0:
173,346,227648,5,0,0:0:0:0:
234,270,227875,1,0,0:0:0:0:
221,104,228102,5,0,0:0:0:0:
114,231,228329,1,0,0:0:0:0:
179,384,228557,1,0,0:0:0:0:
181,356,228670,1,0,0:0:0:0:
172,329,228784,1,0,0:0:0:0:
46,220,229011,5,0,0:0:0:0:
130,236,229238,1,0,0:0:0:0:
240,254,229466,1,0,0:0:0:0:
353,331,229693,2,0,B|424:345|424:345|463:343,1,110.499994941712
338,231,230148,2,0,B|267:217|267:217|228:219,1,110.499994941712
78,149,230602,1,0,0:0:0:0:
106,141,230716,1,0,0:0:0:0:
146,128,230829,6,0,L|266:121,1,118.999996368408
446,181,231284,2,0,L|326:188,1,118.999996368408
155,105,231739,2,0,L|26:92,1,118.999996368408
215,27,232193,2,0,L|335:20,1,118.999996368408
506,101,232648,6,0,P|498:158|513:219,1,118.999996368408
315,194,233102,2,0,P|347:241|399:277,1,118.999996368408
216,336,233557,2,0,P|265:365|327:375,1,118.999996368408
506,316,234011,2,0,P|456:286|394:276,1,118.999996368408
210,318,234466,6,0,L|92:329,1,118.999996368408
4,175,234920,2,0,P|53:204|115:214,1,110.499994941712
219,87,235375,6,0,L|202:201,1,106.25
328,273,235829,2,0,B|322:189|322:189|347:225|346:267,1,140.25000428009
333,360,236284,5,0,0:0:0:0:
279,220,236625,1,0,0:0:0:0:
374,105,236966,1,0,0:0:0:0:
313,26,237193,5,0,0:0:0:0:
217,53,237420,1,0,0:0:0:0:
219,76,237533,1,0,0:0:0:0:
221,99,237648,1,0,0:0:0:0:
224,121,237761,1,0,0:0:0:0:
242,134,237875,6,0,L|231:190,1,38.2499988327027
210,252,238102,1,0,0:0:0:0:
63,278,238443,1,0,0:0:0:0:
0,142,238784,1,0,0:0:0:0:
67,69,239011,6,0,L|159:75,1,76.4999976654053
258,137,239466,2,0,L|350:143,1,76.4999976654053
490,117,239920,5,0,0:0:0:0:
351,171,240261,1,0,0:0:0:0:
217,103,240602,1,0,0:0:0:0:
121,130,240829,5,0,0:0:0:0:
128,229,241057,1,0,0:0:0:0:
144,247,241170,1,0,0:0:0:0:
159,264,241285,1,0,0:0:0:0:
173,280,241398,1,0,0:0:0:0:
170,302,241512,6,0,L|147:345,1,38.2499988327027
81,365,241739,1,0,0:0:0:0:
229,361,242079,1,0,0:0:0:0:
220,212,242420,1,0,0:0:0:0:
282,135,242647,6,0,L|361:125,1,76.4999976654053
208,220,243102,2,0,L|129:230,1,76.4999976654053
0,162,243557,5,0,0:0:0:0:
146,134,243898,1,0,0:0:0:0:
284,189,244239,1,0,0:0:0:0:
382,173,244466,5,0,0:0:0:0:
435,89,244693,1,0,0:0:0:0:
414,77,244806,1,0,0:0:0:0:
394,66,244921,1,0,0:0:0:0:
376,56,245034,1,0,0:0:0:0:
355,63,245148,6,0,L|308:63,1,38.2499988327027
238,61,245375,1,0,0:0:0:0:
360,146,245716,1,0,0:0:0:0:
488,70,246057,1,0,0:0:0:0:
470,167,246284,6,0,L|478:264,1,76.4999976654053
382,367,246739,2,0,L|390:270,1,76.4999976654053
307,199,247193,5,0,0:0:0:0:
204,307,247534,1,0,0:0:0:0:
56,286,247875,1,0,0:0:0:0:
9,198,248102,5,0,0:0:0:0:
55,110,248329,1,0,0:0:0:0:
76,98,248442,1,0,0:0:0:0:
96,87,248557,1,0,0:0:0:0:
114,77,248670,1,0,0:0:0:0:
135,84,248784,6,0,L|182:84,1,38.2499988327027
252,82,249011,1,0,0:0:0:0:
310,219,249352,1,0,0:0:0:0:
230,345,249693,1,0,0:0:0:0:
144,294,249920,6,0,P|180:307|218:307,1,76.4999976654053
435,306,250375,2,0,L|357:317,1,76.4999976654053
