osu file format v14

[General]
AudioFilename: audio.mp3
AudioLeadIn: 0
PreviewTime: 57875
Countdown: 0
SampleSet: Soft
StackLeniency: 0.7
Mode: 0
LetterboxInBreaks: 1
WidescreenStoryboard: 1

[Editor]
Bookmarks: 1739,8784,23557,27193,30829,38102,49011,50829,58102,61511,63329,85375,89011,92648,96284,99920,114466,129011,158102,170829,178102,181739,196284,207193,209011,236284,250829
DistanceSpacing: 1.5
BeatDivisor: 4
GridSize: 4
TimelineZoom: 3.199999

[Metadata]
Title:SAI
TitleUnicode:サイ
Artist:DECO*27/Ef
ArtistUnicode:DECO*27/Ef
Creator:Kongou Hikari
Version:Please tell me.
Source:Voltage of Imagination III
Tags:空想活劇·叁
BeatmapID:1315057
BeatmapSetID:623954

[Difficulty]
HPDrainRate:6
CircleSize:4.4
OverallDifficulty:7
ApproachRate:8
SliderMultiplier:1.7
SliderTickRate:1

[Events]
//Background and Video events
0,0,"60006073_p0_master1200.jpg",0,0
//Break Periods
2,100120,113414
2,181484,195414
//Storyboard Layer 0 (Background)
//Storyboard Layer 1 (Fail)
//Storyboard Layer 2 (Pass)
//Storyboard Layer 3 (Foreground)
//Storyboard Sound Samples

[TimingPoints]
1739,454.545454545455,4,2,2,50,1,0
1739,-133.333333333333,4,2,2,50,0,0
9011,-125,4,2,2,50,0,0
16284,-125,4,2,2,50,0,0
22648,-166.666666666667,4,2,2,50,0,0
23557,-100,4,2,2,50,0,0
34466,-100,4,2,2,50,0,0
38102,-125,4,2,2,50,0,0
50829,-111.111111111111,4,2,2,50,0,0
58102,-83.3333333333333,4,2,2,50,0,1
84466,-71.4285714285714,4,2,2,50,0,1
84920,-133.333333333333,4,2,2,50,0,1
85375,-100,4,2,2,50,0,0
99920,-100,4,2,2,50,0,0
114466,-133.333333333333,4,2,2,50,0,0
129011,-125,4,2,2,50,0,0
130829,-102.38,4,2,2,50,0,0
132648,-102.38,4,2,2,50,0,0
134466,-100,4,2,2,50,0,0
136284,-125,4,2,2,50,0,0
143557,-117.647058823529,4,2,2,50,0,0
158102,-125,4,2,2,50,0,0
169920,-111.111111111111,4,2,2,50,0,0
179011,-111.111111111111,4,2,2,50,0,0
179920,-111.111111111111,4,2,2,50,0,0
181284,-100,4,2,2,50,0,0
196284,-142.857142857143,4,2,2,50,0,0
206284,-133.333333333333,4,2,2,50,0,0
206739,-200,4,2,2,50,0,0
207193,-100,4,2,2,50,0,0
208102,-200,4,2,2,50,0,0
208557,-100,4,2,2,50,0,0
209011,-76.9230769230769,4,2,2,50,0,1
229011,-76.9230769230769,4,2,2,50,0,1
230829,-71.4285714285714,4,2,2,50,0,1
234920,-76.9230769230769,4,2,2,50,0,1
235375,-80,4,2,2,50,0,1
235829,-90.9090909090909,4,2,2,50,0,1
236284,-111.111111111111,4,2,2,50,0,0

[HitObjects]
144,328,1739,6,0,L|173:260,1,63.7500024318696
108,224,2193,2,0,L|144:92,2,127.500004863739
84,296,3329,1,0,0:0:0:0:
193,198,3557,6,0,L|269:198,1,63.7500024318696
263,121,4011,2,0,L|400:105,2,127.500004863739
404,180,5375,6,0,L|395:258,1,63.7500024318696
323,221,5829,2,0,L|328:80,2,127.500004863739
321,297,6966,1,0,0:0:0:0:
214,202,7193,6,0,L|141:200,1,63.7500024318696
140,124,7648,2,0,L|281:110,2,127.500004863739
447,113,9011,6,0,L|366:107,1,68
311,178,9466,2,0,L|227:183,1,68
159,95,9920,1,0,0:0:0:0:
233,104,10148,1,0,0:0:0:0:
146,85,10375,1,0,0:0:0:0:
220,94,10603,1,0,0:0:0:0:
144,195,10829,6,0,L|156:276,1,68
89,357,11284,2,0,L|66:278,1,68
167,345,11739,2,0,L|239:334,1,68
358,285,12193,2,0,L|290:275,1,68
447,383,12648,6,0,L|455:315,1,68
424,225,13102,2,0,L|423:158,1,68
498,48,13557,1,0,0:0:0:0:
492,122,13784,1,0,0:0:0:0:
489,29,14011,1,0,0:0:0:0:
483,103,14238,1,0,0:0:0:0:
345,196,14466,6,0,P|313:209|272:200,1,68
94,228,14920,2,0,P|122:191|149:182,1,68
186,9,15375,2,0,P|186:50|190:76,1,68
163,246,15829,2,0,P|157:211|140:182,1,68
0,75,16284,6,0,L|77:91,2,68
52,185,16966,1,0,0:0:0:0:
140,183,17193,2,0,L|238:180,1,68
347,216,17648,1,0,0:0:0:0:
265,248,17875,1,0,0:0:0:0:
318,100,18102,6,0,L|339:31,2,68
208,20,18784,1,0,0:0:0:0:
207,112,19011,2,0,L|207:187,1,68
151,288,19466,1,0,0:0:0:0:
184,369,19693,1,0,0:0:0:0:
20,370,19920,6,0,P|53:370|83:355,1,68
208,254,20375,2,0,B|161:274|161:274|142:298,1,68
348,364,20829,6,0,P|355:331|339:301,1,68
208,254,21284,2,0,P|236:270|267:257,1,68
92,218,21739,6,0,P|69:187|41:177,1,68
213,219,22193,2,0,B|237:248|237:248|270:258,1,68
444,176,22648,2,0,L|320:189,1,101.999996887207
89,343,23557,6,0,B|199:330,1,85
266,257,24011,2,0,L|180:253,1,85
50,240,24466,1,0,0:0:0:0:
77,132,24693,1,0,0:0:0:0:
28,247,24920,1,0,0:0:0:0:
55,139,25147,1,0,0:0:0:0:
158,0,25375,6,0,L|167:85,1,85
248,183,25829,2,0,B|260:86,1,85
390,56,26284,1,0,0:0:0:0:
288,12,26511,1,0,0:0:0:0:
399,60,26739,1,0,0:0:0:0:
353,245,27193,6,0,L|343:161,1,85
512,214,27648,2,0,L|424:191,1,85
308,340,28102,2,0,L|408:325,1,85
243,234,28557,2,0,L|147:223,1,85
26,356,29011,6,0,L|-2:253,1,85
158,224,29466,2,0,L|142:326,1,85
69,179,29920,1,0,0:0:0:0:
173,143,30148,1,0,0:0:0:0:
58,183,30375,1,0,0:0:0:0:
211,24,30829,6,0,P|173:43|131:43,2,85
320,39,31511,1,0,0:0:0:0:
291,213,31739,2,0,L|261:122,1,85
335,333,32193,1,0,0:0:0:0:
105,289,32648,6,0,P|96:330|62:355,2,85
81,181,33329,1,0,0:0:0:0:
291,213,33557,2,0,B|206:217,1,85
49,104,34011,2,0,P|56:146|80:180,1,85
205,216,34466,6,0,P|244:202|283:218,1,85
338,313,34920,2,0,P|279:325|252:305,1,85
155,384,35375,2,0,B|177:355|177:355|174:295,1,85
210,134,35829,2,0,B|197:177|197:177|206:222,1,85
95,320,36284,6,0,P|148:299|177:307,1,85,0|0,0:3|0:3,0:3:0:0:
338,313,36739,2,0,P|279:325|252:305,1,85
501,342,37193,2,0,L|410:351,2,85
429,41,38102,5,0,0:0:0:0:
352,6,38329,1,0,0:0:0:0:
361,87,38557,1,0,0:0:0:0:
288,170,39011,5,0,0:0:0:0:
235,64,39239,1,0,0:0:0:0:
125,105,39466,1,0,0:0:0:0:
67,48,39920,5,0,0:0:0:0:
46,129,40147,1,0,0:0:0:0:
125,105,40375,1,0,0:0:0:0:
197,213,40829,5,0,0:0:0:0:
77,222,41057,1,0,0:0:0:0:
77,340,41284,1,0,0:0:0:0:
157,361,41739,5,0,0:0:0:0:
131,279,41966,1,0,0:0:0:0:
77,340,42194,1,0,0:0:0:0:
269,354,42648,5,0,0:0:0:0:
287,236,42876,1,0,0:0:0:0:
404,241,43103,1,0,0:0:0:0:
472,287,43557,5,0,0:0:0:0:
395,322,43784,1,0,0:0:0:0:
404,241,44012,1,0,0:0:0:0:
362,130,44466,5,0,0:0:0:0:
479,148,44694,1,0,0:0:0:0:
511,34,44921,1,0,0:0:0:0:
362,130,45375,5,0,0:0:0:0:
340,51,45603,1,0,0:0:0:0:
421,73,45830,1,0,0:0:0:0:
276,124,46284,5,0,0:0:0:0:
287,241,46512,1,0,0:0:0:0:
172,265,46739,1,0,0:0:0:0:
67,210,47193,5,0,0:0:0:0:
142,172,47420,1,0,0:0:0:0:
74,128,47648,1,0,0:0:0:0:
166,83,48102,5,0,0:0:0:0:
276,124,48329,1,0,0:0:0:0:
329,18,48557,1,0,0:0:0:0:
276,124,49011,5,0,0:0:0:0:
333,184,49238,1,0,0:0:0:0:
356,106,49466,1,0,0:0:0:0:
356,291,49920,5,0,0:0:0:0:
251,236,50148,1,0,0:0:0:0:
186,334,50375,1,0,0:0:0:0:
6,255,50829,6,0,B|87:265,1,76.4999976654053
109,360,51284,1,0,0:0:0:0:
217,323,51511,2,0,L|197:247,1,76.4999976654053
296,263,51966,1,0,0:0:0:0:
105,191,52193,2,0,L|75:284,1,76.4999976654053
23,148,52648,6,0,P|24:100|0:68,1,76.4999976654053
120,19,53102,1,0,0:0:0:0:
154,112,53329,1,0,0:0:0:0:
268,87,53557,2,0,P|314:74|336:41,1,76.4999976654053
469,79,54011,1,0,0:0:0:0:
380,160,54238,1,0,0:0:0:0:
371,172,54352,1,0,0:0:0:0:
360,183,54466,6,0,L|383:268,1,76.4999976654053
274,381,54920,1,0,0:0:0:0:
279,255,55148,1,0,0:0:0:0:
453,244,55375,1,0,0:0:0:0:
461,264,55489,1,0,0:0:0:0:
470,284,55602,1,0,0:0:0:0:
470,284,55829,5,0,0:0:0:0:
332,322,56057,1,0,0:0:0:0:
205,287,56284,5,0,0:0:0:0:
205,287,56511,1,0,0:0:0:0:
45,267,56739,1,0,0:0:0:0:
122,250,56966,1,0,0:0:0:0:
246,380,57193,1,0,0:0:0:0:
100,328,57420,1,0,0:0:0:0:
281,246,57648,1,0,0:0:0:0:
482,297,58102,6,0,P|433:314|415:367,1,101.999996887207
420,204,58557,2,0,L|471:93,1,101.999996887207
313,76,59011,2,0,B|324:66|324:66|272:80|218:42,1,101.999996887207
90,20,59466,2,0,P|105:63|83:119,1,101.999996887207
64,124,59807,1,0,0:0:0:0:
40,132,59920,1,0,0:0:0:0:
161,266,60148,1,0,0:0:0:0:
0,246,60375,2,0,B|62:228|62:228|93:205,1,101.999996887207
235,130,60829,5,0,0:0:0:0:
171,183,61057,1,0,0:0:0:0:
248,210,61284,1,0,0:0:0:0:
198,377,61511,5,0,0:0:0:0:
187,262,61739,1,0,0:0:0:0:
334,306,61966,1,0,0:0:0:0:
86,384,62193,5,0,0:0:0:0:
22,329,62420,1,0,0:0:0:0:
171,183,62648,5,0,0:0:0:0:
266,340,62875,1,0,0:0:0:0:
105,296,63102,1,0,0:0:0:0:
377,184,63329,5,0,0:0:0:0:
375,210,63443,1,0,0:0:0:0:
372,236,63557,2,0,L|409:338,1,101.999996887207
428,375,64011,2,0,B|434:314|434:314|418:276,1,101.999996887207
388,112,64466,5,0,0:0:0:0:
466,136,64693,1,0,0:0:0:0:
450,56,64920,2,0,B|444:117|444:117|460:155,1,101.999996887207
373,31,65375,6,0,P|330:2|274:3,1,101.999996887207
134,46,65829,2,0,L|150:158,1,101.999996887207
14,221,66284,2,0,B|17:270|-3:302|-3:302|21:292,1,101.999996887207
102,257,66625,1,0,0:0:0:0:
137,254,66739,2,0,P|175:260|182:350,1,101.999996887207
384,263,67193,2,0,P|384:200|422:171,1,101.999996887207
228,214,67648,2,0,P|168:249|131:253,1,101.999996887207
292,287,68102,5,0,0:0:0:0:
352,341,68329,1,0,0:0:0:0:
273,364,68557,1,0,0:0:0:0:
473,243,68784,5,0,0:0:0:0:
352,341,69011,2,0,P|404:333|458:366,1,101.999996887207
273,364,69466,1,0,0:0:0:0:
122,337,69693,2,0,P|189:332|221:299,1,101.999996887207
264,165,70148,1,0,0:0:0:0:
174,41,70375,2,0,B|70:27,1,101.999996887207
95,195,70829,5,0,0:0:0:0:
246,168,71057,1,0,0:0:0:0:
264,165,71284,1,0,0:0:0:0:
349,38,71511,1,0,0:0:0:0:
430,168,71739,5,0,0:0:0:0:
508,192,71966,1,0,0:0:0:0:
492,112,72193,2,0,B|486:173|486:173|502:211,1,101.999996887207
421,341,72648,6,0,B|367:355|331:345|331:345|354:365,1,101.999996887207
197,295,73102,2,0,B|145:317|108:313|108:313|134:329,1,101.999996887207
35,189,73557,2,0,P|99:224|140:222,1,101.999996887207
176,65,74011,1,0,0:0:0:0:
320,116,74239,1,0,0:0:0:0:
295,122,74352,1,0,0:0:0:0:
271,128,74466,1,0,0:0:0:0:
406,57,74693,1,0,0:0:0:0:
506,178,74920,2,0,L|391:176,1,101.999996887207
244,212,75375,5,0,0:0:0:0:
237,291,75602,1,0,0:0:0:0:
312,256,75829,1,0,0:0:0:0:
109,227,76057,5,0,0:0:0:0:
156,372,76284,1,0,0:0:0:0:
304,337,76511,1,0,0:0:0:0:
132,301,76739,5,0,0:0:0:0:
46,277,76966,1,0,0:0:0:0:
244,212,77193,5,0,0:0:0:0:
375,192,77420,1,0,0:0:0:0:
460,51,77648,1,0,0:0:0:0:
303,64,77875,1,0,0:0:0:0:
278,57,77989,1,0,0:0:0:0:
253,49,78102,6,0,P|196:53|151:41,1,101.999996887207
110,24,78557,2,0,B|149:83|149:83|154:125,1,101.999996887207
16,197,79011,5,0,0:0:0:0:
90,164,79239,1,0,0:0:0:0:
27,115,79466,1,0,0:0:0:0:
57,290,79693,6,0,B|48:219|48:219|63:178,1,101.999996887207
133,324,80148,1,0,0:0:0:0:
258,212,80375,2,0,P|204:207|155:243,1,101.999996887207
284,325,80829,2,0,P|328:320|368:277,1,101.999996887207
382,259,81170,1,0,0:0:0:0:
397,239,81284,2,0,L|409:344,1,101.999996887207
502,218,81739,6,0,L|481:104,1,101.999996887207
352,27,82193,1,0,0:0:0:0:
352,27,82420,5,0,0:0:0:0:
362,103,82648,1,0,0:0:0:0:
422,56,82875,1,0,0:0:0:0:
116,65,83329,5,0,0:0:0:0:
251,136,83557,2,0,B|237:72|237:72|212:41,1,101.999996887207
97,161,84011,1,0,0:0:0:0:
215,278,84239,1,0,0:0:0:0:
231,264,84352,1,0,0:0:0:0:
243,246,84466,2,0,P|147:235|96:294,1,178.499994552612
0,306,84920,2,0,L|101:322,1,95.6250036478044
234,366,85375,5,0,0:0:0:0:
418,317,85716,1,0,0:0:0:0:
449,320,86057,1,0,0:0:0:0:
339,308,86284,5,0,0:0:0:0:
429,198,86511,1,0,0:0:0:0:
461,204,86625,1,0,0:0:0:0:
489,210,86739,1,0,0:0:0:0:
302,227,86966,6,0,L|301:165,1,42.5
338,132,87193,2,0,P|323:153|182:155,1,170
243,46,87875,1,0,0:0:0:0:
82,31,88102,6,0,P|111:72|122:121,1,85
53,277,88557,2,0,P|70:237|100:207,1,85
85,347,89011,5,0,0:0:0:0:
33,162,89352,1,0,0:0:0:0:
37,137,89693,1,0,0:0:0:0:
24,246,89920,5,0,0:0:0:0:
118,128,90147,1,0,0:0:0:0:
120,95,90261,1,0,0:0:0:0:
119,65,90375,1,0,0:0:0:0:
205,133,90602,6,0,L|189:193,1,42.5
146,216,90829,2,0,P|164:199|302:234,1,170
216,300,91511,1,0,0:0:0:0:
370,357,91739,6,0,P|349:310|350:260,1,85
347,144,92193,2,0,P|371:109|407:87,1,85
278,18,92648,5,0,0:0:0:0:
94,67,92989,1,0,0:0:0:0:
63,64,93330,1,0,0:0:0:0:
173,76,93557,5,0,0:0:0:0:
82,185,93784,1,0,0:0:0:0:
50,179,93898,1,0,0:0:0:0:
22,173,94012,1,0,0:0:0:0:
210,157,94239,6,0,L|211:219,1,42.5
174,252,94466,2,0,P|189:231|330:229,1,170
269,338,95148,1,0,0:0:0:0:
430,353,95375,6,0,P|400:311|389:262,1,85
459,107,95830,2,0,P|441:146|411:176,1,85
427,37,96284,5,0,0:0:0:0:
479,222,96625,1,0,0:0:0:0:
475,247,96966,1,0,0:0:0:0:
488,138,97193,5,0,0:0:0:0:
394,256,97420,1,0,0:0:0:0:
392,289,97534,1,0,0:0:0:0:
393,319,97648,1,0,0:0:0:0:
307,251,97875,6,0,L|323:191,1,42.5
366,168,98102,2,0,P|348:185|210:150,1,170
296,84,98784,5,0,0:0:0:0:
142,27,99012,6,0,P|163:74|162:124,1,85
165,240,99466,2,0,B|158:292|116:319|66:318|66:318|91:296|103:269,1,170
280,352,114239,5,0,0:0:0:0:
379,357,114466,2,0,B|434:353|434:353|461:361,1,63.7500024318696
490,206,115148,1,0,0:0:0:0:
407,209,115375,1,0,0:0:0:0:
324,211,115602,1,0,0:0:0:0:
256,259,115829,2,0,P|215:242|168:241,1,63.7500024318696
63,193,116284,6,0,L|135:199,1,63.7500024318696
183,259,116739,2,0,P|141:293|114:301,1,63.7500024318696
34,342,117193,2,0,L|46:269,1,63.7500024318696
10,125,117875,5,0,0:0:0:0:
73,72,118102,2,0,B|113:71|140:85|140:85|176:82|214:96,1,127.500004863739
270,131,118784,1,0,0:0:0:0:
352,125,119011,1,0,0:0:0:0:
434,117,119239,1,0,0:0:0:0:
267,47,119693,5,0,0:0:0:0:
270,131,119920,2,0,B|346:139,1,63.7500024318696
406,73,120375,2,0,B|336:59,1,63.7500024318696
262,45,120829,5,0,0:0:0:0:
165,59,121057,1,0,0:0:0:0:
146,65,121170,1,0,0:0:0:0:
125,71,121284,1,0,0:0:0:0:
104,77,121398,1,0,0:0:0:0:
84,83,121511,1,0,0:0:0:0:
20,6,121739,6,0,P|33:40|39:76,2,63.7500024318696
121,150,122648,1,0,0:0:0:0:
83,230,122875,1,0,0:0:0:0:
108,315,123102,2,0,L|44:322,1,63.7500024318696
157,376,123557,6,0,P|199:378|227:387,2,63.7500024318696
203,299,124239,5,0,0:0:0:0:
291,312,124466,2,0,P|336:316|369:310,1,63.7500024318696
442,327,124920,2,0,P|403:328|379:346,1,63.7500024318696
459,244,125375,6,0,L|456:170,1,63.7500024318696
405,107,125829,2,0,P|390:64|399:26,1,63.7500024318696
296,63,126284,2,0,L|232:51,1,63.7500024318696
81,57,127193,6,0,L|152:75,1,63.7500024318696
233,51,127648,2,0,P|275:61|302:90,1,63.7500024318696
331,141,128102,1,0,0:0:0:0:
280,233,128329,5,0,0:0:0:0:
264,229,128443,1,0,0:0:0:0:
248,224,128557,1,0,0:0:0:0:
232,220,128670,1,0,0:0:0:0:
212,215,128784,1,0,0:0:0:0:
192,210,128898,1,0,0:0:0:0:
172,204,129011,6,0,P|104:124|186:162,1,272
241,314,130829,6,0,B|298:355|356:328|356:328|267:274|255:210|290:140,1,332.096121431229
400,146,131966,5,0,0:0:0:0:
388,141,132079,1,0,0:0:0:0:
376,133,132193,1,0,0:0:0:0:
368,121,132307,1,0,0:0:0:0:
364,109,132420,1,0,0:0:0:0:
468,39,132648,6,0,B|425:137|425:137|437:149|437:149|452:170|461:211|441:238|419:250|386:256|366:246|339:214|360:176|378:179,1,332.096121431229
275,91,134466,6,0,B|292:105|292:105|314:110|332:92|332:92|344:66|330:44|330:44|314:23|273:16|273:16|246:19|216:41|216:41|194:67|201:106|201:106|218:136,1,340
385,193,135602,5,0,0:0:0:0:
397,205,135716,1,0,0:0:0:0:
405,219,135829,1,0,0:0:0:0:
409,235,135943,1,0,0:0:0:0:
410,252,136057,1,0,0:0:0:0:
314,262,136284,6,0,L|232:268,1,68
171,299,136739,2,0,L|165:217,1,68
94,128,137193,2,0,L|101:209,1,68
172,157,137648,2,0,L|253:150,1,68
272,19,138102,6,0,L|266:101,1,68
311,144,138557,2,0,L|305:226,1,68
300,289,139011,1,0,0:0:0:0:
339,356,139239,1,0,0:0:0:0:
340,339,139352,1,0,0:0:0:0:
341,322,139466,1,0,0:0:0:0:
343,305,139579,1,0,0:0:0:0:
344,289,139693,1,0,0:0:0:0:
241,220,139920,6,0,L|235:138,1,68
308,141,140375,2,0,L|302:59,1,68
263,5,140829,2,0,L|330:1,1,68
376,64,141284,2,0,L|443:60,1,68
380,138,141739,6,0,L|374:220,1,68
305,203,142194,2,0,L|299:285,1,68
240,319,142648,1,0,0:0:0:0:
176,361,142875,1,0,0:0:0:0:
175,345,142989,1,0,0:0:0:0:
174,328,143102,1,0,0:0:0:0:
172,311,143216,1,0,0:0:0:0:
172,293,143329,1,0,0:0:0:0:
29,292,143557,6,0,L|115:285,1,72.2500013780594
139,220,144011,2,0,L|182:216,2,36.1250006890297
66,219,144466,2,0,L|60:147,1,72.2500013780594
36,79,144920,2,0,L|0:81,2,36.1250006890297
173,73,145375,6,0,L|179:159,1,72.2500013780594
245,183,145829,1,0,0:0:0:0:
246,201,145942,1,0,0:0:0:0:
247,219,146056,1,0,0:0:0:0:
343,116,146284,5,0,0:0:0:0:
347,194,146511,1,0,0:0:0:0:
349,212,146625,1,0,0:0:0:0:
350,230,146739,1,0,0:0:0:0:
351,248,146852,1,0,0:0:0:0:
353,266,146966,1,0,0:0:0:0:
453,44,147193,6,0,L|366:50,1,72.2500013780594
343,111,147648,2,0,L|299:114,2,36.1250006890297
416,117,148102,2,0,L|421:188,1,72.2500013780594
446,257,148557,2,0,L|482:254,2,36.1250006890297
344,296,149011,6,0,L|337:209,1,72.2500013780594
272,186,149466,1,0,0:0:0:0:
270,168,149579,1,0,0:0:0:0:
269,150,149693,1,0,0:0:0:0:
170,107,149920,1,0,0:0:0:0:
114,153,150148,1,0,0:0:0:0:
96,155,150262,1,0,0:0:0:0:
78,156,150375,1,0,0:0:0:0:
60,157,150489,1,0,0:0:0:0:
42,159,150603,1,0,0:0:0:0:
15,281,150829,6,0,L|87:275,1,72.2500013780594
154,302,151284,1,0,0:0:0:0:
172,300,151397,1,0,0:0:0:0:
190,299,151511,1,0,0:0:0:0:
288,324,151739,2,0,L|294:251,1,72.2500013780594
300,181,152193,1,0,0:0:0:0:
318,179,152306,1,0,0:0:0:0:
336,178,152420,1,0,0:0:0:0:
439,108,152648,6,0,L|365:106,1,72.2500013780594
295,100,153102,1,0,0:0:0:0:
276,99,153216,1,0,0:0:0:0:
258,99,153329,1,0,0:0:0:0:
182,36,153557,5,0,0:0:0:0:
125,108,153784,1,0,0:0:0:0:
107,109,153898,1,0,0:0:0:0:
89,111,154011,1,0,0:0:0:0:
71,112,154125,1,0,0:0:0:0:
53,114,154238,1,0,0:0:0:0:
10,210,154466,6,0,L|82:208,1,72.2500013780594
124,267,154920,1,0,0:0:0:0:
142,266,155034,1,0,0:0:0:0:
160,266,155148,1,0,0:0:0:0:
262,176,155375,2,0,L|257:248,1,72.2500013780594
331,289,155829,1,0,0:0:0:0:
333,307,155943,1,0,0:0:0:0:
334,325,156057,1,0,0:0:0:0:
476,212,156284,6,0,L|403:217,1,72.2500013780594
329,135,156739,1,0,0:0:0:0:
347,133,156853,1,0,0:0:0:0:
365,132,156967,1,0,0:0:0:0:
219,73,157193,1,0,0:0:0:0:
197,74,157307,1,0,0:0:0:0:
175,76,157420,1,0,0:0:0:0:
153,77,157534,1,0,0:0:0:0:
132,80,157648,1,0,0:0:0:0:
110,81,157761,1,0,0:0:0:0:
88,83,157875,1,0,0:0:0:0:
7,255,158102,5,0,0:0:0:0:
73,307,158329,1,0,0:0:0:0:
84,226,158557,1,0,0:0:0:0:
175,163,159011,5,0,0:0:0:0:
200,279,159239,1,0,0:0:0:0:
317,266,159466,1,0,0:0:0:0:
336,346,159920,5,0,0:0:0:0:
396,288,160147,1,0,0:0:0:0:
317,266,160375,1,0,0:0:0:0:
359,187,160829,5,0,0:0:0:0:
479,186,161057,1,0,0:0:0:0:
487,68,161284,1,0,0:0:0:0:
413,33,161739,5,0,0:0:0:0:
422,118,161966,1,0,0:0:0:0:
487,68,162194,1,0,0:0:0:0:
324,5,162648,5,0,0:0:0:0:
283,117,162876,1,0,0:0:0:0:
169,90,163103,1,0,0:0:0:0:
112,32,163557,5,0,0:0:0:0:
194,12,163784,1,0,0:0:0:0:
169,90,164012,1,0,0:0:0:0:
169,187,164466,5,0,0:0:0:0:
57,147,164694,1,0,0:0:0:0:
5,252,164921,1,0,0:0:0:0:
169,187,165375,5,0,0:0:0:0:
175,268,165603,1,0,0:0:0:0:
100,231,165830,1,0,0:0:0:0:
249,348,166284,5,0,0:0:0:0:
260,231,166512,1,0,0:0:0:0:
377,229,166739,1,0,0:0:0:0:
400,150,167193,5,0,0:0:0:0:
319,172,167420,1,0,0:0:0:0:
377,229,167648,1,0,0:0:0:0:
395,313,168102,5,0,0:0:0:0:
282,275,168329,1,0,0:0:0:0:
233,383,168557,1,0,0:0:0:0:
181,300,169011,5,0,0:0:0:0:
136,230,169238,1,0,0:0:0:0:
99,302,169466,1,0,0:0:0:0:
37,200,169920,5,0,0:0:0:0:
111,108,170148,1,0,0:0:0:0:
27,25,170375,2,0,P|68:67|107:73,1,76.4999976654053
239,19,170829,6,0,B|179:33|179:33|162:54,1,76.4999976654053
317,115,171284,2,0,P|357:109|398:83,1,76.4999976654053
484,45,171738,1,0,0:0:0:0:
379,18,171966,1,0,0:0:0:0:
455,129,172193,2,0,L|453:217,1,76.4999976654053
384,287,172648,6,0,B|395:313|395:313|384:377,1,76.4999976654053
495,307,173102,1,0,0:0:0:0:
453,205,173329,1,0,0:0:0:0:
347,186,173557,6,0,P|307:210|268:208,1,76.4999976654053
178,146,174011,1,0,0:0:0:0:
210,43,174239,1,0,0:0:0:0:
328,53,174466,6,0,P|319:89|290:114,1,76.4999976654053
178,146,174920,1,0,0:0:0:0:
113,59,175148,2,0,L|210:45,1,76.4999976654053
328,53,175602,1,0,0:0:0:0:
255,205,175829,2,0,P|264:162|302:134,1,76.4999976654053
399,164,176284,6,0,P|365:192|329:205,1,76.4999976654053
395,301,176739,2,0,P|424:324|439:359,1,76.4999976654053
293,330,177193,6,0,L|205:342,1,76.4999976654053
120,277,177648,1,0,0:0:0:0:
229,243,177875,1,0,0:0:0:0:
157,384,178102,6,0,P|187:361|209:330,1,76.4999976654053
234,217,178557,2,0,B|237:185|237:185|223:136,1,76.4999976654053
181,50,179011,6,0,L|223:46,2,38.2499988327027
310,89,179466,1,0,0:0:0:0:
310,89,179579,1,0,0:0:0:0:
310,89,179693,1,0,0:0:0:0:
345,213,179920,6,0,B|387:230|387:230|427:231,1,76.4999976654053
496,141,180375,2,0,P|456:128|415:141,1,76.4999976654053
396,146,180716,5,0,0:0:0:0:
367,139,180829,1,0,0:0:0:0:
225,142,181057,1,0,0:0:0:0:
154,55,181284,1,0,0:0:0:0:
154,111,196284,6,0,B|119:123|119:123|41:100,1,118.999996368408
199,40,197193,2,0,L|272:20,1,59.4999981842042
370,72,197648,2,0,L|298:80,1,59.4999981842042
293,166,198102,5,0,0:0:0:0:
358,226,198329,1,0,0:0:0:0:
425,284,198557,1,0,0:0:0:0:
395,368,198784,1,0,0:0:0:0:
350,254,199011,6,0,L|288:259,1,59.4999981842042
197,200,199466,2,0,L|255:181,1,59.4999981842042
362,171,199920,6,0,P|345:201|311:219,1,59.4999981842042
230,324,200375,2,0,P|232:288|248:262,1,59.4999981842042
101,266,200829,2,0,B|134:296|134:296|148:377,1,118.999996368408
13,249,201739,5,0,0:0:0:0:
100,231,201966,1,0,0:0:0:0:
187,210,202194,1,0,0:0:0:0:
250,147,202421,1,0,0:0:0:0:
307,78,202648,6,0,L|248:89,1,59.4999981842042
166,53,203102,2,0,L|107:64,1,59.4999981842042
14,146,203557,6,0,B|57:205|57:205|-2:220,1,118.999996368408
158,319,204466,2,0,L|85:328,1,59.4999981842042
78,239,204920,2,0,L|5:258,1,59.4999981842042
56,335,205375,5,0,0:0:0:0:
145,335,205602,1,0,0:0:0:0:
234,332,205830,1,0,0:0:0:0:
312,290,206057,1,0,0:0:0:0:
425,302,206284,2,0,L|388:247,1,63.7500024318696
210,296,206739,6,0,L|236:334,1,42.5
403,363,207193,6,0,L|394:274,1,85
252,212,207648,2,0,L|240:318,1,85
81,330,208102,6,0,L|72:273,1,42.5
132,113,208557,1,0,0:0:0:0:
147,84,208670,1,0,0:0:0:0:
173,66,208784,1,0,0:0:0:0:
203,57,208898,1,0,0:0:0:0:
233,66,209011,6,0,B|194:38|147:48|147:48|168:23,1,110.499994941712
326,32,209466,2,0,P|277:50|253:114,1,110.499994941712
132,212,209920,2,0,P|151:161|131:112,1,110.499994941712
4,4,210375,2,0,L|25:113,1,110.499994941712
31,140,210716,1,0,0:0:0:0:
38,167,210829,5,0,0:0:0:0:
1,336,211057,1,0,0:0:0:0:
155,297,211284,2,0,P|101:300|62:263,1,110.499994941712
115,198,211625,1,0,0:0:0:0:
129,189,211739,2,0,L|245:193,1,110.499994941712
402,163,212193,1,0,0:0:0:0:
229,59,212420,5,0,0:0:0:0:
271,219,212648,1,0,0:0:0:0:
105,206,212875,1,0,0:0:0:0:
117,0,213102,5,0,0:0:0:0:
165,90,213329,1,0,0:0:0:0:
338,5,213557,5,0,0:0:0:0:
273,136,213784,1,0,0:0:0:0:
91,125,214011,1,0,0:0:0:0:
281,25,214239,5,0,0:0:0:0:
296,43,214352,1,0,0:0:0:0:
314,63,214466,2,0,L|431:50,1,110.499994941712
498,28,214920,2,0,B|458:34|458:34|417:117,1,110.499994941712
500,246,215375,5,0,0:0:0:0:
505,156,215602,1,0,0:0:0:0:
424,194,215829,1,0,0:0:0:0:
487,347,216057,5,0,0:0:0:0:
324,376,216284,2,0,P|276:349|189:360,1,110.499994941712
390,302,216739,1,0,0:0:0:0:
229,262,216966,2,0,B|174:260|174:260|116:276,1,110.499994941712
4,384,217420,1,0,0:0:0:0:
34,375,217534,1,0,0:0:0:0:
64,366,217648,1,0,0:0:0:0:
64,200,217875,5,0,0:0:0:0:
145,56,218102,2,0,B|166:129|166:129|153:182,1,110.499994941712
18,71,218557,2,0,P|66:96|120:89,1,110.499994941712
276,33,219011,2,0,L|408:56,1,110.499994941712
488,181,219466,2,0,P|413:135|367:142,1,110.499994941712
318,170,219807,1,0,0:0:0:0:
305,186,219920,6,0,B|296:238|305:278|305:278|285:264,1,110.499994941712
127,156,220375,2,0,P|150:198|214:203,1,110.499994941712
371,230,220829,6,0,L|480:216,1,110.499994941712
394,358,221284,2,0,L|282:351,1,110.499994941712
118,365,221739,5,0,0:0:0:0:
54,212,221966,1,0,0:0:0:0:
37,201,222193,1,0,0:0:0:0:
196,157,222420,1,0,0:0:0:0:
183,322,222648,5,0,0:0:0:0:
106,274,222875,1,0,0:0:0:0:
185,230,223102,1,0,0:0:0:0:
165,228,223216,5,0,0:0:0:0:
144,219,223329,1,0,0:0:0:0:
128,203,223443,1,0,0:0:0:0:
118,175,223557,2,0,B|115:126|133:93|133:93|106:108,1,110.499994941712
25,250,224011,2,0,P|63:211|116:202,1,110.499994941712
230,81,224466,2,0,P|204:16|150:1,1,110.499994941712
31,92,224920,1,0,0:0:0:0:
183,159,225148,6,0,B|271:167|271:167|241:177,1,110.499994941712
385,79,225602,2,0,B|472:66|472:66|445:83,1,110.499994941712
346,207,226057,1,0,0:0:0:0:
351,216,226170,1,0,0:0:0:0:
354,226,226284,5,0,0:0:0:0:
423,164,226511,1,0,0:0:0:0:
440,251,226739,1,0,0:0:0:0:
317,126,226966,5,0,0:0:0:0:
306,291,227193,1,0,0:0:0:0:
465,247,227420,1,0,0:0:0:0:
268,205,227648,5,0,0:0:0:0:
207,281,227875,1,0,0:0:0:0:
40,166,228102,5,0,0:0:0:0:
74,332,228329,1,0,0:0:0:0:
231,377,228557,1,0,0:0:0:0:
217,376,228670,1,0,0:0:0:0:
199,375,228784,1,0,0:0:0:0:
470,320,229011,5,0,0:0:0:0:
388,307,229238,1,0,0:0:0:0:
306,291,229466,1,0,0:0:0:0:
153,353,229693,2,0,B|224:367|224:367|263:365,1,110.499994941712
141,251,230148,2,0,B|70:237|70:237|31:239,1,110.499994941712
167,133,230602,1,0,0:0:0:0:
195,125,230716,1,0,0:0:0:0:
235,112,230829,6,0,L|355:105,1,118.999996368408
501,207,231284,2,0,L|358:204,1,118.999996368408
259,74,231739,2,0,L|130:61,1,118.999996368408
1,174,232193,2,0,L|118:154,1,118.999996368408
106,367,232648,6,0,L|113:249,1,118.999996368408
245,128,233102,2,0,L|248:282,1,118.999996368408
362,384,233557,2,0,L|243:372,1,118.999996368408
502,273,234011,2,0,L|385:293,1,118.999996368408
264,28,234466,6,0,L|257:146,1,118.999996368408
98,192,234920,2,0,L|91:74,1,110.499994941712
255,238,235375,6,0,L|249:344,1,106.25
420,285,235829,2,0,L|414:192,1,93.5000028533936
333,360,236284,5,0,0:0:0:0:
491,289,236625,1,0,0:0:0:0:
482,260,236966,1,0,0:0:0:0:
447,166,237193,5,0,0:0:0:0:
371,231,237420,1,0,0:0:0:0:
373,254,237533,1,0,0:0:0:0:
375,277,237648,1,0,0:0:0:0:
440,155,237875,6,0,L|432:98,1,38.2499988327027
457,63,238102,2,0,P|455:109|361:121,1,152.999995330811
347,35,238784,1,0,0:0:0:0:
283,196,239011,6,0,P|277:233|257:266,1,76.4999976654053
119,242,239466,2,0,P|92:215|75:181,1,76.4999976654053
179,24,239920,5,0,0:0:0:0:
21,95,240261,1,0,0:0:0:0:
30,124,240602,1,0,0:0:0:0:
64,217,240829,5,0,0:0:0:0:
141,153,241057,1,0,0:0:0:0:
139,130,241169,1,0,0:0:0:0:
137,107,241284,1,0,0:0:0:0:
72,229,241511,6,0,L|80:286,1,38.2499988327027
55,321,241738,2,0,P|57:275|151:263,1,152.999995330811
165,349,242420,1,0,0:0:0:0:
229,188,242647,6,0,P|236:150|256:117,1,76.4999976654053
393,142,243102,2,0,P|421:168|438:202,1,76.4999976654053
347,369,243557,5,0,0:0:0:0:
498,284,243898,1,0,0:0:0:0:
487,256,244239,1,0,0:0:0:0:
443,166,244466,5,0,0:0:0:0:
374,237,244693,1,0,0:0:0:0:
378,260,244806,1,0,0:0:0:0:
382,282,244921,1,0,0:0:0:0:
432,155,245148,6,0,L|432:97,1,38.2499988327027
461,65,245375,2,0,P|454:110|359:110,1,152.999995330811
355,25,246057,1,0,0:0:0:0:
283,210,246284,6,0,P|280:247|263:282,1,76.4999976654053
124,270,246739,2,0,P|95:246|75:213,1,76.4999976654053
165,15,247193,5,0,0:0:0:0:
14,100,247534,1,0,0:0:0:0:
25,128,247875,1,0,0:0:0:0:
68,217,248102,5,0,0:0:0:0:
138,147,248329,1,0,0:0:0:0:
134,124,248442,1,0,0:0:0:0:
130,102,248557,1,0,0:0:0:0:
80,229,248784,6,0,L|81:286,1,38.2499988327027
51,319,249011,2,0,P|59:273|154:273,1,152.999995330811
157,359,249693,1,0,0:0:0:0:
295,325,249920,6,0,P|331:338|369:338,1,76.4999976654053
458,256,250375,6,0,L|380:267,1,76.4999976654053
