osu file format v14

[General]
AudioFilename: audio.mp3
AudioLeadIn: 0
PreviewTime: -1
Countdown: 1
SampleSet: Soft
StackLeniency: 0.7
Mode: 0
LetterboxInBreaks: 0
WidescreenStoryboard: 0

[Editor]
Bookmarks: 7849
DistanceSpacing: 1.2
BeatDivisor: 4
GridSize: 4
TimelineZoom: 1.5

[Metadata]
Title:Hibana
TitleUnicode:ヒバナ
Artist:DECO*27(Tenjin-ko usagi-on Cover)
ArtistUnicode:DECO*27【天神子兎音cover】
Creator:bronco2p
Version:Undefined Existence
Source:
Tags:
BeatmapID:2012391
BeatmapSetID:961247

[Difficulty]
HPDrainRate:8
CircleSize:4
OverallDifficulty:8
ApproachRate:9.4
SliderMultiplier:1
SliderTickRate:1

[Events]
//Background and Video events
0,0,"anime-girl-clouds-scenic-sky.jpg",0,0
//Break Periods
2,157449,166309
//Storyboard Layer 0 (Background)
//Storyboard Layer 1 (Fail)
//Storyboard Layer 2 (Pass)
//Storyboard Layer 3 (Foreground)
//Storyboard Sound Samples

[TimingPoints]
2449,300,4,2,1,100,1,0
4549,-200,4,2,1,100,0,0
4849,-100,4,2,1,100,0,0
6049,-83.3333333333333,4,2,1,100,0,0
7249,-66.6666666666667,4,2,1,100,0,0
9649,-66.6666666666667,4,2,1,100,0,0
9949,-80,4,2,1,100,0,0
12049,-66.6666666666667,4,2,1,100,0,0
12349,-80,4,2,1,100,0,0
13849,-100,4,2,1,100,0,0
14449,-66.6666666666667,4,2,1,100,0,0
14749,-80,4,2,1,100,0,0
16849,-66.6666666666667,4,2,1,100,0,0
17749,-71.4285714285714,4,2,1,100,0,0
19249,-100,4,2,1,100,0,0
28849,-66.6666666666667,4,2,1,100,0,0
29149,-80,4,2,1,100,0,0
31249,-66.6666666666667,4,2,1,100,0,0
31549,-80,4,2,1,100,0,0
32449,-71.4285714285714,4,2,1,100,0,0
33349,-100,4,2,1,100,0,0
33649,-66.6666666666667,4,2,1,100,0,0
33949,-80,4,2,1,100,0,0
35299,-66.6666666666667,4,2,1,100,0,0
35449,-66.6666666666667,4,2,1,100,0,0
35749,-100,4,2,1,100,0,0
36049,-80,4,2,1,100,0,0
37249,-66.6666666666667,4,2,1,100,0,0
38149,-100,4,2,1,100,0,0
38449,-66.6666666666667,4,2,1,100,0,0
40249,-71.4285714285714,4,2,1,100,0,0
40549,-68.9655172413793,4,2,1,100,0,0
40849,-66.6666666666667,4,2,1,100,0,0
42949,-80,4,2,1,100,0,0
43249,-66.6666666666667,4,2,1,100,0,0
45649,-71.4285714285714,4,2,1,100,0,0
46099,-83.3333333333333,4,2,1,100,0,0
46549,-100,4,2,1,100,0,0
48049,-50,4,2,1,100,0,1
48949,-66.6666666666667,4,2,1,100,0,1
49249,-50,4,2,1,100,0,1
49849,-57.1428571428571,4,2,1,100,0,1
50449,-66.6666666666667,4,2,1,100,0,1
50749,-62.5,4,2,1,100,0,1
50849,-57.1428571428571,4,2,1,100,0,1
51499,-50,4,2,1,100,0,1
52249,-66.6666666666667,4,2,1,100,0,1
52849,-50,4,2,1,100,0,1
53749,-66.6666666666667,4,2,1,100,0,1
54049,-57.1428571428571,4,2,1,100,0,1
54949,-50,4,2,1,100,0,1
56149,-57.1428571428571,4,2,1,100,0,1
57049,-58.8235294117647,4,2,1,100,0,1
57349,-62.5,4,2,1,100,0,1
57574,-66.6666666666667,4,2,1,100,0,1
58549,-76.9230769230769,4,2,1,100,0,1
58849,-66.6666666666667,4,2,1,100,0,1
59449,-62.5,4,2,1,100,0,1
59749,-57.1428571428571,4,2,1,100,0,1
60049,-50,4,2,1,100,0,1
60949,-57.1428571428571,4,2,1,100,0,1
67249,-50,4,2,1,100,0,0
67549,-66.6666666666667,4,2,1,100,0,0
69649,-50,4,2,1,100,0,0
69949,-80,4,2,1,100,0,0
72049,-66.6666666666667,4,2,1,100,0,0
72349,-80,4,2,1,100,0,0
74449,-100,4,2,1,100,0,0
75649,-80,4,2,1,100,0,0
76249,-80,4,2,1,100,0,0
76549,-100,4,2,1,100,0,0
76849,-66.6666666666667,4,2,1,100,0,0
77749,-80,4,2,1,100,0,0
79249,-66.6666666666667,4,2,1,100,0,0
79549,-80,4,2,1,100,0,0
80299,-66.6666666666667,4,2,1,100,0,0
81349,-100,4,2,1,100,0,0
81649,-66.6666666666667,4,2,1,100,0,0
82699,-57.1428571428571,4,2,1,100,0,0
84049,-66.6666666666667,4,2,1,100,0,0
86149,-100,4,2,1,100,0,0
86449,-66.6666666666667,4,2,1,100,0,0
89749,-100,4,2,1,100,0,0
90049,-66.6666666666667,4,2,1,100,0,0
92299,-66.6666666666667,4,2,1,100,0,0
93349,-100,4,2,1,100,0,0
93649,-66.6666666666667,4,2,1,100,0,0
95749,-100,4,2,1,100,0,0
96049,-66.6666666666667,4,2,1,100,0,0
96799,-80,4,2,1,100,0,0
98149,-100,4,2,1,100,0,0
98449,-66.6666666666667,4,2,1,100,0,0
99049,-80,4,2,1,100,0,0
100249,-100,4,2,1,100,0,0
100549,-80,4,2,1,100,0,0
100849,-76.9230769230769,4,2,1,100,0,0
101149,-74.0740740740741,4,2,1,100,0,0
101449,-71.4285714285714,4,2,1,100,0,0
101749,-68.9655172413793,4,2,1,100,0,0
102049,-66.6666666666667,4,2,1,100,0,0
102349,-62.5,4,2,1,100,0,0
102649,-58.8235294117647,4,2,1,100,0,0
103249,-57.1428571428571,4,2,1,100,0,0
103699,-66.6666666666667,4,2,1,100,0,0
104149,-80,4,2,1,100,0,0
105649,-50,4,2,1,100,0,1
107449,-57.1428571428571,4,2,1,100,0,1
109099,-50,4,2,1,100,0,1
112249,-57.1428571428571,4,2,1,100,0,1
114949,-66.6666666666667,4,2,1,100,0,1
115249,-57.1428571428571,4,2,1,100,0,0
116449,-50,4,2,1,100,0,0
117649,-57.1428571428571,4,2,1,100,0,0
118249,-66.6666666666667,4,2,1,100,0,0
118699,-50,4,2,1,100,0,0
119449,-57.1428571428571,4,2,1,100,0,0
130774,-100,4,2,1,5,0,0
130849,-100,4,2,1,50,0,0
132049,-100,4,2,1,75,0,0
132949,-100,4,2,1,85,0,0
133849,-100,4,2,1,90,0,0
134449,-57.1428571428571,4,2,1,100,0,0
145174,-57.1428571428571,4,2,1,5,0,0
145249,-80,4,2,1,100,0,0
146299,-66.6666666666667,4,2,1,100,0,0
146749,-80,4,2,1,100,0,0
147649,-66.6666666666667,4,2,1,100,0,0
148249,-80,4,2,1,100,0,0
150424,-66.6666666666667,4,2,1,100,0,0
152899,-80,4,2,1,100,0,0
153349,-100,4,2,1,100,0,0
155299,-133.333333333333,4,2,1,100,0,0
157174,-133.333333333333,4,2,1,5,0,0
157249,-133.333333333333,4,2,1,100,0,0
166849,-100,4,2,1,100,0,0
171649,-80,4,2,1,100,0,0
176149,-133.333333333333,4,2,1,100,0,0
176449,-50,4,2,1,100,0,1
178249,-66.6666666666667,4,2,1,100,0,1
178849,-50,4,2,1,100,0,1
183049,-66.6666666666667,4,2,1,100,0,1
184699,-50,4,2,1,100,0,1
184999,-66.6666666666667,4,2,1,100,0,1
185749,-80,4,2,1,100,0,0
186049,-57.1428571428571,4,2,1,100,0,0
189499,-50,4,2,1,100,0,0
190249,-57.1428571428571,4,2,1,100,0,0
193249,-50,4,2,1,100,0,0
193849,-66.6666666666667,4,2,1,100,0,0
194299,-50,4,2,1,100,0,0
194599,-66.6666666666667,4,2,1,100,0,0
195499,-100,4,2,1,100,0,0
195649,-50,4,2,1,100,0,0
197749,-100,4,2,1,100,0,0
198049,-50,4,2,1,100,0,0
198649,-66.6666666666667,4,2,1,100,0,0
199099,-50,4,2,1,100,0,0
199849,-66.6666666666667,4,2,1,100,0,0

[HitObjects]
136,145,2449,6,2,P|97:98|86:66,2,75,10|10|10,0:0|0:0|0:0,0:0:0:0:
258,204,3049,2,0,P|319:206|338:185,2,75,8|8|8,0:0|0:0|0:0,0:0:0:0:
105,150,3649,2,0,P|70:183|71:226,2,75,8|8|8,0:0|0:0|0:0,0:0:0:0:
168,278,4249,1,8,0:0:0:0:
353,93,4549,6,2,B|369:70|380:58,1,37.5
419,61,4849,5,8,0:0:0:0:
427,92,4924,1,2,0:0:0:0:
427,124,4999,1,2,0:0:0:0:
420,155,5074,1,2,0:0:0:0:
412,186,5149,1,2,0:0:0:0:
405,217,5224,1,2,0:0:0:0:
402,249,5299,1,8,0:0:0:0:
404,281,5374,1,2,0:0:0:0:
408,323,5449,5,2,0:0:0:0:
368,308,5524,1,2,0:0:0:0:
326,301,5599,1,2,0:0:0:0:
284,307,5674,1,2,0:0:0:0:
237,320,5749,1,8,0:0:0:0:
191,338,5824,1,2,0:0:0:0:
142,339,5899,1,2,0:0:0:0:
97,319,5974,1,2,0:0:0:0:
45,241,6049,6,0,P|40:219|43:192,5,29.9999990844727,8|2|2|2|2|0,0:0|0:0|0:0|0:0|0:0|0:0,0:0:0:0:
155,178,6499,6,0,P|155:155|165:130,5,29.9999990844727,8|2|2|2|2|2,0:0|0:0|0:0|0:0|0:0|0:0,0:0:0:0:
265,144,6949,6,0,P|271:122|287:100,2,29.9999990844727,8|2|2,0:0|0:0|0:0,0:0:0:0:
405,297,7249,2,0,B|366:311|308:304,1,75.000002861023,12|0,0:0|0:0,0:0:0:0:
293,303,7474,1,2,0:0:0:0:
255,301,7549,1,8,0:0:0:0:
221,287,7624,1,2,0:0:0:0:
193,262,7699,1,2,0:0:0:0:
176,229,7774,1,2,0:0:0:0:
172,192,7849,1,8,0:0:0:0:
181,155,7924,1,2,0:0:0:0:
202,125,7999,1,2,0:0:0:0:
232,103,8074,1,2,0:0:0:0:
264,84,8149,1,8,0:0:0:0:
300,72,8224,1,2,0:0:0:0:
337,66,8299,1,2,0:0:0:0:
374,67,8374,1,2,0:0:0:0:
411,75,8449,5,8,0:0:0:0:
361,334,8899,5,8,0:0:0:0:
107,197,9349,5,8,0:0:0:0:
402,185,9649,6,0,B|316:168|347:211|243:208,1,150.000005722046,12|0,0:0|0:0,0:0:0:0:
105,328,10099,1,0,0:0:0:0:
66,217,10249,2,0,P|61:174|66:127,1,62.5,8|0,0:0|0:0,0:0:0:0:
232,45,10549,1,2,0:0:0:0:
298,127,10699,1,0,0:0:0:0:
122,320,10849,6,0,P|177:329|196:325,1,62.5,8|0,0:0|0:0,0:0:0:0:
406,193,11149,2,0,P|363:194|324:210,1,62.5,2|0,0:0|0:0,0:0:0:0:
179,164,11449,1,8,0:0:0:0:
310,52,11599,1,0,0:0:0:0:
346,211,11749,1,2,0:0:0:0:
179,164,11899,1,2,0:0:0:0:
304,71,12049,6,0,B|406:71|346:111|454:106,1,150.000005722046,12|0,0:0|0:0,0:0:0:0:
350,295,12499,1,0,0:0:0:0:
261,250,12649,2,0,P|219:237|172:233,1,62.5,8|0,0:0|0:0,0:0:0:0:
40,263,12949,1,2,0:0:0:0:
97,336,13099,1,0,0:0:0:0:
211,210,13249,6,0,P|243:175|276:154,1,62.5,8|0,0:0|0:0,0:0:0:0:
414,101,13549,2,0,P|379:142|359:156,1,62.5,2|0,0:0|0:0,0:0:0:0:
175,214,13849,1,8,0:0:0:0:
251,107,13999,1,0,0:0:0:0:
247,268,14149,1,2,0:0:0:0:
259,289,14224,1,2,0:0:0:0:
277,306,14299,1,2,0:0:0:0:
299,317,14374,1,2,0:0:0:0:
322,324,14449,6,0,B|411:316|391:356|475:345,1,150.000005722046,12|2,0:0|0:0,0:0:0:0:
378,120,14899,1,0,0:0:0:0:
301,159,15049,2,0,P|252:161|215:152,1,62.5,8|0,0:0|0:0,0:0:0:0:
82,91,15349,1,2,0:0:0:0:
177,39,15499,1,0,0:0:0:0:
309,79,15649,6,0,P|351:83|389:73,1,62.5,8|0,0:0|0:0,0:0:0:0:
288,176,15949,2,0,P|272:217|273:253,1,62.5,2|0,0:0|0:0,0:0:0:0:
388,180,16249,1,8,0:0:0:0:
255,346,16399,1,0,0:0:0:0:
169,241,16549,1,2,0:0:0:0:
285,111,16699,1,8,0:0:0:0:
304,86,16774,1,8,0:0:0:0:
324,54,16849,6,0,B|226:40|254:85|152:67,1,150.000005722046,12|0,0:0|0:0,0:0:0:0:
169,241,17299,2,0,P|219:203|313:227,1,150.000005722046,12|0,0:0|0:0,0:0:0:0:
255,346,17749,2,0,P|229:309|216:268,1,69.9999978637696,6|0,0:0|0:0,0:0:0:0:
251,165,18049,5,8,0:0:0:0:
337,285,18199,1,2,0:0:0:0:
358,312,18274,1,2,0:0:0:0:
378,340,18349,1,2,0:0:0:0:
425,96,18499,1,2,0:0:0:0:
318,167,18649,2,0,P|278:173|237:165,1,69.9999978637696,8|8,0:0|0:0,0:0:0:0:
106,52,18949,1,8,0:0:0:0:
51,157,19099,1,8,0:0:0:0:
249,168,19249,1,12,0:0:0:0:
376,118,24049,5,8,0:0:0:0:
376,118,24199,1,8,0:0:0:0:
131,226,25249,6,0,P|100:196|90:176,1,50,8|0,0:0|0:0,0:0:0:0:
174,77,26449,5,8,0:0:0:0:
211,244,26599,1,0,0:0:0:0:
303,163,26749,2,0,P|345:159|376:162,1,50,2|0,0:0|0:0,0:0:0:0:
377,162,26974,1,2,0:0:0:0:
377,162,27049,1,8,0:0:0:0:
294,319,27199,1,2,0:0:0:0:
141,218,27349,1,2,0:0:0:0:
301,167,27499,1,2,0:0:0:0:
121,85,27649,5,8,0:0:0:0:
121,85,27799,1,2,0:0:0:0:
103,183,28099,5,8,0:0:0:0:
138,276,28399,5,8,0:0:0:0:
138,276,28549,2,0,P|184:255|205:232,1,75,2|0,0:0|0:0,0:0:0:0:
197,200,28849,6,0,B|284:197|246:238|348:233,1,150.000005722046,8|0,0:0|0:0,0:0:0:0:
276,341,29299,1,0,0:0:0:0:
140,280,29449,2,0,P|99:248|86:228,1,62.5,8|0,0:0|0:0,0:0:0:0:
111,103,29749,1,2,0:0:0:0:
199,203,29899,1,0,0:0:0:0:
199,203,30049,6,0,P|264:179|276:165,1,62.5,8|0,0:0|0:0,0:0:0:0:
348,49,30349,2,0,P|309:60|284:85,1,62.5,2|0,0:0|0:0,0:0:0:0:
340,233,30649,1,8,0:0:0:0:
376,118,30799,1,0,0:0:0:0:
199,203,30949,1,2,0:0:0:0:
294,287,31099,1,2,0:0:0:0:
316,308,31174,1,2,0:0:0:0:
340,327,31249,6,0,B|258:324|286:360|188:349,1,150.000005722046,12|0,0:0|0:0,0:0:0:0:
36,313,31699,1,0,0:0:0:0:
161,226,31849,2,0,P|207:209|247:214,1,62.5,8|0,0:0|0:0,0:0:0:0:
193,349,32149,1,2,0:0:0:0:
161,226,32299,1,2,0:0:0:0:
151,196,32374,1,2,0:0:0:0:
144,159,32449,6,0,P|146:99|164:66,1,69.9999978637696,8|0,0:0|0:0,0:0:0:0:
172,63,32674,1,0,0:0:0:0:
172,63,32749,1,2,0:0:0:0:
219,208,32899,2,0,B|247:275|326:288,1,139.999995727539
447,245,33349,2,0,P|436:218|431:193,1,50,2|0,0:0|0:0,0:0:0:0:
436,156,33649,6,0,B|342:149|384:193|277:184,1,150.000005722046,12|0,0:0|0:0,0:0:0:0:
144,159,34099,1,0,0:0:0:0:
193,349,34249,2,0,P|192:298|185:274,1,62.5,8|0,0:0|0:0,0:0:0:0:
122,320,34549,1,2,0:0:0:0:
291,184,34699,1,0,0:0:0:0:
377,162,34849,5,8,0:0:0:0:
219,208,34999,1,0,0:0:0:0:
317,263,35149,1,2,0:0:0:0:
144,159,35299,6,0,P|100:102|119:30,1,150.000005722046
291,184,35749,2,0,P|332:186|353:181,1,50,2|0,0:0|0:0,0:0:0:0:
377,162,36049,6,0,P|394:199|396:246,1,62.5,8|0,0:0|0:0,0:0:0:0:
161,226,36349,2,0,P|198:209|245:207,1,62.5,2|0,0:0|0:0,0:0:0:0:
172,340,36649,1,8,0:0:0:0:
144,159,36799,1,0,0:0:0:0:
397,220,36949,1,2,0:0:0:0:
161,226,37099,1,0,0:0:0:0:
376,118,37249,6,0,P|423:109|455:115,1,75.0000028610231,8|0,0:0|0:0,0:0:0:0:
144,159,37549,2,0,P|134:91|152:61,1,75.0000028610231,2|0,0:0|0:0,0:0:0:0:
219,205,37849,1,8,0:0:0:0:
55,50,37999,1,0,0:0:0:0:
93,239,38149,2,0,P|101:288|101:308,1,50,2|0,0:0|0:0,0:0:0:0:
161,226,38449,6,0,B|251:226|205:280|303:278,1,150.000005722046,12|0,0:0|0:0,0:0:0:0:
348,49,39049,1,8,0:0:0:0:
418,194,39199,1,0,0:0:0:0:
199,203,39349,1,2,0:0:0:0:
159,205,39424,1,0,0:0:0:0:
121,210,39499,2,0,P|84:219|41:243,1,75.0000028610231,4|0,0:0|0:0,0:0:0:0:
172,340,39799,1,0,0:0:0:0:
144,159,39949,1,2,0:0:0:0:
317,263,40099,1,8,0:0:0:0:
346,286,40174,1,8,0:0:0:0:
375,309,40249,6,0,P|417:331|453:333,1,69.9999978637696,12|0,0:0|0:0,0:0:0:0:
340,184,40549,2,0,P|313:160|250:144,1,72.5000022125245,2|0,0:0|0:0,0:0:0:0:
32,147,40849,6,0,B|129:143|77:187|191:187,1,150.000005722046,12|0,0:0|0:0,0:0:0:0:
348,49,41449,1,8,0:0:0:0:
436,156,41599,1,8,0:0:0:0:
219,205,41749,1,8,0:0:0:0:
348,49,41899,1,2,0:0:0:0:
348,49,41974,1,2,0:0:0:0:
348,49,42049,5,8,0:0:0:0:
55,50,42199,1,2,0:0:0:0:
279,146,42349,1,8,0:0:0:0:
121,210,42499,1,2,0:0:0:0:
292,73,42649,1,8,0:0:0:0:
295,278,42799,1,2,0:0:0:0:
121,210,42949,2,0,P|66:195|43:194,1,62.5,6|0,0:0|0:0,0:0:0:0:
356,248,43249,6,0,P|309:253|257:236,1,75.0000028610231,8|0,0:0|0:0,0:0:0:0:
393,188,43549,2,0,P|456:183|495:193,1,75.0000028610231,2|0,0:0|0:0,0:0:0:0:
224,281,43849,2,0,P|216:233|239:199,1,75.0000028610231,8|0,0:0|0:0,0:0:0:0:
393,188,44149,2,0,P|366:221|331:237,1,75.0000028610231,2|0,0:0|0:0,0:0:0:0:
305,80,44449,6,0,P|331:37|370:28,1,75.0000028610231,8|0,0:0|0:0,0:0:0:0:
233,76,44749,2,0,P|181:76|135:49,1,75.0000028610231,2|0,0:0|0:0,0:0:0:0:
167,165,45049,2,0,P|137:194|86:206,1,75.0000028610231,8|0,0:0|0:0,0:0:0:0:
233,76,45349,2,0,P|283:43|317:37,1,75.0000028610231,2|0,0:0|0:0,0:0:0:0:
297,209,45649,6,0,P|312:293|383:302,1,139.999995727539,12|0,0:0|0:0,0:0:0:0:
216,212,46099,2,0,P|142:169|101:192,1,119.999996337891,12|0,0:0|0:0,0:0:0:0:
283,145,46549,2,0,B|331:129|352:78|352:78|254:115|170:55,1,275,12|0,0:0|0:0,0:0:0:0:
159,58,47449,5,8,0:0:0:0:
138,86,47524,1,2,0:0:0:0:
130,125,47599,1,2,0:0:0:0:
131,164,47674,1,2,0:0:0:0:
148,205,47749,5,8,0:0:0:0:
188,225,47824,1,2,0:0:0:0:
233,204,47899,1,2,0:0:0:0:
265,159,47974,1,2,0:0:0:0:
304,109,48049,6,0,P|377:88|451:113,1,150,12|0,0:0|0:0,0:0:0:0:
490,170,48349,2,0,P|439:201|330:183,1,150,2|0,0:0|0:0,0:0:0:0:
263,160,48649,2,0,P|188:158|124:195,1,150,8|0,0:0|0:0,0:0:0:0:
83,268,48949,2,0,L|51:307,1,37.5000014305115,2|0,0:0|0:0,0:0:0:0:
201,241,49099,2,0,L|176:202,1,37.5000014305115
263,325,49249,6,0,B|327:322|293:352|396:350,1,100,12|0,0:0|0:0,0:0:0:0:
490,170,49549,1,10,0:0:0:0:
194,262,49699,1,0,0:0:0:0:
304,109,49849,2,0,P|337:68|368:50,1,87.500000834465,8|0,0:0|0:0,0:0:0:0:
130,125,50149,2,0,P|75:118|32:91,1,87.500000834465,2|0,0:0|0:0,0:0:0:0:
139,239,50449,6,0,P|147:285|141:323,1,75.0000028610231,8|0,0:0|0:0,0:0:0:0:
255,186,50749,2,0,P|293:158|346:149,1,80,2|0,0:0|0:0,0:0:0:0:
263,325,51049,1,8,0:0:0:0:
130,125,51199,1,0,0:0:0:0:
351,195,51349,1,2,0:0:0:0:
123,240,51499,6,0,B|266:232|161:287|318:285,1,200,12|0,0:0|0:0,0:0:0:0:
490,170,51949,1,2,0:0:0:0:
366,50,52099,1,0,0:0:0:0:
194,262,52249,5,8,0:0:0:0:
159,291,52324,1,2,0:0:0:0:
114,296,52399,1,2,0:0:0:0:
68,270,52474,1,2,0:0:0:0:
57,218,52549,5,8,0:0:0:0:
71,159,52624,1,2,0:0:0:0:
115,118,52699,1,2,0:0:0:0:
173,105,52774,1,2,0:0:0:0:
232,110,52849,6,0,P|301:127|415:99,1,150,12|0,0:0|0:0,0:0:0:0:
442,66,53149,2,0,P|463:135|434:247,1,150,12|0,0:0|0:0,0:0:0:0:
396,268,53449,2,0,P|354:236|239:229,1,150,4|0,0:0|0:0,0:0:0:0:
171,290,53749,2,0,L|135:235,1,37.5000014305115,2|0,0:0|0:0,0:0:0:0:
73,158,53899,2,0,L|62:229,1,37.5000014305115
123,240,54049,6,0,P|176:230|240:190,1,87.500000834465,12|0,0:0|0:0,0:0:0:0:
298,36,54349,1,2,0:0:0:0:
67,195,54499,1,0,0:0:0:0:
254,309,54649,2,0,P|310:342|384:348,1,131.250001251698,12|0,0:0|0:0,0:0:0:0:
437,312,54949,2,0,B|440:248|440:248|458:228|458:228|459:149,1,150,6|0,0:0|0:0,0:0:0:0:
426,76,55249,5,8,0:0:0:0:
259,223,55399,1,2,0:0:0:0:
115,118,55549,1,8,0:0:0:0:
452,211,55699,1,2,0:0:0:0:
254,309,55849,2,0,P|194:319|143:305,1,100,12|0,0:0|0:0,0:0:0:0:
58,222,56149,2,0,L|31:274,1,43.7500004172325,4|0,0:0|0:0,0:0:0:0:
135,174,56299,2,0,L|163:129,1,43.7500004172325,4|0,0:0|0:0,0:0:0:0:
55,50,56449,5,8,0:0:0:0:
114,296,56599,1,2,0:0:0:0:
232,110,56749,1,8,0:0:0:0:
58,222,56899,1,2,0:0:0:0:
259,223,57049,6,0,P|323:235|366:258,1,85.0000016212464,8|0,0:0|0:0,0:0:0:0:
158,136,57349,2,0,P|101:103|75:67,1,80,2|0,0:0|0:0,0:0:0:0:
292,75,57649,5,0,0:0:0:0:
125,180,57799,1,0,0:0:0:0:
305,109,57949,5,0,0:0:0:0:
102,135,58099,1,0,0:0:0:0:
315,141,58249,5,0,0:0:0:0:
94,98,58399,1,0,0:0:0:0:
257,246,58549,5,0,0:0:0:0:
193,41,58699,1,0,0:0:0:0:
120,203,58849,5,0,0:0:0:0:
298,109,58999,1,0,0:0:0:0:
133,224,59149,5,0,0:0:0:0:
311,130,59299,1,0,0:0:0:0:
204,309,59449,5,0,0:0:0:0:
241,73,59599,1,0,0:0:0:0:
204,309,59749,5,0,0:0:0:0:
339,105,59899,1,0,0:0:0:0:
237,242,60049,6,0,P|185:274|88:282,1,150,12|0,0:0|0:0,0:0:0:0:
36,226,60349,2,0,P|79:167|100:82,1,150,2|0,0:0|0:0,0:0:0:0:
63,21,60649,2,0,P|140:21|212:86,1,150,8|0,0:0|0:0,0:0:0:0:
243,158,60949,2,0,L|250:225,1,43.7500004172325,2|0,0:0|0:0,0:0:0:0:
186,277,61099,2,0,L|177:224,1,43.7500004172325
261,343,61249,5,8,0:0:0:0:
392,101,61399,1,0,0:0:0:0:
36,226,61549,1,2,0:0:0:0:
409,243,61699,1,0,0:0:0:0:
99,93,61849,2,0,P|54:62|23:27,1,87.500000834465,12|0,0:0|0:0,0:0:0:0:
101,200,62149,2,0,P|113:265|112:317,1,87.500000834465,2|0,0:0|0:0,0:0:0:0:
324,158,62449,5,8,0:0:0:0:
233,265,62599,1,2,0:0:0:0:
331,189,62749,5,8,0:0:0:0:
158,253,62899,1,2,0:0:0:0:
319,233,63049,5,8,0:0:0:0:
98,161,63199,1,2,0:0:0:0:
271,266,63349,5,8,0:0:0:0:
145,27,63499,1,2,0:0:0:0:
348,147,63649,5,8,0:0:0:0:
234,229,63799,1,2,0:0:0:0:
358,190,63949,5,8,0:0:0:0:
164,208,64099,1,2,0:0:0:0:
340,249,64249,5,8,0:0:0:0:
118,127,64399,1,2,0:0:0:0:
279,287,64549,2,0,P|308:334|320:368,1,87.500000834465,8|0,0:0|0:0,0:0:0:0:
67,212,64849,5,8,0:0:0:0:
144,335,64999,1,0,0:0:0:0:
234,118,65149,5,2,0:0:0:0:
215,346,65299,1,0,0:0:0:0:
270,103,65449,2,0,L|288:53,1,43.7500004172325,8|0,0:0|0:0,0:0:0:0:
302,203,65599,2,0,L|324:266,1,43.7500004172325
418,132,65749,2,0,P|440:100|447:83,1,43.7500004172325,2|0,0:0|0:0,0:0:0:0:
451,31,65899,5,0,0:0:0:0:
55,203,66199,5,2,0:0:0:0:
335,284,66349,1,2,0:0:0:0:
187,97,66499,1,2,0:0:0:0:
212,338,66649,1,2,0:0:0:0:
284,67,66949,5,8,0:0:0:0:
381,262,67249,6,0,P|333:287|252:288,1,100,12|0,0:0|0:0,0:0:0:0:
103,258,67549,1,2,0:0:0:0:
245,166,67699,1,0,0:0:0:0:
68,54,67849,2,0,P|109:96|139:115,1,75.0000028610231,8|0,0:0|0:0,0:0:0:0:
324,205,68149,2,0,P|277:174|246:161,1,75.0000028610231,2|0,0:0|0:0,0:0:0:0:
63,122,68449,5,8,0:0:0:0:
121,333,68599,1,0,0:0:0:0:
177,238,68749,1,2,0:0:0:0:
68,54,68899,1,0,0:0:0:0:
260,166,69049,2,0,P|315:202|341:209,1,75.0000028610231,8|0,0:0|0:0,0:0:0:0:
441,147,69349,1,2,0:0:0:0:
368,339,69499,1,0,0:0:0:0:
228,274,69649,6,0,P|170:264|89:280,1,100,12|0,0:0|0:0,0:0:0:0:
41,339,69949,1,2,0:0:0:0:
124,152,70099,2,0,P|94:202|82:228,1,62.5
37,122,70399,1,0,0:0:0:0:
236,42,70549,1,2,0:0:0:0:
320,118,70699,1,0,0:0:0:0:
178,152,70849,6,0,P|136:161|95:161,1,62.5,12|0,0:0|0:0,0:0:0:0:
295,205,71149,2,0,P|310:251|316:293,1,62.5,2|0,0:0|0:0,0:0:0:0:
381,112,71449,2,0,P|432:115|470:127,1,62.5,8|0,0:0|0:0,0:0:0:0:
213,131,71749,1,2,0:0:0:0:
187,173,71824,1,2,0:0:0:0:
176,221,71899,1,2,0:0:0:0:
179,270,71974,1,2,0:0:0:0:
189,309,72049,6,0,B|292:300|268:338|338:336,1,150.000005722046,12|0,0:0|0:0,0:0:0:0:
451,265,72499,1,0,0:0:0:0:
461,89,72649,2,0,P|462:138|459:174,1,62.5,8|0,0:0|0:0,0:0:0:0:
236,42,72949,1,2,0:0:0:0:
124,152,73099,1,0,0:0:0:0:
228,274,73249,6,4,P|251:304|277:329,1,62.5,12|0,0:0|0:0,0:0:0:0:
108,336,73549,2,0,P|56:340|23:351,1,62.5,2|0,0:0|0:0,0:0:0:0:
124,152,73849,1,8,0:0:0:0:
103,258,73999,1,0,0:0:0:0:
295,205,74149,2,0,P|327:193|362:186,1,62.5,2|0,0:0|0:0,0:0:0:0:
434,196,74449,6,0,P|431:127|375:63,1,150,12|0,0:0|0:0,0:0:0:0:
341,64,74974,2,2,L|299:66,3,25,0|2|2|2,0:0|0:0|0:0|0:0,0:0:0:0:
166,92,75499,2,0,L|181:68,1,25,8|2,0:0|0:0,0:0:0:0:
168,120,75649,5,8,0:0:0:0:
167,186,75749,1,8,0:0:0:0:
164,252,75849,1,8,0:0:0:0:
208,202,75949,1,8,0:0:0:0:
207,268,76049,1,8,0:0:0:0:
205,334,76149,1,8,0:0:0:0:
252,284,76249,2,0,P|283:262|338:257,1,83.3333333333333,8|0,0:0|0:0,0:0:0:0:
406,316,76549,2,0,P|421:283|426:241,1,75,2|0,0:0|0:0,0:0:0:0:
396,160,76849,6,12,B|303:151|365:191|252:188,1,150.000005722046
105,188,77299,1,0,0:0:0:0:
177,116,77449,1,8,0:0:0:0:
252,188,77599,1,0,0:0:0:0:
144,246,77749,2,0,P|97:273|79:296,1,62.5,2|0,0:0|0:0,0:0:0:0:
432,250,78199,6,0,L|414:323,1,62.5,2|0,0:0|0:0,0:0:0:0:
381,152,78499,2,0,L|408:83,1,62.5,2|0,0:0|0:0,0:0:0:0:
166,57,78949,1,2,0:0:0:0:
166,57,79099,1,2,0:0:0:0:
166,57,79249,6,0,P|168:110|124:210,1,150.000005722046,12|0,0:0|0:0,0:0:0:0:
25,222,79699,1,0,0:0:0:0:
78,82,79849,1,8,0:0:0:0:
132,198,79999,1,0,0:0:0:0:
306,119,80149,1,2,0:0:0:0:
268,205,80299,6,0,P|264:254|278:293,1,75.0000028610231,8|0,0:0|0:0,0:0:0:0:
158,186,80599,2,0,P|115:163|96:125,1,75.0000028610231,8|0,0:0|0:0,0:0:0:0:
285,88,80899,2,0,P|340:45|351:17,1,75.0000028610231,8|0,0:0|0:0,0:0:0:0:
92,311,81349,2,0,L|70:230,1,75,2|0,0:0|0:0,0:0:0:0:
45,174,81649,6,0,B|144:169|114:209|206:206,1,150.000005722046,12|0,0:0|0:0,0:0:0:0:
299,221,82099,1,0,0:0:0:0:
150,317,82249,1,8,0:0:0:0:
63,239,82399,1,0,0:0:0:0:
166,57,82549,1,2,0:0:0:0:
226,183,82699,6,0,P|242:239|216:312,1,131.250001251698,8|0,0:0|0:0,0:0:0:0:
167,354,82999,2,0,P|154:282|113:227,1,131.250001251698,8|0,0:0|0:0,0:0:0:0:
66,183,83299,2,0,P|120:175|228:117,1,175.00000166893,8|0,0:0|0:0,0:0:0:0:
225,120,83674,1,2,0:0:0:0:
225,120,83749,1,2,0:0:0:0:
336,227,83899,1,0,0:0:0:0:
226,343,84049,6,0,P|209:290|210:244,1,75.0000028610231,12|0,0:0|0:0,0:0:0:0:
386,226,84349,2,0,P|346:257|318:270,1,75.0000028610231,2|0,0:0|0:0,0:0:0:0:
155,242,84649,1,8,0:0:0:0:
270,113,84799,1,0,0:0:0:0:
324,267,84949,1,2,0:0:0:0:
166,57,85099,1,12,0:0:0:0:
63,239,85249,5,0,0:0:0:0:
328,274,85399,1,2,0:0:0:0:
328,274,85474,1,2,0:0:0:0:
328,274,85549,1,2,0:0:0:0:
45,174,85699,1,2,0:0:0:0:
226,343,85849,1,8,0:0:0:0:
306,119,85999,1,2,0:0:0:0:
324,86,86074,1,0,0:0:0:0:
345,55,86149,2,0,P|372:36|404:31,1,50,2|0,0:0|0:0,0:0:0:0:
441,122,86449,6,0,B|350:125|391:172|283:168,1,150.000005722046,12|0,0:0|0:0,0:0:0:0:
66,183,86899,1,0,0:0:0:0:
166,57,87049,1,8,0:0:0:0:
226,343,87199,1,0,0:0:0:0:
301,168,87349,1,2,0:0:0:0:
155,242,87499,6,0,B|86:249|105:280|38:272,1,112.500004291535,8|0,0:0|0:0,0:0:0:0:
28,207,87799,2,0,P|56:159|71:81,1,112.500004291535,8|0,0:0|0:0,0:0:0:0:
152,51,88099,2,0,P|192:47|236:30,2,75.0000028610231,8|8|0,0:0|0:0|0:0,0:0:0:0:
30,35,88549,1,2,0:0:0:0:
155,242,88699,1,0,0:0:0:0:
252,82,88849,6,0,B|334:80|296:117|394:117,1,150.000005722046,8|0,0:0|0:0,0:0:0:0:
266,182,89299,1,0,0:0:0:0:
406,316,89449,1,8,0:0:0:0:
226,343,89599,1,0,0:0:0:0:
281,196,89749,2,0,P|301:162|291:94,1,100,2|0,0:0|0:0,0:0:0:0:
221,140,90199,6,0,B|129:133|177:182|95:177,1,112.500004291535,8|0,0:0|0:0,0:0:0:0:
50,112,90499,2,0,P|36:161|78:258,1,150.000005722046,8|0,0:0|0:0,0:0:0:0:
200,296,90949,5,2,0:0:0:0:
221,265,91024,1,2,0:0:0:0:
243,234,91099,1,2,0:0:0:0:
265,203,91174,1,2,0:0:0:0:
285,171,91249,6,0,B|352:164|337:213|411:210,1,112.500004291535,12|0,0:0|0:0,0:0:0:0:
291,246,91549,2,0,P|243:249|185:307,1,112.500004291535,2|0,0:0|0:0,0:0:0:0:
271,319,91849,1,8,0:0:0:0:
50,112,91999,1,0,0:0:0:0:
69,250,92149,1,2,0:0:0:0:
194,177,92299,6,0,P|241:157|318:162,1,112.500004291535,8|0,0:0|0:0,0:0:0:0:
401,159,92599,2,0,P|367:108|356:49,1,112.500004291535,8|0,0:0|0:0,0:0:0:0:
264,54,92899,1,2,0:0:0:0:
226,55,92974,1,2,0:0:0:0:
188,55,93049,2,0,P|151:52|97:57,1,75.0000028610231,8|0,0:0|0:0,0:0:0:0:
166,136,93349,2,0,P|181:164|186:197,1,50,2|0,0:0|0:0,0:0:0:0:
75,221,93649,6,0,B|173:218|117:269|234:270,1,150.000005722046,12|0,0:0|0:0,0:0:0:0:
361,251,94099,1,0,0:0:0:0:
185,181,94249,1,8,0:0:0:0:
308,345,94399,1,0,0:0:0:0:
155,242,94549,1,2,0:0:0:0:
129,214,94624,1,2,0:0:0:0:
112,180,94699,1,2,0:0:0:0:
108,142,94774,1,2,0:0:0:0:
106,104,94849,6,0,P|113:55|132:23,1,75.0000028610231,12|0,0:0|0:0,0:0:0:0:
212,243,95149,1,2,0:0:0:0:
362,93,95299,1,2,0:0:0:0:
103,140,95449,1,8,0:0:0:0:
335,221,95599,1,8,0:0:0:0:
151,288,95749,2,0,P|110:297|72:292,1,75,2|0,0:0|0:0,0:0:0:0:
122,209,96049,6,0,B|202:211|158:172|266:176,1,150.000005722046,12|0,0:0|0:0,0:0:0:0:
100,66,96649,1,8,0:0:0:0:
100,66,96799,2,0,P|93:108|93:147,1,62.5,8|0,0:0|0:0,0:0:0:0:
146,270,97099,1,2,0:0:0:0:
230,184,97249,6,0,P|258:149|265:128,1,62.5,8|0,0:0|0:0,0:0:0:0:
162,119,97549,1,2,0:0:0:0:
333,243,97699,1,2,0:0:0:0:
358,261,97774,1,2,0:0:0:0:
384,278,97849,2,0,P|427:292|463:289,1,62.5,8|0,0:0|0:0,0:0:0:0:
418,209,98149,2,0,P|399:168|405:131,1,75,2|0,0:0|0:0,0:0:0:0:
429,64,98449,6,0,B|349:63|372:109|281:103,1,150.000005722046,12|0,0:0|0:0,0:0:0:0:
101,291,99049,1,8,0:0:0:0:
101,291,99199,2,0,P|150:262|172:255,1,75.0000028610231,8|0,0:0|0:0,0:0:0:0:
344,322,99499,5,8,0:0:0:0:
264,175,99649,1,8,0:0:0:0:
151,288,99799,1,8,0:0:0:0:
358,261,99949,1,2,0:0:0:0:
122,209,100099,1,2,0:0:0:0:
296,103,100249,2,0,P|325:80|338:57,1,50,8|0,0:0|0:0,0:0:0:0:
241,51,100549,2,0,P|196:55|141:98,1,93.75,2|0,0:0|0:0,0:0:0:0:
241,139,100849,6,0,P|258:192|255:221,1,64.9999970245363,12|0,0:0|0:0,0:0:0:0:
335,126,101149,2,0,P|372:111|410:108,1,67.5000002574921,2|0,0:0|0:0,0:0:0:0:
314,215,101449,2,0,P|273:231|235:232,1,69.9999978637696,8|0,0:0|0:0,0:0:0:0:
98,187,101749,2,0,P|139:185|171:194,1,72.5000022125245,2|0,0:0|0:0,0:0:0:0:
390,284,102049,6,0,P|336:285|287:270,1,75.0000028610231,8|0,0:0|0:0,0:0:0:0:
315,78,102349,2,0,P|334:129|338:177,1,80,2|0,0:0|0:0,0:0:0:0:
226,152,102649,2,0,P|183:137|146:110,1,85.0000016212464,8|0,0:0|0:0,0:0:0:0:
57,45,102949,1,2,0:0:0:0:
57,87,103024,1,2,0:0:0:0:
57,129,103099,1,2,0:0:0:0:
58,171,103174,1,2,0:0:0:0:
59,213,103249,6,0,B|88:287|71:323|71:323|107:312|155:343,1,175.00000166893,12|0,0:0|0:0,0:0:0:0:
156,250,103699,2,0,B|175:196|209:204|209:204|189:167|255:123,1,150.000005722046,12|0,0:0|0:0,0:0:0:0:
136,132,104149,2,0,P|132:88|174:40,1,93.75,12|0,0:0|0:0,0:0:0:0:
242,34,104449,5,8,0:0:0:0:
296,138,104599,1,2,0:0:0:0:
310,165,104674,1,2,0:0:0:0:
316,195,104749,1,8,0:0:0:0:
311,225,104824,1,2,0:0:0:0:
298,253,104899,1,2,0:0:0:0:
275,274,104974,1,2,0:0:0:0:
245,284,105049,5,8,0:0:0:0:
68,286,105199,1,2,0:0:0:0:
184,198,105349,5,8,0:0:0:0:
322,186,105499,1,2,0:0:0:0:
176,93,105649,6,0,P|108:97|38:179,1,150,12|0,0:0|0:0,0:0:0:0:
155,172,105949,2,0,P|224:182|308:134,1,150,12|0,0:0|0:0,0:0:0:0:
337,70,106249,2,0,P|348:49|368:26,1,50,8|0,0:0|0:0,0:0:0:0:
417,89,106399,2,0,P|417:113|408:138,1,50,2|0,0:0|0:0,0:0:0:0:
291,258,106549,1,2,0:0:0:0:
59,115,106699,1,0,0:0:0:0:
162,194,106849,6,0,B|290:179|200:243|376:240,1,200,12|0,0:0|0:0,0:0:0:0:
229,74,107299,1,0,0:0:0:0:
163,254,107449,2,0,P|129:296|81:317,1,87.500000834465,8|0,0:0|0:0,0:0:0:0:
295,123,107749,2,0,P|338:79|378:71,1,87.500000834465,2|0,0:0|0:0,0:0:0:0:
346,317,108049,1,8,0:0:0:0:
238,194,108199,1,0,0:0:0:0:
134,331,108349,1,2,0:0:0:0:
348,170,108499,1,0,0:0:0:0:
71,87,108649,1,8,0:0:0:0:
240,346,108799,1,0,0:0:0:0:
340,53,108949,1,2,0:0:0:0:
224,152,109099,6,0,B|121:157|180:209|24:197,1,200,12|0,0:0|0:0,0:0:0:0:
143,306,109549,1,2,0:0:0:0:
143,306,109624,1,2,0:0:0:0:
143,306,109699,1,2,0:0:0:0:
296,308,109849,1,8,0:0:0:0:
405,225,109999,5,0,0:0:0:0:
178,216,110149,1,2,0:0:0:0:
128,181,110224,1,2,0:0:0:0:
102,126,110299,1,2,0:0:0:0:
118,68,110374,1,2,0:0:0:0:
159,39,110449,6,0,B|262:23|205:87|344:70,1,150,12|0,0:0|0:0,0:0:0:0:
195,112,110749,2,0,P|143:164|156:270,1,150,12|0,0:0|0:0,0:0:0:0:
237,182,111049,2,0,L|265:132,1,50,12|0,0:0|0:0,0:0:0:0:
289,288,111199,2,0,L|308:350,1,50,2|0,0:0|0:0,0:0:0:0:
403,186,111349,1,2,0:0:0:0:
261,138,111499,6,0,P|206:139|98:227,1,200,12|0,0:0|0:0,0:0:0:0:
56,45,111949,1,2,0:0:0:0:
165,293,112099,1,0,0:0:0:0:
315,167,112249,2,0,P|363:136|407:130,1,87.500000834465,8|0,0:0|0:0,0:0:0:0:
142,185,112549,2,0,P|91:197|39:190,1,87.500000834465,6|0,0:0|0:0,0:0:0:0:
150,49,112849,5,8,0:0:0:0:
107,196,112999,1,2,0:0:0:0:
56,46,113149,1,8,0:0:0:0:
248,152,113299,1,2,0:0:0:0:
86,316,113449,1,8,0:0:0:0:
198,64,113599,1,2,0:0:0:0:
361,345,113749,1,8,0:0:0:0:
61,145,113899,1,2,0:0:0:0:
61,145,113974,1,2,0:0:0:0:
61,145,114049,6,0,B|189:129|121:185|239:184,1,175.00000166893,12|0,0:0|0:0,0:0:0:0:
274,164,114424,1,2,0:0:0:0:
326,157,114499,1,2,0:0:0:0:
373,180,114574,1,2,0:0:0:0:
405,221,114649,5,8,0:0:0:0:
297,339,114799,1,0,0:0:0:0:
153,224,114949,2,0,P|97:215|36:227,1,112.500004291535,2|0,0:0|0:0,0:0:0:0:
97,298,115249,5,0,0:0:0:0:
127,78,115399,1,0,0:0:0:0:
195,299,115549,5,0,0:0:0:0:
225,79,115699,1,0,0:0:0:0:
306,308,115849,5,0,0:0:0:0:
336,88,115999,1,0,0:0:0:0:
458,253,116149,5,0,0:0:0:0:
323,77,116299,1,0,0:0:0:0:
459,157,116449,5,0,0:0:0:0:
239,128,116599,1,0,0:0:0:0:
398,55,116749,5,0,0:0:0:0:
369,275,116899,1,0,0:0:0:0:
279,53,117049,5,0,0:0:0:0:
250,273,117199,1,0,0:0:0:0:
169,59,117349,5,0,0:0:0:0:
140,279,117499,1,0,0:0:0:0:
375,130,117649,6,0,P|412:91|452:79,1,87.500000834465,12|0,0:0|0:0,0:0:0:0:
328,282,117949,1,2,0:0:0:0:
226,164,118099,1,0,0:0:0:0:
148,288,118249,2,0,P|109:312|62:314,1,75.0000028610231,8|0,0:0|0:0,0:0:0:0:
114,59,118549,1,2,0:0:0:0:
197,144,118699,6,0,B|337:138|236:186|398:187,1,200,12|0,0:0|0:0,0:0:0:0:
326,67,119149,1,2,0:0:0:0:
254,321,119299,1,0,0:0:0:0:
141,185,119449,2,0,P|103:137|63:111,1,87.500000834465,8|0,0:0|0:0,0:0:0:0:
274,144,119749,2,0,P|330:139|385:151,1,87.500000834465,2|0,0:0|0:0,0:0:0:0:
77,60,120049,5,0,0:0:0:0:
138,353,120199,1,0,0:0:0:0:
219,48,120349,5,0,0:0:0:0:
204,351,120499,1,0,0:0:0:0:
295,54,120649,5,0,0:0:0:0:
335,351,120799,1,0,0:0:0:0:
211,82,120949,5,0,0:0:0:0:
449,263,121099,1,0,0:0:0:0:
146,146,121249,5,0,0:0:0:0:
442,105,121399,1,0,0:0:0:0:
372,344,121549,5,0,0:0:0:0:
332,32,121699,1,0,0:0:0:0:
266,359,121849,5,0,0:0:0:0:
226,47,121999,1,0,0:0:0:0:
114,144,122149,5,8,0:0:0:0:
107,195,122224,1,2,0:0:0:0:
97,246,122299,1,2,0:0:0:0:
89,298,122374,1,2,0:0:0:0:
79,348,122449,5,8,0:0:0:0:
332,239,122599,1,2,0:0:0:0:
127,153,122749,5,8,0:0:0:0:
279,339,122899,1,2,0:0:0:0:
402,129,123049,5,8,0:0:0:0:
159,227,123199,1,2,0:0:0:0:
109,243,123274,1,2,0:0:0:0:
57,232,123349,1,8,0:0:0:0:
24,190,123424,1,2,0:0:0:0:
26,137,123499,1,2,0:0:0:0:
53,91,123574,1,2,0:0:0:0:
103,76,123649,1,8,0:0:0:0:
319,86,123799,1,2,0:0:0:0:
157,186,123949,1,8,0:0:0:0:
302,273,124099,1,2,0:0:0:0:
208,336,124249,1,8,0:0:0:0:
337,78,124549,5,8,0:0:0:0:
176,196,124849,5,12,0:0:0:0:
256,192,124924,12,0,130774,0:0:0:0:
163,118,130849,6,0,P|138:130|111:134,1,50,8|0,0:0|0:0,0:0:0:0:
210,193,131149,2,0,P|241:217|245:225,1,50,2|0,0:0|0:0,0:0:0:0:
276,127,131449,2,0,P|311:108|336:114,1,50,8|0,0:0|0:0,0:0:0:0:
144,167,131749,2,0,P|104:155|93:141,1,50,2|0,0:0|0:0,0:0:0:0:
275,102,132049,6,0,P|297:135|297:139,3,25,8|0|2|0,0:0|0:0|0:0|0:0,0:0:0:0:
333,141,132349,2,0,P|325:180|322:183,3,25,8|0|2|0,0:0|0:0|0:0|0:0,0:0:0:0:
346,211,132649,2,0,P|312:233|309:233,3,25,8|0|2|0,0:0|0:0|0:0|0:0,0:0:0:0:
299,234,132949,1,8,0:0:0:0:
269,240,133024,1,2,0:0:0:0:
239,246,133099,1,8,0:0:0:0:
209,252,133174,1,2,0:0:0:0:
179,258,133249,1,8,0:0:0:0:
168,164,133849,6,0,P|144:175|112:176,1,50,8|0,0:0|0:0,0:0:0:0:
222,84,134149,2,0,P|253:66|274:65,1,50,2|0,0:0|0:0,0:0:0:0:
273,176,134449,6,0,B|371:167|322:214|411:213,1,131.250001251698,12|0,0:0|0:0,0:0:0:0:
391,346,134749,2,0,L|367:302,1,43.7500004172325,2|0,0:0|0:0,0:0:0:0:
249,244,134899,2,0,L|275:288,1,43.7500004172325,2|0,0:0|0:0,0:0:0:0:
202,318,135049,2,0,P|248:348|309:348,1,87.500000834465,12|0,0:0|0:0,0:0:0:0:
435,239,135349,1,2,0:0:0:0:
369,159,135499,1,2,0:0:0:0:
136,175,135649,6,0,P|88:186|50:182,2,87.500000834465,12|0|0,0:0|0:0|0:0,0:0:0:0:
245,58,136099,1,0,0:0:0:0:
245,151,136249,2,0,L|286:130,1,43.7500004172325,6|0,0:0|0:0,0:0:0:0:
375,61,136399,2,0,L|317:86,1,43.7500004172325,2|0,0:0|0:0,0:0:0:0:
386,167,136549,1,0,0:0:0:0:
268,209,136699,2,0,L|216:221,1,43.7500004172325,2|0,0:0|0:0,0:0:0:0:
108,271,136849,6,0,B|181:257|136:318|256:293,1,131.250001251698,12|0,0:0|0:0,0:0:0:0:
361,210,137149,6,0,L|343:260,1,43.7500004172325,2|0,0:0|0:0,0:0:0:0:
274,347,137299,2,0,L|282:302,1,43.7500004172325,2|0,0:0|0:0,0:0:0:0:
114,207,137449,1,12,0:0:0:0:
164,317,137599,1,10,0:0:0:0:
278,187,137749,2,0,P|301:147|309:100,1,87.500000834465,2|0,0:0|0:0,0:0:0:0:
82,159,138049,6,0,L|133:166,1,43.7500004172325,12|0,0:0|0:0,0:0:0:0:
240,223,138199,2,0,L|197:230,1,43.7500004172325,2|0,0:0|0:0,0:0:0:0:
98,322,138349,1,2,0:0:0:0:
321,321,138499,1,2,0:0:0:0:
368,298,138574,1,2,0:0:0:0:
412,269,138649,2,0,B|411:209|411:209|436:191|436:191|407:125|431:12,1,262.500002503395,12|0,0:0|0:0,0:0:0:0:
69,174,139249,6,0,P|131:154|218:167,1,131.250001251698,12|0,0:0|0:0,0:0:0:0:
283,280,139549,2,0,L|262:232,1,43.7500004172325,2|0,0:0|0:0,0:0:0:0:
114,240,139699,2,0,L|165:254,1,43.7500004172325,2|0,0:0|0:0,0:0:0:0:
246,347,139849,1,10,0:0:0:0:
358,154,139999,1,8,0:0:0:0:
390,317,140149,1,2,0:0:0:0:
198,191,140299,1,2,0:0:0:0:
155,159,140374,1,2,0:0:0:0:
111,129,140449,6,0,B|76:104|76:104|83:210,1,131.250001251698,12|0,0:0|0:0,0:0:0:0:
139,254,140749,2,0,L|152:199,1,43.7500004172325,2|0,0:0|0:0,0:0:0:0:
263,138,140899,2,0,L|236:192,1,43.7500004172325,2|0,0:0|0:0,0:0:0:0:
256,320,141049,2,0,B|301:276|301:276|314:277|314:277|326:233|386:197,1,175.00000166893,12|0,0:0|0:0,0:0:0:0:
247,197,141499,2,0,P|238:146|249:119,1,43.7500004172325,2|0,0:0|0:0,0:0:0:0:
187,36,141649,6,0,P|138:97|145:179,1,131.250001251698,12|0,0:0|0:0,0:0:0:0:
207,250,141949,2,0,L|152:224,1,43.7500004172325,2|0,0:0|0:0,0:0:0:0:
54,237,142099,2,0,L|93:261,1,43.7500004172325,2|0,0:0|0:0,0:0:0:0:
272,317,142249,6,0,P|224:329|161:320,1,87.500000834465,12|0,0:0|0:0,0:0:0:0:
279,219,142549,1,2,0:0:0:0:
395,336,142699,1,2,0:0:0:0:
395,95,142849,6,0,L|438:70,1,43.7500004172325,12|0,0:0|0:0,0:0:0:0:
288,63,142999,2,0,L|334:89,1,43.7500004172325,8|0,0:0|0:0,0:0:0:0:
177,104,143149,2,0,L|223:77,1,43.7500004172325,2|0,0:0|0:0,0:0:0:0:
93,81,143299,2,0,L|51:107,1,43.7500004172325,2|0,0:0|0:0,0:0:0:0:
158,203,143449,6,0,P|183:227|191:258,3,43.7500004172325,12|2|8|2,0:0|0:0|0:0|0:0,0:0:0:0:
280,192,143749,2,0,L|341:192,1,43.7500004172325,8|2,0:0|0:0,0:0:0:0:
378,255,143899,2,0,L|454:257,1,43.7500004172325,8|2,0:0|0:0,0:0:0:0:
482,195,144049,1,12,0:0:0:0:
256,192,144124,12,0,145174,0:0:0:0:
109,83,145249,5,8,0:0:0:0:
154,230,145399,1,8,0:0:0:0:
266,167,145549,2,0,P|306:164|345:169,1,62.5,2|0,0:0|0:0,0:0:0:0:
273,311,145849,2,0,P|275:256|286:226,1,62.5,8|0,0:0|0:0,0:0:0:0:
385,63,146149,1,2,0:0:0:0:
290,147,146299,6,0,P|227:153|184:145,1,75.0000028610231,12|0,0:0|0:0,0:0:0:0:
67,77,146599,1,2,0:0:0:0:
107,287,146749,1,2,0:0:0:0:
215,151,146899,1,2,0:0:0:0:
290,287,147049,2,0,P|321:327|353:350,1,62.5,8|0,0:0|0:0,0:0:0:0:
372,220,147349,2,0,P|392:184|401:139,1,62.5,2|0,0:0|0:0,0:0:0:0:
211,55,147649,5,12,0:0:0:0:
343,189,147799,1,8,0:0:0:0:
229,299,147949,2,0,P|191:324|138:331,1,75.0000028610231,2|0,0:0|0:0,0:0:0:0:
223,176,148249,2,0,P|241:136|263:116,1,62.5,8|0,0:0|0:0,0:0:0:0:
394,69,148549,1,2,0:0:0:0:
377,233,148699,1,2,0:0:0:0:
377,233,148774,1,2,0:0:0:0:
377,233,148849,6,0,P|347:260|312:270,1,62.5,12|0,0:0|0:0,0:0:0:0:
289,272,149074,1,2,0:0:0:0:
289,272,149149,1,2,0:0:0:0:
103,133,149299,1,2,0:0:0:0:
202,319,149449,1,8,0:0:0:0:
45,206,149599,1,8,0:0:0:0:
272,270,149749,2,0,P|325:274|367:269,1,93.75,2|0,0:0|0:0,0:0:0:0:
431,216,150049,5,8,0:0:0:0:
400,194,150124,1,2,0:0:0:0:
369,172,150199,1,2,0:0:0:0:
338,150,150274,1,2,0:0:0:0:
306,128,150349,2,0,P|281:99|276:86,3,31.25,8|2|2|2,0:0|0:0|0:0|0:0,0:0:0:0:
221,171,150649,5,8,0:0:0:0:
178,186,150724,1,2,0:0:0:0:
133,181,150799,1,2,0:0:0:0:
93,160,150874,1,2,0:0:0:0:
64,124,150949,2,0,L|52:85,3,37.5000014305115,8|2|2|2,0:0|0:0|0:0|0:0,0:0:0:0:
165,85,151249,5,8,0:0:0:0:
209,78,151324,1,2,0:0:0:0:
251,91,151399,1,2,0:0:0:0:
284,120,151474,1,2,0:0:0:0:
301,161,151549,2,0,P|310:194|308:212,3,37.5000014305115,8|2|2|2,0:0|0:0|0:0|0:0,0:0:0:0:
293,258,151849,5,8,0:0:0:0:
273,298,151924,1,2,0:0:0:0:
235,322,151999,1,8,0:0:0:0:
190,322,152074,1,2,0:0:0:0:
147,308,152149,2,0,L|101:271,1,37.5000014305115,8|2,0:0|0:0,0:0:0:0:
88,166,152299,2,0,L|124:199,1,37.5000014305115,8|2,0:0|0:0,0:0:0:0:
194,137,152449,6,0,P|228:135|343:176,1,150.000005722046,12|0,0:0|0:0,0:0:0:0:
224,252,152899,2,0,P|176:257|101:287,1,125,12|0,0:0|0:0,0:0:0:0:
254,325,153349,2,0,P|294:320|339:291,1,75,12|0,0:0|0:0,0:0:0:0:
367,98,154549,2,2,L|357:41,1,50,0|0,0:0|0:0,0:0:0:0:
273,93,154849,6,0,P|237:100|161:74,1,100,12|0,0:0|0:0,0:0:0:0:
171,187,155299,2,0,P|154:225|118:248,1,75.0000028610231,12|0,0:0|0:0,0:0:0:0:
309,186,155749,1,12,0:0:0:0:
256,192,155824,12,0,157174,0:0:0:0:
256,190,157249,5,12,0:0:0:0:
139,65,166849,6,0,P|131:108|132:136,1,50,12|0,0:0|0:0,0:0:0:0:
190,226,167149,2,0,P|193:199|192:172,1,50,2|0,0:0|0:0,0:0:0:0:
141,92,167449,6,0,P|125:132|121:160,1,50,8|0,0:0|0:0,0:0:0:0:
163,259,167749,2,0,P|170:232|174:206,1,50,2|0,0:0|0:0,0:0:0:0:
263,52,168049,6,0,P|240:89|232:116,1,50,12|0,0:0|0:0,0:0:0:0:
251,244,168349,2,0,P|263:219|271:193,1,50,2|0,0:0|0:0,0:0:0:0:
255,97,168649,6,0,P|229:132|218:158,1,50,8|0,0:0|0:0,0:0:0:0:
227,288,168949,2,0,P|241:264|251:239,1,50,2|0,0:0|0:0,0:0:0:0:
440,101,169249,6,0,P|396:103|371:113,1,50,12|0,0:0|0:0,0:0:0:0:
427,184,169549,2,0,P|433:225|446:247,1,50,2|0,0:0|0:0,0:0:0:0:
339,172,169849,2,0,P|306:160|273:163,1,50,8|0,0:0|0:0,0:0:0:0:
305,243,170149,1,2,0:0:0:0:
374,343,170299,1,2,0:0:0:0:
254,307,170449,6,0,P|217:303|193:314,1,50,12|0,0:0|0:0,0:0:0:0:
142,348,170749,1,2,0:0:0:0:
203,227,170899,1,2,0:0:0:0:
278,286,171049,2,0,P|317:286|348:272,1,50,8|0,0:0|0:0,0:0:0:0:
302,212,171349,2,0,P|306:178|319:159,1,50,2|0,0:0|0:0,0:0:0:0:
81,113,171649,6,0,P|130:107|166:114,1,62.5,12|0,0:0|0:0,0:0:0:0:
282,176,171949,2,0,P|245:181|217:178,1,62.5,2|0,0:0|0:0,0:0:0:0:
97,83,172249,6,0,P|146:86|180:99,1,62.5,8|0,0:0|0:0,0:0:0:0:
284,181,172549,2,0,P|247:179|220:172,1,62.5,2|0,0:0|0:0,0:0:0:0:
55,187,172849,6,0,P|101:202|131:223,1,62.5,12|0,0:0|0:0,0:0:0:0:
226,335,173149,2,0,P|190:323|166:309,1,62.5,2|0,0:0|0:0,0:0:0:0:
58,152,173449,6,0,P|102:175|127:201,1,62.5,8|0,0:0|0:0,0:0:0:0:
201,327,173749,2,0,P|168:310|147:291,1,62.5,2|0,0:0|0:0,0:0:0:0:
240,120,174049,6,0,P|248:166|244:200,1,62.5,12|0,0:0|0:0,0:0:0:0:
161,139,174349,2,0,P|131:101|128:78,1,62.5,2|0,0:0|0:0,0:0:0:0:
280,76,174649,2,0,P|318:71|348:79,1,62.5,8|0,0:0|0:0,0:0:0:0:
292,200,174949,2,0,P|286:242|271:269,1,62.5,2|0,0:0|0:0,0:0:0:0:
141,195,175249,6,0,P|98:187|69:192,1,62.5,12|0,0:0|0:0,0:0:0:0:
150,338,175549,1,2,0:0:0:0:
299,209,175699,1,2,0:0:0:0:
96,125,175849,1,8,0:0:0:0:
364,80,176149,2,0,P|375:106|376:140,1,56.2500021457673,2|0,0:0|0:0,0:0:0:0:
343,189,176449,6,0,B|235:180|301:237|162:226,1,150,12|0,0:0|0:0,0:0:0:0:
134,158,176749,2,0,P|100:202|136:298,1,150,12|0,0:0|0:0,0:0:0:0:
223,326,177049,2,0,P|271:291|376:292,1,150,12|0,0:0|0:0,0:0:0:0:
452,357,177349,2,0,L|483:314,1,50,2|0,0:0|0:0,0:0:0:0:
440,242,177499,2,0,L|464:195,1,50,2|0,0:0|0:0,0:0:0:0:
465,120,177649,5,12,0:0:0:0:
189,325,177799,1,2,0:0:0:0:
274,73,177949,1,8,0:0:0:0:
376,326,178099,1,2,0:0:0:0:
162,173,178249,2,0,P|117:142|69:123,1,75.0000028610231,8|0,0:0|0:0,0:0:0:0:
332,232,178549,2,0,P|372:250|426:262,1,75.0000028610231,2|0,0:0|0:0,0:0:0:0:
98,258,178849,6,0,B|208:250|191:299|297:304,1,200,12|0,0:0|0:0,0:0:0:0:
458,234,179299,1,2,0:0:0:0:
134,115,179449,1,8,0:0:0:0:
259,353,179599,1,2,0:0:0:0:
300,49,179749,1,8,0:0:0:0:
152,237,179899,6,0,L|88:287,1,50,2|0,0:0|0:0,0:0:0:0:
29,260,180049,2,0,L|87:223,1,50,12|0,0:0|0:0,0:0:0:0:
107,167,180199,2,0,L|159:130,1,50,8|0,0:0|0:0,0:0:0:0:
247,185,180349,1,8,0:0:0:0:
301,209,180424,1,2,0:0:0:0:
360,204,180499,1,8,0:0:0:0:
410,171,180574,1,2,0:0:0:0:
438,118,180649,1,8,0:0:0:0:
170,76,180799,1,2,0:0:0:0:
241,310,180949,1,8,0:0:0:0:
315,101,181099,1,2,0:0:0:0:
156,190,181249,6,0,P|115:227|161:330,1,150,12|0,0:0|0:0,0:0:0:0:
202,260,181549,2,0,P|250:243|351:274,1,150,12|0,0:0|0:0,0:0:0:0:
339,184,181849,2,0,P|352:125|413:55,1,150,12|0,0:0|0:0,0:0:0:0:
430,150,182149,2,0,L|448:199,1,50,8|0,0:0|0:0,0:0:0:0:
297,124,182299,2,0,L|277:74,1,50,2|0,0:0|0:0,0:0:0:0:
201,158,182449,1,12,0:0:0:0:
347,346,182599,1,2,0:0:0:0:
395,126,182749,1,8,0:0:0:0:
212,340,182899,1,2,0:0:0:0:
64,177,183049,6,0,P|126:171|159:178,1,75.0000028610231,8|0,0:0|0:0,0:0:0:0:
407,206,183349,2,0,P|352:215|306:214,1,75.0000028610231,6|0,0:0|0:0,0:0:0:0:
80,143,183649,5,8,0:0:0:0:
417,94,183799,1,2,0:0:0:0:
244,352,183949,1,8,0:0:0:0:
179,66,184099,1,2,0:0:0:0:
408,261,184249,2,0,P|448:298|472:313,1,75.0000028610231,8|0,0:0|0:0,0:0:0:0:
383,61,184549,1,2,0:0:0:0:
234,215,184699,6,0,P|187:248|43:259,1,200,12|0,0:0|0:0,0:0:0:0:
136,67,185149,1,8,0:0:0:0:
232,276,185299,1,2,0:0:0:0:
260,310,185374,1,2,0:0:0:0:
282,349,185449,1,8,0:0:0:0:
389,98,185599,1,8,0:0:0:0:
152,173,185749,2,0,P|110:184|82:191,1,62.5,2|0,0:0|0:0,0:0:0:0:
166,315,186049,5,0,0:0:0:0:
316,169,186199,1,0,0:0:0:0:
166,315,186349,5,0,0:0:0:0:
316,169,186499,1,0,0:0:0:0:
166,315,186649,5,0,0:0:0:0:
316,169,186799,1,0,0:0:0:0:
81,151,186949,5,0,0:0:0:0:
257,264,187099,1,0,0:0:0:0:
173,51,187249,5,0,0:0:0:0:
199,258,187399,1,0,0:0:0:0:
370,75,187549,5,0,0:0:0:0:
177,154,187699,1,0,0:0:0:0:
356,83,187849,5,0,0:0:0:0:
162,161,187999,1,0,0:0:0:0:
322,94,188149,5,0,0:0:0:0:
128,172,188299,1,0,0:0:0:0:
322,94,188449,6,0,P|370:71|427:61,1,87.500000834465,12|0,0:0|0:0,0:0:0:0:
212,213,188749,2,0,P|168:235|118:237,1,87.500000834465,2|0,0:0|0:0,0:0:0:0:
226,99,189049,2,0,B|264:75|264:75|317:70,1,87.500000834465,8|0,0:0|0:0,0:0:0:0:
370,300,189349,1,2,0:0:0:0:
182,267,189499,6,0,B|124:246|43:277|43:277|63:249|70:204,1,200,12|0,0:0|0:0,0:0:0:0:
168,48,189949,1,2,0:0:0:0:
182,267,190099,1,2,0:0:0:0:
325,123,190249,2,0,P|367:82|404:63,1,87.500000834465,8|0,0:0|0:0,0:0:0:0:
190,175,190549,2,0,P|148:216|111:235,1,87.500000834465,2|0,0:0|0:0,0:0:0:0:
376,90,190849,5,8,0:0:0:0:
236,259,190999,1,2,0:0:0:0:
376,90,191149,5,8,0:0:0:0:
236,259,191299,1,2,0:0:0:0:
433,157,191449,5,8,0:0:0:0:
160,136,191599,1,2,0:0:0:0:
433,157,191749,5,8,0:0:0:0:
160,136,191899,1,2,0:0:0:0:
295,49,192049,5,8,0:0:0:0:
188,255,192199,1,2,0:0:0:0:
295,49,192349,5,8,0:0:0:0:
188,255,192499,1,2,0:0:0:0:
116,92,192649,5,8,0:0:0:0:
151,349,192799,1,2,0:0:0:0:
141,30,192949,5,8,0:0:0:0:
189,304,193099,1,2,0:0:0:0:
189,304,193174,1,2,0:0:0:0:
189,304,193249,6,0,B|325:289|248:335|388:332,1,200,12|0,0:0|0:0,0:0:0:0:
344,180,193699,1,2,0:0:0:0:
182,227,193849,2,0,P|128:244|81:237,1,75.0000028610231,8|0,0:0|0:0,0:0:0:0:
195,104,194149,1,2,0:0:0:0:
278,259,194299,6,0,P|320:294|394:303,1,100,8|0,0:0|0:0,0:0:0:0:
428,142,194599,2,0,P|388:176|362:208,1,75.0000028610231,8|0,0:0|0:0,0:0:0:0:
465,217,194899,1,2,0:0:0:0:
241,73,195049,1,2,0:0:0:0:
87,188,195199,2,0,P|47:205|3:203,1,75.0000028610231,8|0,0:0|0:0,0:0:0:0:
235,267,195499,2,0,P|263:289|271:297,1,25,2|0,0:0|0:0,0:0:0:0:
341,326,195649,5,12,0:0:0:0:
229,91,195799,1,2,0:0:0:0:
341,326,195949,5,8,0:0:0:0:
229,91,196099,1,2,0:0:0:0:
254,370,196249,5,12,0:0:0:0:
350,214,196399,1,2,0:0:0:0:
177,248,196549,5,8,0:0:0:0:
433,282,196699,1,2,0:0:0:0:
344,83,196849,5,12,0:0:0:0:
111,281,196999,1,2,0:0:0:0:
344,83,197149,5,8,0:0:0:0:
111,281,197299,1,2,0:0:0:0:
261,319,197449,1,12,0:0:0:0:
189,88,197599,1,2,0:0:0:0:
367,290,197749,2,0,P|396:317|416:326,1,50,2|0,0:0|0:0,0:0:0:0:
262,296,198049,6,0,B|238:292|225:301|225:301|176:289|213:338|87:315,1,150,12|0,0:0|0:0,0:0:0:0:
155,225,198349,2,0,P|231:196|315:205,1,150,2|0,0:0|0:0,0:0:0:0:
298,348,198649,2,0,P|259:304|251:258,1,75.0000028610231,8|0,0:0|0:0,0:0:0:0:
368,268,198949,1,2,0:0:0:0:
277,107,199099,6,0,B|125:107|246:147|71:142,1,200,12|0,0:0|0:0,0:0:0:0:
139,51,199549,1,2,0:0:0:0:
90,236,199699,1,2,0:0:0:0:
275,180,199849,2,0,P|334:161|381:157,1,75.0000028610231,8|0,0:0|0:0,0:0:0:0:
206,287,200149,2,0,P|150:302|109:295,1,75.0000028610231,6|0,0:0|0:0,0:0:0:0:
339,75,200449,5,12,0:0:0:0:
365,316,200599,1,2,0:0:0:0:
339,75,200749,5,12,0:0:0:0:
365,316,200899,1,2,0:0:0:0:
145,285,201049,5,12,0:0:0:0:
387,74,201199,1,2,0:0:0:0:
97,141,201349,5,12,0:0:0:0:
427,287,201499,1,2,0:0:0:0:
97,141,201649,5,12,0:0:0:0:
427,287,201799,1,2,0:0:0:0:
61,53,201949,5,12,0:0:0:0:
434,316,202099,1,2,0:0:0:0:
128,350,202249,5,12,0:0:0:0:
446,36,202399,1,10,0:0:0:0:
126,171,202549,1,12,0:0:0:0:
325,291,202699,1,2,0:0:0:0:
182,194,204349,5,2,0:0:0:0:
256,107,204499,1,2,0:0:0:0:
322,192,204649,1,2,0:0:0:0:
