osu file format v14

[General]
AudioFilename: The Empress.mp3
AudioLeadIn: 0
PreviewTime: 160041
Countdown: 0
SampleSet: Soft
StackLeniency: 0.7
Mode: 0
LetterboxInBreaks: 0
WidescreenStoryboard: 1
SamplesMatchPlaybackRate: 1

[Editor]
Bookmarks: 57898,132755
DistanceSpacing: 1.1
BeatDivisor: 4
GridSize: 32
TimelineZoom: 2.4

[Metadata]
Title:Ghost Rule
TitleUnicode:ゴーストルール
Artist:DECO*27 ft. yuikonnu
ArtistUnicode:ゆいこんぬ
Creator:Nevertary
Version:Zonthem's Insane
Source:
Tags:ゴーストルール Goosuto Ruuru GHOST vocaloid hatsune miku utaite Lokidoki Zonthem Mir FruityEnLoops Aikyuu-Chan rizal12378
BeatmapID:1230377
BeatmapSetID:417146

[Difficulty]
HPDrainRate:5
CircleSize:4
OverallDifficulty:7
ApproachRate:9
SliderMultiplier:1.6
SliderTickRate:1

[Events]
//Background and Video events
0,0,"BGhostrule.jpg",0,0
//Break Periods
2,9526,17869
2,66669,75012
2,123812,129869
//Storyboard Layer 0 (Background)
//Storyboard Layer 1 (Fail)
//Storyboard Layer 2 (Pass)
//Storyboard Layer 3 (Foreground)
//Storyboard Sound Samples

[TimingPoints]
184,285.714285714286,4,2,1,100,1,0
184,-133.333333333333,4,2,1,70,0,0
18469,-111.111111111111,4,1,1,70,0,0
36612,-133.333333333333,4,1,1,70,0,0
41326,-117.647058823529,4,1,1,70,0,0
45898,-200,4,2,1,90,0,0
47612,-133.333333333333,4,2,1,90,0,0
48184,-100,4,1,1,90,0,1
65898,-133.333333333333,4,2,1,60,0,0
84326,-133.333333333333,4,1,1,60,0,0
84755,-111.111111111111,4,1,1,70,0,0
93898,-133.333333333333,4,1,1,70,0,0
98469,-117.647058823529,4,1,1,70,0,0
103041,-200,4,2,1,90,0,0
105326,-100,4,1,1,90,0,1
123041,-133.333333333333,4,2,1,60,0,0
141898,-133.333333333333,4,2,1,70,0,0
153326,-200,4,2,1,70,0,0
160184,-100,4,1,1,90,0,1
169326,-90.9090909090909,4,1,1,90,0,1
173898,-83.3333333333333,4,1,1,90,0,1
178184,-66.6666666666667,4,1,1,90,0,1
178469,-90.9090909090909,4,1,1,90,0,1
196041,-66.6666666666667,4,1,1,90,0,1
196184,-200,4,2,1,70,0,0

[Colours]
Combo1 : 255,255,0
Combo2 : 0,0,255
Combo3 : 0,128,255
Combo4 : 10,169,245
Combo5 : 0,255,255
SliderBorder : 0,150,200
SliderTrackOverride : 20,35,55

[HitObjects]
294,73,184,6,0,P|332:110|354:189,2,120.000004577637
176,115,1041,1,0,0:0:0:0:
254,164,1184,2,0,P|254:217|214:288,1,120.000004577637
125,278,1612,2,0,B|138:228|165:199|165:199|167:183|160:156,2,120.000004577637
87,102,2469,5,0,0:0:0:0:
254,164,2755,1,0,0:0:0:0:
125,278,3041,1,0,0:0:0:0:
182,98,3326,1,0,0:0:0:0:
182,98,3469,2,0,P|166:156|116:193,1,120.000004577637
37,131,3898,2,0,P|17:179|40:257,1,120.000004577637
125,278,4326,1,0,0:0:0:0:
304,141,4612,5,0,0:0:0:0:
278,231,4755,2,0,B|306:238|338:233|338:233|355:257|385:275,1,120.000004577637
394,116,5326,2,0,P|398:172|461:215,1,120.000004577637
469,138,5755,2,0,B|500:92|500:92|499:20,1,120.000004577637
412,26,6184,2,0,P|372:45|286:40,1,120.000004577637
216,19,6612,1,0,0:0:0:0:
358,203,7041,5,0,0:0:0:0:
257,289,7326,1,0,0:0:0:0:
136,211,7612,2,0,L|32:294,1,120.000004577637
139,321,8041,2,0,L|199:275,1,60.0000022888184
232,217,8326,6,0,P|258:202|237:277,1,180.000006866455
136,211,8898,2,0,L|88:247,1,60.0000022888184
139,321,9184,1,0,0:0:0:0:
139,133,9326,1,0,0:0:0:0:
200,126,18469,6,0,L|275:172,1,71.9999978027344
355,124,18755,2,0,P|364:171|346:220,1,71.9999978027344
289,252,19041,2,0,P|284:287|293:322,1,71.9999978027344
368,281,19326,1,0,0:0:0:0:
261,163,19469,2,0,P|231:198|207:303,1,143.999995605469
289,252,19898,5,0,0:0:0:0:
162,161,20041,2,0,B|147:184|139:206|139:206|96:207|43:243,1,143.999995605469
44,325,20469,2,0,P|82:317|123:289,1,71.9999978027344
84,139,20755,5,0,0:0:0:0:
362,159,21041,1,0,0:0:0:0:
309,74,21184,2,0,P|274:113|275:210,2,143.999995605469
489,192,22041,5,0,0:0:0:0:
435,268,22184,1,0,0:0:0:0:
383,345,22326,2,0,P|342:354|297:346,1,71.9999978027344
227,272,22612,1,0,0:0:0:0:
181,179,22755,2,0,P|215:170|251:173,1,71.9999978027344
337,265,23041,5,0,0:0:0:0:
419,54,23326,2,0,P|382:73|309:71,1,107.999996704102
263,27,23612,2,0,B|274:60|274:60|252:93,1,71.9999978027344
181,179,23898,1,0,0:0:0:0:
318,178,24041,2,0,L|396:210,1,71.9999978027344
386,301,24326,5,0,0:0:0:0:
475,255,24469,1,0,0:0:0:0:
484,355,24612,2,0,P|424:343|338:353,1,143.999995605469
245,373,25041,1,0,0:0:0:0:
305,275,25184,1,0,0:0:0:0:
208,313,25326,6,0,P|174:323|119:320,1,71.9999978027344
75,197,25612,1,0,0:0:0:0:
209,207,25755,2,0,P|181:239|135:244,1,71.9999978027344
44,141,26041,2,0,B|76:197|76:197|58:236|58:236|79:277,1,143.999995605469
208,313,26469,6,0,P|248:298|285:267,1,71.9999978027344
341,161,26755,1,0,0:0:0:0:
396,222,26898,1,0,0:0:0:0:
420,131,27041,2,0,L|432:42,2,71.9999978027344
325,233,27469,1,0,0:0:0:0:
466,189,27612,6,0,P|462:264|394:299,1,143.999995605469
235,150,28184,1,0,0:0:0:0:
69,309,28469,1,0,0:0:0:0:
142,370,28612,2,0,P|161:337|160:293,1,71.9999978027344
113,230,28898,1,0,0:0:0:0:
197,221,29041,1,0,0:0:0:0:
149,158,29184,2,0,P|167:97|245:65,1,143.999995605469
347,267,29755,5,0,0:0:0:0:
408,200,29898,2,0,P|397:145|407:68,1,107.999996704102
439,50,30184,1,0,0:0:0:0:
312,143,30326,2,0,P|317:191|326:228,1,71.9999978027344
499,287,30612,2,0,P|451:282|414:273,1,71.9999978027344
271,274,30898,6,0,P|223:279|186:288,1,71.9999978027344
67,338,31184,1,0,0:0:0:0:
150,357,31326,1,0,0:0:0:0:
126,286,31469,2,0,P|115:212|116:143,2,143.999995605469
199,284,32184,1,0,0:0:0:0:
38,216,32326,6,0,P|38:251|44:287,2,71.9999978027344
116,142,32755,2,0,P|115:106|109:70,1,71.9999978027344
10,94,33041,1,0,0:0:0:0:
63,21,33184,2,0,P|107:30|185:19,1,107.999996704102
223,22,33469,1,0,0:0:0:0:
231,132,33612,1,0,0:0:0:0:
304,67,33755,2,0,P|357:45|445:61,1,143.999995605469
243,257,34326,5,0,0:0:0:0:
297,193,34469,2,0,P|340:198|390:188,1,71.9999978027344
441,142,34755,1,0,0:0:0:0:
512,214,34898,1,0,0:0:0:0:
512,138,35041,5,0,0:0:0:0:
442,218,35184,2,0,B|442:255|442:255|425:293,1,71.9999978027344
368,194,35469,1,0,0:0:0:0:
243,257,35612,6,0,P|283:248|340:261,1,71.9999978027344
427,286,35898,1,0,0:0:0:0:
287,335,36041,1,0,0:0:0:0:
274,173,36184,2,0,L|274:114,3,35.9999989013672
276,100,36469,5,0,0:0:0:0:
164,42,36755,2,0,B|190:87|167:158|167:158|148:214|170:288,2,240.000009155274
58,46,38184,2,0,P|69:74|106:107,1,60.0000022888184
276,100,38469,2,0,P|295:122|306:150,1,60.0000022888184
218,169,38755,1,0,0:0:0:0:
299,21,39041,6,0,P|365:80|393:188,1,180.000006866455
342,286,39898,2,0,B|293:299|293:299|248:284|248:284|213:314|161:326,1,180.000006866455
42,226,40755,1,0,0:0:0:0:
165,228,41041,1,0,0:0:0:0:
236,123,41326,6,0,B|270:109|313:126|313:126|409:159|472:67|365:-14|316:2|254:10|298:171|313:201|313:201|329:233|329:284,1,544.000010375977
165,228,42755,1,0,0:0:0:0:
395,273,43041,2,0,P|359:265|309:263,1,68.0000012969971
232,321,43326,2,0,P|268:329|318:331,1,68.0000012969971
393,198,43612,6,0,B|326:179|238:196|238:196|138:217|94:191|59:162|56:108|71:61|106:28|169:22|207:68|208:113,1,544.000010375977
256,192,44826,12,0,45612,0:0:0:0:
310,115,45898,6,0,L|331:194,1,80
253,251,46326,2,0,P|277:274|325:289,1,80
393,249,46755,2,0,P|431:260|460:286,1,80
391,328,47184,1,0,0:0:0:0:
456,80,47612,2,0,P|371:108|272:75,1,180.000006866455
179,31,48184,6,0,P|181:61|157:122,1,80
62,176,48469,2,0,P|48:213|49:253,1,80
144,324,48755,1,0,0:0:0:0:
234,291,48898,1,0,0:0:0:0:
247,195,49041,1,0,0:0:0:0:
145,228,49184,1,0,0:0:0:0:
298,249,49326,6,0,L|401:255,1,80
357,141,49612,1,0,0:0:0:0:
441,185,49755,2,0,B|467:205|473:247|473:247|515:222|514:164,1,160
498,78,50184,2,0,P|471:104|406:95,1,80
327,32,50469,5,0,0:0:0:0:
238,69,50612,1,0,0:0:0:0:
147,37,50755,1,0,0:0:0:0:
64,86,50898,1,0,0:0:0:0:
152,123,51041,2,0,P|188:138|216:166,1,80
189,290,51326,5,0,0:0:0:0:
143,206,51469,1,0,0:0:0:0:
102,302,51612,2,0,P|117:338|145:366,1,80
245,367,51898,5,0,0:0:0:0:
284,279,52041,2,0,B|324:291|342:331|342:331|402:282|451:283|451:283|439:247|464:215,1,240
495,145,52755,6,0,P|457:159|413:154,1,80
340,70,53041,2,0,P|300:66|263:80,1,80
240,172,53326,1,0,0:0:0:0:
156,124,53469,1,0,0:0:0:0:
73,172,53612,1,0,0:0:0:0:
156,218,53755,1,0,0:0:0:0:
79,87,53898,6,0,P|26:100|-2:133,1,80
0,221,54184,1,0,0:0:0:0:
73,282,54326,2,0,P|135:320|216:303,1,160
156,218,54755,5,0,0:0:0:0:
377,300,55041,2,0,P|394:260|390:223,1,80
321,164,55326,2,0,P|318:124|334:88,1,80
403,148,55612,2,0,P|405:187|389:223,1,80
311,250,55898,1,0,0:0:0:0:
377,300,56041,1,0,0:0:0:0:
448,274,56184,6,0,B|476:246|485:187,1,80
452,87,56469,1,0,0:0:0:0:
369,37,56612,2,0,P|319:35|225:95,1,160
227,90,57041,5,0,0:0:0:0:
429,211,57326,2,0,P|412:248|362:281,1,80
257,245,57612,2,0,P|274:208|324:175,1,80
441,267,57898,2,0,P|412:293|354:324,1,80
248,186,58184,2,0,P|277:160|335:129,1,80
426,324,58469,6,0,P|388:345|339:354,1,80
265,127,58755,2,0,P|303:106|352:97,1,80
324,238,59041,2,0,L|238:276,2,80
338,97,59469,1,0,0:0:0:0:
434,97,59612,6,0,P|427:138|403:170,1,80
283,157,59898,1,0,0:0:0:0:
250,270,60041,1,0,0:0:0:0:
173,199,60184,2,0,P|149:231|143:270,1,80
243,360,60469,5,0,0:0:0:0:
153,306,60612,1,0,0:0:0:0:
63,348,60755,2,0,B|50:306|61:273|61:273|68:251|61:228,1,120
45,179,61041,1,0,0:0:0:0:
173,199,61184,2,0,P|152:167|239:146,1,160
271,222,61612,5,0,0:0:0:0:
417,125,61898,2,0,P|378:110|320:122,1,80
271,222,62184,2,0,P|309:236|367:224,1,80
385,76,62470,2,0,P|346:78|283:97,1,80
306,270,62756,2,0,P|344:267|407:248,1,80
334,47,63041,6,0,P|292:59|251:87,1,80
360,300,63327,2,0,P|401:287|442:259,1,80
323,180,63613,2,0,L|235:213,2,80
334,47,64041,1,0,0:0:0:0:
451,112,64184,6,0,P|471:156|470:200,1,80
323,180,64469,1,0,0:0:0:0:
432,268,64612,1,0,0:0:0:0:
395,159,64755,2,0,P|375:115|383:74,1,80
487,18,65041,5,0,0:0:0:0:
390,35,65184,1,0,0:0:0:0:
299,5,65326,2,0,P|273:35|259:89,1,80
395,159,65612,1,0,0:0:0:0:
273,179,65755,2,0,L|188:222,1,80
273,179,66184,5,0,0:0:0:0:
82,265,66469,1,0,0:0:0:0:
256,192,75612,5,0,0:0:0:0:
256,192,75898,2,0,P|256:226|273:267,1,60.0000022888184
377,251,76184,2,0,P|362:313|311:355,1,120.000004577637
213,333,76612,2,0,B|187:317|162:325|162:325|139:332|109:331|85:301,1,120.000004577637
141,256,77041,1,0,0:0:0:0:
77,189,77184,1,0,0:0:0:0:
259,249,77755,5,0,0:0:0:0:
206,175,77898,2,0,L|162:111,1,60.0000022888184
135,25,78184,1,0,0:0:0:0:
219,54,78326,2,0,L|252:103,1,60.0000022888184
289,187,78612,2,0,P|253:246|189:257,2,120.000004577637
252,103,79326,1,0,0:0:0:0:
206,175,79469,1,0,0:0:0:0:
414,159,80184,5,0,0:0:0:0:
414,159,80469,2,0,P|404:202|381:233,1,60.0000022888184
310,200,80755,2,0,P|316:251|375:300,1,120.000004577637
453,277,81184,1,0,0:0:0:0:
240,209,81469,1,0,0:0:0:0:
260,296,81612,1,0,0:0:0:0:
325,357,81755,2,0,P|383:366|433:320,1,120.000004577637
461,147,82326,5,0,0:0:0:0:
370,147,82469,2,0,L|305:110,1,60.0000022888184
317,26,82755,1,0,0:0:0:0:
226,26,82898,2,0,L|173:55,1,60.0000022888184
173,146,83184,1,0,0:0:0:0:
46,19,83469,2,0,L|46:145,1,120.000004577637
114,198,83898,2,0,P|87:219|37:228,2,60.0000022888184
173,146,84326,6,0,B|190:169|190:169|222:187,1,60.0000022888184
293,135,84612,1,0,0:0:0:0:
299,225,84755,6,0,P|294:268|273:310,1,71.9999978027344
142,248,85041,2,0,P|147:291|168:333,1,71.9999978027344
217,184,85326,2,0,P|213:148|201:114,1,71.9999978027344
131,162,85612,1,0,0:0:0:0:
277,120,85755,6,0,B|327:132|327:132|422:122,1,143.999995605469
510,115,86184,1,0,0:0:0:0:
466,189,86326,2,0,L|316:205,1,143.999995605469
123,77,86898,5,0,0:0:0:0:
65,141,87041,2,0,P|68:170|94:218,1,71.9999978027344
148,151,87326,1,0,0:0:0:0:
223,192,87469,2,0,P|220:221|177:291,1,107.999996704102
147,327,87755,1,0,0:0:0:0:
289,133,88041,6,0,P|302:197|274:288,1,143.999995605469
201,259,88469,1,0,0:0:0:0:
261,350,88612,2,0,P|219:340|181:344,1,71.9999978027344
75,323,88898,2,0,B|44:307|1:301|1:301|39:278|58:249,1,143.999995605469
137,189,89326,6,0,P|181:193|210:184,1,71.9999978027344
307,135,89612,1,0,0:0:0:0:
171,271,89898,2,0,P|215:268|274:236,1,107.999996704102
320,205,90184,1,0,0:0:0:0:
338,276,90326,2,0,B|346:315|346:315|370:349,1,71.9999978027344
416,236,90612,5,0,0:0:0:0:
474,314,90755,1,0,0:0:0:0:
507,198,90898,2,0,P|452:143|372:144,1,143.999995605469
122,229,91469,5,0,0:0:0:0:
165,154,91612,2,0,P|203:144|245:119,1,71.9999978027344
239,25,91898,1,0,0:0:0:0:
303,82,92041,2,0,P|336:101|384:113,1,71.9999978027344
459,47,92326,2,0,P|474:76|447:192,1,143.999995605469
351,206,92755,5,0,0:0:0:0:
384,309,92898,1,0,0:0:0:0:
426,249,93041,1,0,0:0:0:0:
316,272,93184,1,0,0:0:0:0:
282,185,93326,2,0,P|277:143|260:110,1,71.9999978027344
207,168,93612,5,0,0:0:0:0:
356,157,93898,2,0,P|342:100|179:34,2,240.000009155274
207,168,95326,1,0,0:0:0:0:
302,236,95612,2,0,P|275:251|246:258,1,60.0000022888184
177,235,95898,2,0,P|147:242|121:256,1,60.0000022888184
83,349,96184,6,0,B|133:361|179:339|179:339|215:355|215:355|274:349,1,180.000006866455
328,246,97041,2,0,P|365:245|321:317,1,180.000006866455
317,162,97898,1,0,0:0:0:0:
317,162,98184,1,0,0:0:0:0:
353,61,98469,6,0,B|266:48|214:86|209:187|91:147|91:147|126:78|54:37|-13:70|-27:142|28:211,1,544.000010375977
192,261,99898,2,0,P|147:260|107:271,1,68.0000012969971
14,342,100184,2,0,P|54:361|95:367,1,68.0000012969971
222,331,100469,2,0,P|254:299|275:263,1,68.0000012969971
301,170,100755,6,0,B|312:133|303:86|303:86|271:98|216:102|216:102|201:150|162:225|162:225|227:220|308:237|355:293|361:344,1,544.000010375977
256,192,101969,12,0,102755,0:0:0:0:
281,135,103041,6,0,L|304:212,1,80
241,275,103469,2,0,P|276:298|321:300,1,80
452,220,103898,2,0,P|419:242|379:246,1,80
281,135,104326,2,0,P|316:112|361:110,1,80
393,171,104755,1,0,0:0:0:0:
393,171,105327,6,0,P|395:201|371:262,1,80
243,325,105612,2,0,P|241:285|256:248,1,80
318,194,105898,1,0,0:0:0:0:
321,298,106041,1,0,0:0:0:0:
170,258,106184,1,0,0:0:0:0:
244,174,106327,1,0,0:0:0:0:
243,325,106469,6,0,P|209:346|171:356,1,80
68,263,106755,1,0,0:0:0:0:
93,135,106899,2,0,B|132:124|172:153|172:153|204:177|250:173,1,160
199,64,107327,2,0,P|221:95|259:94,1,80
259,7,107612,5,0,0:0:0:0:
128,64,107755,1,0,0:0:0:0:
243,173,107898,1,0,0:0:0:0:
199,64,108041,1,0,0:0:0:0:
93,136,108184,2,0,P|87:174|98:212,1,80
232,259,108469,5,0,0:0:0:0:
168,169,108612,1,0,0:0:0:0:
25,222,108755,2,0,P|42:265|68:286,1,80
232,259,109041,5,0,0:0:0:0:
153,323,109185,2,0,B|125:367|81:374|81:374|139:389|246:317,1,240
309,225,109898,6,0,P|323:263|318:307,1,80
209,237,110185,2,0,P|195:199|198:160,1,80
323,91,110469,1,0,0:0:0:0:
279,156,110612,1,0,0:0:0:0:
241,81,110755,1,0,0:0:0:0:
364,163,110898,1,0,0:0:0:0:
198,160,111041,6,0,P|157:164|114:157,1,80
24,113,111327,1,0,0:0:0:0:
29,220,111469,2,0,B|48:254|80:262|80:262|98:310|150:320,1,160
161,235,111898,5,0,0:0:0:0:
27,320,112185,2,0,P|51:354|94:379,1,80
161,235,112470,2,0,P|185:201|228:176,1,80
292,281,112756,2,0,P|325:258|347:226,1,80
324,124,113041,1,0,0:0:0:0:
442,156,113184,1,0,0:0:0:0:
370,53,113327,6,0,B|330:27|280:48,1,80
216,180,113612,1,0,0:0:0:0:
324,124,113756,2,0,P|251:114|206:33,1,160
293,43,114184,5,0,0:0:0:0:
83,211,114469,2,0,P|100:248|150:281,1,80
255,245,114755,2,0,P|238:208|188:175,1,80
71,267,115041,2,0,P|100:293|158:324,1,80
264,186,115327,2,0,P|235:160|177:129,1,80
86,324,115612,6,0,P|124:345|173:354,1,80
247,127,115898,2,0,P|209:106|160:97,1,80
188,238,116184,2,0,L|274:276,2,80
174,97,116612,1,0,0:0:0:0:
329,120,116755,6,0,P|322:161|298:193,1,80
188,238,117041,1,0,0:0:0:0:
247,127,117184,1,0,0:0:0:0:
265,265,117327,2,0,P|243:298|208:317,1,80
130,186,117612,5,0,0:0:0:0:
247,127,117755,1,0,0:0:0:0:
188,238,117899,2,0,P|133:264|93:252,1,80
45,179,118184,1,0,0:0:0:0:
88,76,118327,2,0,B|118:58|142:18|142:18|167:55|201:71,1,160
247,127,118755,5,0,0:0:0:0:
240,254,119041,2,0,P|281:247|325:208,1,80
318,97,119327,2,0,P|278:103|233:143,1,80
293,281,119613,2,0,P|325:259|370:211,1,80
264,73,119899,2,0,P|232:94|187:142,1,80
351,281,120184,6,0,P|381:249|402:204,1,80
202,74,120470,2,0,P|172:105|151:150,1,80
294,160,120756,2,0,L|353:87,2,80
351,281,121184,1,0,0:0:0:0:
176,213,121327,6,0,P|156:169|157:125,1,80
276,65,121612,1,0,0:0:0:0:
294,160,121755,1,0,0:0:0:0:
418,121,121899,2,0,P|414:81|397:45,1,80
294,160,122184,5,0,0:0:0:0:
398,217,122327,1,0,0:0:0:0:
342,103,122469,2,0,P|305:87|248:104,1,80
176,213,122756,1,0,0:0:0:0:
326,253,122898,2,0,L|397:216,1,80
326,253,123326,5,0,0:0:0:0:
496,164,123612,1,0,0:0:0:0:
256,192,130469,12,0,132469,0:0:0:0:
126,179,132755,6,0,L|147:258,1,60.0000022888184
230,202,133041,2,0,L|214:259,1,60.0000022888184
295,143,133326,2,0,L|316:222,1,60.0000022888184
401,192,133612,2,0,L|380:271,1,60.0000022888184
317,306,133898,2,0,P|377:296|435:343,1,120.000004577637
359,374,134326,1,0,0:0:0:0:
119,198,134898,5,0,0:0:0:0:
119,198,135041,2,0,L|83:145,1,60.0000022888184
173,145,135326,2,0,L|153:88,1,60.0000022888184
245,119,135612,2,0,L|240:59,1,60.0000022888184
316,103,135898,2,0,L|327:44,1,60.0000022888184
416,76,136184,2,0,L|361:188,1,120.000004577637
276,215,136612,2,0,B|324:200|361:231|361:231|399:262|454:246,1,180.000006866455
416,76,137326,6,0,L|441:141,1,60.0000022888184
348,224,137612,2,0,L|373:159,1,60.0000022888184
435,240,137898,2,0,L|410:305,1,60.0000022888184
358,357,138184,2,0,L|336:300,1,60.0000022888184
348,224,138469,1,0,0:0:0:0:
212,302,138755,1,0,0:0:0:0:
212,302,138898,2,0,B|183:298|146:307|146:307|160:237|155:195|155:195|187:193|228:162,1,240.000009155274
153,118,139612,6,0,P|108:129|82:215,1,120.000004577637
157,242,140041,2,0,L|299:226,1,120.000004577637
341,164,140469,2,0,P|358:186|367:233,1,60.0000022888184
317,295,140755,2,0,P|336:357|365:283,1,180.000006866455
276,228,141326,1,0,0:0:0:0:
276,228,141898,6,0,L|203:218,1,60.0000022888184
196,145,142184,2,0,L|137:154,1,60.0000022888184
55,215,142469,2,0,L|114:223,1,60.0000022888184
125,83,142755,2,0,L|65:91,1,60.0000022888184
55,215,143041,1,0,0:0:0:0:
210,58,143326,1,0,0:0:0:0:
196,145,143469,2,0,B|229:150|255:133|255:133|289:148|326:151|326:151|341:178|367:189,1,180.000006866455
356,183,144041,5,0,0:0:0:0:
460,135,144184,2,0,L|498:200,1,60.0000022888184
393,281,144469,2,0,L|431:216,1,60.0000022888184
386,131,144755,2,0,L|348:196,1,60.0000022888184
263,242,145041,2,0,L|301:307,1,60.0000022888184
354,376,145326,5,0,0:0:0:0:
275,372,145469,1,0,0:0:0:0:
217,319,145612,1,0,0:0:0:0:
182,248,145755,2,0,B|173:209|177:160|177:160|150:187|86:215,1,180.000006866455
50,112,146469,6,0,P|85:95|110:68,1,60.0000022888184
178,29,146755,2,0,P|191:59|190:108,1,60.0000022888184
285,105,147041,2,0,P|272:135|237:169,1,60.0000022888184
308,234,147326,2,0,P|278:247|229:246,1,60.0000022888184
166,186,147612,2,0,P|148:222|145:260,1,60.0000022888184
228,322,147898,1,0,0:0:0:0:
157,364,148041,2,0,B|78:381|48:332|48:332|71:306|104:300,1,180.000006866455
144,241,148612,5,0,0:0:0:0:
228,322,148755,2,0,L|303:320,1,60.0000022888184
426,269,149041,1,0,0:0:0:0:
342,188,149184,2,0,L|267:190,1,60.0000022888184
144,241,149469,5,0,0:0:0:0:
242,249,149612,1,0,0:0:0:0:
152,133,149755,1,0,0:0:0:0:
282,189,149898,2,0,L|401:186,1,120.000004577637
505,210,150326,1,0,0:0:0:0:
431,252,150469,2,0,P|449:275|475:290,1,60.0000022888184
466,141,150755,1,0,0:0:0:0:
334,376,151041,5,0,0:0:0:0:
256,192,151184,12,0,153041,0:0:0:0:
261,124,153326,6,0,B|295:149|292:202|292:202|305:220|305:220|334:209|368:218,1,160
341,293,154184,1,0,0:0:0:0:
356,136,154469,2,0,P|338:93|306:67,2,80
276,143,155326,1,0,0:0:0:0:
426,79,155612,5,0,0:0:0:0:
426,79,155898,1,0,0:0:0:0:
490,181,156184,2,0,B|407:153|422:225|329:201,1,160
215,153,157041,1,0,0:0:0:0:
244,196,157184,2,0,L|248:288,1,80
175,315,157612,2,0,L|174:267,1,40
215,153,157898,5,0,0:0:0:0:
215,153,159898,1,0,0:0:0:0:
215,153,160184,6,0,L|256:260,1,80
424,197,160469,2,0,L|383:304,1,80
263,352,160755,1,0,0:0:0:0:
369,336,160898,1,0,0:0:0:0:
214,302,161041,2,0,L|242:227,1,80
365,160,161326,6,0,P|318:157|275:130,1,80
205,55,161612,1,0,0:0:0:0:
217,158,161755,2,0,B|197:189|152:203|152:203|110:220|93:262,1,160
213,276,162184,2,0,P|168:276|164:316,1,80
87,158,162469,6,0,P|47:195|27:230,1,80
31,350,162755,1,0,0:0:0:0:
95,255,162898,1,0,0:0:0:0:
108,343,163041,5,0,0:0:0:0:
33,216,163184,1,0,0:0:0:0:
213,276,163326,2,0,B|205:229|205:229|176:196,1,80
139,128,163612,2,0,P|166:173|257:132,1,160
286,36,164041,2,0,B|318:61|318:61|352:45|352:45|388:69|439:58,1,160
430,59,164469,5,0,0:0:0:0:
139,128,164755,2,0,P|196:114|233:116,1,80
298,186,165041,2,0,P|337:183|375:172,1,80
430,59,165326,1,0,0:0:0:0:
328,104,165469,1,0,0:0:0:0:
449,133,165612,2,0,P|462:174|442:224,1,80
383,344,165898,6,0,L|359:257,1,80
461,340,166184,1,0,0:0:0:0:
307,345,166326,2,0,B|265:331|228:340|228:340|185:353|146:338,1,160
142,254,166755,2,0,P|191:271|232:258,1,80
279,158,167041,6,0,B|294:197|294:197|299:245,1,80
366,141,167326,2,0,B|369:179|369:179|384:218,1,80
445,124,167612,2,0,B|472:196|472:196|482:286,1,160
279,158,168184,6,0,P|231:180|182:188,1,80
107,147,168469,1,0,0:0:0:0:
257,212,168612,2,0,P|246:250|229:286,1,80
135,225,168898,1,0,0:0:0:0:
135,225,169041,1,0,0:0:0:0:
306,313,169326,6,0,P|366:311|414:296,1,88.000002685547
339,216,169612,2,0,P|389:184|424:147,1,88.000002685547
314,116,169898,1,0,0:0:0:0:
451,98,170041,1,0,0:0:0:0:
354,25,170184,2,0,P|310:24|267:33,1,88.000002685547
230,157,170469,6,0,P|212:110|115:15,1,176.000005371094
35,120,170898,2,0,P|37:180|52:228,2,88.000002685547
125,20,171326,2,0,P|160:45|190:77,1,88.000002685547
230,157,171612,5,0,0:0:0:0:
281,78,171755,1,0,0:0:0:0:
333,167,171898,1,0,0:0:0:0:
363,82,172041,1,0,0:0:0:0:
383,210,172184,6,0,P|323:212|275:227,1,88.000002685547
158,143,172469,2,0,P|115:152|71:151,1,88.000002685547
44,269,172755,6,0,P|86:259|130:260,1,88.000002685547
231,302,173041,1,0,0:0:0:0:
189,211,173184,1,0,0:0:0:0:
296,218,173326,2,0,P|332:241|363:273,1,88.000002685547
231,302,173612,1,0,0:0:0:0:
338,145,173898,6,0,L|422:214,1,95.9999970703126
437,334,174184,2,0,L|362:273,1,95.9999970703126
419,114,174469,2,0,L|344:53,1,95.9999970703126
206,113,174755,1,0,0:0:0:0:
123,41,174898,1,0,0:0:0:0:
62,151,175041,6,0,L|146:220,1,95.9999970703126
277,222,175326,1,0,0:0:0:0:
187,278,175469,2,0,B|259:338|259:338|370:338,1,191.999994140625
477,261,175898,2,0,L|381:261,1,95.9999970703126
357,338,176184,5,0,0:0:0:0:
377,191,176326,1,0,0:0:0:0:
432,330,176469,1,0,0:0:0:0:
309,258,176612,1,0,0:0:0:0:
477,261,176755,2,0,L|516:357,1,95.9999970703126
357,338,177041,5,0,0:0:0:0:
377,191,177184,1,0,0:0:0:0:
476,84,177326,2,0,L|512:172,1,95.9999970703126
477,261,177612,1,0,0:0:0:0:
377,191,177755,2,0,L|284:164,1,95.9999970703126
117,215,178184,6,0,P|129:266|189:267,1,120.000004577637
186,92,178469,6,0,P|153:116|131:172,1,88.000002685547
188,267,178755,2,0,P|220:242|242:186,1,88.000002685547
128,91,179041,2,0,P|108:124|90:187,1,88.000002685547
248,263,179327,2,0,P|267:229|285:166,1,88.000002685547
76,118,179612,6,0,P|63:159|64:209,1,88.000002685547
302,234,179898,2,0,P|314:192|313:142,1,88.000002685547
181,200,180184,2,0,L|161:292,2,88.000002685547
76,118,180612,1,0,0:0:0:0:
189,55,180755,6,0,P|233:87|282:90,1,88.000002685547
406,38,181041,1,0,0:0:0:0:
346,115,181184,1,0,0:0:0:0:
428,177,181326,2,0,P|419:230|386:267,1,88.000002685547
252,263,181612,1,0,0:0:0:0:
340,191,181755,1,0,0:0:0:0:
472,301,181898,2,0,P|428:333|379:336,1,88.000002685547
252,263,182184,5,0,0:0:0:0:
428,177,182326,2,0,B|400:148|349:144|349:144|300:141|274:102,1,176.000005371094
190,33,182755,2,0,P|174:68|168:127,1,88.000002685547
287,285,183041,6,0,P|280:244|240:199,1,88.000002685547
130,207,183327,2,0,P|137:246|177:291,1,88.000002685547
314,233,183613,2,0,P|293:200|245:155,1,88.000002685547
106,262,183899,2,0,P|127:294|175:339,1,88.000002685547
313,175,184184,6,0,P|282:144|237:122,1,88.000002685547
107,323,184470,2,0,P|138:352|183:374,1,88.000002685547
193,231,184756,2,0,L|120:171,2,88.000002685547
178,372,185184,1,0,0:0:0:0:
268,306,185326,6,0,B|312:315|312:315|361:310,1,88.000002685547
443,201,185612,1,0,0:0:0:0:
477,304,185755,1,0,0:0:0:0:
370,235,185898,2,0,P|363:191|385:142,1,88.000002685547
503,100,186184,1,0,0:0:0:0:
443,201,186326,1,0,0:0:0:0:
410,69,186469,2,0,P|366:62|317:84,1,88.000002685547
288,186,186755,6,0,L|287:242,2,44.0000013427735
160,133,187041,2,0,P|184:98|235:71,1,88.000002685547
377,151,187326,1,0,0:0:0:0:
39,131,187612,6,0,P|45:171|85:216,1,88.000002685547
196,209,187898,2,0,P|188:169|148:124,1,88.000002685547
12,183,188184,2,0,P|32:215|80:260,1,88.000002685547
220,154,188470,2,0,P|198:121|150:76,1,88.000002685547
13,241,188755,6,0,P|43:271|88:293,1,88.000002685547
219,93,189041,2,0,P|187:63|142:41,1,88.000002685547
133,185,189327,2,0,L|205:244,2,88.000002685547
148,44,189755,1,0,0:0:0:0:
0,106,189898,6,0,B|45:114|45:114|99:87,1,88.000002685547
223,19,190184,1,0,0:0:0:0:
164,128,190326,1,0,0:0:0:0:
281,66,190469,2,0,P|314:79|357:119,1,88.000002685547
320,235,190755,1,0,0:0:0:0:
277,157,190898,1,0,0:0:0:0:
415,210,191041,6,0,P|414:266|319:340,1,176.000005371094
222,276,191469,2,0,P|174:273|117:298,1,88.000002685547
188,362,191755,1,0,0:0:0:0:
124,205,191898,2,0,B|117:163|117:163|124:114,1,88.000002685547
384,166,192184,6,0,P|376:208|349:243,1,88.000002685547
227,244,192470,2,0,P|236:201|263:167,1,88.000002685547
411,218,192756,2,0,P|387:255|356:285,1,88.000002685547
203,189,193042,2,0,P|227:152|259:122,1,88.000002685547
410,276,193327,6,0,P|378:306|339:326,1,88.000002685547
204,128,193613,2,0,P|236:98|275:78,1,88.000002685547
290,220,193899,2,0,L|221:275,2,88.000002685547
410,276,194327,1,0,0:0:0:0:
486,177,194469,6,0,B|474:133|474:133|441:96,1,88.000002685547
341,22,194755,1,0,0:0:0:0:
266,86,194898,1,0,0:0:0:0:
167,16,195041,2,0,P|145:69|150:109,1,88.000002685547
283,198,195326,1,0,0:0:0:0:
185,163,195469,1,0,0:0:0:0:
266,86,195612,2,0,P|311:88|365:120,1,88.000002685547
487,183,195898,5,0,0:0:0:0:
370,197,196041,2,0,P|355:228|418:238,1,120.000004577637
416,240,197041,5,0,0:0:0:0:
326,285,197326,1,0,0:0:0:0:
290,199,197612,1,0,0:0:0:0:
290,199,197755,1,0,0:0:0:0:
226,265,198041,2,0,L|186:237,1,40
135,202,198326,1,0,0:0:0:0:
257,135,198898,5,0,0:0:0:0:
257,135,199041,2,0,P|292:123|346:140,1,80
370,189,199469,2,0,P|408:197|446:185,1,80
492,109,200041,2,0,L|498:196,1,80
463,247,200469,1,0,0:0:0:0:
463,247,200612,1,0,0:0:0:0:
299,295,201469,5,0,0:0:0:0:
299,295,201612,2,0,P|252:286|219:261,1,80
234,151,202184,1,0,0:0:0:0:
190,156,202326,2,0,P|161:183|123:200,1,80
59,185,202755,1,0,0:0:0:0:
36,222,202898,2,0,P|59:248|77:294,1,80
76,289,203612,5,0,0:0:0:0:
159,262,203898,1,0,0:0:0:0:
159,262,204041,2,0,L|243:276,1,80
317,317,204612,2,0,L|359:284,1,40
340,245,204898,2,0,L|382:212,1,40
424,230,205184,1,0,0:0:0:0:
