osu file format v14

[General]
AudioFilename: The Empress.mp3
AudioLeadIn: 0
PreviewTime: 160041
Countdown: 0
SampleSet: Soft
StackLeniency: 0.7
Mode: 0
LetterboxInBreaks: 0
WidescreenStoryboard: 1
SamplesMatchPlaybackRate: 1

[Editor]
DistanceSpacing: 1
BeatDivisor: 4
GridSize: 32
TimelineZoom: 3.399999

[Metadata]
Title:Ghost Rule
TitleUnicode:ゴーストルール
Artist:DECO*27 ft. yuikonnu
ArtistUnicode:ゆいこんぬ
Creator:Nevertary
Version:Rizal's Expert
Source:
Tags:ゴーストルール Goosuto Ruuru GHOST vocaloid hatsune miku utaite Lokidoki Zonthem Mir FruityEnLoops Aikyuu-Chan rizal12378
BeatmapID:1272036
BeatmapSetID:417146

[Difficulty]
HPDrainRate:5
CircleSize:4
OverallDifficulty:8
ApproachRate:9.4
SliderMultiplier:2.3
SliderTickRate:1

[Events]
//Background and Video events
0,0,"BGhostrule.jpg",0,0
//Break Periods
2,66669,75072
2,123812,132215
2,151240,157072
//Storyboard Layer 0 (Background)
//Storyboard Layer 1 (Fail)
//Storyboard Layer 2 (Pass)
//Storyboard Layer 3 (Foreground)
//Storyboard Sound Samples

[TimingPoints]
184,285.714285714286,4,2,1,70,1,0
184,-166.666666666667,4,2,1,70,0,0
8755,-111.111111111111,4,2,1,70,0,0
9041,-200,4,2,1,70,0,0
9326,-111.111111111111,4,2,1,70,0,0
18469,-125,4,2,1,70,0,0
18755,-111.111111111111,4,2,1,70,0,0
22755,-200,4,2,1,70,0,0
23041,-111.111111111111,4,2,1,70,0,0
28898,-133.333333333333,4,2,1,70,0,0
36755,-142.857142857143,4,2,1,70,0,0
45898,-142.857142857143,4,2,1,70,0,0
46326,-166.666666666667,4,2,1,70,0,0
46755,-200,4,2,1,70,0,0
47184,-111.111111111111,4,2,1,70,0,0
47612,-166.666666666667,4,2,1,70,0,0
48184,-100,4,2,1,70,0,1
57041,-100,4,2,1,70,0,0
57326,-100,4,2,1,70,0,1
66184,-50,4,2,1,70,0,1
66469,-111.111111111111,4,2,1,70,0,0
75612,-166.666666666667,4,2,1,70,0,0
84755,-111.111111111111,4,2,1,70,0,0
93898,-125,4,2,1,70,0,0
96184,-181.818181818181,4,2,1,70,0,0
103041,-133.333333333333,4,2,1,70,0,0
103326,-181.818181818181,4,2,1,70,0,0
103898,-200,4,2,1,70,0,0
104755,-166.666666666667,4,2,1,70,0,0
105326,-100,4,2,1,70,0,1
114184,-100,4,2,1,70,0,0
114469,-100,4,2,1,70,0,1
123326,-76.9230769230769,4,2,1,70,0,1
123612,-166.666666666667,4,2,1,70,0,0
132755,-133.333333333333,4,2,1,70,0,0
141898,-125,4,2,1,70,0,0
150469,-166.666666666667,4,2,1,70,0,0
157898,-100,4,2,1,70,0,0
160184,-100,4,2,1,70,0,1
169041,-100,4,2,1,70,0,0
169326,-90.9090909090909,4,2,1,70,0,1
173612,-90.9090909090909,4,2,1,70,0,0
173898,-83.3333333333333,4,2,1,70,0,1
178184,-83.3333333333333,4,2,1,70,0,0
178469,-90.9090909090909,4,2,1,70,0,1
187326,-90.9090909090909,4,2,1,70,0,0
187612,-90.9090909090909,4,2,1,70,0,1
196184,-100,4,2,1,70,0,0

[Colours]
Combo1 : 255,255,0
Combo2 : 0,0,255
Combo3 : 0,128,255
Combo4 : 10,169,245
Combo5 : 0,255,255
SliderBorder : 0,150,200
SliderTrackOverride : 20,35,55

[HitObjects]
96,96,8326,5,0,0:0:0:0:
96,96,8398,1,0,0:0:0:0:
96,96,8469,2,0,L|192:96,1,68.9999978942872
296,172,8755,2,0,L|168:172,1,103.499996841431
240,320,9041,2,0,P|285:301|343:249,1,115,0|6,0:0|0:0,0:0:0:0:
335,258,9398,5,0,0:0:0:0:
335,258,9469,1,0,0:0:0:0:
224,128,9612,2,0,L|128:64,1,103.499996841431
352,128,9898,2,0,L|448:64,1,103.499996841431
332,280,10184,1,0,0:0:0:0:
224,336,10326,2,0,P|148:344|108:316,1,103.499996841431
192,160,10612,5,0,0:0:0:0:
192,160,10684,1,0,0:0:0:0:
192,160,10755,2,0,P|251:158|274:198,1,103.499996841431
392,308,11041,2,0,P|350:316|312:270,1,103.499996841431
156,160,11326,1,0,0:0:0:0:
316,64,11469,1,0,0:0:0:0:
156,160,11612,6,0,L|188:224,1,51.7499984207154
204,248,11755,1,0,0:0:0:0:
284,136,11898,2,0,P|326:161|389:132,1,103.499996841431
464,252,12184,2,0,P|409:242|335:278,1,103.499996841431
196,144,12469,1,0,0:0:0:0:
160,336,12612,2,0,P|224:324|280:348,1,103.499996841431
288,224,12898,5,0,0:0:0:0:
288,224,12969,1,0,0:0:0:0:
288,224,13041,2,0,P|223:218|208:182,1,103.499996841431
360,56,13326,2,0,L|424:56,2,51.7499984207154
400,144,13612,2,0,L|368:176,4,25.8749992103577
232,328,13898,5,0,0:0:0:0:
232,328,13969,1,0,0:0:0:0:
232,328,14041,2,0,P|283:280|286:231,1,103.499996841431
246,155,14326,1,0,0:0:0:0:
132,108,14469,1,0,0:0:0:0:
96,216,14612,1,0,0:0:0:0:
200,248,14755,2,0,L|252:144,1,103.499996841431
336,220,15041,1,0,0:0:0:0:
200,248,15184,5,0,0:0:0:0:
200,248,15255,1,0,0:0:0:0:
200,248,15326,1,0,0:0:0:0:
296,352,15469,1,0,0:0:0:0:
400,264,15612,2,0,L|420:144,1,103.499996841431
308,136,15898,2,0,L|292:16,1,103.499996841431
152,156,16184,5,0,0:0:0:0:
152,156,16255,1,0,0:0:0:0:
152,156,16326,1,0,0:0:0:0:
232,264,16469,1,0,0:0:0:0:
352,208,16612,1,0,0:0:0:0:
320,84,16755,1,0,0:0:0:0:
192,68,16898,1,0,0:0:0:0:
168,316,17041,2,0,L|184:196,1,103.499996841431
336,296,17326,5,0,0:0:0:0:
432,204,17469,1,0,0:0:0:0:
432,204,17541,1,0,0:0:0:0:
432,204,17612,1,0,0:0:0:0:
344,104,17755,1,0,0:0:0:0:
456,8,17898,2,0,L|436:120,1,103.499996841431
280,240,18184,2,0,L|252:120,1,103.499996841431
476,320,18469,6,0,P|376:352|300:320,1,184
136,256,18898,2,0,B|284:244|284:244|224:272,1,206.999993682861
148,56,19326,1,0,0:0:0:0:
260,148,19469,2,0,L|272:40,1,103.499996841431
456,256,19755,1,0,0:0:0:0:
368,160,19898,1,0,0:0:0:0:
384,368,20041,2,0,L|380:252,1,103.499996841431
312,96,20326,1,0,0:0:0:0:
168,152,20469,1,0,0:0:0:0:
268,232,20612,5,0,0:0:0:0:
192,304,20755,2,0,B|140:348|140:348|36:340|16:264,1,206.999993682861
64,112,21184,2,0,B|128:96|128:96|228:128,1,155.249995262146
256,144,21469,1,0,0:0:0:0:
360,248,21612,1,0,0:0:0:0:
448,96,21755,6,0,L|440:208,1,103.499996841431
356,336,22041,2,0,P|292:312|276:276,1,103.499996841431
136,184,22326,2,0,P|196:148|248:168,1,103.499996841431
192,320,22612,1,0,0:0:0:0:
88,292,22755,2,0,P|48:284|16:244,1,86.25
24,204,23041,1,0,0:0:0:0:
212,136,23326,6,0,P|252:96|256:48,1,103.499996841431
312,212,23612,2,0,P|272:240|216:236,1,103.499996841431
76,244,23898,1,0,0:0:0:0:
144,80,24041,2,0,B|104:120|104:120|144:160,1,103.499996841431
256,196,24326,1,0,0:0:0:0:
256,196,24469,1,0,0:0:0:0:
172,336,24612,6,0,P|244:312|276:316,1,103.499996841431
320,104,24898,1,0,0:0:0:0:
372,240,25041,1,0,0:0:0:0:
320,104,25184,1,0,0:0:0:0:
320,104,25326,6,0,P|232:128|208:144,1,103.499996841431
304,208,25612,1,0,0:0:0:0:
300,304,25755,2,0,P|212:328|184:340,1,103.499996841431
84,280,26041,2,0,P|72:216|104:176,2,103.499996841431
200,232,26469,1,0,0:0:0:0:
264,168,26612,1,0,0:0:0:0:
200,232,26755,1,0,0:0:0:0:
288,256,26898,1,0,0:0:0:0:
244,352,27041,6,0,L|212:328,4,25.8749992103577
200,320,27255,1,0,0:0:0:0:
168,296,27326,1,0,0:0:0:0:
144,272,27398,1,0,0:0:0:0:
128,240,27469,1,0,0:0:0:0:
112,208,27541,1,0,0:0:0:0:
112,208,27612,6,0,L|88:108,1,103.499996841431
168,48,27898,6,0,P|232:56|296:28,1,103.499996841431
356,128,28184,2,0,P|300:180|252:184,1,103.499996841431
392,296,28469,1,0,0:0:0:0:
176,324,28612,2,0,P|236:300|300:308,1,103.499996841431
392,296,28898,1,0,0:0:0:0:
392,120,29041,1,0,0:0:0:0:
200,44,29184,2,0,L|216:144,1,86.2500032901765
256,248,29469,1,0,0:0:0:0:
324,80,29612,1,0,0:0:0:0:
416,168,29755,5,0,0:0:0:0:
416,168,29826,1,0,0:0:0:0:
416,168,29898,2,0,P|384:216|304:208,1,129.375004935265
304,208,30184,2,0,L|272:168,1,43.1250016450883
264,160,30326,2,0,P|216:208|216:312,1,172.500006580353
412,308,30755,1,0,0:0:0:0:
436,152,30898,6,0,L|240:160,1,172.500006580353
72,256,31326,2,0,P|140:264|180:248,1,86.2500032901765
156,72,31612,2,0,P|194:62|266:70,1,86.2500032901765
272,184,31898,5,0,0:0:0:0:
240,320,32041,1,0,0:0:0:0:
240,320,32112,1,0,0:0:0:0:
240,320,32184,1,0,0:0:0:0:
388,280,32326,1,0,0:0:0:0:
336,96,32469,6,0,P|280:80|224:88,1,86.2500032901765
232,192,32755,2,0,P|288:192|328:216,1,86.2500032901765
268,360,33041,1,0,0:0:0:0:
120,360,33184,2,0,L|104:256,1,86.2500032901765
232,192,33469,1,0,0:0:0:0:
104,148,33612,1,0,0:0:0:0:
232,196,33755,6,0,L|208:300,1,86.2500032901765
284,360,34041,1,0,0:0:0:0:
380,288,34184,1,0,0:0:0:0:
348,192,34326,2,0,L|316:152,1,43.1250016450883
272,96,34469,2,0,B|176:120|168:120|124:108,1,129.375004935265
100,144,34755,1,0,0:0:0:0:
60,280,34898,1,0,0:0:0:0:
60,280,35041,1,0,0:0:0:0:
200,304,35184,5,0,0:0:0:0:
200,304,35255,1,0,0:0:0:0:
200,304,35326,1,0,0:0:0:0:
296,216,35469,1,0,0:0:0:0:
208,104,35612,2,0,P|256:92|312:104,1,86.2500032901765
88,152,35826,2,0,L|96:208,1,43.1250016450883
116,284,36041,1,0,0:0:0:0:
336,320,36184,1,0,0:0:0:0:
224,272,36326,1,0,0:0:0:0:
216,248,36398,5,0,0:0:0:0:
208,224,36469,1,0,0:0:0:0:
200,200,36540,1,0,0:0:0:0:
192,176,36612,1,0,0:0:0:0:
344,104,36755,5,0,0:0:0:0:
344,104,36826,1,0,0:0:0:0:
344,104,36898,2,0,P|336:152|328:212,1,80.499997543335
96,144,37184,1,0,0:0:0:0:
96,144,37255,1,0,0:0:0:0:
96,144,37326,1,0,0:0:0:0:
224,312,37469,1,0,0:0:0:0:
384,232,37612,1,0,0:0:0:0:
228,40,37755,6,0,P|212:132|248:216,1,160.99999508667
136,244,38184,6,0,P|104:220|104:156,1,80.499997543335
352,240,38469,2,0,P|380:208|384:136,1,80.499997543335
136,244,38755,2,0,P|104:220|104:156,1,80.499997543335
344,116,39041,5,0,0:0:0:0:
344,116,39112,1,0,0:0:0:0:
344,116,39184,2,0,P|300:112|248:136,1,80.499997543335
104,108,39469,1,0,0:0:0:0:
212,248,39612,2,0,L|36:272,1,160.99999508667
264,344,40041,2,0,L|432:348,1,160.99999508667
320,208,40469,5,0,0:0:0:0:
320,208,40541,1,0,0:0:0:0:
320,208,40612,1,0,0:0:0:0:
112,176,40755,2,0,L|80:200,2,40.2499987716675
384,128,41041,2,0,L|416:152,2,40.2499987716675
256,192,41326,12,0,45612,0:0:0:0:
52,56,45898,6,0,P|140:96|220:68,1,160.99999508667
304,136,46326,2,0,P|344:192|384:288,1,172.499994735718
336,296,46755,2,0,P|304:328|224:288,1,143.75
200,248,47184,2,0,B|104:224|104:224|216:96,1,258.749992103577
224,88,47612,2,0,P|312:96|376:136,1,137.999995788574
360,144,47969,1,0,0:0:0:0:
368,168,48041,1,0,0:0:0:0:
376,192,48112,1,0,0:0:0:0:
340,316,48184,6,0,P|260:328|220:312,1,115
108,144,48469,2,0,P|180:124|248:144,1,115
400,96,48755,1,0,0:0:0:0:
416,312,48898,1,0,0:0:0:0:
272,224,49041,1,0,0:0:0:0:
320,352,49184,1,0,0:0:0:0:
188,324,49326,6,0,P|92:276|88:264,1,115
76,144,49612,1,0,0:0:0:0:
240,52,49755,2,0,P|256:116|252:164,1,115
376,176,50041,1,0,0:0:0:0:
272,296,50184,1,0,0:0:0:0:
164,144,50326,1,0,0:0:0:0:
164,144,50398,1,0,0:0:0:0:
164,144,50469,6,0,P|148:208|164:256,1,115
380,152,50755,2,0,P|396:228|376:284,1,115
264,380,51041,1,0,0:0:0:0:
132,320,51184,1,0,0:0:0:0:
384,336,51326,1,0,0:0:0:0:
294,295,51469,5,0,0:0:0:0:
288,264,51541,1,0,0:0:0:0:
280,232,51612,2,0,P|216:200|164:232,1,115
48,84,51898,2,0,P|116:96|164:64,1,115
80,256,52184,1,0,0:0:0:0:
80,256,52255,1,0,0:0:0:0:
80,256,52326,1,0,0:0:0:0:
256,80,52469,1,0,0:0:0:0:
200,240,52612,1,0,0:0:0:0:
336,288,52755,6,0,P|316:212|284:156,1,115
56,168,53041,2,0,P|136:120|184:104,1,115
296,104,53326,1,0,0:0:0:0:
264,272,53469,1,0,0:0:0:0:
156,200,53612,1,0,0:0:0:0:
264,272,53755,1,0,0:0:0:0:
224,64,53898,6,0,P|296:68|348:48,1,115
332,192,54184,1,0,0:0:0:0:
156,200,54326,2,0,P|96:188|24:212,1,115
332,192,54612,1,0,0:0:0:0:
180,90,54755,6,0,P|156:154|156:202,1,115
376,312,55041,2,0,P|312:336|260:332,1,115
276,216,55326,2,0,L|364:136,1,115
112,136,55612,2,0,L|200:56,1,115
452,220,55898,1,0,0:0:0:0:
361,138,56041,1,0,0:0:0:0:
361,138,56112,1,0,0:0:0:0:
361,138,56184,6,0,P|281:138|225:162,1,115
216,272,56469,2,0,P|152:264|112:224,1,115
96,240,56755,1,0,0:0:0:0:
64,256,56826,1,0,0:0:0:0:
40,272,56898,1,0,0:0:0:0:
16,288,56969,1,0,0:0:0:0:
8,328,57041,1,0,0:0:0:0:
40,352,57112,1,0,0:0:0:0:
72,352,57184,1,0,0:0:0:0:
96,328,57255,1,0,0:0:0:0:
120,312,57326,6,0,L|244:328,1,115
248,240,57612,2,0,L|376:260,1,115
480,104,57898,6,0,L|368:144,1,115
344,24,58184,2,0,L|232:72,1,115
68,272,58469,6,0,P|56:192|72:152,1,115
308,208,58755,2,0,P|236:224|188:216,1,115
160,56,59041,1,0,0:0:0:0:
131,284,59184,2,0,L|159:56,1,230
272,256,59612,5,0,0:0:0:0:
168,376,59755,1,0,0:0:0:0:
272,256,59898,1,0,0:0:0:0:
104,232,60041,1,0,0:0:0:0:
312,360,60184,5,0,0:0:0:0:
384,228,60326,1,0,0:0:0:0:
384,228,60398,1,0,0:0:0:0:
384,228,60469,2,0,P|456:236|480:276,1,115
232,240,60755,6,0,P|168:236|132:188,1,115
336,324,61041,1,0,0:0:0:0:
364,100,61184,2,0,L|348:232,1,115
216,92,61469,1,0,0:0:0:0:
216,92,61541,1,0,0:0:0:0:
216,92,61612,1,0,0:0:0:0:
264,336,61755,1,0,0:0:0:0:
84,272,61898,6,0,L|56:136,1,115
156,148,62184,2,0,L|180:28,1,115
360,92,62469,6,0,L|208:120,1,115
392,168,62755,2,0,L|512:180,1,115
368,332,63041,6,0,P|308:348|248:336,1,115
68,264,63326,2,0,P|140:240|204:252,1,115
344,144,63612,1,0,0:0:0:0:
196,14,63755,2,0,L|176:254,1,230
352,176,64184,5,0,0:0:0:0:
180,348,64326,1,0,0:0:0:0:
260,252,64469,1,0,0:0:0:0:
392,336,64612,1,0,0:0:0:0:
74,316,64755,2,0,P|130:348|202:340,1,115
344,304,65041,2,0,L|336:172,1,115
88,232,65326,5,0,0:0:0:0:
192,272,65469,1,0,0:0:0:0:
216,264,65541,1,0,0:0:0:0:
240,248,65612,2,0,P|248:192|208:120,1,115
40,120,65898,2,0,L|136:8,1,115
384,104,66184,1,0,0:0:0:0:
256,192,66469,1,0,0:0:0:0:
152,208,75612,5,0,0:0:0:0:
256,256,75898,6,0,L|320:216,1,68.9999978942872
240,80,76184,1,0,0:0:0:0:
176,224,76469,1,0,0:0:0:0:
176,224,76612,1,0,0:0:0:0:
280,200,76898,2,0,L|352:248,2,68.9999978942872
96,64,77755,5,0,0:0:0:0:
208,88,77898,2,0,P|296:104|344:128,1,137.999995788574
328,224,78326,2,0,P|240:208|176:224,1,137.999995788574
80,296,78898,1,0,0:0:0:0:
344,320,79184,5,0,0:0:0:0:
320,240,79327,1,0,0:0:0:0:
296,160,79469,1,0,0:0:0:0:
128,184,80469,5,0,0:0:0:0:
256,280,80755,1,0,0:0:0:0:
400,192,81041,1,0,0:0:0:0:
400,192,81184,2,0,B|336:192|320:160|264:200,1,137.999995788574
208,288,81612,1,0,0:0:0:0:
144,168,81755,1,0,0:0:0:0:
256,192,82184,12,0,84469,0:0:0:0:
400,208,84755,6,0,L|432:96,1,103.499996841431
344,48,85041,6,0,P|280:56|232:44,1,103.499996841431
156,128,85327,2,0,P|212:180|260:184,1,103.499996841431
120,296,85612,1,0,0:0:0:0:
336,324,85755,2,0,P|276:300|212:308,1,103.499996841431
120,296,86041,1,0,0:0:0:0:
120,120,86184,1,0,0:0:0:0:
312,44,86327,2,0,L|292:156,1,103.499996841431
256,248,86612,1,0,0:0:0:0:
188,80,86755,1,0,0:0:0:0:
72,184,86898,5,0,0:0:0:0:
72,184,86969,1,0,0:0:0:0:
72,184,87041,2,0,P|104:232|192:216,1,155.249995262146
208,208,87327,2,0,L|240:164,1,51.7499984207154
264,152,87469,2,0,P|312:200|292:328,1,206.999993682861
100,308,87898,1,0,0:0:0:0:
58,144,88041,6,0,L|274:152,1,206.999993682861
440,256,88469,2,0,P|372:264|332:252,1,103.499996841431
356,72,88755,2,0,P|318:62|244:72,1,103.499996841431
240,184,89041,5,0,0:0:0:0:
272,320,89184,1,0,0:0:0:0:
272,320,89255,1,0,0:0:0:0:
272,320,89327,1,0,0:0:0:0:
124,280,89469,1,0,0:0:0:0:
176,96,89612,6,0,P|232:80|296:88,1,103.499996841431
280,192,89898,2,0,P|224:192|176:216,1,103.499996841431
244,360,90184,1,0,0:0:0:0:
392,360,90327,2,0,L|408:248,1,103.499996841431
280,192,90612,1,0,0:0:0:0:
408,148,90755,1,0,0:0:0:0:
280,196,90898,6,0,L|304:308,1,103.499996841431
228,360,91184,1,0,0:0:0:0:
132,288,91327,1,0,0:0:0:0:
164,192,91469,2,0,L|200:148,1,51.7499984207154
240,96,91612,2,0,B|336:120|344:120|392:104,1,155.249995262146
412,144,91898,1,0,0:0:0:0:
452,280,92041,1,0,0:0:0:0:
452,280,92184,1,0,0:0:0:0:
312,304,92327,5,0,0:0:0:0:
312,304,92398,1,0,0:0:0:0:
312,304,92469,1,0,0:0:0:0:
216,216,92612,1,0,0:0:0:0:
304,104,92755,2,0,P|256:92|192:104,1,103.499996841431
424,152,92969,2,0,L|412:220,1,51.7499984207154
396,284,93184,1,0,0:0:0:0:
176,320,93327,1,0,0:0:0:0:
288,272,93469,1,0,0:0:0:0:
296,248,93541,5,0,0:0:0:0:
304,224,93612,1,0,0:0:0:0:
312,200,93683,1,0,0:0:0:0:
320,176,93755,1,0,0:0:0:0:
168,104,93898,5,0,0:0:0:0:
168,104,93969,1,0,0:0:0:0:
168,104,94041,2,0,P|176:152|188:224,1,92
416,144,94327,1,0,0:0:0:0:
416,144,94398,1,0,0:0:0:0:
416,144,94469,1,0,0:0:0:0:
288,312,94612,1,0,0:0:0:0:
128,232,94755,1,0,0:0:0:0:
284,40,94898,6,0,P|300:132|256:220,1,184
376,244,95327,6,0,P|408:220|408:148,1,92
160,240,95612,2,0,P|132:208|128:124,1,92
376,244,95898,2,0,P|408:220|408:156,1,80.499997543335
200,100,96184,5,0,0:0:0:0:
200,100,96255,1,0,0:0:0:0:
200,100,96327,2,0,P|244:96|280:108,1,63.2500019302369
408,108,96612,1,0,0:0:0:0:
300,248,96755,2,0,L|436:264,1,126.500003860474
248,344,97184,2,0,L|120:344,1,126.500003860474
192,208,97612,5,0,0:0:0:0:
192,208,97684,1,0,0:0:0:0:
192,208,97755,1,0,0:0:0:0:
400,168,97898,2,0,L|436:200,2,31.6250009651184
132,132,98184,2,0,L|80:156,2,31.6250009651184
256,192,98469,12,0,102898,0:0:0:0:
56,124,103041,6,0,P|24:172|52:280,1,172.500006580353
168,224,103469,2,0,P|208:256|296:320,1,158.125004825592
320,312,103898,2,0,B|368:280|368:280|336:192,1,143.75
312,200,104326,2,0,P|264:152|216:200,1,143.75
208,216,104755,2,0,B|232:288|224:288|112:248,1,137.999995788574
112,232,105112,1,0,0:0:0:0:
96,208,105184,1,0,0:0:0:0:
80,184,105255,1,0,0:0:0:0:
96,144,105326,6,0,P|148:128|236:128,1,115
317,192,105612,2,0,P|253:216|185:210,1,115
48,308,105898,1,0,0:0:0:0:
204,356,106041,1,0,0:0:0:0:
64,208,106184,1,0,0:0:0:0:
207,215,106326,1,0,0:0:0:0:
89,95,106469,6,0,L|57:234,1,115
152,312,106755,1,0,0:0:0:0:
304,92,106898,2,0,P|216:104|176:136,1,115
328,240,107184,1,0,0:0:0:0:
460,200,107326,2,0,L|424:336,1,115
344,124,107612,5,0,0:0:0:0:
344,124,107755,1,0,0:0:0:0:
184,312,107898,1,0,0:0:0:0:
320,264,108041,1,0,0:0:0:0:
144,236,108184,1,0,0:0:0:0:
320,264,108326,1,0,0:0:0:0:
160,144,108469,1,0,0:0:0:0:
240,104,108612,1,0,0:0:0:0:
396,232,108755,6,0,P|404:168|384:104,1,115
280,304,109041,1,0,0:0:0:0:
240,104,109184,1,0,0:0:0:0:
240,104,109255,1,0,0:0:0:0:
240,104,109326,1,0,0:0:0:0:
180,256,109469,1,0,0:0:0:0:
240,104,109612,1,0,0:0:0:0:
336,188,109755,1,0,0:0:0:0:
400,316,109898,6,0,L|284:308,1,115
65,256,110184,2,0,L|181:256,1,115
312,276,110469,1,0,0:0:0:0:
392,168,110612,1,0,0:0:0:0:
304,60,110755,1,0,0:0:0:0:
171,128,110898,1,0,0:0:0:0:
284,240,111041,6,0,P|208:248|156:240,1,115
40,148,111326,1,0,0:0:0:0:
172,16,111469,2,0,B|184:80|184:80|168:140,1,115
304,140,111755,1,0,0:0:0:0:
328,288,111898,2,0,P|276:304|200:284,1,115
171,128,112184,1,0,0:0:0:0:
171,128,112326,1,0,0:0:0:0:
32,168,112469,1,0,0:0:0:0:
32,168,112612,1,0,0:0:0:0:
80,360,112755,6,0,P|72:280|92:240,1,115
176,80,113041,1,0,0:0:0:0:
204,248,113184,1,0,0:0:0:0:
292,84,113326,2,0,B|312:160|312:164|304:216,1,115
304,272,113541,1,0,0:0:0:0:
304,272,113612,1,0,0:0:0:0:
64,156,113755,6,0,P|132:168|176:156,1,115
208,128,113969,1,0,0:0:0:0:
231,95,114040,1,0,0:0:0:0:
263,72,114111,1,0,0:0:0:0:
302,61,114183,1,0,0:0:0:0:
342,64,114254,1,0,0:0:0:0:
378,80,114326,1,0,0:0:0:0:
408,107,114397,1,0,0:0:0:0:
424,136,114469,6,0,P|440:208|432:252,1,115
340,236,114755,2,0,P|332:296|296:336,1,115
232,268,115041,2,0,P|172:296|120:288,1,115
136,196,115326,2,0,P|84:168|64:112,1,115
268,28,115612,2,0,L|248:156,1,115
344,136,115898,2,0,L|384:268,1,115
276,360,116184,1,0,0:0:0:0:
64,252,116326,2,0,P|140:220|288:256,1,230
248,64,116755,5,0,0:0:0:0:
416,192,116898,1,0,0:0:0:0:
248,64,117041,1,0,0:0:0:0:
324,264,117184,1,0,0:0:0:0:
364,32,117326,2,0,L|340:152,1,115
168,172,117612,1,0,0:0:0:0:
232,312,117755,1,0,0:0:0:0:
360,304,117898,6,0,B|408:280|408:280|416:192,1,115
360,40,118184,1,0,0:0:0:0:
296,176,118326,1,0,0:0:0:0:
296,176,118398,1,0,0:0:0:0:
296,176,118469,1,0,0:0:0:0:
192,312,118612,1,0,0:0:0:0:
216,112,118755,1,0,0:0:0:0:
80,144,118898,1,0,0:0:0:0:
48,300,119041,6,0,P|104:288|172:308,1,115
160,200,119326,2,0,P|220:236|248:280,1,115
312,200,119612,2,0,P|332:256|324:316,1,115
424,280,119898,2,0,P|420:352|392:388,1,115
144,344,120184,2,0,P|200:324|260:336,1,115
376,184,120469,2,0,P|296:208|248:200,1,115
128,84,120755,1,0,0:0:0:0:
85,309,120898,2,0,L|129:77,1,230
304,348,121327,5,0,0:0:0:0:
104,312,121469,1,0,0:0:0:0:
304,348,121612,1,0,0:0:0:0:
144,200,121755,1,0,0:0:0:0:
328,248,121898,2,0,P|328:192|288:132,1,115
184,88,122184,1,0,0:0:0:0:
208,320,122326,1,0,0:0:0:0:
192,204,122469,5,0,0:0:0:0:
328,248,122612,1,0,0:0:0:0:
328,248,122684,1,0,0:0:0:0:
328,248,122755,1,0,0:0:0:0:
268,348,122898,1,0,0:0:0:0:
88,352,123041,2,0,P|68:304|88:248,1,115
224,200,123326,1,0,0:0:0:0:
224,200,123612,5,0,0:0:0:0:
124,80,132755,6,0,L|28:96,1,86.2500032901765
96,180,133041,2,0,L|0:200,1,86.2500032901765
148,272,133326,2,0,P|236:272|244:268,2,86.2500032901765
192,176,133755,1,0,0:0:0:0:
296,172,133898,2,0,B|332:264|332:272|296:348,1,172.500006580353
301,336,134326,1,0,0:0:0:0:
392,60,134898,5,0,0:0:0:0:
392,60,135041,2,0,L|432:156,1,86.2500032901765
352,196,135326,2,0,L|384:296,1,86.2500032901765
244,120,135612,2,0,P|184:132|144:128,2,86.2500032901765
336,96,136041,1,0,0:0:0:0:
336,96,136184,2,0,L|328:284,1,172.500006580353
328,268,136612,1,0,0:0:0:0:
264,348,137326,6,0,L|176:352,1,86.2500032901765
64,272,137612,2,0,L|168:264,1,86.2500032901765
272,172,137898,2,0,P|288:112|284:68,2,86.2500032901765
252,264,138326,1,0,0:0:0:0:
252,264,138469,2,0,P|348:280|420:252,1,172.500006580353
416,254,138898,1,0,0:0:0:0:
204,52,139469,5,0,0:0:0:0:
204,52,139612,2,0,B|112:72|112:72|88:68,1,86.2500032901765
40,164,139898,1,0,0:0:0:0:
40,164,140041,2,0,L|136:176,1,86.2500032901765
220,200,140326,1,0,0:0:0:0:
236,288,140469,1,0,0:0:0:0:
176,352,140612,1,0,0:0:0:0:
88,340,140755,6,0,P|56:248|76:168,1,172.500006580353
120,96,141184,1,0,0:0:0:0:
192,164,141326,2,0,P|292:160|360:108,1,172.500006580353
216,208,141898,6,0,P|168:176|128:168,1,92
40,240,142184,2,0,P|48:304|64:336,1,92
140,268,142469,1,0,0:0:0:0:
140,268,142612,1,0,0:0:0:0:
224,352,142755,2,0,P|280:320|296:272,1,92
332,180,143041,2,0,P|276:148|220:148,1,92
192,240,143326,2,0,P|248:256|296:248,1,92
356,352,143612,1,0,0:0:0:0:
304,96,144041,5,0,0:0:0:0:
392,200,144184,2,0,L|496:208,1,92
304,100,144469,2,0,P|296:164|288:216,1,92
368,316,144755,2,0,P|424:308|460:280,2,92
260,344,145184,1,0,0:0:0:0:
284,244,145326,6,0,P|324:216|340:172,1,92
204,52,145612,2,0,P|192:104|208:156,1,92
256,264,145898,1,0,0:0:0:0:
320,112,146184,1,0,0:0:0:0:
256,264,146326,1,0,0:0:0:0:
160,200,146469,6,0,P|144:152|168:112,1,92
248,152,146755,2,0,P|256:96|280:64,1,92
360,128,147041,2,0,P|336:184|336:224,1,92
448,248,147326,1,0,0:0:0:0:
448,248,147469,1,0,0:0:0:0:
352,344,147612,6,0,L|252:352,1,92
176,284,147898,2,0,L|72:304,1,92
12,236,148184,1,0,0:0:0:0:
336,328,148612,1,0,0:0:0:0:
360,232,148755,6,0,L|456:200,1,92
344,144,149041,1,0,0:0:0:0:
376,56,149184,2,0,L|472:24,1,92
456,120,149469,1,0,0:0:0:0:
352,168,149612,1,0,0:0:0:0:
464,232,149755,1,0,0:0:0:0:
360,168,149898,5,0,0:0:0:0:
360,168,150041,2,0,L|252:172,1,92
260,376,150326,1,0,0:0:0:0:
128,244,150469,6,0,P|132:152|188:252,1,276
176,84,157612,6,0,P|260:100|312:76,1,137.999995788574
256,192,157969,12,0,159898,0:0:0:0:
80,80,160184,6,0,P|160:40|216:56,1,115
360,144,160469,2,0,P|312:184|216:176,1,115
136,160,160755,1,0,0:0:0:0:
64,256,160898,1,0,0:0:0:0:
136,168,161041,1,0,0:0:0:0:
156,312,161184,1,0,0:0:0:0:
248,168,161326,6,0,P|320:168|368:208,1,115
448,276,161612,1,0,0:0:0:0:
364,332,161755,2,0,P|292:332|244:292,1,115
136,216,162041,1,0,0:0:0:0:
272,88,162184,2,0,P|288:148|276:216,1,115
132,216,162469,5,0,0:0:0:0:
148,52,162612,1,0,0:0:0:0:
128,216,162755,1,0,0:0:0:0:
256,76,162898,1,0,0:0:0:0:
128,212,163041,1,0,0:0:0:0:
328,160,163184,1,0,0:0:0:0:
128,208,163326,1,0,0:0:0:0:
336,316,163469,1,0,0:0:0:0:
128,336,163612,6,0,P|220:352|264:344,1,115
408,236,163898,2,0,P|432:144|424:104,1,115
320,152,164184,5,0,0:0:0:0:
300,176,164255,1,0,0:0:0:0:
280,196,164326,1,0,0:0:0:0:
256,216,164398,1,0,0:0:0:0:
236,236,164469,1,0,0:0:0:0:
212,216,164541,1,0,0:0:0:0:
192,192,164612,1,0,0:0:0:0:
172,164,164684,1,0,0:0:0:0:
152,132,164755,6,0,P|88:172|64:228,1,115
196,360,165041,2,0,P|248:320|272:248,1,115
216,120,165326,1,0,0:0:0:0:
364,232,165469,1,0,0:0:0:0:
228,120,165612,1,0,0:0:0:0:
276,328,165755,1,0,0:0:0:0:
232,116,165898,6,0,P|292:104|356:120,1,115
464,184,166184,1,0,0:0:0:0:
352,360,166326,2,0,L|336:232,1,115
300,96,166612,1,0,0:0:0:0:
164,320,166755,2,0,L|232:212,1,115
136,60,167041,6,0,P|72:100|56:148,1,115
156,180,167326,2,0,P|92:220|76:268,1,115
276,356,167612,2,0,P|340:316|356:268,1,115
248,208,167898,2,0,P|312:168|328:120,1,115
120,104,168184,1,0,0:0:0:0:
160,320,168326,1,0,0:0:0:0:
248,208,168469,5,0,0:0:0:0:
272,173,168540,1,0,0:0:0:0:
312,160,168611,1,0,0:0:0:0:
354,168,168683,1,0,0:0:0:0:
385,196,168754,1,0,0:0:0:0:
397,237,168826,1,0,0:0:0:0:
376,284,168897,5,0,0:0:0:0:
344,320,168969,1,0,0:0:0:0:
304,340,169040,1,0,0:0:0:0:
256,344,169112,1,0,0:0:0:0:
204,320,169183,1,0,0:0:0:0:
176,268,169254,1,0,0:0:0:0:
160,220,169326,6,0,L|144:72,1,126.500003860474
348,176,169612,2,0,L|376:40,1,126.500003860474
264,352,169898,1,0,0:0:0:0:
264,352,170041,1,0,0:0:0:0:
108,336,170184,1,0,0:0:0:0:
108,336,170326,1,0,0:0:0:0:
36,196,170469,6,0,L|56:52,1,126.500003860474
188,136,170755,1,0,0:0:0:0:
264,248,170898,2,0,P|344:272|400:232,2,126.500003860474
100,32,171326,2,0,L|80:168,1,126.500003860474
48,288,171612,6,0,P|112:320|192:320,1,126.500003860474
304,208,171898,2,0,P|240:240|160:224,1,126.500003860474
96,96,172184,2,0,P|160:128|240:128,1,126.500003860474
384,176,172469,2,0,P|368:240|304:272,1,126.500003860474
292,68,172755,2,0,L|252:12,3,63.2500019302369
112,88,173041,2,0,L|180:68,3,63.2500019302369
56,144,173326,5,0,0:0:0:0:
48,176,173397,1,0,0:0:0:0:
40,204,173469,1,0,0:0:0:0:
32,228,173540,1,0,0:0:0:0:
52,272,173612,5,0,0:0:0:0:
88,320,173683,1,0,0:0:0:0:
140,344,173755,1,0,0:0:0:0:
200,348,173826,1,0,0:0:0:0:
264,328,173898,6,0,P|328:296|352:216,1,137.999995788574
168,40,174184,2,0,P|88:88|68:148,1,137.999995788574
128,208,174469,1,0,0:0:0:0:
240,336,174612,1,0,0:0:0:0:
336,144,174755,1,0,0:0:0:0:
240,336,174898,1,0,0:0:0:0:
120,28,175041,6,0,P|108:112|144:172,1,137.999995788574
352,32,175326,1,0,0:0:0:0:
448,208,175469,2,0,P|368:240|288:224,1,137.999995788574
148,272,175755,1,0,0:0:0:0:
220,28,175898,2,0,P|240:108|228:176,1,137.999995788574
272,352,176184,5,0,0:0:0:0:
416,224,176326,1,0,0:0:0:0:
224,288,176469,1,0,0:0:0:0:
416,224,176612,1,0,0:0:0:0:
192,128,176755,1,0,0:0:0:0:
416,224,176898,1,0,0:0:0:0:
256,32,177041,1,0,0:0:0:0:
416,224,177184,1,0,0:0:0:0:
288,304,177326,6,0,P|176:304|144:272,1,137.999995788574
72,108,177612,1,0,0:0:0:0:
120,88,177683,1,0,0:0:0:0:
168,68,177754,1,0,0:0:0:0:
216,48,177826,1,0,0:0:0:0:
260,36,177897,1,0,0:0:0:0:
304,48,177969,1,0,0:0:0:0:
344,64,178040,1,0,0:0:0:0:
392,80,178112,1,0,0:0:0:0:
436,96,178184,6,0,L|460:172,1,68.9999978942872
372,216,178326,2,0,L|356:300,1,68.9999978942872
472,364,178469,1,0,0:0:0:0:
256,192,178541,12,0,180469,0:0:0:0:
80,64,180755,6,0,P|160:40|212:60,1,126.500003860474
256,308,181041,1,0,0:0:0:0:
332,128,181184,1,0,0:0:0:0:
148,200,181326,2,0,L|20:216,1,126.500003860474
272,288,181612,2,0,L|420:304,1,126.500003860474
384,80,181898,6,0,L|224:80,1,126.500003860474
148,200,182184,2,0,L|132:124,3,63.2500019302369
257,80,182469,2,0,L|333:76,3,63.2500019302369
292,172,182755,2,0,L|320:248,1,63.2500019302369
224,288,182898,2,0,L|212:364,1,63.2500019302369
376,360,183041,5,0,0:0:0:0:
256,192,183112,12,0,185041,0:0:0:0:
128,192,185326,5,0,0:0:0:0:
256,112,185469,1,0,0:0:0:0:
128,192,185612,1,0,0:0:0:0:
256,256,185755,1,0,0:0:0:0:
128,192,185898,2,0,L|96:324,1,126.500003860474
232,160,186184,1,0,0:0:0:0:
232,160,186326,1,0,0:0:0:0:
368,272,186469,6,0,P|304:304|240:304,1,126.500003860474
172,248,186684,1,0,0:0:0:0:
232,160,186755,2,0,L|368:156,1,126.500003860474
492,196,187041,1,0,0:0:0:0:
492,200,187326,2,0,L|484:336,1,126.500003860474
392,360,187612,5,0,0:0:0:0:
256,192,187684,12,0,189612,0:0:0:0:
64,96,189898,5,0,0:0:0:0:
64,96,190041,1,0,0:0:0:0:
176,272,190184,1,0,0:0:0:0:
176,272,190326,1,0,0:0:0:0:
240,112,190469,2,0,P|336:96|416:112,1,126.500003860474
480,240,190755,2,0,P|400:288|336:272,1,126.500003860474
240,336,191041,6,0,B|160:304|160:304|112:224,1,126.500003860474
240,160,191326,1,0,0:0:0:0:
288,336,191469,1,0,0:0:0:0:
240,160,191612,1,0,0:0:0:0:
128,320,191755,1,0,0:0:0:0:
240,80,191898,1,0,0:0:0:0:
304,256,192041,1,0,0:0:0:0:
240,32,192184,5,0,0:0:0:0:
256,192,192255,12,0,194184,0:0:0:0:
256,64,194469,5,0,0:0:0:0:
144,224,194612,1,0,0:0:0:0:
256,64,194755,1,0,0:0:0:0:
352,272,194898,1,0,0:0:0:0:
404,40,195041,2,0,L|376:176,1,126.500003860474
248,164,195326,1,0,0:0:0:0:
116,352,195469,1,0,0:0:0:0:
352,352,195612,5,0,0:0:0:0:
128,224,195755,1,0,0:0:0:0:
304,272,195898,1,0,0:0:0:0:
348,256,195969,1,0,0:0:0:0:
376,220,196041,1,0,0:0:0:0:
384,176,196112,1,0,0:0:0:0:
368,132,196184,1,0,0:0:0:0:
368,132,196755,5,0,0:0:0:0:
