osu file format v14

[General]
AudioFilename: The Empress.mp3
AudioLeadIn: 0
PreviewTime: 160041
Countdown: 0
SampleSet: Soft
StackLeniency: 0.7
Mode: 0
LetterboxInBreaks: 0
WidescreenStoryboard: 1
SamplesMatchPlaybackRate: 1

[Editor]
Bookmarks: 75326,89541
DistanceSpacing: 0.7
BeatDivisor: 4
GridSize: 32
TimelineZoom: 3.399999

[Metadata]
Title:Ghost Rule
TitleUnicode:ゴーストルール
Artist:DECO*27 ft. yuikonnu
ArtistUnicode:ゆいこんぬ
Creator:Nevertary
Version:Horror
Source:
Tags:ゴーストルール Goosuto Ruuru GHOST vocaloid hatsune miku utaite Lokidoki Zonthem Mir FruityEnLoops Aikyuu-Chan rizal12378
BeatmapID:1234940
BeatmapSetID:417146

[Difficulty]
HPDrainRate:6.5
CircleSize:4
OverallDifficulty:9
ApproachRate:9.6
SliderMultiplier:2
SliderTickRate:1

[Events]
//Background and Video events
0,0,"BGhostrule.jpg",0,0
//Break Periods
2,123812,132246
2,151240,157103
//Storyboard Layer 0 (Background)
//Storyboard Layer 1 (Fail)
//Storyboard Layer 2 (Pass)
//Storyboard Layer 3 (Foreground)
//Storyboard Sound Samples

[TimingPoints]
184,285.714285714286,4,2,1,70,1,0
184,-166.666666666667,4,2,1,70,0,0
8755,-111.111111111111,4,2,1,70,0,0
18469,-125,4,2,1,70,0,0
27612,-111.111111111111,4,2,1,70,0,0
36755,-125,4,2,1,70,0,0
47612,-166.666666666667,4,2,1,70,0,0
48184,-100,4,2,1,70,0,1
57041,-100,4,2,1,70,0,0
57326,-100,4,2,1,70,0,1
66184,-50,4,2,1,70,0,1
66469,-111.111111111111,4,2,1,70,0,0
75612,-125,4,2,1,70,0,0
83755,-200,4,2,1,70,0,0
84755,-111.111111111111,4,2,1,70,0,0
93898,-125,4,2,1,70,0,0
104755,-166.666666666667,4,2,1,70,0,0
105326,-100,4,2,1,70,0,1
114184,-100,4,2,1,70,0,0
114469,-100,4,2,1,70,0,1
123326,-76.9230769230769,4,2,1,70,0,1
123612,-166.666666666667,4,2,1,70,0,0
141898,-125,4,2,1,70,0,0
157612,-76.9230769230769,4,2,1,70,0,0
157898,-100,4,2,1,70,0,0
160184,-100,4,2,1,70,0,1
169041,-100,4,2,1,70,0,0
169326,-90.9090909090909,4,2,1,70,0,1
173612,-90.9090909090909,4,2,1,70,0,0
173898,-83.3333333333333,4,2,1,70,0,1
178184,-83.3333333333333,4,2,1,70,0,0
178469,-90.9090909090909,4,2,1,70,0,1
187326,-90.9090909090909,4,2,1,70,0,0
187612,-90.9090909090909,4,2,1,70,0,1
196184,-100,4,2,1,70,0,0

[Colours]
Combo1 : 255,255,0
Combo2 : 0,0,255
Combo3 : 0,128,255
Combo4 : 10,169,245
Combo5 : 0,255,255
SliderBorder : 0,150,200
SliderTrackOverride : 20,35,55

[HitObjects]
216,44,184,6,0,L|280:44,1,59.9999981689454
344,104,469,2,0,L|428:104,1,59.9999981689454
476,160,755,2,0,P|424:208|364:208,1,119.999996337891
300,172,1184,2,0,L|220:184,1,59.9999981689454
136,256,1469,1,0,0:0:0:0:
136,256,1612,2,0,P|216:296|268:288,1,119.999996337891
308,244,2041,1,0,0:0:0:0:
352,176,2184,2,0,L|376:172,4,14.9999995422363
460,212,2469,6,0,L|460:272,1,59.9999981689454
372,288,2755,2,0,L|352:352,1,59.9999981689454
252,352,3041,2,0,P|224:284|240:216,1,119.999996337891
296,160,3469,2,0,L|308:92,1,59.9999981689454
208,32,3755,1,0,0:0:0:0:
208,32,3898,2,0,P|144:76|92:72,1,119.999996337891
40,160,4326,2,0,L|32:236,1,59.9999981689454
80,304,4612,1,0,0:0:0:0:
80,304,4755,6,0,P|124:304|156:292,1,59.9999981689454
220,176,5041,2,0,P|200:204|184:236,1,59.9999981689454
264,356,5326,2,0,P|308:296|304:232,1,119.999996337891
220,176,5755,2,0,P|260:180|292:168,1,59.9999981689454
356,96,6041,1,0,0:0:0:0:
356,96,6184,2,0,P|288:80|224:104,1,119.999996337891
152,100,6612,1,0,0:0:0:0:
88,52,6755,2,0,L|64:48,4,14.9999995422363
152,100,7041,6,0,L|168:168,1,59.9999981689454
104,224,7326,2,0,L|96:296,1,59.9999981689454
176,356,7612,2,0,P|244:336|276:284,1,119.999996337891
192,160,8041,2,0,P|216:200|248:216,1,59.9999981689454
332,212,8326,1,0,0:0:0:0:
332,212,8469,2,0,P|352:160|340:104,1,89.9999972534181
316,96,8755,6,0,L|216:120,1,89.9999972534181
76,192,9041,2,0,L|176:204,1,89.9999972534181
288,192,9326,6,0,P|272:240|224:276,1,89.9999972534181
256,368,9612,2,0,P|304:352|348:308,1,89.9999972534181
452,218,9898,2,0,P|348:230|280:182,1,179.999994506836
184,20,10326,2,0,P|208:116|160:204,1,179.999994506836
40,264,10755,2,0,P|100:276|144:264,1,89.9999972534181
332,192,11041,1,0,0:0:0:0:
332,192,11184,2,0,P|244:164|178:185,1,134.999995880127
172,184,11469,1,0,0:0:0:0:
264,284,11612,6,0,L|356:284,1,89.9999972534181
172,184,11898,2,0,L|68:184,1,89.9999972534181
264,8,12184,2,0,P|292:108|252:176,1,179.999994506836
360,348,12612,2,0,P|400:256|372:164,1,179.999994506836
296,260,13041,2,0,P|252:268|204:260,1,89.9999972534181
56,188,13326,1,0,0:0:0:0:
56,188,13469,2,0,P|120:168|200:188,1,134.999995880127
208,188,13755,1,0,0:0:0:0:
348,336,13898,6,0,P|312:300|300:256,1,89.9999972534181
368,120,14184,2,0,P|364:172|384:224,1,89.9999972534181
220,160,14469,2,0,L|32:172,1,179.999994506836
164,312,14898,2,0,P|228:232|208:140,1,179.999994506836
56,60,15326,2,0,P|108:76|164:68,1,89.9999972534181
288,28,15612,1,0,0:0:0:0:
288,28,15755,2,0,P|320:116|304:180,1,134.999995880127
304,188,16041,1,0,0:0:0:0:
212,288,16184,6,0,L|116:300,1,89.9999972534181
12,200,16469,2,0,L|112:208,1,89.9999972534181
204,20,16755,2,0,P|172:96|208:192,1,179.999994506836
384,88,17184,2,0,P|332:84|272:112,1,89.9999972534181
201,184,17469,1,0,0:0:0:0:
348,224,17612,1,0,0:0:0:0:
296,95,17755,1,0,0:0:0:0:
264,308,17898,5,0,0:0:0:0:
184,64,18041,1,0,0:0:0:0:
420,168,18184,1,0,0:0:0:0:
128,208,18326,1,0,0:0:0:0:
150,366,18469,6,0,L|126:198,1,160
12,128,18898,2,0,P|96:132|164:68,1,160
256,28,19326,1,0,0:0:0:0:
256,28,19469,2,0,P|236:88|240:124,1,80
292,196,19755,1,0,0:0:0:0:
292,196,19898,2,0,P|376:204|452:148,1,160
356,32,20326,1,0,0:0:0:0:
356,32,20469,2,0,L|340:120,1,80
248,268,20755,6,0,P|216:184|256:120,1,160
96,100,21184,2,0,L|120:8,1,80
32,204,21469,1,0,0:0:0:0:
32,204,21612,2,0,P|84:216|132:200,1,80
192,144,21898,5,0,0:0:0:0:
320,176,22041,1,0,0:0:0:0:
184,236,22184,1,0,0:0:0:0:
368,268,22326,5,0,0:0:0:0:
240,88,22469,1,0,0:0:0:0:
264,320,22612,1,0,0:0:0:0:
360,40,22755,2,0,L|344:176,1,120
324,196,23041,6,0,P|228:224|160:192,1,160
240,0,23469,2,0,P|268:68|240:152,1,160
104,256,23898,1,0,0:0:0:0:
104,256,24041,2,0,P|160:256|200:232,1,80
115,109,24326,1,0,0:0:0:0:
115,109,24469,2,0,P|83:201|115:269,1,160
200,360,24898,1,0,0:0:0:0:
288,228,25041,2,0,L|192:228,1,80
115,109,25326,6,0,P|203:113|279:65,1,160
308,260,25755,2,0,L|328:172,1,80
432,128,26041,2,0,L|452:36,2,80
392,232,26469,5,0,0:0:0:0:
236,240,26612,1,0,0:0:0:0:
348,148,26755,1,0,0:0:0:0:
312,328,26898,5,0,0:0:0:0:
252,68,27041,1,0,0:0:0:0:
136,240,27184,1,0,0:0:0:0:
416,176,27326,2,0,P|344:200|280:188,1,120
272,164,27612,6,0,L|156:176,1,89.9999972534181
48,88,27898,1,0,0:0:0:0:
84,192,28041,2,0,P|96:248|84:292,1,89.9999972534181
212,352,28326,2,0,P|204:304|216:260,1,89.9999972534181
372,204,28612,2,0,P|316:216|280:208,1,89.9999972534181
156,160,28898,2,0,L|128:248,1,89.9999972534181
360,96,29184,2,0,P|264:112|192:72,1,179.999994506836
288,20,29612,1,0,0:0:0:0:
248,252,29755,1,0,0:0:0:0:
152,156,29898,6,0,P|96:164|56:152,1,89.9999972534181
96,336,30184,1,0,0:0:0:0:
168,252,30326,2,0,L|264:252,1,89.9999972534181
372,168,30612,2,0,P|320:172|264:152,1,89.9999972534181
152,76,30898,2,0,P|216:76|264:92,1,89.9999972534181
352,68,31184,2,0,P|404:60|440:24,1,89.9999972534181
444,148,31469,2,0,L|424:336,1,179.999994506836
320,204,31898,1,0,0:0:0:0:
320,204,32041,1,0,0:0:0:0:
292,328,32184,6,0,P|236:336|188:328,1,89.9999972534181
64,256,32469,1,0,0:0:0:0:
184,220,32612,2,0,P|200:164|192:116,1,89.9999972534181
112,24,32898,2,0,P|104:84|120:128,1,89.9999972534181
184,220,33184,2,0,P|248:232|280:220,1,89.9999972534181
372,152,33469,2,0,P|396:104|396:52,1,89.9999972534181
248,24,33755,2,0,P|224:120|272:196,1,179.999994506836
356,276,34184,1,0,0:0:0:0:
356,276,34326,1,0,0:0:0:0:
252,328,34469,6,0,B|156:336|156:336|104:312,1,134.999995880127
92,292,34755,1,0,0:0:0:0:
60,184,34898,1,0,0:0:0:0:
156,124,35041,1,0,0:0:0:0:
244,212,35184,2,0,P|300:220|344:208,1,89.9999972534181
160,36,35469,2,0,P|148:88|164:140,1,89.9999972534181
248,300,35755,5,0,0:0:0:0:
248,300,35826,1,0,0:0:0:0:
248,300,35898,1,0,0:0:0:0:
392,160,36041,1,0,0:0:0:0:
88,208,36184,1,0,0:0:0:0:
292,120,36326,5,0,0:0:0:0:
248,28,36469,1,0,0:0:0:0:
180,104,36612,1,0,0:0:0:0:
200,356,36755,6,0,L|224:188,1,160
180,104,37184,1,0,0:0:0:0:
72,216,37326,2,0,P|156:228|232:188,1,160
376,189,37755,2,0,P|284:177|208:205,1,160
284,332,38184,2,0,P|300:268|296:240,1,80
152,112,38469,2,0,P|136:164|148:208,1,80
336,128,38755,2,0,P|284:132|252:148,1,80
180,296,39041,6,0,P|92:324|12:288,1,160
72,112,39469,1,0,0:0:0:0:
120,224,39612,2,0,P|208:208|260:136,1,160
336,32,40041,2,0,P|368:116|344:192,1,160
288,284,40469,2,0,P|224:288|180:280,1,80
60,212,40755,1,0,0:0:0:0:
60,212,40898,2,0,P|112:208|164:220,1,80
348,140,41184,1,0,0:0:0:0:
276,232,41326,6,0,P|216:160|240:80,1,160
348,140,41755,1,0,0:0:0:0:
276,232,41898,2,0,P|192:264|120:244,1,160
20,356,42326,2,0,P|52:276|20:200,1,160
16,72,42755,2,0,P|64:84|120:72,1,80
324,128,43041,2,0,P|272:124|236:136,1,80
96,256,43326,2,0,P|136:252|176:260,1,80
336,348,43612,6,0,P|284:272|300:188,1,160
360,44,44041,1,0,0:0:0:0:
216,96,44184,2,0,L|132:96,1,80
232,296,44469,1,0,0:0:0:0:
136,204,44612,2,0,L|56:204,1,80
328,136,44898,5,0,0:0:0:0:
328,136,44969,1,0,0:0:0:0:
328,136,45041,1,0,0:0:0:0:
156,288,45184,1,0,0:0:0:0:
416,204,45326,1,0,0:0:0:0:
96,168,45469,1,0,0:0:0:0:
312,316,45612,1,0,0:0:0:0:
240,32,45755,1,0,0:0:0:0:
184,336,45898,6,0,B|312:320|312:320|276:288,1,160
268,128,46326,2,0,B|232:96|232:96|224:260,1,200
300,240,46755,2,0,B|464:212|464:212|440:256,1,200
408,300,47184,2,0,P|344:208|388:120,1,200
344,68,47612,2,0,B|172:80|172:80|212:96,1,209.999993591309
260,148,48184,6,0,P|276:216|264:260,1,100
104,360,48469,2,0,P|88:296|100:252,1,100
184,140,48755,1,0,0:0:0:0:
224,288,48898,1,0,0:0:0:0:
308,80,49041,1,0,0:0:0:0:
108,156,49184,1,0,0:0:0:0:
384,208,49326,2,0,P|332:232|280:224,1,100
180,36,49612,1,0,0:0:0:0:
48,184,49755,6,0,P|172:212|232:156,1,200
384,32,50184,2,0,P|328:44|292:76,1,100
296,272,50469,1,0,0:0:0:0:
196,96,50612,1,0,0:0:0:0:
368,196,50755,1,0,0:0:0:0:
100,236,50898,1,0,0:0:0:0:
204,360,51041,6,0,P|228:304|220:236,1,100
172,192,51255,1,0,0:0:0:0:
172,192,51326,2,0,P|156:144|172:88,1,100
336,32,51612,2,0,L|316:136,1,100
152,290,51898,2,0,L|176:170,1,100
352,352,52184,1,0,0:0:0:0:
284,144,52326,1,0,0:0:0:0:
284,144,52398,1,0,0:0:0:0:
284,144,52469,2,0,B|400:148|400:148|420:112,1,150
400,72,52755,6,0,L|280:68,1,100
72,124,53041,2,0,L|184:140,1,100
196,308,53326,1,0,0:0:0:0:
280,76,53469,1,0,0:0:0:0:
116,204,53612,1,0,0:0:0:0:
384,176,53755,1,0,0:0:0:0:
300,348,53898,2,0,P|280:284|292:240,1,100
400,56,54184,1,0,0:0:0:0:
464,196,54326,6,0,P|360:208|284:148,1,200
112,32,54755,2,0,P|172:44|208:76,1,100
208,200,55041,2,0,P|176:244|128:264,1,100
32,160,55326,1,0,0:0:0:0:
32,160,55469,1,0,0:0:0:0:
112,32,55612,6,0,P|216:64|312:20,1,200
440,128,56041,2,0,P|380:160|332:160,1,100
208,332,56326,1,0,0:0:0:0:
208,332,56398,1,0,0:0:0:0:
208,332,56469,1,0,0:0:0:0:
184,60,56612,1,0,0:0:0:0:
368,228,56755,1,0,0:0:0:0:
120,228,56898,5,0,0:0:0:0:
196,160,57041,1,0,0:0:0:0:
220,260,57184,1,0,0:0:0:0:
16,128,57326,6,0,P|72:124|136:152,1,100
372,192,57612,2,0,P|308:204|268:192,1,100
216,28,57898,2,0,P|196:80|208:128,1,100
148,240,58184,2,0,P|188:284|236:300,1,100
456,164,58469,2,0,P|424:200|352:220,1,100
144,132,58755,1,0,0:0:0:0:
252,24,58898,2,0,P|288:124|252:216,1,200
45,135,59326,2,0,P|105:125|153:135,1,100
376,160,59612,5,0,0:0:0:0:
96,232,59755,1,0,0:0:0:0:
384,264,59898,1,0,0:0:0:0:
143,131,60041,1,0,0:0:0:0:
280,368,60184,2,0,L|304:264,1,100
158,229,60469,2,0,L|142:125,1,100
304,40,60755,6,0,L|292:144,1,100
158,229,61041,2,0,L|194:337,1,100
352,180,61326,1,0,0:0:0:0:
204,88,61469,1,0,0:0:0:0:
204,88,61541,1,0,0:0:0:0:
204,88,61612,1,0,0:0:0:0:
296,316,61755,1,0,0:0:0:0:
420,204,61898,6,0,P|356:196|316:208,1,100
100,276,62184,2,0,P|168:272|216:244,1,100
228,112,62469,2,0,P|204:60|164:28,1,100
0,52,62755,2,0,P|60:76|84:112,1,100
168,292,63041,2,0,P|144:232|152:188,1,100
276,24,63326,1,0,0:0:0:0:
356,156,63469,2,0,P|244:164|176:104,1,200
349,60,63898,2,0,P|365:116|349:168,1,100
280,288,64184,5,0,0:0:0:0:
96,188,64326,1,0,0:0:0:0:
355,155,64469,1,0,0:0:0:0:
220,80,64612,1,0,0:0:0:0:
200,352,64755,2,0,L|168:256,1,100
272,160,65041,2,0,L|296:56,1,100
436,240,65326,6,0,P|380:260|336:252,1,100
304,232,65541,1,0,0:0:0:0:
304,232,65612,1,0,0:0:0:0:
104,160,65755,1,0,0:0:0:0:
416,88,65898,1,0,0:0:0:0:
416,88,66184,6,0,P|424:192|420:88,1,300
416,140,66469,6,0,L|408:240,1,89.9999972534181
308,248,66755,2,0,L|296:352,1,89.9999972534181
64,284,67041,2,0,P|160:296|224:240,1,179.999994506836
124,212,67469,2,0,P|112:164|124:116,1,89.9999972534181
208,0,67755,2,0,P|228:100|192:172,1,179.999994506836
16,284,68184,2,0,P|68:300|116:296,1,89.9999972534181
260,244,68469,2,0,P|208:252|164:244,1,89.9999972534181
27,176,68755,6,0,P|120:144|212:180,1,179.999994506836
388,188,69184,1,0,0:0:0:0:
288,8,69326,2,0,P|260:104|300:184,1,179.999994506836
308,304,69755,2,0,L|212:304,1,89.9999972534181
56,244,70041,2,0,P|156:248|212:184,1,179.999994506836
112,24,70469,1,0,0:0:0:0:
112,24,70612,2,0,P|84:124|144:204,1,179.999994506836
268,104,71041,6,0,L|172:104,1,89.9999972534181
324,192,71326,2,0,L|420:192,1,89.9999972534181
476,288,71612,2,0,P|380:320|300:296,1,179.999994506836
236,200,72041,2,0,L|244:108,1,89.9999972534181
384,244,72326,2,0,P|408:152|360:72,1,179.999994506836
244,32,72755,2,0,L|140:32,1,89.9999972534181
16,112,73041,2,0,L|112:112,1,89.9999972534181
264,136,73326,6,0,P|280:192|272:240,1,89.9999972534181
112,200,73612,2,0,P|164:188|208:196,1,89.9999972534181
36,356,73898,2,0,P|4:268|28:184,1,179.999994506836
128,24,74326,2,0,P|132:76|116:132,1,89.9999972534181
256,320,74612,2,0,P|212:228|244:140,1,179.999994506836
256,64,75041,1,0,0:0:0:0:
384,192,75184,1,0,0:0:0:0:
256,320,75326,1,0,0:0:0:0:
124,192,75469,1,0,0:0:0:0:
399,32,75612,6,0,L|383:200,1,160
296,312,76041,2,0,L|312:148,1,160
144,24,76469,2,0,L|132:108,1,80
144,28,77755,5,0,0:0:0:0:
144,28,77898,2,0,L|112:192,1,160
156,344,78326,2,0,L|188:184,1,160
376,16,78755,2,0,L|400:100,1,80
324,340,80184,6,0,L|160:340,1,160
40,268,80612,2,0,L|200:268,1,160
420,176,81041,2,0,L|328:176,1,80
28,232,82326,5,0,0:0:0:0:
28,232,82469,2,0,P|112:248|192:216,1,160
108,12,82898,2,0,P|84:108|124:164,2,160
408,64,83755,6,0,P|432:136|424:180,1,100
384,224,84184,1,0,0:0:0:0:
456,296,84326,1,0,0:0:0:0:
456,296,84398,1,0,0:0:0:0:
456,296,84469,2,0,L|368:312,1,75
316,368,84755,6,0,P|296:320|304:272,1,89.9999972534181
352,176,85041,2,0,P|392:152|444:152,1,89.9999972534181
332,36,85326,1,0,0:0:0:0:
260,204,85469,2,0,P|212:208|168:196,1,89.9999972534181
24,80,85755,6,0,P|80:88|120:112,1,89.9999972534181
224,128,86041,1,0,0:0:0:0:
68,196,86184,2,0,P|60:268|76:296,1,89.9999972534181
208,344,86469,1,0,0:0:0:0:
140,244,86612,1,0,0:0:0:0:
264,260,86755,2,0,P|316:268|360:264,1,89.9999972534181
192,80,87041,6,0,P|184:132|200:172,1,89.9999972534181
416,156,87326,2,0,P|368:148|320:164,1,89.9999972534181
392,300,87612,1,0,0:0:0:0:
184,256,87755,2,0,P|236:264|280:248,1,89.9999972534181
72,332,88041,6,0,P|64:280|76:240,1,89.9999972534181
92,124,88326,1,0,0:0:0:0:
196,176,88469,2,0,L|308:184,1,89.9999972534181
396,132,88755,1,0,0:0:0:0:
400,136,88898,1,0,0:0:0:0:
236,16,89041,2,0,P|228:72|244:120,1,89.9999972534181
288,180,89255,1,0,0:0:0:0:
288,180,89326,6,0,P|304:240|296:276,1,89.9999972534181
236,368,89612,1,0,0:0:0:0:
116,272,89755,2,0,P|180:260|220:272,1,89.9999972534181
344,348,90041,2,0,P|404:356|440:344,1,89.9999972534181
512,232,90326,6,0,P|468:228|420:252,1,89.9999972534181
256,216,90612,1,0,0:0:0:0:
360,148,90755,2,0,P|368:84|348:32,1,89.9999972534181
336,308,91041,1,0,0:0:0:0:
336,308,91184,1,0,0:0:0:0:
252,216,91326,2,0,L|156:216,1,89.9999972534181
24,124,91612,6,0,P|80:132|128:116,1,89.9999972534181
232,32,91898,1,0,0:0:0:0:
328,160,92041,2,0,P|360:252|328:332,2,179.999994506836
84,260,92755,2,0,P|144:272|188:260,1,89.9999972534181
200,256,92969,1,0,0:0:0:0:
200,256,93041,1,0,0:0:0:0:
260,100,93184,1,0,0:0:0:0:
364,324,93326,1,0,0:0:0:0:
84,260,93469,5,0,0:0:0:0:
136,168,93612,1,0,0:0:0:0:
200,256,93755,1,0,0:0:0:0:
24,88,93898,6,0,P|112:72|192:108,1,160
296,184,94326,1,0,0:0:0:0:
148,196,94469,2,0,P|132:288|172:344,1,160
384,244,94898,2,0,L|212:256,1,160
244,92,95326,2,0,L|340:88,1,80
148,196,95612,2,0,L|64:200,1,80
252,320,95898,2,0,L|340:312,1,80
380,84,96184,6,0,P|368:168|408:236,1,160
276,88,96612,1,0,0:0:0:0:
192,252,96755,2,0,P|212:168|180:104,1,160
40,239,97184,2,0,P|116:223|196:255,1,160
296,372,97612,2,0,P|280:324|288:280,1,80
376,168,97898,1,0,0:0:0:0:
376,168,98041,2,0,P|312:180|284:176,1,80
188,48,98326,1,0,0:0:0:0:
48,184,98469,6,0,P|140:228|212:204,1,160
296,104,98898,1,0,0:0:0:0:
144,8,99041,2,0,P|112:96|152:168,1,160
132,340,99469,2,0,P|224:312|256:240,1,160
228,40,99898,2,0,P|240:84|276:120,1,80
464,220,100184,2,0,P|416:204|372:204,1,80
188,320,100469,2,0,P|232:296|256:256,1,80
261,109,100755,6,0,L|97:129,1,160
188,320,101184,1,0,0:0:0:0:
264,188,101326,2,0,L|364:176,1,80
188,320,101612,1,0,0:0:0:0:
261,109,101755,2,0,L|361:97,1,80
328,308,102041,5,0,0:0:0:0:
328,308,102112,1,0,0:0:0:0:
328,308,102184,1,0,0:0:0:0:
136,180,102326,1,0,0:0:0:0:
404,216,102469,1,0,0:0:0:0:
112,264,102612,1,0,0:0:0:0:
284,76,102755,1,0,0:0:0:0:
264,336,102898,1,0,0:0:0:0:
480,240,103041,6,0,B|352:256|352:256|372:224,1,160
368,8,103469,2,0,P|436:84|392:192,1,200
344,152,103898,2,0,B|176:168|176:168|220:184,1,200
200,248,104326,2,0,P|200:300|172:236,1,200
204,252,104755,2,0,B|376:236|376:236|340:208,1,209.999993591309
296,160,105326,6,0,L|188:172,1,100
0,72,105612,2,0,L|112:80,1,100
276,264,105898,1,0,0:0:0:0:
68,176,106041,1,0,0:0:0:0:
296,112,106184,1,0,0:0:0:0:
136,308,106326,1,0,0:0:0:0:
332,360,106469,2,0,P|348:308|340:248,1,100
236,92,106755,1,0,0:0:0:0:
60,224,106898,6,0,P|168:268|252:228,1,200
368,44,107326,2,0,P|320:76|300:124,1,100
328,284,107612,1,0,0:0:0:0:
184,180,107755,1,0,0:0:0:0:
400,176,107898,1,0,0:0:0:0:
196,256,108041,1,0,0:0:0:0:
436,268,108184,5,0,0:0:0:0:
288,32,108326,1,0,0:0:0:0:
280,257,108469,1,0,0:0:0:0:
392,136,108612,1,0,0:0:0:0:
152,120,108755,2,0,L|128:224,1,100
300,356,109041,2,0,L|280:256,1,100
248,40,109326,1,0,0:0:0:0:
372,172,109469,1,0,0:0:0:0:
372,172,109541,1,0,0:0:0:0:
372,172,109612,2,0,P|440:168|496:108,1,150
494,111,109898,6,0,P|512:184|504:228,1,100
344,352,110184,2,0,P|328:296|340:248,1,100
436,176,110469,1,0,0:0:0:0:
136,152,110612,1,0,0:0:0:0:
384,108,110755,1,0,0:0:0:0:
200,240,110898,1,0,0:0:0:0:
288,24,111041,2,0,P|304:76|300:136,1,100
216,340,111326,1,0,0:0:0:0:
60,192,111469,6,0,P|156:164|248:208,1,200
384,360,111898,2,0,P|332:320|320:280,1,100
268,48,112184,1,0,0:0:0:0:
120,308,112326,1,0,0:0:0:0:
176,76,112469,1,0,0:0:0:0:
321,289,112612,1,0,0:0:0:0:
176,76,112755,6,0,P|144:180|208:268,1,200
384,184,113184,2,0,P|396:136|384:80,1,100
216,160,113469,1,0,0:0:0:0:
216,160,113541,1,0,0:0:0:0:
216,160,113612,1,0,0:0:0:0:
360,328,113755,1,0,0:0:0:0:
292,52,113898,1,0,0:0:0:0:
216,296,114041,5,0,0:0:0:0:
100,252,114184,1,0,0:0:0:0:
196,184,114326,1,0,0:0:0:0:
372,236,114469,6,0,P|432:244|488:224,1,100
472,40,114755,2,0,P|452:96|404:132,1,100
216,196,115041,2,0,P|256:156|316:144,1,100
220,328,115326,2,0,P|152:344|124:336,1,100
12,240,115612,2,0,P|72:224|132:236,1,100
316,104,115898,1,0,0:0:0:0:
188,24,116041,6,0,P|160:136|224:208,1,200
420,292,116469,2,0,P|388:252|336:232,1,100
136,248,116755,5,0,0:0:0:0:
384,128,116898,1,0,0:0:0:0:
96,152,117041,1,0,0:0:0:0:
400,216,117184,1,0,0:0:0:0:
260,356,117326,2,0,P|244:304|256:248,1,100
192,64,117612,2,0,P|204:124|188:176,1,100
420,312,117898,6,0,P|368:296|320:300,1,100
48,252,118184,2,0,P|100:264|156:248,1,100
320,120,118469,1,0,0:0:0:0:
264,296,118612,1,0,0:0:0:0:
264,296,118684,1,0,0:0:0:0:
264,296,118755,1,0,0:0:0:0:
152,124,118898,1,0,0:0:0:0:
404,204,119041,6,0,L|388:308,1,100
264,296,119326,2,0,L|184:360,1,100
24,232,119612,2,0,L|136:240,1,100
260,128,119898,2,0,L|148:112,1,100
348,272,120184,2,0,L|452:256,1,100
161,113,120469,1,0,0:0:0:0:
312,16,120612,6,0,P|360:112|328:204,1,200
160,356,121041,2,0,P|184:300|224:264,1,100
432,201,121326,2,0,P|368:205|320:189,1,100
156,140,121612,1,0,0:0:0:0:
256,352,121755,1,0,0:0:0:0:
64,244,121898,2,0,P|132:256|176:248,1,100
368,76,122184,2,0,P|316:72|256:100,1,100
356,356,122469,6,0,P|388:300|388:248,1,100
384,236,122684,1,0,0:0:0:0:
384,236,122755,1,0,0:0:0:0:
272,84,122898,1,0,0:0:0:0:
192,352,123041,1,0,0:0:0:0:
192,352,123326,6,0,B|324:304|120:256|212:212,1,194.999991073609
212,211,123612,5,0,0:0:0:0:
72,56,132755,6,0,L|136:56,1,59.9999981689454
228,136,133041,2,0,L|168:136,1,59.9999981689454
260,48,133326,2,0,L|328:48,2,59.9999981689454
164,52,133755,1,0,0:0:0:0:
124,128,133898,2,0,L|100:268,1,119.999996337891
136,340,134326,1,0,0:0:0:0:
132,340,134898,5,0,0:0:0:0:
132,340,135041,2,0,L|160:272,1,59.9999981689454
272,232,135326,2,0,L|244:304,1,59.9999981689454
172,176,135612,2,0,L|104:176,2,59.9999981689454
252,140,136041,1,0,0:0:0:0:
328,92,136184,6,0,L|344:228,1,119.999996337891
328,292,136612,1,0,0:0:0:0:
264,340,136755,1,0,0:0:0:0:
188,316,136898,1,0,0:0:0:0:
176,240,137041,1,0,0:0:0:0:
232,188,137184,1,0,0:0:0:0:
320,220,137326,6,0,L|380:220,1,59.9999981689454
476,112,137612,2,0,L|412:112,1,59.9999981689454
264,108,137898,2,0,L|200:108,2,59.9999981689454
340,112,138326,1,0,0:0:0:0:
340,112,138469,2,0,P|352:176|332:236,1,119.999996337891
296,328,138898,1,0,0:0:0:0:
296,324,139469,5,0,0:0:0:0:
296,324,139612,2,0,L|160:336,1,119.999996337891
96,308,140041,2,0,P|80:236|92:176,1,119.999996337891
128,124,140469,1,0,0:0:0:0:
208,120,140612,1,0,0:0:0:0:
256,184,140755,2,0,P|324:184|384:144,1,119.999996337891
376,80,141184,1,0,0:0:0:0:
292,96,141326,2,0,L|320:228,1,119.999996337891
316,208,141898,6,0,L|232:208,1,80
184,128,142184,2,0,L|96:128,1,80
16,240,142469,2,0,P|120:224|180:256,1,160
224,344,142898,1,0,0:0:0:0:
104,308,143041,2,0,P|84:224|136:148,1,160
200,64,143469,1,0,0:0:0:0:
256,172,143612,2,0,L|416:184,1,160
472,36,144041,1,0,0:0:0:0:
368,72,144184,6,0,L|268:84,1,80
216,24,144469,2,0,L|124:36,1,80
40,112,144755,2,0,P|132:152|200:132,1,160
212,260,145184,1,0,0:0:0:0:
336,200,145326,2,0,L|312:364,1,160
212,264,145755,1,0,0:0:0:0:
336,200,145898,2,0,L|312:364,1,160
168,336,146469,6,0,L|88:332,1,80
0,248,146755,2,0,L|96:240,1,80
224,276,147041,2,0,P|192:192|232:124,1,160
172,16,147469,1,0,0:0:0:0:
73,122,147612,2,0,P|157:154|241:114,1,160
344,204,148041,1,0,0:0:0:0:
220,136,148184,2,0,P|196:232|232:304,1,160
328,360,148612,1,0,0:0:0:0:
448,224,148755,6,0,P|368:216|296:268,1,160
303,257,149184,2,0,P|328:168|288:96,1,160
220,48,149612,1,0,0:0:0:0:
132,104,149755,1,0,0:0:0:0:
200,192,149898,1,0,0:0:0:0:
200,192,150041,2,0,L|200:280,1,80
84,328,150326,1,0,0:0:0:0:
300,352,150469,2,0,B|368:352|368:352|348:316|348:316|392:316|392:316|456:232|376:164,1,320
256,152,157612,6,0,P|260:236|260:152,1,259.999988098145
256,192,157969,12,0,159612,0:0:0:0:
368,56,159898,6,0,L|360:108,1,50
104,332,160184,6,0,P|92:264|108:224,1,100
284,116,160469,2,0,P|292:172|276:224,1,100
192,352,160755,1,0,0:0:0:0:
164,136,160898,1,0,0:0:0:0:
352,256,161041,1,0,0:0:0:0:
92,236,161184,1,0,0:0:0:0:
344,152,161326,2,0,P|352:100|344:48,1,100
244,288,161612,1,0,0:0:0:0:
64,132,161755,6,0,P|160:112|248:172,1,200
364,344,162184,2,0,P|332:292|328:240,1,100
304,56,162469,1,0,0:0:0:0:
168,232,162612,1,0,0:0:0:0:
308,52,162755,1,0,0:0:0:0:
280,236,162898,1,0,0:0:0:0:
132,116,163041,1,0,0:0:0:0:
428,148,163184,1,0,0:0:0:0:
140,192,163326,1,0,0:0:0:0:
376,80,163469,1,0,0:0:0:0:
368,296,163612,6,0,L|372:192,1,100
188,24,163898,2,0,L|204:136,1,100
276,332,164184,1,0,0:0:0:0:
316,152,164326,1,0,0:0:0:0:
316,152,164398,1,0,0:0:0:0:
316,152,164469,1,0,0:0:0:0:
120,248,164612,1,0,0:0:0:0:
360,360,164755,6,0,P|368:292|352:248,1,100
208,84,165041,2,0,P|196:144|212:204,1,100
264,312,165326,1,0,0:0:0:0:
356,168,165469,1,0,0:0:0:0:
136,248,165612,1,0,0:0:0:0:
420,300,165755,1,0,0:0:0:0:
216,360,165898,2,0,P|200:304|216:256,1,100
344,68,166184,1,0,0:0:0:0:
424,224,166326,6,0,P|328:240|252:180,1,200
104,28,166755,2,0,P|172:56|200:96,1,100
160,260,167041,1,0,0:0:0:0:
320,132,167184,1,0,0:0:0:0:
164,264,167326,1,0,0:0:0:0:
192,72,167469,1,0,0:0:0:0:
296,284,167612,6,0,L|408:284,1,100
164,176,167898,2,0,L|64:176,1,100
264,16,168184,2,0,P|280:68|272:120,1,100
268,140,168398,1,0,0:0:0:0:
256,160,168469,1,0,0:0:0:0:
240,256,168612,6,0,P|236:312|264:364,1,100
404,280,168898,1,0,0:0:0:0:
408,240,168969,1,0,0:0:0:0:
412,200,169041,2,0,L|416:140,1,50
340,56,169184,1,0,0:0:0:0:
336,96,169255,1,0,0:0:0:0:
332,132,169326,6,0,L|320:256,1,110.000003356934
88,348,169612,2,0,L|104:224,1,110.000003356934
204,52,169898,1,0,0:0:0:0:
272,320,170041,1,0,0:0:0:0:
112,136,170184,1,0,0:0:0:0:
384,180,170326,1,0,0:0:0:0:
272,320,170469,2,0,P|216:328|164:320,1,110.000003356934
16,156,170755,1,0,0:0:0:0:
164,36,170898,6,0,P|208:140|172:240,1,220.000006713867
380,364,171326,2,0,P|352:304|368:240,1,110.000003356934
444,88,171612,1,0,0:0:0:0:
136,148,171755,1,0,0:0:0:0:
432,196,171898,1,0,0:0:0:0:
208,52,172041,1,0,0:0:0:0:
340,324,172184,1,0,0:0:0:0:
372,64,172326,1,0,0:0:0:0:
144,256,172469,1,0,0:0:0:0:
392,200,172612,1,0,0:0:0:0:
160,24,172755,6,0,L|184:156,1,110.000003356934
280,348,173041,2,0,L|300:232,1,110.000003356934
296,60,173326,1,0,0:0:0:0:
132,280,173469,1,0,0:0:0:0:
132,280,173541,1,0,0:0:0:0:
132,280,173612,1,0,0:0:0:0:
448,160,173755,1,0,0:0:0:0:
92,32,173898,6,0,P|80:96|124:168,1,119.999996337891
380,352,174184,2,0,P|392:284|360:212,1,119.999996337891
92,232,174469,1,0,0:0:0:0:
380,52,174612,1,0,0:0:0:0:
272,352,174755,1,0,0:0:0:0:
184,48,174898,1,0,0:0:0:0:
392,284,175041,2,0,P|408:220|392:160,1,119.999996337891
256,16,175326,1,0,0:0:0:0:
72,148,175469,6,0,P|168:220|296:184,1,239.999992675781
384,12,175898,2,0,P|420:76|416:132,1,119.999996337891
320,320,176184,1,0,0:0:0:0:
192,32,176326,1,0,0:0:0:0:
160,352,176469,1,0,0:0:0:0:
419,120,176612,1,0,0:0:0:0:
68,168,176755,5,0,0:0:0:0:
408,268,176898,1,0,0:0:0:0:
244,32,177041,1,0,0:0:0:0:
296,356,177184,1,0,0:0:0:0:
356,52,177326,5,0,0:0:0:0:
216,260,177469,1,0,0:0:0:0:
216,260,177541,1,0,0:0:0:0:
216,260,177612,1,0,0:0:0:0:
400,156,177755,1,0,0:0:0:0:
136,116,177898,1,0,0:0:0:0:
360,264,178041,1,0,0:0:0:0:
276,32,178184,1,0,0:0:0:0:
136,336,178326,1,0,0:0:0:0:
392,176,178469,6,0,P|404:112|392:56,1,110.000003356934
300,232,178755,2,0,P|292:304|320:352,1,110.000003356934
280,120,179041,2,0,P|216:120|160:152,1,110.000003356934
60,240,179326,2,0,P|112:268|188:260,1,110.000003356934
396,216,179612,2,0,P|324:212|280:232,1,110.000003356934
232,364,179898,1,0,0:0:0:0:
48,112,180041,6,0,L|272:136,1,220.000006713867
468,224,180469,2,0,L|352:252,1,110.000003356934
128,272,180755,1,0,0:0:0:0:
364,132,180898,1,0,0:0:0:0:
80,172,181041,1,0,0:0:0:0:
361,249,181184,1,0,0:0:0:0:
224,48,181326,6,0,P|216:108|244:164,1,110.000003356934
476,184,181612,2,0,P|424:160|364:176,1,110.000003356934
268,376,181898,2,0,P|296:324|292:256,1,110.000003356934
224,48,182184,2,0,P|216:108|244:164,1,110.000003356934
388,304,182469,1,0,0:0:0:0:
108,284,182612,1,0,0:0:0:0:
108,284,182684,1,0,0:0:0:0:
108,284,182755,1,0,0:0:0:0:
364,136,182898,1,0,0:0:0:0:
256,360,183041,6,0,L|228:248,1,110.000003356934
352,245,183326,2,0,L|364:129,1,110.000003356934
212,24,183612,2,0,L|232:140,1,110.000003356934
104,192,183898,2,0,L|156:308,1,110.000003356934
376,352,184184,2,0,L|396:232,1,110.000003356934
252,56,184469,1,0,0:0:0:0:
104,192,184612,6,0,P|204:244|300:200,1,220.000006713867
184,20,185041,2,0,P|180:80|208:144,1,110.000003356934
316,300,185326,1,0,0:0:0:0:
324,60,185469,1,0,0:0:0:0:
140,232,185612,1,0,0:0:0:0:
424,176,185755,1,0,0:0:0:0:
268,104,185898,6,0,P|208:120|152:112,1,110.000003356934
12,224,186184,2,0,P|96:220|140:240,1,110.000003356934
244,312,186469,2,0,P|312:336|368:320,1,110.000003356934
376,308,186684,1,0,0:0:0:0:
376,308,186755,1,0,0:0:0:0:
119,228,186898,1,0,0:0:0:0:
404,144,187041,1,0,0:0:0:0:
408,144,187326,6,0,L|448:320,1,165.000005035401
416,328,187612,6,0,P|356:352|296:336,1,110.000003356934
136,208,187898,2,0,P|196:192|264:212,1,110.000003356934
388,200,188184,2,0,P|404:140|384:72,1,110.000003356934
168,88,188469,2,0,P|236:104|288:80,1,110.000003356934
56,24,188755,2,0,P|40:96|60:160,1,110.000003356934
160,336,189041,1,0,0:0:0:0:
316,196,189184,6,0,P|196:168|104:244,1,220.000006713867
304,336,189612,2,0,P|368:344|416:320,1,110.000003356934
416,64,189898,1,0,0:0:0:0:
352,264,190041,1,0,0:0:0:0:
416,64,190184,1,0,0:0:0:0:
212,200,190326,1,0,0:0:0:0:
56,80,190469,6,0,P|128:68|176:84,1,110.000003356934
319,201,190755,2,0,P|243:209|199:193,1,110.000003356934
408,128,191041,2,0,P|432:196|416:256,1,110.000003356934
216,332,191326,2,0,P|292:316|348:332,1,110.000003356934
368,64,191612,1,0,0:0:0:0:
216,188,191755,1,0,0:0:0:0:
216,188,191826,1,0,0:0:0:0:
216,188,191898,1,0,0:0:0:0:
432,232,192041,1,0,0:0:0:0:
368,64,192184,6,0,P|300:80|260:68,1,110.000003356934
96,104,192469,2,0,P|148:160|192:168,1,110.000003356934
388,176,192755,2,0,P|332:204|296:256,1,110.000003356934
92,340,193041,2,0,P|156:324|196:292,1,110.000003356934
212,76,193326,2,0,P|200:144|224:192,1,110.000003356934
332,356,193612,1,0,0:0:0:0:
480,180,193755,6,0,P|368:160|292:232,1,220.000006713867
124,356,194184,2,0,P|108:296|120:244,1,110.000003356934
264,32,194469,2,0,P|276:124|260:152,1,110.000003356934
216,328,194755,1,0,0:0:0:0:
424,240,194898,1,0,0:0:0:0:
140,108,195041,2,0,P|128:168|144:220,1,110.000003356934
328,360,195326,2,0,P|348:296|336:232,1,110.000003356934
256,32,195612,5,0,0:0:0:0:
244,296,195755,1,0,0:0:0:0:
244,296,195826,1,0,0:0:0:0:
244,296,195898,1,0,0:0:0:0:
64,160,196041,1,0,0:0:0:0:
416,96,196184,1,0,0:0:0:0:
