osu file format v14

[General]
AudioFilename: Streaming Heart.mp3
AudioLeadIn: 2
PreviewTime: 57340
Countdown: 0
SampleSet: None
StackLeniency: 0.7
Mode: 3
LetterboxInBreaks: 0
SpecialStyle: 0
WidescreenStoryboard: 1

[Editor]
DistanceSpacing: 0.8
BeatDivisor: 4
GridSize: 8
TimelineZoom: 2

[Metadata]
Title:Streaming Heart
TitleUnicode:Streaming Heart
Artist:DECO*27 feat.Reol
ArtistUnicode:DECO*27 feat.Reol
Creator:dakemoto
Version:7K Extra
Source:
Tags:
BeatmapID:929867
BeatmapSetID:431067

[Difficulty]
HPDrainRate:4
CircleSize:7
OverallDifficulty:8
ApproachRate:10
SliderMultiplier:1.4
SliderTickRate:1

[Events]
//Background and Video events
0,0,"Streaming Heart bg.jpg",0,0
//Break Periods
//Storyboard Layer 0 (Background)
//Storyboard Layer 1 (Fail)
//Storyboard Layer 2 (Pass)
//Storyboard Layer 3 (Foreground)
//Storyboard Sound Samples

[TimingPoints]
177,285.7143,4,3,0,15,1,0

[HitObjects]
402,192,1319,5,0,0:0:0:0:
448,192,1319,1,0,0:0:0:0:
329,192,1319,1,0,0:0:0:0:
256,192,1462,1,0,0:0:0:0:
64,192,1605,1,0,0:0:0:0:
448,192,1605,1,0,0:0:0:0:
109,192,1605,1,0,0:0:0:0:
402,192,1748,1,0,0:0:0:0:
475,192,1891,1,0,0:0:0:0:
182,192,1891,1,0,0:0:0:0:
329,192,1891,1,0,0:0:0:0:
256,192,2034,1,0,0:0:0:0:
64,192,2177,1,0,0:0:0:0:
182,192,2177,1,0,0:0:0:0:
109,192,2177,1,0,0:0:0:0:
329,192,2319,1,0,0:0:0:0:
402,192,2462,1,0,0:0:0:0:
448,192,2462,1,0,0:0:0:0:
256,192,2605,1,0,0:0:0:0:
64,192,2748,1,0,0:0:0:0:
109,192,2748,1,0,0:0:0:0:
256,192,2891,1,0,0:0:0:0:
402,192,3034,1,0,0:0:0:0:
448,192,3034,1,0,0:0:0:0:
256,192,3177,1,0,0:0:0:0:
109,192,3319,1,0,0:0:0:0:
402,192,3319,1,0,0:0:0:0:
256,192,3319,1,0,0:0:0:0:
256,192,3462,1,0,0:0:0:0:
64,192,3605,1,0,0:0:0:0:
192,192,3605,1,0,0:0:0:0:
109,192,3605,1,0,0:0:0:0:
329,192,3748,1,0,0:0:0:0:
256,192,3891,1,0,0:0:0:0:
448,192,3891,1,0,0:0:0:0:
402,192,3891,1,0,0:0:0:0:
109,192,4034,1,0,0:0:0:0:
329,192,4177,1,0,0:0:0:0:
475,192,4177,1,0,0:0:0:0:
182,192,4177,1,0,0:0:0:0:
256,192,4319,1,0,0:0:0:0:
109,192,4462,1,0,0:0:0:0:
448,192,4462,1,0,0:0:0:0:
402,192,4462,1,0,0:0:0:0:
329,192,4605,1,0,0:0:0:0:
64,192,4748,1,0,0:0:0:0:
448,192,4748,1,0,0:0:0:0:
182,192,4891,1,0,0:0:0:0:
329,192,5034,1,0,0:0:0:0:
448,192,5034,1,0,0:0:0:0:
182,192,5177,1,0,0:0:0:0:
64,192,5319,1,0,0:0:0:0:
256,192,5319,1,0,0:0:0:0:
182,192,5462,1,0,0:0:0:0:
329,192,5605,1,0,0:0:0:0:
192,192,5605,1,0,0:0:0:0:
448,192,5605,1,0,0:0:0:0:
182,192,5748,1,0,0:0:0:0:
402,192,5891,1,0,0:0:0:0:
320,192,5891,1,0,0:0:0:0:
448,192,5891,1,0,0:0:0:0:
109,192,6034,1,0,0:0:0:0:
64,192,6177,1,0,0:0:0:0:
448,192,6177,1,0,0:0:0:0:
256,192,6177,1,0,0:0:0:0:
182,192,6319,1,0,0:0:0:0:
64,192,6462,1,0,0:0:0:0:
109,192,6462,1,0,0:0:0:0:
329,192,6462,1,0,0:0:0:0:
256,192,6605,1,0,0:0:0:0:
64,192,6748,1,0,0:0:0:0:
182,192,6748,1,0,0:0:0:0:
109,192,6748,1,0,0:0:0:0:
329,192,6891,1,0,0:0:0:0:
256,192,7034,1,0,0:0:0:0:
448,192,7034,1,0,0:0:0:0:
402,192,7177,1,0,0:0:0:0:
64,192,7319,1,0,0:0:0:0:
182,192,7319,1,0,0:0:0:0:
402,192,7462,1,0,0:0:0:0:
64,192,7605,1,0,0:0:0:0:
109,192,7605,1,0,0:0:0:0:
402,192,7748,1,0,0:0:0:0:
64,192,7891,1,0,0:0:0:0:
256,192,7891,1,0,0:0:0:0:
402,192,7891,1,0,0:0:0:0:
402,192,8034,1,0,0:0:0:0:
64,192,8177,1,0,0:0:0:0:
448,192,8177,1,0,0:0:0:0:
182,192,8177,1,0,0:0:0:0:
402,192,8319,1,0,0:0:0:0:
109,192,8462,1,0,0:0:0:0:
182,192,8605,1,0,0:0:0:0:
256,192,8748,1,0,0:0:0:0:
109,192,8891,1,0,0:0:0:0:
402,192,9034,1,0,0:0:0:0:
182,192,9177,1,0,0:0:0:0:
448,192,9319,1,0,0:0:0:0:
329,192,9319,1,0,0:0:0:0:
109,192,9391,1,0,0:0:0:0:
448,192,9462,1,0,0:0:0:0:
329,192,9462,1,0,0:0:0:0:
109,192,9534,1,0,0:0:0:0:
256,192,9605,1,0,0:0:0:0:
320,192,9748,1,0,0:0:0:0:
64,192,9891,1,0,0:0:0:0:
192,192,9891,1,0,0:0:0:0:
448,192,9962,1,0,0:0:0:0:
192,192,10034,1,0,0:0:0:0:
448,192,10105,1,0,0:0:0:0:
109,192,10177,1,0,0:0:0:0:
320,192,10177,1,0,0:0:0:0:
256,192,10177,1,0,0:0:0:0:
320,192,10319,1,0,0:0:0:0:
448,192,10319,1,0,0:0:0:0:
64,192,10391,1,0,0:0:0:0:
192,192,10391,1,0,0:0:0:0:
320,192,10462,1,0,0:0:0:0:
109,192,10462,1,0,0:0:0:0:
475,192,10462,128,0,10891:0:0:0:0:
36,192,10891,1,0,0:0:0:0:
402,192,10891,128,0,11034:0:0:0:0:
109,192,11034,1,0,0:0:0:0:
182,192,11034,1,0,0:0:0:0:
256,192,11319,128,0,11605:0:0:0:0:
109,192,11605,1,0,0:0:0:0:
402,192,11605,128,0,12034:0:0:0:0:
109,192,11819,1,0,0:0:0:0:
109,192,12034,1,0,0:0:0:0:
329,192,12034,128,0,12177:0:0:0:0:
36,192,12177,1,0,0:0:0:0:
475,192,12177,1,0,0:0:0:0:
182,192,12462,128,0,12748:0:0:0:0:
475,192,12748,128,0,13177:0:0:0:0:
109,192,12748,1,0,0:0:0:0:
320,192,12748,1,0,0:0:0:0:
36,192,13177,1,0,0:0:0:0:
402,192,13177,128,0,13319:0:0:0:0:
182,192,13319,1,0,0:0:0:0:
109,192,13319,1,0,0:0:0:0:
256,192,13605,128,0,13891:0:0:0:0:
109,192,13891,1,0,0:0:0:0:
402,192,13891,128,0,14319:0:0:0:0:
109,192,14105,1,0,0:0:0:0:
329,192,14319,128,0,14462:0:0:0:0:
109,192,14319,1,0,0:0:0:0:
475,192,14462,1,0,0:0:0:0:
36,192,14462,1,0,0:0:0:0:
182,192,14748,128,0,15034:0:0:0:0:
320,192,15034,1,0,0:0:0:0:
109,192,15034,1,0,0:0:0:0:
475,192,15034,128,0,15462:0:0:0:0:
402,192,15462,128,0,15605:0:0:0:0:
36,192,15462,1,0,0:0:0:0:
109,192,15605,1,0,0:0:0:0:
182,192,15605,1,0,0:0:0:0:
256,192,15891,128,0,16177:0:0:0:0:
402,192,16177,128,0,16605:0:0:0:0:
109,192,16177,1,0,0:0:0:0:
109,192,16391,1,0,0:0:0:0:
109,192,16605,1,0,0:0:0:0:
329,192,16605,128,0,16748:0:0:0:0:
36,192,16748,1,0,0:0:0:0:
475,192,16748,1,0,0:0:0:0:
182,192,17034,128,0,17319:0:0:0:0:
475,192,17319,128,0,17748:0:0:0:0:
109,192,17319,1,0,0:0:0:0:
320,192,17319,1,0,0:0:0:0:
36,192,17748,1,0,0:0:0:0:
402,192,17748,128,0,17891:0:0:0:0:
182,192,17891,1,0,0:0:0:0:
109,192,17891,1,0,0:0:0:0:
256,192,18177,128,0,18462:0:0:0:0:
109,192,18462,1,0,0:0:0:0:
402,192,18462,128,0,18891:0:0:0:0:
109,192,18677,1,0,0:0:0:0:
329,192,18891,128,0,19034:0:0:0:0:
109,192,18891,1,0,0:0:0:0:
475,192,19034,1,0,0:0:0:0:
36,192,19034,1,0,0:0:0:0:
182,192,19319,128,0,19605:0:0:0:0:
329,192,19319,1,0,0:0:0:0:
256,192,19462,1,0,0:0:0:0:
320,192,19605,1,0,0:0:0:0:
109,192,19605,1,0,0:0:0:0:
475,192,19605,128,0,20034:0:0:0:0:
402,192,20034,128,0,20177:0:0:0:0:
36,192,20034,1,0,0:0:0:0:
109,192,20177,1,0,0:0:0:0:
182,192,20177,1,0,0:0:0:0:
256,192,20462,128,0,20748:0:0:0:0:
402,192,20748,128,0,21177:0:0:0:0:
109,192,20748,1,0,0:0:0:0:
109,192,20962,1,0,0:0:0:0:
109,192,21177,1,0,0:0:0:0:
329,192,21177,128,0,21319:0:0:0:0:
36,192,21319,1,0,0:0:0:0:
475,192,21319,1,0,0:0:0:0:
182,192,21605,128,0,21891:0:0:0:0:
475,192,21891,128,0,22319:0:0:0:0:
109,192,21891,1,0,0:0:0:0:
320,192,21891,1,0,0:0:0:0:
36,192,22319,1,0,0:0:0:0:
402,192,22319,128,0,22462:0:0:0:0:
182,192,22462,1,0,0:0:0:0:
109,192,22462,1,0,0:0:0:0:
256,192,22748,128,0,23034:0:0:0:0:
109,192,23034,1,0,0:0:0:0:
402,192,23034,128,0,23462:0:0:0:0:
109,192,23248,1,0,0:0:0:0:
329,192,23462,128,0,23605:0:0:0:0:
109,192,23462,1,0,0:0:0:0:
475,192,23605,1,0,0:0:0:0:
36,192,23605,1,0,0:0:0:0:
182,192,23891,128,0,24177:0:0:0:0:
320,192,24177,1,0,0:0:0:0:
109,192,24177,1,0,0:0:0:0:
475,192,24177,128,0,24605:0:0:0:0:
402,192,24605,128,0,24748:0:0:0:0:
36,192,24605,1,0,0:0:0:0:
109,192,24748,1,0,0:0:0:0:
182,192,24748,1,0,0:0:0:0:
256,192,25034,128,0,25319:0:0:0:0:
402,192,25319,128,0,25748:0:0:0:0:
109,192,25319,1,0,0:0:0:0:
109,192,25534,1,0,0:0:0:0:
109,192,25748,1,0,0:0:0:0:
329,192,25748,128,0,25891:0:0:0:0:
36,192,25891,1,0,0:0:0:0:
475,192,25891,1,0,0:0:0:0:
182,192,26177,128,0,26462:0:0:0:0:
475,192,26462,128,0,26891:0:0:0:0:
109,192,26462,1,0,0:0:0:0:
320,192,26462,1,0,0:0:0:0:
36,192,26891,1,0,0:0:0:0:
402,192,26891,128,0,27034:0:0:0:0:
182,192,27034,1,0,0:0:0:0:
109,192,27034,1,0,0:0:0:0:
256,192,27319,128,0,27605:0:0:0:0:
109,192,27605,1,0,0:0:0:0:
402,192,27605,128,0,28034:0:0:0:0:
109,192,27819,1,0,0:0:0:0:
329,192,28034,128,0,28177:0:0:0:0:
109,192,28034,1,0,0:0:0:0:
475,192,28177,1,0,0:0:0:0:
36,192,28177,1,0,0:0:0:0:
182,192,28462,128,0,28748:0:0:0:0:
475,192,28748,1,0,0:0:0:0:
36,192,28748,1,0,0:0:0:0:
109,192,28891,1,0,0:0:0:0:
182,192,29105,1,0,0:0:0:0:
256,192,29319,1,0,0:0:0:0:
329,192,29534,1,0,0:0:0:0:
475,192,29677,128,0,29891:0:0:0:0:
36,192,29891,1,0,0:0:0:0:
182,192,29891,1,0,0:0:0:0:
402,192,29891,1,0,0:0:0:0:
329,192,30034,1,0,0:0:0:0:
256,192,30177,1,0,0:0:0:0:
402,192,30319,1,0,0:0:0:0:
109,192,30319,1,0,0:0:0:0:
475,192,30462,1,0,0:0:0:0:
36,192,30462,1,0,0:0:0:0:
182,192,30462,1,0,0:0:0:0:
329,192,30462,1,0,0:0:0:0:
256,192,30605,1,0,0:0:0:0:
402,192,30748,1,0,0:0:0:0:
109,192,30891,1,0,0:0:0:0:
475,192,31034,1,0,0:0:0:0:
329,192,31177,1,0,0:0:0:0:
109,192,31177,1,0,0:0:0:0:
182,192,31319,1,0,0:0:0:0:
329,192,31462,1,0,0:0:0:0:
36,192,31605,1,0,0:0:0:0:
109,192,31605,1,0,0:0:0:0:
256,192,31605,1,0,0:0:0:0:
329,192,31748,1,0,0:0:0:0:
329,192,31891,1,0,0:0:0:0:
329,192,32034,1,0,0:0:0:0:
475,192,32177,1,0,0:0:0:0:
402,192,32177,1,0,0:0:0:0:
182,192,32177,1,0,0:0:0:0:
256,192,32319,1,0,0:0:0:0:
109,192,32462,1,0,0:0:0:0:
402,192,32605,1,0,0:0:0:0:
256,192,32605,1,0,0:0:0:0:
475,192,32748,1,0,0:0:0:0:
36,192,32748,1,0,0:0:0:0:
182,192,32748,1,0,0:0:0:0:
329,192,32748,1,0,0:0:0:0:
402,192,32891,1,0,0:0:0:0:
109,192,33034,1,0,0:0:0:0:
182,192,33177,1,0,0:0:0:0:
475,192,33319,1,0,0:0:0:0:
36,192,33462,1,0,0:0:0:0:
182,192,33462,1,0,0:0:0:0:
329,192,33605,1,0,0:0:0:0:
182,192,33748,1,0,0:0:0:0:
475,192,33891,1,0,0:0:0:0:
36,192,33891,1,0,0:0:0:0:
256,192,33891,1,0,0:0:0:0:
182,192,34034,1,0,0:0:0:0:
182,192,34177,1,0,0:0:0:0:
182,192,34319,1,0,0:0:0:0:
475,192,34462,1,0,0:0:0:0:
109,192,34462,1,0,0:0:0:0:
329,192,34462,1,0,0:0:0:0:
182,192,34605,1,0,0:0:0:0:
256,192,34748,1,0,0:0:0:0:
402,192,34891,1,0,0:0:0:0:
109,192,34891,1,0,0:0:0:0:
475,192,35034,1,0,0:0:0:0:
36,192,35034,1,0,0:0:0:0:
182,192,35034,1,0,0:0:0:0:
329,192,35034,1,0,0:0:0:0:
256,192,35177,1,0,0:0:0:0:
182,192,35319,1,0,0:0:0:0:
109,192,35462,1,0,0:0:0:0:
475,192,35605,1,0,0:0:0:0:
36,192,35748,1,0,0:0:0:0:
402,192,35748,1,0,0:0:0:0:
182,192,35891,1,0,0:0:0:0:
402,192,36034,1,0,0:0:0:0:
475,192,36177,1,0,0:0:0:0:
109,192,36177,1,0,0:0:0:0:
256,192,36177,1,0,0:0:0:0:
402,192,36319,1,0,0:0:0:0:
402,192,36462,1,0,0:0:0:0:
402,192,36605,1,0,0:0:0:0:
475,192,36748,1,0,0:0:0:0:
36,192,36748,1,0,0:0:0:0:
256,192,36748,1,0,0:0:0:0:
329,192,36891,1,0,0:0:0:0:
402,192,37034,1,0,0:0:0:0:
109,192,37177,1,0,0:0:0:0:
256,192,37177,1,0,0:0:0:0:
475,192,37319,1,0,0:0:0:0:
36,192,37319,1,0,0:0:0:0:
182,192,37319,1,0,0:0:0:0:
329,192,37319,1,0,0:0:0:0:
109,192,37462,1,0,0:0:0:0:
256,192,37605,1,0,0:0:0:0:
182,192,37748,1,0,0:0:0:0:
475,192,37891,1,0,0:0:0:0:
36,192,37891,1,0,0:0:0:0:
256,192,38034,1,0,0:0:0:0:
329,192,38034,1,0,0:0:0:0:
109,192,38105,1,0,0:0:0:0:
182,192,38105,1,0,0:0:0:0:
329,192,38177,1,0,0:0:0:0:
402,192,38177,1,0,0:0:0:0:
109,192,38319,1,0,0:0:0:0:
182,192,38319,1,0,0:0:0:0:
329,192,38462,1,0,0:0:0:0:
402,192,38462,1,0,0:0:0:0:
109,192,38605,1,0,0:0:0:0:
182,192,38605,1,0,0:0:0:0:
329,192,38748,1,0,0:0:0:0:
402,192,38748,1,0,0:0:0:0:
109,192,38891,1,0,0:0:0:0:
182,192,38891,1,0,0:0:0:0:
329,192,38962,1,0,0:0:0:0:
402,192,38962,1,0,0:0:0:0:
475,192,39034,1,0,0:0:0:0:
36,192,39034,1,0,0:0:0:0:
256,192,39034,1,0,0:0:0:0:
182,192,39177,1,0,0:0:0:0:
109,192,39177,1,0,0:0:0:0:
475,192,39319,1,0,0:0:0:0:
329,192,39319,1,0,0:0:0:0:
402,192,39319,1,0,0:0:0:0:
256,192,39462,1,0,0:0:0:0:
36,192,39462,1,0,0:0:0:0:
475,192,39605,1,0,0:0:0:0:
109,192,39605,1,0,0:0:0:0:
182,192,39748,1,0,0:0:0:0:
402,192,39748,1,0,0:0:0:0:
475,192,39891,1,0,0:0:0:0:
36,192,39891,1,0,0:0:0:0:
329,192,39891,1,0,0:0:0:0:
109,192,40034,1,0,0:0:0:0:
182,192,40034,1,0,0:0:0:0:
329,192,40177,1,0,0:0:0:0:
36,192,40177,1,0,0:0:0:0:
256,192,40319,1,0,0:0:0:0:
475,192,40319,1,0,0:0:0:0:
402,192,40462,1,0,0:0:0:0:
36,192,40462,1,0,0:0:0:0:
109,192,40462,1,0,0:0:0:0:
256,192,40605,1,0,0:0:0:0:
182,192,40605,1,0,0:0:0:0:
475,192,40748,1,0,0:0:0:0:
329,192,40748,1,0,0:0:0:0:
109,192,40891,1,0,0:0:0:0:
256,192,40891,1,0,0:0:0:0:
475,192,41034,1,0,0:0:0:0:
402,192,41034,1,0,0:0:0:0:
109,192,41034,1,0,0:0:0:0:
256,192,41034,1,0,0:0:0:0:
109,192,41177,1,0,0:0:0:0:
256,192,41177,1,0,0:0:0:0:
475,192,41319,1,0,0:0:0:0:
329,192,41319,1,0,0:0:0:0:
182,192,41462,1,0,0:0:0:0:
109,192,41462,1,0,0:0:0:0:
475,192,41605,1,0,0:0:0:0:
36,192,41605,1,0,0:0:0:0:
402,192,41605,1,0,0:0:0:0:
329,192,41748,1,0,0:0:0:0:
256,192,41748,1,0,0:0:0:0:
475,192,41891,1,0,0:0:0:0:
182,192,41891,1,0,0:0:0:0:
36,192,42034,1,0,0:0:0:0:
402,192,42034,1,0,0:0:0:0:
475,192,42177,1,0,0:0:0:0:
256,192,42177,1,0,0:0:0:0:
109,192,42177,1,0,0:0:0:0:
182,192,42319,1,0,0:0:0:0:
329,192,42319,1,0,0:0:0:0:
475,192,42462,1,0,0:0:0:0:
36,192,42462,1,0,0:0:0:0:
256,192,42605,1,0,0:0:0:0:
109,192,42605,1,0,0:0:0:0:
475,192,42748,1,0,0:0:0:0:
182,192,42748,1,0,0:0:0:0:
329,192,42748,1,0,0:0:0:0:
256,192,42891,1,0,0:0:0:0:
36,192,42891,1,0,0:0:0:0:
475,192,43034,1,0,0:0:0:0:
182,192,43034,1,0,0:0:0:0:
402,192,43177,1,0,0:0:0:0:
256,192,43177,1,0,0:0:0:0:
109,192,43319,1,0,0:0:0:0:
36,192,43319,1,0,0:0:0:0:
256,192,43319,1,0,0:0:0:0:
402,192,43319,1,0,0:0:0:0:
256,192,43462,1,0,0:0:0:0:
402,192,43462,1,0,0:0:0:0:
329,192,43605,1,0,0:0:0:0:
36,192,43605,1,0,0:0:0:0:
256,192,43748,1,0,0:0:0:0:
475,192,43748,1,0,0:0:0:0:
329,192,43891,1,0,0:0:0:0:
36,192,43891,1,0,0:0:0:0:
182,192,43891,1,0,0:0:0:0:
402,192,44034,1,0,0:0:0:0:
109,192,44034,1,0,0:0:0:0:
256,192,44177,1,0,0:0:0:0:
475,192,44177,1,0,0:0:0:0:
36,192,44319,1,0,0:0:0:0:
402,192,44319,1,0,0:0:0:0:
475,192,44462,1,0,0:0:0:0:
182,192,44462,1,0,0:0:0:0:
109,192,44462,1,0,0:0:0:0:
402,192,44605,1,0,0:0:0:0:
256,192,44605,1,0,0:0:0:0:
329,192,44748,1,0,0:0:0:0:
36,192,44748,1,0,0:0:0:0:
475,192,44891,1,0,0:0:0:0:
109,192,44891,1,0,0:0:0:0:
402,192,45034,1,0,0:0:0:0:
36,192,45034,1,0,0:0:0:0:
256,192,45034,1,0,0:0:0:0:
182,192,45177,1,0,0:0:0:0:
109,192,45177,1,0,0:0:0:0:
475,192,45319,1,0,0:0:0:0:
402,192,45319,1,0,0:0:0:0:
329,192,45462,1,0,0:0:0:0:
182,192,45462,1,0,0:0:0:0:
475,192,45605,1,0,0:0:0:0:
36,192,45605,1,0,0:0:0:0:
182,192,45605,1,0,0:0:0:0:
329,192,45605,1,0,0:0:0:0:
182,192,45748,1,0,0:0:0:0:
329,192,45748,1,0,0:0:0:0:
475,192,45891,1,0,0:0:0:0:
109,192,45891,1,0,0:0:0:0:
182,192,46034,1,0,0:0:0:0:
256,192,46034,1,0,0:0:0:0:
475,192,46177,1,0,0:0:0:0:
36,192,46177,1,0,0:0:0:0:
329,192,46177,1,0,0:0:0:0:
402,192,46319,1,0,0:0:0:0:
109,192,46319,1,0,0:0:0:0:
475,192,46462,1,0,0:0:0:0:
182,192,46462,1,0,0:0:0:0:
109,192,46605,1,0,0:0:0:0:
256,192,46605,1,0,0:0:0:0:
475,192,46748,1,0,0:0:0:0:
36,192,46748,1,0,0:0:0:0:
329,192,46748,1,0,0:0:0:0:
256,192,46891,1,0,0:0:0:0:
109,192,46891,1,0,0:0:0:0:
475,192,47034,1,0,0:0:0:0:
182,192,47034,1,0,0:0:0:0:
256,192,47177,1,0,0:0:0:0:
402,192,47177,1,0,0:0:0:0:
475,192,47319,1,0,0:0:0:0:
36,192,47319,1,0,0:0:0:0:
182,192,47319,1,0,0:0:0:0:
109,192,47462,1,0,0:0:0:0:
329,192,47462,1,0,0:0:0:0:
475,192,47605,1,0,0:0:0:0:
256,192,47605,1,0,0:0:0:0:
402,192,47748,1,0,0:0:0:0:
109,192,47748,1,0,0:0:0:0:
475,192,47891,1,0,0:0:0:0:
36,192,47891,1,0,0:0:0:0:
329,192,47891,1,0,0:0:0:0:
182,192,48034,1,0,0:0:0:0:
256,192,48034,1,0,0:0:0:0:
36,192,48177,1,0,0:0:0:0:
109,192,48177,1,0,0:0:0:0:
402,192,48177,1,0,0:0:0:0:
182,192,48319,1,0,0:0:0:0:
329,192,48462,1,0,0:0:0:0:
182,192,48605,1,0,0:0:0:0:
36,192,48605,1,0,0:0:0:0:
256,192,48748,1,0,0:0:0:0:
475,192,48891,1,0,0:0:0:0:
109,192,49034,1,0,0:0:0:0:
36,192,49034,1,0,0:0:0:0:
402,192,49177,1,0,0:0:0:0:
475,192,49319,1,0,0:0:0:0:
329,192,49319,1,0,0:0:0:0:
256,192,49462,1,0,0:0:0:0:
182,192,49605,1,0,0:0:0:0:
36,192,49748,1,0,0:0:0:0:
475,192,49748,1,0,0:0:0:0:
402,192,49891,1,0,0:0:0:0:
329,192,50034,1,0,0:0:0:0:
475,192,50177,1,0,0:0:0:0:
182,192,50177,1,0,0:0:0:0:
256,192,50319,1,0,0:0:0:0:
36,192,50462,1,0,0:0:0:0:
402,192,50462,1,0,0:0:0:0:
109,192,50605,1,0,0:0:0:0:
475,192,50748,1,0,0:0:0:0:
36,192,50891,1,0,0:0:0:0:
182,192,50891,1,0,0:0:0:0:
402,192,51034,1,0,0:0:0:0:
256,192,51177,1,0,0:0:0:0:
36,192,51319,1,0,0:0:0:0:
109,192,51319,1,0,0:0:0:0:
329,192,51462,1,0,0:0:0:0:
475,192,51605,1,0,0:0:0:0:
182,192,51605,1,0,0:0:0:0:
402,192,51748,1,0,0:0:0:0:
329,192,51891,1,0,0:0:0:0:
475,192,52034,1,0,0:0:0:0:
109,192,52034,1,0,0:0:0:0:
256,192,52177,1,0,0:0:0:0:
402,192,52319,1,0,0:0:0:0:
36,192,52462,1,0,0:0:0:0:
109,192,52462,1,0,0:0:0:0:
182,192,52605,1,0,0:0:0:0:
36,192,52748,1,0,0:0:0:0:
256,192,52748,1,0,0:0:0:0:
329,192,52748,128,0,53891:0:0:0:0:
182,192,52891,1,0,0:0:0:0:
475,192,53034,1,0,0:0:0:0:
36,192,53177,1,0,0:0:0:0:
402,192,53177,1,0,0:0:0:0:
109,192,53319,1,0,0:0:0:0:
182,192,53462,1,0,0:0:0:0:
475,192,53605,1,0,0:0:0:0:
36,192,53605,1,0,0:0:0:0:
182,192,53748,1,0,0:0:0:0:
36,192,53891,1,0,0:0:0:0:
402,192,53891,128,0,55034:0:0:0:0:
256,192,53891,1,0,0:0:0:0:
475,192,54034,1,0,0:0:0:0:
109,192,54177,1,0,0:0:0:0:
36,192,54319,1,0,0:0:0:0:
182,192,54319,1,0,0:0:0:0:
256,192,54462,1,0,0:0:0:0:
329,192,54605,1,0,0:0:0:0:
36,192,54748,1,0,0:0:0:0:
475,192,54748,1,0,0:0:0:0:
329,192,54891,1,0,0:0:0:0:
36,192,55034,1,0,0:0:0:0:
256,192,55034,128,0,56177:0:0:0:0:
182,192,55034,1,0,0:0:0:0:
329,192,55177,1,0,0:0:0:0:
36,192,55319,1,0,0:0:0:0:
475,192,55319,1,0,0:0:0:0:
402,192,55462,1,0,0:0:0:0:
36,192,55605,1,0,0:0:0:0:
329,192,55605,1,0,0:0:0:0:
182,192,55748,1,0,0:0:0:0:
109,192,55891,1,0,0:0:0:0:
475,192,55891,1,0,0:0:0:0:
402,192,56034,1,0,0:0:0:0:
36,192,56177,1,0,0:0:0:0:
475,192,56177,1,0,0:0:0:0:
182,192,56248,1,0,0:0:0:0:
329,192,56248,1,0,0:0:0:0:
36,192,56319,1,0,0:0:0:0:
475,192,56319,1,0,0:0:0:0:
182,192,56391,1,0,0:0:0:0:
329,192,56391,1,0,0:0:0:0:
36,192,56462,1,0,0:0:0:0:
475,192,56462,1,0,0:0:0:0:
182,192,56534,1,0,0:0:0:0:
329,192,56534,1,0,0:0:0:0:
36,192,56605,1,0,0:0:0:0:
475,192,56605,1,0,0:0:0:0:
182,192,56677,1,0,0:0:0:0:
329,192,56677,1,0,0:0:0:0:
36,192,56748,1,0,0:0:0:0:
475,192,56748,1,0,0:0:0:0:
256,192,56748,128,0,57177:0:0:0:0:
36,192,57319,1,0,0:0:0:0:
475,192,57319,128,0,57605:0:0:0:0:
36,192,57605,1,0,0:0:0:0:
182,192,57605,1,0,0:0:0:0:
475,192,57748,128,0,57891:0:0:0:0:
36,192,57891,1,0,0:0:0:0:
475,192,58034,128,0,58177:0:0:0:0:
36,192,58177,1,0,0:0:0:0:
182,192,58177,1,0,0:0:0:0:
402,192,58177,128,0,58319:0:0:0:0:
329,192,58319,128,0,58462:0:0:0:0:
475,192,58462,1,0,0:0:0:0:
36,192,58462,128,0,58748:0:0:0:0:
475,192,58748,1,0,0:0:0:0:
329,192,58748,1,0,0:0:0:0:
36,192,58891,128,0,59034:0:0:0:0:
475,192,59034,1,0,0:0:0:0:
36,192,59177,128,0,59319:0:0:0:0:
475,192,59319,1,0,0:0:0:0:
329,192,59319,1,0,0:0:0:0:
109,192,59319,128,0,59462:0:0:0:0:
182,192,59462,128,0,59605:0:0:0:0:
36,192,59605,1,0,0:0:0:0:
256,192,59605,128,0,59891:0:0:0:0:
36,192,59891,1,0,0:0:0:0:
182,192,59891,1,0,0:0:0:0:
256,192,60034,128,0,60177:0:0:0:0:
36,192,60177,1,0,0:0:0:0:
256,192,60319,128,0,60462:0:0:0:0:
36,192,60462,1,0,0:0:0:0:
182,192,60462,1,0,0:0:0:0:
329,192,60462,128,0,60605:0:0:0:0:
402,192,60605,128,0,60748:0:0:0:0:
36,192,60748,1,0,0:0:0:0:
475,192,60748,128,0,61034:0:0:0:0:
36,192,61034,1,0,0:0:0:0:
182,192,61034,1,0,0:0:0:0:
475,192,61177,128,0,61319:0:0:0:0:
36,192,61319,1,0,0:0:0:0:
475,192,61462,128,0,61605:0:0:0:0:
36,192,61605,1,0,0:0:0:0:
182,192,61605,1,0,0:0:0:0:
402,192,61605,128,0,61748:0:0:0:0:
329,192,61748,128,0,61891:0:0:0:0:
475,192,61891,1,0,0:0:0:0:
36,192,61891,128,0,62177:0:0:0:0:
475,192,62177,1,0,0:0:0:0:
329,192,62177,1,0,0:0:0:0:
36,192,62319,128,0,62462:0:0:0:0:
475,192,62462,1,0,0:0:0:0:
36,192,62605,128,0,62748:0:0:0:0:
475,192,62748,1,0,0:0:0:0:
329,192,62748,1,0,0:0:0:0:
109,192,62748,128,0,62891:0:0:0:0:
182,192,62891,128,0,63034:0:0:0:0:
475,192,63034,1,0,0:0:0:0:
256,192,63034,128,0,63319:0:0:0:0:
475,192,63319,1,0,0:0:0:0:
36,192,63319,1,0,0:0:0:0:
256,192,63462,128,0,63605:0:0:0:0:
475,192,63605,1,0,0:0:0:0:
256,192,63748,128,0,63891:0:0:0:0:
329,192,63891,1,0,0:0:0:0:
36,192,63891,1,0,0:0:0:0:
475,192,63891,128,0,64034:0:0:0:0:
256,192,64034,128,0,64177:0:0:0:0:
36,192,64177,1,0,0:0:0:0:
182,192,64177,1,0,0:0:0:0:
402,192,64177,1,0,0:0:0:0:
475,192,64177,128,0,65319:0:0:0:0:
36,192,64462,1,0,0:0:0:0:
182,192,64462,1,0,0:0:0:0:
402,192,64462,1,0,0:0:0:0:
36,192,64748,1,0,0:0:0:0:
182,192,64748,1,0,0:0:0:0:
402,192,64748,1,0,0:0:0:0:
36,192,65034,1,0,0:0:0:0:
182,192,65034,1,0,0:0:0:0:
402,192,65034,1,0,0:0:0:0:
256,192,65319,128,0,65891:0:0:0:0:
36,192,65891,1,0,0:0:0:0:
475,192,65891,1,0,0:0:0:0:
182,192,65962,1,0,0:0:0:0:
329,192,65962,1,0,0:0:0:0:
36,192,66034,1,0,0:0:0:0:
475,192,66034,1,0,0:0:0:0:
182,192,66105,1,0,0:0:0:0:
329,192,66105,1,0,0:0:0:0:
36,192,66177,1,0,0:0:0:0:
475,192,66177,1,0,0:0:0:0:
182,192,66248,1,0,0:0:0:0:
329,192,66248,1,0,0:0:0:0:
36,192,66319,1,0,0:0:0:0:
475,192,66319,1,0,0:0:0:0:
182,192,66391,1,0,0:0:0:0:
329,192,66391,1,0,0:0:0:0:
475,192,66462,1,0,0:0:0:0:
256,192,66462,1,0,0:0:0:0:
109,192,66462,1,0,0:0:0:0:
402,192,66534,1,0,0:0:0:0:
329,192,66605,1,0,0:0:0:0:
256,192,66677,1,0,0:0:0:0:
475,192,66748,1,0,0:0:0:0:
36,192,66748,1,0,0:0:0:0:
182,192,66748,1,0,0:0:0:0:
402,192,66819,1,0,0:0:0:0:
329,192,66891,1,0,0:0:0:0:
256,192,66962,1,0,0:0:0:0:
36,192,67034,1,0,0:0:0:0:
402,192,67034,1,0,0:0:0:0:
109,192,67105,1,0,0:0:0:0:
182,192,67177,1,0,0:0:0:0:
256,192,67248,1,0,0:0:0:0:
36,192,67319,1,0,0:0:0:0:
475,192,67319,1,0,0:0:0:0:
329,192,67319,1,0,0:0:0:0:
109,192,67391,1,0,0:0:0:0:
182,192,67462,1,0,0:0:0:0:
256,192,67534,1,0,0:0:0:0:
329,192,67605,1,0,0:0:0:0:
36,192,67605,1,0,0:0:0:0:
402,192,67677,1,0,0:0:0:0:
109,192,67748,1,0,0:0:0:0:
182,192,67819,1,0,0:0:0:0:
475,192,67891,1,0,0:0:0:0:
36,192,67891,1,0,0:0:0:0:
402,192,67891,1,0,0:0:0:0:
329,192,67962,1,0,0:0:0:0:
256,192,68034,1,0,0:0:0:0:
109,192,68105,1,0,0:0:0:0:
475,192,68177,1,0,0:0:0:0:
402,192,68177,1,0,0:0:0:0:
329,192,68248,1,0,0:0:0:0:
256,192,68319,1,0,0:0:0:0:
182,192,68391,1,0,0:0:0:0:
475,192,68462,1,0,0:0:0:0:
329,192,68462,1,0,0:0:0:0:
36,192,68462,1,0,0:0:0:0:
256,192,68534,1,0,0:0:0:0:
182,192,68605,1,0,0:0:0:0:
109,192,68677,1,0,0:0:0:0:
475,192,68748,1,0,0:0:0:0:
256,192,68748,1,0,0:0:0:0:
402,192,68819,1,0,0:0:0:0:
329,192,68891,1,0,0:0:0:0:
256,192,68962,1,0,0:0:0:0:
36,192,69034,1,0,0:0:0:0:
475,192,69034,1,0,0:0:0:0:
182,192,69034,1,0,0:0:0:0:
402,192,69105,1,0,0:0:0:0:
329,192,69177,1,0,0:0:0:0:
256,192,69248,1,0,0:0:0:0:
36,192,69319,1,0,0:0:0:0:
109,192,69319,1,0,0:0:0:0:
182,192,69391,1,0,0:0:0:0:
329,192,69462,1,0,0:0:0:0:
402,192,69534,1,0,0:0:0:0:
36,192,69605,1,0,0:0:0:0:
475,192,69605,1,0,0:0:0:0:
109,192,69605,1,0,0:0:0:0:
182,192,69677,1,0,0:0:0:0:
329,192,69748,1,0,0:0:0:0:
402,192,69819,1,0,0:0:0:0:
475,192,69891,1,0,0:0:0:0:
256,192,69891,1,0,0:0:0:0:
182,192,69962,1,0,0:0:0:0:
402,192,70034,1,0,0:0:0:0:
109,192,70105,1,0,0:0:0:0:
329,192,70177,1,0,0:0:0:0:
475,192,70177,1,0,0:0:0:0:
36,192,70177,1,0,0:0:0:0:
182,192,70248,1,0,0:0:0:0:
256,192,70319,1,0,0:0:0:0:
402,192,70391,1,0,0:0:0:0:
109,192,70391,1,0,0:0:0:0:
475,192,70462,1,0,0:0:0:0:
182,192,70462,1,0,0:0:0:0:
256,192,70534,1,0,0:0:0:0:
182,192,70605,1,0,0:0:0:0:
109,192,70677,1,0,0:0:0:0:
329,192,70748,1,0,0:0:0:0:
475,192,70748,1,0,0:0:0:0:
36,192,70748,1,0,0:0:0:0:
402,192,70819,1,0,0:0:0:0:
329,192,70891,1,0,0:0:0:0:
256,192,70962,1,0,0:0:0:0:
475,192,71034,1,0,0:0:0:0:
182,192,71034,1,0,0:0:0:0:
329,192,71105,1,0,0:0:0:0:
256,192,71177,1,0,0:0:0:0:
109,192,71248,1,0,0:0:0:0:
182,192,71319,1,0,0:0:0:0:
475,192,71319,1,0,0:0:0:0:
36,192,71319,1,0,0:0:0:0:
329,192,71391,1,0,0:0:0:0:
256,192,71462,1,0,0:0:0:0:
109,192,71534,1,0,0:0:0:0:
329,192,71605,1,0,0:0:0:0:
36,192,71605,1,0,0:0:0:0:
182,192,71677,1,0,0:0:0:0:
256,192,71748,1,0,0:0:0:0:
402,192,71819,1,0,0:0:0:0:
36,192,71891,1,0,0:0:0:0:
329,192,71891,1,0,0:0:0:0:
182,192,71962,1,0,0:0:0:0:
256,192,72034,1,0,0:0:0:0:
402,192,72105,1,0,0:0:0:0:
475,192,72177,1,0,0:0:0:0:
36,192,72177,1,0,0:0:0:0:
256,192,72248,1,0,0:0:0:0:
182,192,72319,1,0,0:0:0:0:
109,192,72391,1,0,0:0:0:0:
329,192,72462,1,0,0:0:0:0:
475,192,72462,1,0,0:0:0:0:
402,192,72462,1,0,0:0:0:0:
256,192,72534,1,0,0:0:0:0:
36,192,72605,1,0,0:0:0:0:
109,192,72677,1,0,0:0:0:0:
475,192,72748,1,0,0:0:0:0:
256,192,72748,1,0,0:0:0:0:
329,192,72819,1,0,0:0:0:0:
402,192,72891,1,0,0:0:0:0:
182,192,72962,1,0,0:0:0:0:
329,192,73034,1,0,0:0:0:0:
475,192,73034,1,0,0:0:0:0:
109,192,73034,1,0,0:0:0:0:
36,192,73105,1,0,0:0:0:0:
256,192,73177,1,0,0:0:0:0:
182,192,73248,1,0,0:0:0:0:
475,192,73319,1,0,0:0:0:0:
109,192,73319,1,0,0:0:0:0:
36,192,73319,1,0,0:0:0:0:
329,192,73391,1,0,0:0:0:0:
256,192,73462,1,0,0:0:0:0:
182,192,73534,1,0,0:0:0:0:
109,192,73605,1,0,0:0:0:0:
475,192,73605,1,0,0:0:0:0:
36,192,73605,1,0,0:0:0:0:
329,192,73677,1,0,0:0:0:0:
256,192,73748,1,0,0:0:0:0:
182,192,73819,1,0,0:0:0:0:
329,192,73891,1,0,0:0:0:0:
475,192,73891,1,0,0:0:0:0:
36,192,73891,1,0,0:0:0:0:
109,192,73962,1,0,0:0:0:0:
256,192,74034,1,0,0:0:0:0:
402,192,74105,1,0,0:0:0:0:
182,192,74177,1,0,0:0:0:0:
475,192,74177,1,0,0:0:0:0:
36,192,74177,1,0,0:0:0:0:
109,192,74248,1,0,0:0:0:0:
256,192,74319,1,0,0:0:0:0:
402,192,74391,1,0,0:0:0:0:
329,192,74462,1,0,0:0:0:0:
475,192,74462,1,0,0:0:0:0:
109,192,74462,1,0,0:0:0:0:
182,192,74534,1,0,0:0:0:0:
256,192,74605,1,0,0:0:0:0:
36,192,74677,1,0,0:0:0:0:
329,192,74748,1,0,0:0:0:0:
475,192,74748,1,0,0:0:0:0:
109,192,74748,1,0,0:0:0:0:
329,192,74891,1,0,0:0:0:0:
475,192,74891,1,0,0:0:0:0:
36,192,74962,1,0,0:0:0:0:
182,192,74962,1,0,0:0:0:0:
329,192,75034,1,0,0:0:0:0:
475,192,75034,1,0,0:0:0:0:
36,192,75177,1,0,0:0:0:0:
182,192,75177,1,0,0:0:0:0:
329,192,75319,1,0,0:0:0:0:
475,192,75319,1,0,0:0:0:0:
36,192,75462,1,0,0:0:0:0:
182,192,75462,1,0,0:0:0:0:
109,192,75605,1,0,0:0:0:0:
329,192,75605,1,0,0:0:0:0:
475,192,75605,128,0,76034:0:0:0:0:
36,192,75891,1,0,0:0:0:0:
182,192,75891,1,0,0:0:0:0:
36,192,76034,1,0,0:0:0:0:
402,192,76034,128,0,76177:0:0:0:0:
182,192,76034,1,0,0:0:0:0:
36,192,76462,1,0,0:0:0:0:
256,192,76462,128,0,76748:0:0:0:0:
182,192,76462,1,0,0:0:0:0:
402,192,76748,128,0,77177:0:0:0:0:
182,192,77034,1,0,0:0:0:0:
475,192,77034,1,0,0:0:0:0:
182,192,77177,1,0,0:0:0:0:
109,192,77177,128,0,77319:0:0:0:0:
475,192,77177,1,0,0:0:0:0:
182,192,77605,1,0,0:0:0:0:
36,192,77605,128,0,77891:0:0:0:0:
475,192,77605,1,0,0:0:0:0:
475,192,77891,128,0,78319:0:0:0:0:
36,192,78177,1,0,0:0:0:0:
182,192,78177,1,0,0:0:0:0:
36,192,78319,1,0,0:0:0:0:
402,192,78319,128,0,78462:0:0:0:0:
182,192,78319,1,0,0:0:0:0:
36,192,78748,1,0,0:0:0:0:
256,192,78748,128,0,79034:0:0:0:0:
182,192,78748,1,0,0:0:0:0:
402,192,79034,128,0,79462:0:0:0:0:
182,192,79319,1,0,0:0:0:0:
475,192,79319,1,0,0:0:0:0:
182,192,79462,1,0,0:0:0:0:
109,192,79462,128,0,79605:0:0:0:0:
475,192,79462,1,0,0:0:0:0:
36,192,79891,128,0,80177:0:0:0:0:
475,192,79891,1,0,0:0:0:0:
182,192,79891,1,0,0:0:0:0:
475,192,80177,128,0,80605:0:0:0:0:
36,192,80462,1,0,0:0:0:0:
182,192,80462,1,0,0:0:0:0:
402,192,80605,128,0,80748:0:0:0:0:
36,192,80605,1,0,0:0:0:0:
182,192,80605,1,0,0:0:0:0:
256,192,81034,128,0,81319:0:0:0:0:
36,192,81034,1,0,0:0:0:0:
182,192,81034,1,0,0:0:0:0:
402,192,81319,128,0,81748:0:0:0:0:
182,192,81605,1,0,0:0:0:0:
475,192,81605,1,0,0:0:0:0:
109,192,81748,128,0,81891:0:0:0:0:
182,192,81748,1,0,0:0:0:0:
475,192,81748,1,0,0:0:0:0:
36,192,82177,128,0,82462:0:0:0:0:
475,192,82177,1,0,0:0:0:0:
182,192,82177,1,0,0:0:0:0:
475,192,82462,128,0,82891:0:0:0:0:
36,192,82748,1,0,0:0:0:0:
182,192,82748,1,0,0:0:0:0:
402,192,82891,128,0,83034:0:0:0:0:
36,192,82891,1,0,0:0:0:0:
182,192,82891,1,0,0:0:0:0:
256,192,83319,128,0,83605:0:0:0:0:
36,192,83319,1,0,0:0:0:0:
182,192,83319,1,0,0:0:0:0:
402,192,83605,128,0,84034:0:0:0:0:
182,192,83891,1,0,0:0:0:0:
475,192,83891,1,0,0:0:0:0:
109,192,84034,128,0,84177:0:0:0:0:
182,192,84034,1,0,0:0:0:0:
475,192,84034,1,0,0:0:0:0:
36,192,84462,128,0,84748:0:0:0:0:
475,192,84462,1,0,0:0:0:0:
256,192,84462,1,0,0:0:0:0:
402,192,84748,1,0,0:0:0:0:
182,192,84748,1,0,0:0:0:0:
475,192,85034,1,0,0:0:0:0:
329,192,85034,1,0,0:0:0:0:
36,192,85177,1,0,0:0:0:0:
475,192,85605,1,0,0:0:0:0:
329,192,85605,1,0,0:0:0:0:
36,192,85891,1,0,0:0:0:0:
329,192,86177,1,0,0:0:0:0:
475,192,86177,1,0,0:0:0:0:
36,192,86319,1,0,0:0:0:0:
329,192,86748,1,0,0:0:0:0:
475,192,86748,1,0,0:0:0:0:
182,192,87034,1,0,0:0:0:0:
475,192,87319,1,0,0:0:0:0:
109,192,87319,1,0,0:0:0:0:
182,192,87462,1,0,0:0:0:0:
109,192,87891,1,0,0:0:0:0:
475,192,87891,1,0,0:0:0:0:
182,192,88177,1,0,0:0:0:0:
109,192,88462,1,0,0:0:0:0:
475,192,88462,1,0,0:0:0:0:
182,192,88605,1,0,0:0:0:0:
475,192,89034,1,0,0:0:0:0:
109,192,89034,1,0,0:0:0:0:
256,192,89319,1,0,0:0:0:0:
402,192,89605,1,0,0:0:0:0:
36,192,89605,1,0,0:0:0:0:
256,192,89748,1,0,0:0:0:0:
36,192,90177,1,0,0:0:0:0:
402,192,90177,1,0,0:0:0:0:
256,192,90462,1,0,0:0:0:0:
36,192,90748,1,0,0:0:0:0:
402,192,90748,1,0,0:0:0:0:
256,192,90891,1,0,0:0:0:0:
402,192,91319,1,0,0:0:0:0:
36,192,91319,1,0,0:0:0:0:
182,192,91605,1,0,0:0:0:0:
475,192,91891,1,0,0:0:0:0:
256,192,91891,1,0,0:0:0:0:
182,192,92034,1,0,0:0:0:0:
256,192,92462,1,0,0:0:0:0:
475,192,92462,1,0,0:0:0:0:
36,192,92748,1,0,0:0:0:0:
182,192,92748,1,0,0:0:0:0:
329,192,93034,1,0,0:0:0:0:
475,192,93034,1,0,0:0:0:0:
36,192,93105,1,0,0:0:0:0:
182,192,93105,1,0,0:0:0:0:
329,192,93177,1,0,0:0:0:0:
475,192,93177,1,0,0:0:0:0:
36,192,93248,1,0,0:0:0:0:
182,192,93248,1,0,0:0:0:0:
329,192,93319,1,0,0:0:0:0:
475,192,93319,1,0,0:0:0:0:
36,192,93391,1,0,0:0:0:0:
182,192,93391,1,0,0:0:0:0:
329,192,93462,1,0,0:0:0:0:
475,192,93462,1,0,0:0:0:0:
256,192,93462,128,0,93891:0:0:0:0:
475,192,93891,1,0,0:0:0:0:
36,192,93891,1,0,0:0:0:0:
402,192,93891,128,0,94748:0:0:0:0:
182,192,94034,1,0,0:0:0:0:
109,192,94034,1,0,0:0:0:0:
475,192,94177,1,0,0:0:0:0:
36,192,94177,1,0,0:0:0:0:
256,192,94177,1,0,0:0:0:0:
329,192,94319,1,0,0:0:0:0:
109,192,94319,1,0,0:0:0:0:
475,192,94462,1,0,0:0:0:0:
256,192,94462,1,0,0:0:0:0:
182,192,94605,1,0,0:0:0:0:
109,192,94605,1,0,0:0:0:0:
475,192,94748,1,0,0:0:0:0:
36,192,94748,1,0,0:0:0:0:
329,192,94748,1,0,0:0:0:0:
109,192,94891,1,0,0:0:0:0:
182,192,94891,1,0,0:0:0:0:
475,192,95034,1,0,0:0:0:0:
329,192,95034,1,0,0:0:0:0:
256,192,95177,1,0,0:0:0:0:
402,192,95177,1,0,0:0:0:0:
182,192,95319,1,0,0:0:0:0:
36,192,95319,1,0,0:0:0:0:
109,192,95319,1,0,0:0:0:0:
402,192,95462,1,0,0:0:0:0:
256,192,95462,1,0,0:0:0:0:
475,192,95605,1,0,0:0:0:0:
182,192,95605,1,0,0:0:0:0:
109,192,95748,1,0,0:0:0:0:
256,192,95748,1,0,0:0:0:0:
475,192,95891,1,0,0:0:0:0:
402,192,95891,1,0,0:0:0:0:
109,192,95891,1,0,0:0:0:0:
256,192,95891,1,0,0:0:0:0:
109,192,96034,1,0,0:0:0:0:
256,192,96034,1,0,0:0:0:0:
475,192,96177,1,0,0:0:0:0:
329,192,96177,1,0,0:0:0:0:
256,192,96319,1,0,0:0:0:0:
109,192,96319,1,0,0:0:0:0:
475,192,96462,1,0,0:0:0:0:
36,192,96462,1,0,0:0:0:0:
182,192,96462,1,0,0:0:0:0:
329,192,96605,1,0,0:0:0:0:
256,192,96605,1,0,0:0:0:0:
475,192,96748,1,0,0:0:0:0:
109,192,96748,1,0,0:0:0:0:
256,192,96891,1,0,0:0:0:0:
402,192,96891,1,0,0:0:0:0:
475,192,97034,1,0,0:0:0:0:
36,192,97034,1,0,0:0:0:0:
182,192,97034,1,0,0:0:0:0:
402,192,97177,1,0,0:0:0:0:
329,192,97177,1,0,0:0:0:0:
475,192,97319,1,0,0:0:0:0:
109,192,97319,1,0,0:0:0:0:
256,192,97462,1,0,0:0:0:0:
182,192,97462,1,0,0:0:0:0:
475,192,97605,1,0,0:0:0:0:
36,192,97605,1,0,0:0:0:0:
329,192,97605,1,0,0:0:0:0:
256,192,97748,1,0,0:0:0:0:
109,192,97748,1,0,0:0:0:0:
475,192,97891,1,0,0:0:0:0:
402,192,97891,1,0,0:0:0:0:
329,192,98034,1,0,0:0:0:0:
182,192,98034,1,0,0:0:0:0:
475,192,98177,1,0,0:0:0:0:
36,192,98177,1,0,0:0:0:0:
182,192,98177,1,0,0:0:0:0:
329,192,98177,1,0,0:0:0:0:
182,192,98319,1,0,0:0:0:0:
329,192,98319,1,0,0:0:0:0:
475,192,98462,1,0,0:0:0:0:
256,192,98462,1,0,0:0:0:0:
109,192,98605,1,0,0:0:0:0:
182,192,98605,1,0,0:0:0:0:
475,192,98748,1,0,0:0:0:0:
36,192,98748,1,0,0:0:0:0:
402,192,98748,1,0,0:0:0:0:
329,192,98891,1,0,0:0:0:0:
109,192,98891,1,0,0:0:0:0:
475,192,99034,1,0,0:0:0:0:
182,192,99034,1,0,0:0:0:0:
109,192,99177,1,0,0:0:0:0:
256,192,99177,1,0,0:0:0:0:
475,192,99319,1,0,0:0:0:0:
182,192,99319,1,0,0:0:0:0:
329,192,99319,1,0,0:0:0:0:
36,192,99462,1,0,0:0:0:0:
256,192,99462,1,0,0:0:0:0:
475,192,99605,1,0,0:0:0:0:
402,192,99605,1,0,0:0:0:0:
329,192,99748,1,0,0:0:0:0:
109,192,99748,1,0,0:0:0:0:
475,192,99891,1,0,0:0:0:0:
36,192,99891,1,0,0:0:0:0:
256,192,99891,1,0,0:0:0:0:
182,192,100034,1,0,0:0:0:0:
109,192,100034,1,0,0:0:0:0:
475,192,100177,1,0,0:0:0:0:
329,192,100177,1,0,0:0:0:0:
402,192,100319,1,0,0:0:0:0:
256,192,100319,1,0,0:0:0:0:
109,192,100462,1,0,0:0:0:0:
36,192,100462,1,0,0:0:0:0:
256,192,100462,1,0,0:0:0:0:
402,192,100462,1,0,0:0:0:0:
256,192,100605,1,0,0:0:0:0:
402,192,100605,1,0,0:0:0:0:
475,192,100748,1,0,0:0:0:0:
109,192,100748,1,0,0:0:0:0:
182,192,100891,1,0,0:0:0:0:
256,192,100891,1,0,0:0:0:0:
475,192,101034,1,0,0:0:0:0:
36,192,101034,1,0,0:0:0:0:
329,192,101034,1,0,0:0:0:0:
256,192,101177,1,0,0:0:0:0:
109,192,101177,1,0,0:0:0:0:
475,192,101319,1,0,0:0:0:0:
402,192,101319,1,0,0:0:0:0:
182,192,101462,1,0,0:0:0:0:
256,192,101462,1,0,0:0:0:0:
475,192,101605,1,0,0:0:0:0:
36,192,101605,1,0,0:0:0:0:
329,192,101605,1,0,0:0:0:0:
256,192,101748,1,0,0:0:0:0:
109,192,101748,1,0,0:0:0:0:
475,192,101891,1,0,0:0:0:0:
182,192,101891,1,0,0:0:0:0:
256,192,102034,1,0,0:0:0:0:
329,192,102034,1,0,0:0:0:0:
475,192,102177,1,0,0:0:0:0:
36,192,102177,1,0,0:0:0:0:
402,192,102177,1,0,0:0:0:0:
109,192,102319,1,0,0:0:0:0:
182,192,102319,1,0,0:0:0:0:
256,192,102319,1,0,0:0:0:0:
475,192,102462,1,0,0:0:0:0:
329,192,102462,1,0,0:0:0:0:
402,192,102462,1,0,0:0:0:0:
182,192,102605,1,0,0:0:0:0:
109,192,102605,1,0,0:0:0:0:
36,192,102605,1,0,0:0:0:0:
475,192,102748,1,0,0:0:0:0:
329,192,102748,1,0,0:0:0:0:
256,192,102748,1,0,0:0:0:0:
182,192,102891,1,0,0:0:0:0:
402,192,102891,1,0,0:0:0:0:
109,192,102891,1,0,0:0:0:0:
36,192,103034,1,0,0:0:0:0:
256,192,103034,1,0,0:0:0:0:
402,192,103177,1,0,0:0:0:0:
182,192,103319,1,0,0:0:0:0:
475,192,103319,1,0,0:0:0:0:
256,192,103319,1,0,0:0:0:0:
402,192,103462,1,0,0:0:0:0:
36,192,103605,1,0,0:0:0:0:
329,192,103605,1,0,0:0:0:0:
109,192,103748,1,0,0:0:0:0:
256,192,103891,1,0,0:0:0:0:
475,192,103891,1,0,0:0:0:0:
402,192,103891,1,0,0:0:0:0:
109,192,104034,1,0,0:0:0:0:
36,192,104177,1,0,0:0:0:0:
256,192,104177,1,0,0:0:0:0:
402,192,104319,1,0,0:0:0:0:
109,192,104462,1,0,0:0:0:0:
475,192,104462,1,0,0:0:0:0:
256,192,104462,1,0,0:0:0:0:
402,192,104605,1,0,0:0:0:0:
36,192,104748,1,0,0:0:0:0:
329,192,104748,1,0,0:0:0:0:
109,192,104891,1,0,0:0:0:0:
182,192,105034,1,0,0:0:0:0:
475,192,105034,1,0,0:0:0:0:
402,192,105034,1,0,0:0:0:0:
256,192,105177,1,0,0:0:0:0:
36,192,105319,1,0,0:0:0:0:
109,192,105319,1,0,0:0:0:0:
256,192,105462,1,0,0:0:0:0:
182,192,105605,1,0,0:0:0:0:
475,192,105605,1,0,0:0:0:0:
109,192,105605,1,0,0:0:0:0:
329,192,105748,1,0,0:0:0:0:
36,192,105891,1,0,0:0:0:0:
182,192,105891,1,0,0:0:0:0:
402,192,106034,1,0,0:0:0:0:
182,192,106177,1,0,0:0:0:0:
475,192,106177,1,0,0:0:0:0:
256,192,106177,1,0,0:0:0:0:
109,192,106319,1,0,0:0:0:0:
36,192,106462,1,0,0:0:0:0:
256,192,106462,1,0,0:0:0:0:
329,192,106605,1,0,0:0:0:0:
182,192,106748,1,0,0:0:0:0:
475,192,106748,1,0,0:0:0:0:
402,192,106748,1,0,0:0:0:0:
109,192,106891,1,0,0:0:0:0:
36,192,107034,1,0,0:0:0:0:
329,192,107034,1,0,0:0:0:0:
109,192,107177,1,0,0:0:0:0:
256,192,107319,1,0,0:0:0:0:
475,192,107319,1,0,0:0:0:0:
329,192,107319,1,0,0:0:0:0:
182,192,107462,1,0,0:0:0:0:
36,192,107605,1,0,0:0:0:0:
109,192,107605,1,0,0:0:0:0:
256,192,107605,1,0,0:0:0:0:
329,192,107748,1,0,0:0:0:0:
402,192,107748,1,0,0:0:0:0:
182,192,107891,1,0,0:0:0:0:
475,192,107891,1,0,0:0:0:0:
109,192,107891,1,0,0:0:0:0:
256,192,107891,1,0,0:0:0:0:
329,192,108034,1,0,0:0:0:0:
402,192,108034,1,0,0:0:0:0:
36,192,108177,1,0,0:0:0:0:
256,192,108177,1,0,0:0:0:0:
475,192,108177,1,0,0:0:0:0:
109,192,108319,1,0,0:0:0:0:
182,192,108319,1,0,0:0:0:0:
36,192,108462,1,0,0:0:0:0:
475,192,108462,1,0,0:0:0:0:
329,192,108462,1,0,0:0:0:0:
402,192,108462,1,0,0:0:0:0:
182,192,108605,1,0,0:0:0:0:
256,192,108605,1,0,0:0:0:0:
36,192,108748,1,0,0:0:0:0:
329,192,108748,1,0,0:0:0:0:
402,192,108748,1,0,0:0:0:0:
182,192,108891,1,0,0:0:0:0:
256,192,108891,1,0,0:0:0:0:
329,192,109034,1,0,0:0:0:0:
475,192,109034,1,0,0:0:0:0:
109,192,109034,1,0,0:0:0:0:
402,192,109034,1,0,0:0:0:0:
36,192,109177,1,0,0:0:0:0:
182,192,109177,1,0,0:0:0:0:
109,192,109319,1,0,0:0:0:0:
256,192,109319,1,0,0:0:0:0:
329,192,109319,1,0,0:0:0:0:
402,192,109462,1,0,0:0:0:0:
182,192,109462,1,0,0:0:0:0:
36,192,109605,1,0,0:0:0:0:
475,192,109605,1,0,0:0:0:0:
256,192,109605,1,0,0:0:0:0:
329,192,109605,1,0,0:0:0:0:
182,192,109748,1,0,0:0:0:0:
109,192,109748,1,0,0:0:0:0:
36,192,109891,1,0,0:0:0:0:
475,192,109891,1,0,0:0:0:0:
402,192,109891,1,0,0:0:0:0:
256,192,110034,1,0,0:0:0:0:
329,192,110034,1,0,0:0:0:0:
36,192,110177,1,0,0:0:0:0:
475,192,110177,1,0,0:0:0:0:
109,192,110177,1,0,0:0:0:0:
182,192,110177,1,0,0:0:0:0:
256,192,110319,1,0,0:0:0:0:
402,192,110319,1,0,0:0:0:0:
36,192,110462,1,0,0:0:0:0:
109,192,110462,1,0,0:0:0:0:
329,192,110462,1,0,0:0:0:0:
256,192,110605,1,0,0:0:0:0:
182,192,110605,1,0,0:0:0:0:
36,192,110748,1,0,0:0:0:0:
475,192,110748,1,0,0:0:0:0:
329,192,110748,1,0,0:0:0:0:
402,192,110748,1,0,0:0:0:0:
182,192,110891,1,0,0:0:0:0:
256,192,110891,1,0,0:0:0:0:
256,192,111319,1,0,0:0:0:0:
256,192,111819,1,0,0:0:0:0:
256,192,112034,1,0,0:0:0:0:
182,192,112105,1,0,0:0:0:0:
329,192,112177,1,0,0:0:0:0:
475,192,112177,1,0,0:0:0:0:
36,192,112177,128,0,112462:0:0:0:0:
109,192,112177,1,0,0:0:0:0:
402,192,112248,1,0,0:0:0:0:
182,192,112319,1,0,0:0:0:0:
256,192,112391,1,0,0:0:0:0:
109,192,112462,128,0,112605:0:0:0:0:
475,192,112462,1,0,0:0:0:0:
402,192,112534,1,0,0:0:0:0:
182,192,112605,128,0,112891:0:0:0:0:
329,192,112605,1,0,0:0:0:0:
256,192,112677,1,0,0:0:0:0:
36,192,112748,1,0,0:0:0:0:
475,192,112748,1,0,0:0:0:0:
402,192,112748,1,0,0:0:0:0:
256,192,112819,1,0,0:0:0:0:
329,192,112891,1,0,0:0:0:0:
475,192,112891,128,0,113034:0:0:0:0:
109,192,112962,1,0,0:0:0:0:
402,192,113034,128,0,113177:0:0:0:0:
256,192,113034,1,0,0:0:0:0:
182,192,113105,1,0,0:0:0:0:
36,192,113177,1,0,0:0:0:0:
329,192,113177,128,0,113319:0:0:0:0:
109,192,113248,1,0,0:0:0:0:
256,192,113319,128,0,113462:0:0:0:0:
402,192,113319,1,0,0:0:0:0:
475,192,113319,1,0,0:0:0:0:
109,192,113462,128,0,113605:0:0:0:0:
402,192,113462,1,0,0:0:0:0:
475,192,113462,1,0,0:0:0:0:
36,192,113605,128,0,113748:0:0:0:0:
402,192,113605,1,0,0:0:0:0:
475,192,113605,1,0,0:0:0:0:
182,192,113748,128,0,113891:0:0:0:0:
402,192,113748,1,0,0:0:0:0:
475,192,113748,1,0,0:0:0:0:
36,192,113891,1,0,0:0:0:0:
475,192,113891,1,0,0:0:0:0:
329,192,113891,128,0,114462:0:0:0:0:
256,192,113891,1,0,0:0:0:0:
182,192,113962,1,0,0:0:0:0:
109,192,114034,1,0,0:0:0:0:
36,192,114105,1,0,0:0:0:0:
256,192,114177,1,0,0:0:0:0:
182,192,114248,1,0,0:0:0:0:
475,192,114319,1,0,0:0:0:0:
402,192,114391,1,0,0:0:0:0:
256,192,114462,128,0,114748:0:0:0:0:
36,192,114462,1,0,0:0:0:0:
182,192,114462,1,0,0:0:0:0:
402,192,114748,128,0,114891:0:0:0:0:
36,192,114748,1,0,0:0:0:0:
182,192,114748,1,0,0:0:0:0:
475,192,114891,128,0,115177:0:0:0:0:
36,192,114891,1,0,0:0:0:0:
182,192,114891,1,0,0:0:0:0:
36,192,115034,1,0,0:0:0:0:
182,192,115034,1,0,0:0:0:0:
329,192,115034,1,0,0:0:0:0:
256,192,115105,1,0,0:0:0:0:
182,192,115177,128,0,115319:0:0:0:0:
402,192,115177,1,0,0:0:0:0:
256,192,115248,1,0,0:0:0:0:
109,192,115319,128,0,115462:0:0:0:0:
329,192,115319,1,0,0:0:0:0:
402,192,115391,1,0,0:0:0:0:
36,192,115462,128,0,115605:0:0:0:0:
475,192,115462,1,0,0:0:0:0:
256,192,115534,1,0,0:0:0:0:
402,192,115605,128,0,115748:0:0:0:0:
109,192,115605,1,0,0:0:0:0:
182,192,115605,1,0,0:0:0:0:
329,192,115748,128,0,115891:0:0:0:0:
109,192,115748,1,0,0:0:0:0:
182,192,115748,1,0,0:0:0:0:
256,192,115891,128,0,116034:0:0:0:0:
109,192,115891,1,0,0:0:0:0:
182,192,115891,1,0,0:0:0:0:
329,192,116034,128,0,116177:0:0:0:0:
109,192,116034,1,0,0:0:0:0:
182,192,116034,1,0,0:0:0:0:
109,192,116177,1,0,0:0:0:0:
475,192,116177,1,0,0:0:0:0:
402,192,116177,128,0,116748:0:0:0:0:
256,192,116177,1,0,0:0:0:0:
36,192,116248,1,0,0:0:0:0:
329,192,116319,1,0,0:0:0:0:
256,192,116391,1,0,0:0:0:0:
182,192,116462,1,0,0:0:0:0:
36,192,116534,1,0,0:0:0:0:
329,192,116605,1,0,0:0:0:0:
256,192,116677,1,0,0:0:0:0:
109,192,116748,128,0,117034:0:0:0:0:
36,192,116748,1,0,0:0:0:0:
475,192,116748,1,0,0:0:0:0:
182,192,117034,128,0,117177:0:0:0:0:
329,192,117034,1,0,0:0:0:0:
475,192,117034,1,0,0:0:0:0:
256,192,117177,128,0,117462:0:0:0:0:
329,192,117177,1,0,0:0:0:0:
475,192,117177,1,0,0:0:0:0:
36,192,117319,1,0,0:0:0:0:
475,192,117319,1,0,0:0:0:0:
329,192,117319,1,0,0:0:0:0:
182,192,117391,1,0,0:0:0:0:
402,192,117462,128,0,117605:0:0:0:0:
109,192,117462,1,0,0:0:0:0:
36,192,117534,1,0,0:0:0:0:
329,192,117605,128,0,117748:0:0:0:0:
182,192,117605,1,0,0:0:0:0:
109,192,117677,1,0,0:0:0:0:
182,192,117748,128,0,117891:0:0:0:0:
475,192,117748,1,0,0:0:0:0:
256,192,117819,1,0,0:0:0:0:
109,192,117891,128,0,118034:0:0:0:0:
475,192,117891,1,0,0:0:0:0:
329,192,117891,1,0,0:0:0:0:
36,192,118034,128,0,118177:0:0:0:0:
475,192,118034,1,0,0:0:0:0:
329,192,118034,1,0,0:0:0:0:
182,192,118177,128,0,118319:0:0:0:0:
475,192,118177,1,0,0:0:0:0:
329,192,118177,1,0,0:0:0:0:
256,192,118319,128,0,118462:0:0:0:0:
475,192,118319,1,0,0:0:0:0:
329,192,118319,1,0,0:0:0:0:
36,192,118462,1,0,0:0:0:0:
475,192,118462,1,0,0:0:0:0:
402,192,118462,128,0,119034:0:0:0:0:
182,192,118462,1,0,0:0:0:0:
109,192,118534,1,0,0:0:0:0:
182,192,118605,1,0,0:0:0:0:
256,192,118677,1,0,0:0:0:0:
109,192,118748,1,0,0:0:0:0:
475,192,118819,1,0,0:0:0:0:
329,192,118891,1,0,0:0:0:0:
36,192,118962,1,0,0:0:0:0:
475,192,119034,128,0,119177:0:0:0:0:
182,192,119034,1,0,0:0:0:0:
109,192,119034,1,0,0:0:0:0:
329,192,119177,128,0,119319:0:0:0:0:
182,192,119248,1,0,0:0:0:0:
109,192,119248,1,0,0:0:0:0:
256,192,119319,128,0,119462:0:0:0:0:
182,192,119391,1,0,0:0:0:0:
109,192,119391,1,0,0:0:0:0:
329,192,119462,128,0,119605:0:0:0:0:
402,192,119605,1,0,0:0:0:0:
475,192,119605,1,0,0:0:0:0:
109,192,119605,128,0,119748:0:0:0:0:
182,192,119605,1,0,0:0:0:0:
256,192,119677,1,0,0:0:0:0:
475,192,119748,128,0,119891:0:0:0:0:
36,192,119748,1,0,0:0:0:0:
256,192,119819,1,0,0:0:0:0:
329,192,119891,128,0,120034:0:0:0:0:
182,192,119891,1,0,0:0:0:0:
109,192,119962,1,0,0:0:0:0:
402,192,120034,128,0,120177:0:0:0:0:
36,192,120034,1,0,0:0:0:0:
182,192,120105,1,0,0:0:0:0:
475,192,120177,128,0,120319:0:0:0:0:
36,192,120177,1,0,0:0:0:0:
109,192,120177,1,0,0:0:0:0:
329,192,120319,128,0,120462:0:0:0:0:
36,192,120319,1,0,0:0:0:0:
109,192,120319,1,0,0:0:0:0:
182,192,120462,128,0,120605:0:0:0:0:
109,192,120462,1,0,0:0:0:0:
36,192,120462,1,0,0:0:0:0:
402,192,120605,128,0,120748:0:0:0:0:
109,192,120605,1,0,0:0:0:0:
36,192,120605,1,0,0:0:0:0:
256,192,120748,128,0,121319:0:0:0:0:
36,192,121319,1,0,0:0:0:0:
475,192,121319,1,0,0:0:0:0:
182,192,121462,1,0,0:0:0:0:
329,192,121605,1,0,0:0:0:0:
182,192,121748,1,0,0:0:0:0:
36,192,121748,1,0,0:0:0:0:
256,192,121891,1,0,0:0:0:0:
475,192,122034,1,0,0:0:0:0:
109,192,122177,1,0,0:0:0:0:
329,192,122177,1,0,0:0:0:0:
402,192,122319,1,0,0:0:0:0:
182,192,122462,1,0,0:0:0:0:
475,192,122462,1,0,0:0:0:0:
329,192,122605,1,0,0:0:0:0:
256,192,122748,1,0,0:0:0:0:
109,192,122891,1,0,0:0:0:0:
475,192,122891,1,0,0:0:0:0:
402,192,123034,1,0,0:0:0:0:
329,192,123177,1,0,0:0:0:0:
36,192,123319,1,0,0:0:0:0:
182,192,123319,1,0,0:0:0:0:
256,192,123462,1,0,0:0:0:0:
109,192,123605,1,0,0:0:0:0:
402,192,123605,1,0,0:0:0:0:
329,192,123748,1,0,0:0:0:0:
475,192,123891,1,0,0:0:0:0:
36,192,124034,1,0,0:0:0:0:
182,192,124034,1,0,0:0:0:0:
256,192,124177,1,0,0:0:0:0:
475,192,124319,1,0,0:0:0:0:
329,192,124462,1,0,0:0:0:0:
109,192,124462,1,0,0:0:0:0:
256,192,124605,1,0,0:0:0:0:
36,192,124748,1,0,0:0:0:0:
475,192,124748,1,0,0:0:0:0:
402,192,124891,1,0,0:0:0:0:
182,192,125034,1,0,0:0:0:0:
36,192,125177,1,0,0:0:0:0:
329,192,125177,1,0,0:0:0:0:
402,192,125319,1,0,0:0:0:0:
475,192,125462,1,0,0:0:0:0:
36,192,125605,1,0,0:0:0:0:
256,192,125605,1,0,0:0:0:0:
182,192,125748,1,0,0:0:0:0:
109,192,125891,1,0,0:0:0:0:
329,192,125891,1,0,0:0:0:0:
475,192,125891,128,0,126319:0:0:0:0:
182,192,126034,1,0,0:0:0:0:
256,192,126177,1,0,0:0:0:0:
36,192,126319,1,0,0:0:0:0:
329,192,126319,1,0,0:0:0:0:
402,192,126319,128,0,126462:0:0:0:0:
109,192,126462,1,0,0:0:0:0:
182,192,126605,1,0,0:0:0:0:
475,192,126748,1,0,0:0:0:0:
36,192,126748,1,0,0:0:0:0:
256,192,126748,128,0,127034:0:0:0:0:
182,192,126891,1,0,0:0:0:0:
109,192,127034,1,0,0:0:0:0:
475,192,127034,1,0,0:0:0:0:
402,192,127034,128,0,127462:0:0:0:0:
329,192,127177,1,0,0:0:0:0:
256,192,127319,1,0,0:0:0:0:
475,192,127462,1,0,0:0:0:0:
182,192,127462,1,0,0:0:0:0:
109,192,127462,128,0,127605:0:0:0:0:
256,192,127605,1,0,0:0:0:0:
329,192,127748,1,0,0:0:0:0:
182,192,127891,1,0,0:0:0:0:
475,192,127891,1,0,0:0:0:0:
36,192,127891,128,0,128177:0:0:0:0:
402,192,128034,1,0,0:0:0:0:
109,192,128177,1,0,0:0:0:0:
182,192,128177,1,0,0:0:0:0:
256,192,128177,128,0,128605:0:0:0:0:
402,192,128319,1,0,0:0:0:0:
36,192,128462,1,0,0:0:0:0:
109,192,128462,1,0,0:0:0:0:
182,192,128605,1,0,0:0:0:0:
475,192,128605,128,0,128748:0:0:0:0:
36,192,128748,1,0,0:0:0:0:
402,192,128748,1,0,0:0:0:0:
182,192,128891,1,0,0:0:0:0:
256,192,128891,128,0,129319:0:0:0:0:
36,192,129034,1,0,0:0:0:0:
109,192,129034,1,0,0:0:0:0:
402,192,129177,1,0,0:0:0:0:
36,192,129319,1,0,0:0:0:0:
475,192,129319,1,0,0:0:0:0:
182,192,129391,1,0,0:0:0:0:
329,192,129391,1,0,0:0:0:0:
36,192,129462,1,0,0:0:0:0:
475,192,129462,1,0,0:0:0:0:
182,192,129534,1,0,0:0:0:0:
329,192,129534,1,0,0:0:0:0:
36,192,129605,1,0,0:0:0:0:
475,192,129605,1,0,0:0:0:0:
182,192,129677,1,0,0:0:0:0:
329,192,129677,1,0,0:0:0:0:
36,192,129748,1,0,0:0:0:0:
475,192,129748,1,0,0:0:0:0:
182,192,129819,1,0,0:0:0:0:
329,192,129819,1,0,0:0:0:0:
36,192,129891,1,0,0:0:0:0:
475,192,129891,1,0,0:0:0:0:
256,192,129891,1,0,0:0:0:0:
109,192,131319,1,0,0:0:0:0:
256,192,131319,1,0,0:0:0:0:
402,192,131319,1,0,0:0:0:0:
36,192,131605,1,0,0:0:0:0:
475,192,131605,128,0,131891:0:0:0:0:
402,192,131605,128,0,131748:0:0:0:0:
329,192,131748,128,0,131891:0:0:0:0:
36,192,131891,1,0,0:0:0:0:
182,192,131891,1,0,0:0:0:0:
402,192,131891,128,0,132034:0:0:0:0:
475,192,132034,128,0,132177:0:0:0:0:
256,192,132034,128,0,132177:0:0:0:0:
36,192,132177,1,0,0:0:0:0:
329,192,132177,128,0,132319:0:0:0:0:
475,192,132319,128,0,132748:0:0:0:0:
109,192,132319,128,0,132462:0:0:0:0:
36,192,132462,1,0,0:0:0:0:
182,192,132462,1,0,0:0:0:0:
402,192,132462,128,0,132748:0:0:0:0:
256,192,132462,128,0,132605:0:0:0:0:
329,192,132605,128,0,132748:0:0:0:0:
182,192,132605,128,0,132748:0:0:0:0:
256,192,132748,1,0,0:0:0:0:
36,192,132748,128,0,133034:0:0:0:0:
109,192,132748,128,0,132891:0:0:0:0:
402,192,132891,128,0,133034:0:0:0:0:
475,192,133034,1,0,0:0:0:0:
256,192,133034,1,0,0:0:0:0:
182,192,133034,128,0,133177:0:0:0:0:
36,192,133177,128,0,133319:0:0:0:0:
256,192,133177,128,0,133319:0:0:0:0:
475,192,133319,1,0,0:0:0:0:
329,192,133319,128,0,133462:0:0:0:0:
36,192,133462,128,0,133891:0:0:0:0:
402,192,133462,128,0,133605:0:0:0:0:
475,192,133605,1,0,0:0:0:0:
256,192,133605,1,0,0:0:0:0:
109,192,133605,128,0,133891:0:0:0:0:
329,192,133605,128,0,133748:0:0:0:0:
182,192,133748,128,0,133891:0:0:0:0:
402,192,133748,128,0,133891:0:0:0:0:
475,192,133891,1,0,0:0:0:0:
256,192,133891,128,0,134177:0:0:0:0:
329,192,133891,128,0,134034:0:0:0:0:
402,192,134034,128,0,134177:0:0:0:0:
475,192,134177,1,0,0:0:0:0:
182,192,134177,1,0,0:0:0:0:
109,192,134177,128,0,134319:0:0:0:0:
256,192,134319,128,0,134462:0:0:0:0:
182,192,134319,128,0,134462:0:0:0:0:
475,192,134462,1,0,0:0:0:0:
402,192,134462,128,0,134605:0:0:0:0:
256,192,134605,128,0,135034:0:0:0:0:
36,192,134605,128,0,134748:0:0:0:0:
182,192,134748,1,0,0:0:0:0:
329,192,134748,128,0,135034:0:0:0:0:
109,192,134748,128,0,134891:0:0:0:0:
475,192,134748,1,0,0:0:0:0:
402,192,134891,128,0,135034:0:0:0:0:
182,192,134891,128,0,135034:0:0:0:0:
36,192,135034,1,0,0:0:0:0:
475,192,135034,128,0,135319:0:0:0:0:
109,192,135034,128,0,135177:0:0:0:0:
329,192,135177,128,0,135319:0:0:0:0:
36,192,135319,1,0,0:0:0:0:
182,192,135319,1,0,0:0:0:0:
256,192,135319,128,0,135462:0:0:0:0:
475,192,135462,128,0,135605:0:0:0:0:
402,192,135462,128,0,135605:0:0:0:0:
36,192,135605,1,0,0:0:0:0:
109,192,135605,128,0,135748:0:0:0:0:
475,192,135748,128,0,136177:0:0:0:0:
256,192,135748,128,0,135891:0:0:0:0:
36,192,135891,1,0,0:0:0:0:
182,192,135891,1,0,0:0:0:0:
402,192,135891,128,0,136177:0:0:0:0:
109,192,135891,128,0,136034:0:0:0:0:
329,192,136034,128,0,136177:0:0:0:0:
256,192,136034,128,0,136177:0:0:0:0:
182,192,136177,1,0,0:0:0:0:
36,192,136177,128,0,136462:0:0:0:0:
109,192,136177,128,0,136319:0:0:0:0:
329,192,136319,128,0,136462:0:0:0:0:
475,192,136462,1,0,0:0:0:0:
182,192,136462,1,0,0:0:0:0:
256,192,136462,128,0,136605:0:0:0:0:
36,192,136605,128,0,136748:0:0:0:0:
402,192,136605,128,0,136748:0:0:0:0:
475,192,136748,1,0,0:0:0:0:
182,192,136748,128,0,136891:0:0:0:0:
329,192,136891,128,0,137034:0:0:0:0:
36,192,136891,128,0,137319:0:0:0:0:
475,192,137034,1,0,0:0:0:0:
182,192,137034,1,0,0:0:0:0:
109,192,137034,128,0,137319:0:0:0:0:
402,192,137034,128,0,137177:0:0:0:0:
182,192,137177,128,0,137319:0:0:0:0:
329,192,137177,128,0,137319:0:0:0:0:
475,192,137319,1,0,0:0:0:0:
256,192,137319,128,0,137605:0:0:0:0:
402,192,137319,128,0,137462:0:0:0:0:
109,192,137462,128,0,137605:0:0:0:0:
475,192,137605,1,0,0:0:0:0:
36,192,137605,1,0,0:0:0:0:
329,192,137605,128,0,137748:0:0:0:0:
256,192,137748,128,0,137891:0:0:0:0:
182,192,137748,128,0,137891:0:0:0:0:
475,192,137891,1,0,0:0:0:0:
402,192,137891,128,0,138034:0:0:0:0:
256,192,138034,128,0,138177:0:0:0:0:
109,192,138034,128,0,138177:0:0:0:0:
329,192,138177,1,0,0:0:0:0:
36,192,138177,1,0,0:0:0:0:
475,192,138177,128,0,138319:0:0:0:0:
182,192,138177,128,0,138319:0:0:0:0:
256,192,138319,128,0,138462:0:0:0:0:
329,192,138319,128,0,138462:0:0:0:0:
36,192,138462,1,0,0:0:0:0:
182,192,138462,1,0,0:0:0:0:
402,192,138462,1,0,0:0:0:0:
475,192,138462,128,0,139605:0:0:0:0:
109,192,138605,128,0,138748:0:0:0:0:
36,192,138748,1,0,0:0:0:0:
182,192,138748,1,0,0:0:0:0:
402,192,138748,1,0,0:0:0:0:
109,192,138891,128,0,139034:0:0:0:0:
36,192,139034,1,0,0:0:0:0:
182,192,139034,1,0,0:0:0:0:
402,192,139034,1,0,0:0:0:0:
109,192,139177,128,0,139319:0:0:0:0:
36,192,139319,1,0,0:0:0:0:
182,192,139319,1,0,0:0:0:0:
402,192,139319,1,0,0:0:0:0:
109,192,139462,128,0,139605:0:0:0:0:
182,192,139462,1,0,0:0:0:0:
402,192,139462,1,0,0:0:0:0:
256,192,139605,128,0,140177:0:0:0:0:
475,192,140748,1,0,0:0:0:0:
256,192,140748,1,0,0:0:0:0:
109,192,140748,1,0,0:0:0:0:
36,192,140748,1,0,0:0:0:0:
402,192,140819,1,0,0:0:0:0:
329,192,140891,1,0,0:0:0:0:
256,192,140962,1,0,0:0:0:0:
475,192,141034,1,0,0:0:0:0:
36,192,141034,1,0,0:0:0:0:
182,192,141034,1,0,0:0:0:0:
109,192,141034,1,0,0:0:0:0:
402,192,141105,1,0,0:0:0:0:
329,192,141177,1,0,0:0:0:0:
256,192,141248,1,0,0:0:0:0:
36,192,141319,1,0,0:0:0:0:
402,192,141319,1,0,0:0:0:0:
475,192,141319,1,0,0:0:0:0:
182,192,141319,1,0,0:0:0:0:
109,192,141391,1,0,0:0:0:0:
182,192,141462,1,0,0:0:0:0:
256,192,141534,1,0,0:0:0:0:
36,192,141605,1,0,0:0:0:0:
475,192,141605,1,0,0:0:0:0:
329,192,141605,1,0,0:0:0:0:
402,192,141605,1,0,0:0:0:0:
109,192,141677,1,0,0:0:0:0:
182,192,141748,1,0,0:0:0:0:
256,192,141819,1,0,0:0:0:0:
329,192,141891,1,0,0:0:0:0:
36,192,141891,1,0,0:0:0:0:
475,192,141891,1,0,0:0:0:0:
109,192,141891,1,0,0:0:0:0:
402,192,141962,1,0,0:0:0:0:
109,192,142034,1,0,0:0:0:0:
182,192,142105,1,0,0:0:0:0:
475,192,142177,1,0,0:0:0:0:
36,192,142177,1,0,0:0:0:0:
256,192,142177,1,0,0:0:0:0:
402,192,142177,1,0,0:0:0:0:
329,192,142248,1,0,0:0:0:0:
182,192,142319,1,0,0:0:0:0:
109,192,142391,1,0,0:0:0:0:
475,192,142462,1,0,0:0:0:0:
402,192,142462,1,0,0:0:0:0:
36,192,142462,1,0,0:0:0:0:
256,192,142462,1,0,0:0:0:0:
329,192,142534,1,0,0:0:0:0:
182,192,142605,1,0,0:0:0:0:
256,192,142677,1,0,0:0:0:0:
36,192,142748,1,0,0:0:0:0:
475,192,142748,1,0,0:0:0:0:
109,192,142748,1,0,0:0:0:0:
329,192,142748,1,0,0:0:0:0:
182,192,142819,1,0,0:0:0:0:
402,192,142891,1,0,0:0:0:0:
256,192,142962,1,0,0:0:0:0:
475,192,143034,1,0,0:0:0:0:
329,192,143034,1,0,0:0:0:0:
36,192,143034,1,0,0:0:0:0:
109,192,143034,1,0,0:0:0:0:
402,192,143105,1,0,0:0:0:0:
256,192,143177,1,0,0:0:0:0:
182,192,143248,1,0,0:0:0:0:
36,192,143319,1,0,0:0:0:0:
475,192,143319,1,0,0:0:0:0:
329,192,143319,1,0,0:0:0:0:
109,192,143319,1,0,0:0:0:0:
402,192,143391,1,0,0:0:0:0:
256,192,143462,1,0,0:0:0:0:
182,192,143534,1,0,0:0:0:0:
475,192,143605,1,0,0:0:0:0:
329,192,143605,1,0,0:0:0:0:
402,192,143605,1,0,0:0:0:0:
36,192,143605,1,0,0:0:0:0:
182,192,143677,1,0,0:0:0:0:
256,192,143748,1,0,0:0:0:0:
402,192,143819,1,0,0:0:0:0:
36,192,143891,1,0,0:0:0:0:
475,192,143891,1,0,0:0:0:0:
109,192,143891,1,0,0:0:0:0:
329,192,143891,1,0,0:0:0:0:
182,192,143962,1,0,0:0:0:0:
256,192,144034,1,0,0:0:0:0:
402,192,144105,1,0,0:0:0:0:
475,192,144177,1,0,0:0:0:0:
256,192,144177,1,0,0:0:0:0:
109,192,144177,1,0,0:0:0:0:
36,192,144177,1,0,0:0:0:0:
182,192,144248,1,0,0:0:0:0:
402,192,144319,1,0,0:0:0:0:
329,192,144391,1,0,0:0:0:0:
475,192,144462,1,0,0:0:0:0:
182,192,144462,1,0,0:0:0:0:
36,192,144462,1,0,0:0:0:0:
109,192,144462,1,0,0:0:0:0:
256,192,144534,1,0,0:0:0:0:
329,192,144605,1,0,0:0:0:0:
402,192,144677,1,0,0:0:0:0:
109,192,144677,1,0,0:0:0:0:
475,192,144748,1,0,0:0:0:0:
182,192,144748,1,0,0:0:0:0:
36,192,144748,1,0,0:0:0:0:
256,192,144748,1,0,0:0:0:0:
329,192,144819,1,0,0:0:0:0:
182,192,144891,1,0,0:0:0:0:
109,192,144962,1,0,0:0:0:0:
329,192,145034,1,0,0:0:0:0:
475,192,145034,1,0,0:0:0:0:
36,192,145034,1,0,0:0:0:0:
256,192,145034,1,0,0:0:0:0:
402,192,145105,1,0,0:0:0:0:
329,192,145177,1,0,0:0:0:0:
256,192,145248,1,0,0:0:0:0:
475,192,145319,1,0,0:0:0:0:
182,192,145319,1,0,0:0:0:0:
402,192,145319,1,0,0:0:0:0:
36,192,145319,1,0,0:0:0:0:
329,192,145391,1,0,0:0:0:0:
256,192,145462,1,0,0:0:0:0:
182,192,145534,1,0,0:0:0:0:
475,192,145605,1,0,0:0:0:0:
109,192,145605,1,0,0:0:0:0:
36,192,145605,1,0,0:0:0:0:
402,192,145605,1,0,0:0:0:0:
329,192,145677,1,0,0:0:0:0:
256,192,145748,1,0,0:0:0:0:
182,192,145819,1,0,0:0:0:0:
475,192,145891,1,0,0:0:0:0:
109,192,145891,1,0,0:0:0:0:
36,192,145891,1,0,0:0:0:0:
329,192,145891,1,0,0:0:0:0:
182,192,145962,1,0,0:0:0:0:
256,192,146034,1,0,0:0:0:0:
329,192,146105,1,0,0:0:0:0:
475,192,146177,1,0,0:0:0:0:
109,192,146177,1,0,0:0:0:0:
402,192,146177,1,0,0:0:0:0:
36,192,146177,1,0,0:0:0:0:
182,192,146248,1,0,0:0:0:0:
256,192,146319,1,0,0:0:0:0:
329,192,146391,1,0,0:0:0:0:
475,192,146462,1,0,0:0:0:0:
36,192,146462,1,0,0:0:0:0:
182,192,146462,1,0,0:0:0:0:
402,192,146462,1,0,0:0:0:0:
256,192,146534,1,0,0:0:0:0:
36,192,146605,1,0,0:0:0:0:
109,192,146677,1,0,0:0:0:0:
329,192,146748,1,0,0:0:0:0:
475,192,146748,1,0,0:0:0:0:
182,192,146748,1,0,0:0:0:0:
402,192,146748,1,0,0:0:0:0:
256,192,146819,1,0,0:0:0:0:
182,192,146891,1,0,0:0:0:0:
109,192,146962,1,0,0:0:0:0:
475,192,147034,1,0,0:0:0:0:
36,192,147034,1,0,0:0:0:0:
402,192,147034,1,0,0:0:0:0:
329,192,147034,1,0,0:0:0:0:
182,192,147105,1,0,0:0:0:0:
256,192,147177,1,0,0:0:0:0:
329,192,147248,1,0,0:0:0:0:
475,192,147319,1,0,0:0:0:0:
36,192,147319,1,0,0:0:0:0:
109,192,147319,1,0,0:0:0:0:
182,192,147319,1,0,0:0:0:0:
256,192,147391,1,0,0:0:0:0:
402,192,147462,1,0,0:0:0:0:
329,192,147534,1,0,0:0:0:0:
475,192,147605,1,0,0:0:0:0:
36,192,147605,1,0,0:0:0:0:
109,192,147605,1,0,0:0:0:0:
182,192,147605,1,0,0:0:0:0:
256,192,147677,1,0,0:0:0:0:
329,192,147748,1,0,0:0:0:0:
402,192,147819,1,0,0:0:0:0:
475,192,147891,1,0,0:0:0:0:
329,192,147891,1,0,0:0:0:0:
109,192,147891,1,0,0:0:0:0:
36,192,147891,1,0,0:0:0:0:
182,192,147962,1,0,0:0:0:0:
256,192,148034,1,0,0:0:0:0:
329,192,148105,1,0,0:0:0:0:
475,192,148177,1,0,0:0:0:0:
36,192,148177,1,0,0:0:0:0:
402,192,148177,1,0,0:0:0:0:
182,192,148177,1,0,0:0:0:0:
256,192,148248,1,0,0:0:0:0:
182,192,148319,1,0,0:0:0:0:
109,192,148391,1,0,0:0:0:0:
329,192,148462,1,0,0:0:0:0:
475,192,148462,1,0,0:0:0:0:
36,192,148462,1,0,0:0:0:0:
402,192,148462,1,0,0:0:0:0:
256,192,148534,1,0,0:0:0:0:
182,192,148605,1,0,0:0:0:0:
109,192,148677,1,0,0:0:0:0:
329,192,148748,1,0,0:0:0:0:
475,192,148748,1,0,0:0:0:0:
36,192,148748,1,0,0:0:0:0:
182,192,148748,1,0,0:0:0:0:
402,192,148819,1,0,0:0:0:0:
329,192,148891,1,0,0:0:0:0:
182,192,148962,1,0,0:0:0:0:
475,192,149034,1,0,0:0:0:0:
256,192,149034,1,0,0:0:0:0:
36,192,149034,1,0,0:0:0:0:
402,192,149034,1,0,0:0:0:0:
109,192,149105,1,0,0:0:0:0:
182,192,149177,1,0,0:0:0:0:
256,192,149248,1,0,0:0:0:0:
329,192,149319,1,0,0:0:0:0:
109,192,149319,1,0,0:0:0:0:
36,192,149319,1,0,0:0:0:0:
402,192,149319,1,0,0:0:0:0:
475,192,149319,128,0,149891:0:0:0:0:
182,192,149391,1,0,0:0:0:0:
256,192,149462,1,0,0:0:0:0:
36,192,149534,1,0,0:0:0:0:
329,192,149605,1,0,0:0:0:0:
402,192,149605,1,0,0:0:0:0:
256,192,149677,1,0,0:0:0:0:
182,192,149748,1,0,0:0:0:0:
109,192,149819,1,0,0:0:0:0:
36,192,149891,128,0,150177:0:0:0:0:
109,192,150177,1,0,0:0:0:0:
256,192,150177,1,0,0:0:0:0:
475,192,150177,1,0,0:0:0:0:
182,192,150177,1,0,0:0:0:0:
402,192,150177,1,0,0:0:0:0:
329,192,150248,1,0,0:0:0:0:
402,192,150319,1,0,0:0:0:0:
475,192,150391,1,0,0:0:0:0:
36,192,150462,1,0,0:0:0:0:
109,192,150462,1,0,0:0:0:0:
182,192,150462,1,0,0:0:0:0:
256,192,150462,1,0,0:0:0:0:
329,192,150534,1,0,0:0:0:0:
402,192,150605,1,0,0:0:0:0:
475,192,150677,1,0,0:0:0:0:
182,192,150748,1,0,0:0:0:0:
256,192,150748,1,0,0:0:0:0:
329,192,150748,1,0,0:0:0:0:
36,192,150748,1,0,0:0:0:0:
109,192,150819,1,0,0:0:0:0:
475,192,150891,1,0,0:0:0:0:
256,192,150962,1,0,0:0:0:0:
182,192,151034,1,0,0:0:0:0:
402,192,151034,1,0,0:0:0:0:
109,192,151034,1,0,0:0:0:0:
329,192,151034,1,0,0:0:0:0:
36,192,151105,1,0,0:0:0:0:
256,192,151177,1,0,0:0:0:0:
329,192,151248,1,0,0:0:0:0:
109,192,151319,1,0,0:0:0:0:
182,192,151319,1,0,0:0:0:0:
475,192,151319,1,0,0:0:0:0:
402,192,151319,1,0,0:0:0:0:
329,192,151391,1,0,0:0:0:0:
109,192,151462,1,0,0:0:0:0:
475,192,151534,1,0,0:0:0:0:
36,192,151605,1,0,0:0:0:0:
182,192,151605,1,0,0:0:0:0:
329,192,151605,1,0,0:0:0:0:
402,192,151605,1,0,0:0:0:0:
256,192,151677,1,0,0:0:0:0:
109,192,151748,1,0,0:0:0:0:
182,192,151819,1,0,0:0:0:0:
256,192,151891,1,0,0:0:0:0:
475,192,151891,1,0,0:0:0:0:
402,192,151891,1,0,0:0:0:0:
329,192,151962,1,0,0:0:0:0:
182,192,152034,1,0,0:0:0:0:
109,192,152105,1,0,0:0:0:0:
36,192,152177,1,0,0:0:0:0:
256,192,152177,1,0,0:0:0:0:
475,192,152177,1,0,0:0:0:0:
402,192,152177,1,0,0:0:0:0:
182,192,152248,1,0,0:0:0:0:
109,192,152319,1,0,0:0:0:0:
36,192,152391,1,0,0:0:0:0:
256,192,152462,1,0,0:0:0:0:
475,192,152462,1,0,0:0:0:0:
402,192,152462,1,0,0:0:0:0:
329,192,152462,1,0,0:0:0:0:
182,192,152534,1,0,0:0:0:0:
109,192,152605,1,0,0:0:0:0:
36,192,152677,1,0,0:0:0:0:
256,192,152748,1,0,0:0:0:0:
475,192,152748,1,0,0:0:0:0:
182,192,152748,1,0,0:0:0:0:
402,192,152748,1,0,0:0:0:0:
329,192,152819,1,0,0:0:0:0:
109,192,152891,1,0,0:0:0:0:
182,192,152962,1,0,0:0:0:0:
36,192,153034,1,0,0:0:0:0:
256,192,153034,1,0,0:0:0:0:
329,192,153034,1,0,0:0:0:0:
475,192,153034,1,0,0:0:0:0:
402,192,153105,1,0,0:0:0:0:
109,192,153177,1,0,0:0:0:0:
182,192,153248,1,0,0:0:0:0:
256,192,153319,1,0,0:0:0:0:
329,192,153319,1,0,0:0:0:0:
36,192,153319,1,0,0:0:0:0:
402,192,153319,1,0,0:0:0:0:
109,192,153391,1,0,0:0:0:0:
475,192,153462,1,0,0:0:0:0:
402,192,153534,1,0,0:0:0:0:
182,192,153605,1,0,0:0:0:0:
256,192,153605,1,0,0:0:0:0:
109,192,153605,1,0,0:0:0:0:
36,192,153605,1,0,0:0:0:0:
475,192,153677,1,0,0:0:0:0:
402,192,153748,1,0,0:0:0:0:
329,192,153819,1,0,0:0:0:0:
109,192,153891,1,0,0:0:0:0:
475,192,153891,1,0,0:0:0:0:
36,192,153891,1,0,0:0:0:0:
256,192,153891,1,0,0:0:0:0:
402,192,153962,1,0,0:0:0:0:
329,192,154034,1,0,0:0:0:0:
256,192,154105,1,0,0:0:0:0:
182,192,154177,1,0,0:0:0:0:
402,192,154177,1,0,0:0:0:0:
475,192,154177,1,0,0:0:0:0:
36,192,154177,1,0,0:0:0:0:
109,192,154248,1,0,0:0:0:0:
182,192,154319,1,0,0:0:0:0:
256,192,154391,1,0,0:0:0:0:
109,192,154462,1,0,0:0:0:0:
329,192,154462,1,0,0:0:0:0:
36,192,154462,1,0,0:0:0:0:
475,192,154462,1,0,0:0:0:0:
182,192,154534,1,0,0:0:0:0:
256,192,154605,1,0,0:0:0:0:
329,192,154677,1,0,0:0:0:0:
36,192,154748,1,0,0:0:0:0:
182,192,154748,1,0,0:0:0:0:
402,192,154748,1,0,0:0:0:0:
475,192,154748,1,0,0:0:0:0:
256,192,154819,1,0,0:0:0:0:
329,192,154891,1,0,0:0:0:0:
402,192,154962,1,0,0:0:0:0:
182,192,155034,1,0,0:0:0:0:
256,192,155034,1,0,0:0:0:0:
475,192,155034,1,0,0:0:0:0:
36,192,155034,1,0,0:0:0:0:
329,192,155105,1,0,0:0:0:0:
182,192,155177,1,0,0:0:0:0:
36,192,155248,1,0,0:0:0:0:
256,192,155319,1,0,0:0:0:0:
109,192,155319,1,0,0:0:0:0:
475,192,155319,1,0,0:0:0:0:
402,192,155319,1,0,0:0:0:0:
329,192,155391,1,0,0:0:0:0:
182,192,155462,1,0,0:0:0:0:
36,192,155534,1,0,0:0:0:0:
256,192,155605,1,0,0:0:0:0:
182,192,155605,1,0,0:0:0:0:
109,192,155605,1,0,0:0:0:0:
475,192,155605,1,0,0:0:0:0:
329,192,155677,1,0,0:0:0:0:
402,192,155748,1,0,0:0:0:0:
475,192,155819,1,0,0:0:0:0:
36,192,155891,1,0,0:0:0:0:
109,192,155891,1,0,0:0:0:0:
182,192,155891,1,0,0:0:0:0:
329,192,155891,1,0,0:0:0:0:
256,192,155962,1,0,0:0:0:0:
329,192,156034,1,0,0:0:0:0:
402,192,156105,1,0,0:0:0:0:
36,192,156177,1,0,0:0:0:0:
182,192,156177,1,0,0:0:0:0:
475,192,156177,1,0,0:0:0:0:
256,192,156177,1,0,0:0:0:0:
402,192,156248,1,0,0:0:0:0:
329,192,156319,1,0,0:0:0:0:
256,192,156391,1,0,0:0:0:0:
182,192,156462,1,0,0:0:0:0:
109,192,156462,1,0,0:0:0:0:
475,192,156462,1,0,0:0:0:0:
36,192,156462,1,0,0:0:0:0:
402,192,156534,1,0,0:0:0:0:
256,192,156605,1,0,0:0:0:0:
36,192,156677,1,0,0:0:0:0:
109,192,156748,1,0,0:0:0:0:
182,192,156748,1,0,0:0:0:0:
329,192,156748,1,0,0:0:0:0:
256,192,156748,1,0,0:0:0:0:
402,192,156819,1,0,0:0:0:0:
475,192,156891,1,0,0:0:0:0:
36,192,156962,1,0,0:0:0:0:
109,192,157034,1,0,0:0:0:0:
329,192,157034,1,0,0:0:0:0:
256,192,157034,1,0,0:0:0:0:
182,192,157034,1,0,0:0:0:0:
402,192,157105,1,0,0:0:0:0:
475,192,157177,1,0,0:0:0:0:
36,192,157248,1,0,0:0:0:0:
475,192,157319,1,0,0:0:0:0:
109,192,157319,1,0,0:0:0:0:
256,192,157319,1,0,0:0:0:0:
329,192,157319,1,0,0:0:0:0:
402,192,157391,1,0,0:0:0:0:
329,192,157462,1,0,0:0:0:0:
256,192,157534,1,0,0:0:0:0:
182,192,157605,1,0,0:0:0:0:
36,192,157605,1,0,0:0:0:0:
475,192,157605,1,0,0:0:0:0:
402,192,157605,1,0,0:0:0:0:
329,192,157677,1,0,0:0:0:0:
256,192,157748,1,0,0:0:0:0:
182,192,157819,1,0,0:0:0:0:
475,192,157891,1,0,0:0:0:0:
402,192,157891,1,0,0:0:0:0:
36,192,157891,1,0,0:0:0:0:
109,192,157891,1,0,0:0:0:0:
329,192,157962,1,0,0:0:0:0:
182,192,158034,1,0,0:0:0:0:
36,192,158105,1,0,0:0:0:0:
256,192,158177,1,0,0:0:0:0:
329,192,158177,1,0,0:0:0:0:
402,192,158177,1,0,0:0:0:0:
475,192,158177,1,0,0:0:0:0:
182,192,158248,1,0,0:0:0:0:
109,192,158319,1,0,0:0:0:0:
475,192,158391,1,0,0:0:0:0:
36,192,158462,1,0,0:0:0:0:
182,192,158462,1,0,0:0:0:0:
329,192,158462,1,0,0:0:0:0:
109,192,158462,1,0,0:0:0:0:
402,192,158534,1,0,0:0:0:0:
475,192,158605,1,0,0:0:0:0:
256,192,158677,1,0,0:0:0:0:
182,192,158748,1,0,0:0:0:0:
109,192,158748,1,0,0:0:0:0:
402,192,158748,1,0,0:0:0:0:
36,192,158748,1,0,0:0:0:0:
329,192,158819,1,0,0:0:0:0:
256,192,158891,1,0,0:0:0:0:
182,192,158962,1,0,0:0:0:0:
329,192,159034,1,0,0:0:0:0:
475,192,159034,1,0,0:0:0:0:
36,192,159034,1,0,0:0:0:0:
402,192,159034,1,0,0:0:0:0:
109,192,159105,1,0,0:0:0:0:
256,192,159177,1,0,0:0:0:0:
182,192,159248,1,0,0:0:0:0:
402,192,159319,1,0,0:0:0:0:
475,192,159319,1,0,0:0:0:0:
36,192,159319,1,0,0:0:0:0:
109,192,159319,1,0,0:0:0:0:
329,192,159391,1,0,0:0:0:0:
256,192,159462,1,0,0:0:0:0:
182,192,159534,1,0,0:0:0:0:
109,192,159605,1,0,0:0:0:0:
329,192,159605,1,0,0:0:0:0:
475,192,159605,1,0,0:0:0:0:
402,192,159605,1,0,0:0:0:0:
36,192,159677,1,0,0:0:0:0:
256,192,159748,1,0,0:0:0:0:
182,192,159819,1,0,0:0:0:0:
109,192,159891,1,0,0:0:0:0:
329,192,159891,1,0,0:0:0:0:
402,192,159891,1,0,0:0:0:0:
36,192,159891,1,0,0:0:0:0:
256,192,159962,1,0,0:0:0:0:
329,192,160034,1,0,0:0:0:0:
402,192,160105,1,0,0:0:0:0:
36,192,160177,1,0,0:0:0:0:
109,192,160177,1,0,0:0:0:0:
182,192,160177,1,0,0:0:0:0:
256,192,160177,1,0,0:0:0:0:
475,192,160248,1,0,0:0:0:0:
36,192,160319,1,0,0:0:0:0:
329,192,160391,1,0,0:0:0:0:
402,192,160462,1,0,0:0:0:0:
475,192,160462,1,0,0:0:0:0:
182,192,160462,1,0,0:0:0:0:
109,192,160462,1,0,0:0:0:0:
256,192,160534,1,0,0:0:0:0:
109,192,160605,1,0,0:0:0:0:
36,192,160677,1,0,0:0:0:0:
182,192,160748,1,0,0:0:0:0:
329,192,160748,1,0,0:0:0:0:
402,192,160748,1,0,0:0:0:0:
475,192,160748,1,0,0:0:0:0:
256,192,160819,1,0,0:0:0:0:
329,192,160891,1,0,0:0:0:0:
475,192,160962,1,0,0:0:0:0:
402,192,161034,1,0,0:0:0:0:
182,192,161034,1,0,0:0:0:0:
36,192,161034,1,0,0:0:0:0:
256,192,161034,1,0,0:0:0:0:
109,192,161105,1,0,0:0:0:0:
329,192,161177,1,0,0:0:0:0:
256,192,161248,1,0,0:0:0:0:
402,192,161319,1,0,0:0:0:0:
475,192,161319,1,0,0:0:0:0:
182,192,161319,1,0,0:0:0:0:
109,192,161319,1,0,0:0:0:0:
36,192,161391,1,0,0:0:0:0:
329,192,161462,1,0,0:0:0:0:
256,192,161534,1,0,0:0:0:0:
182,192,161605,1,0,0:0:0:0:
109,192,161605,1,0,0:0:0:0:
36,192,161605,1,0,0:0:0:0:
475,192,161605,1,0,0:0:0:0:
329,192,161677,1,0,0:0:0:0:
402,192,161748,1,0,0:0:0:0:
475,192,161819,1,0,0:0:0:0:
109,192,161891,1,0,0:0:0:0:
182,192,161891,1,0,0:0:0:0:
329,192,161891,1,0,0:0:0:0:
36,192,161891,1,0,0:0:0:0:
256,192,161962,1,0,0:0:0:0:
402,192,162034,1,0,0:0:0:0:
475,192,162105,1,0,0:0:0:0:
36,192,162177,1,0,0:0:0:0:
182,192,162177,1,0,0:0:0:0:
329,192,162177,1,0,0:0:0:0:
256,192,162177,1,0,0:0:0:0:
109,192,162248,1,0,0:0:0:0:
402,192,162319,1,0,0:0:0:0:
182,192,162391,1,0,0:0:0:0:
329,192,162462,1,0,0:0:0:0:
475,192,162462,1,0,0:0:0:0:
36,192,162462,1,0,0:0:0:0:
109,192,162462,1,0,0:0:0:0:
256,192,162534,1,0,0:0:0:0:
402,192,162605,1,0,0:0:0:0:
109,192,162677,1,0,0:0:0:0:
182,192,162748,1,0,0:0:0:0:
475,192,162748,1,0,0:0:0:0:
329,192,162748,1,0,0:0:0:0:
36,192,162748,1,0,0:0:0:0:
256,192,162819,1,0,0:0:0:0:
402,192,162891,1,0,0:0:0:0:
36,192,162962,1,0,0:0:0:0:
475,192,163034,1,0,0:0:0:0:
402,192,163034,1,0,0:0:0:0:
109,192,163034,1,0,0:0:0:0:
182,192,163034,1,0,0:0:0:0:
329,192,163105,1,0,0:0:0:0:
256,192,163177,1,0,0:0:0:0:
182,192,163248,1,0,0:0:0:0:
329,192,163319,1,0,0:0:0:0:
402,192,163319,1,0,0:0:0:0:
109,192,163319,1,0,0:0:0:0:
256,192,163391,1,0,0:0:0:0:
182,192,163462,1,0,0:0:0:0:
36,192,163534,1,0,0:0:0:0:
475,192,163605,1,0,0:0:0:0:
329,192,163605,1,0,0:0:0:0:
109,192,163605,1,0,0:0:0:0:
402,192,163605,1,0,0:0:0:0:
182,192,163677,1,0,0:0:0:0:
256,192,163748,1,0,0:0:0:0:
329,192,163819,1,0,0:0:0:0:
402,192,163891,1,0,0:0:0:0:
475,192,163891,1,0,0:0:0:0:
109,192,163891,1,0,0:0:0:0:
36,192,163891,1,0,0:0:0:0:
182,192,163962,1,0,0:0:0:0:
256,192,164034,1,0,0:0:0:0:
36,192,164105,1,0,0:0:0:0:
182,192,164177,1,0,0:0:0:0:
402,192,164177,1,0,0:0:0:0:
475,192,164177,1,0,0:0:0:0:
329,192,164177,1,0,0:0:0:0:
256,192,164248,1,0,0:0:0:0:
109,192,164319,1,0,0:0:0:0:
36,192,164391,1,0,0:0:0:0:
475,192,164462,1,0,0:0:0:0:
329,192,164462,1,0,0:0:0:0:
182,192,164462,1,0,0:0:0:0:
402,192,164462,1,0,0:0:0:0:
109,192,164534,1,0,0:0:0:0:
36,192,164605,1,0,0:0:0:0:
402,192,164677,1,0,0:0:0:0:
329,192,164748,1,0,0:0:0:0:
256,192,164748,1,0,0:0:0:0:
182,192,164748,1,0,0:0:0:0:
475,192,164748,1,0,0:0:0:0:
109,192,164819,1,0,0:0:0:0:
36,192,164891,1,0,0:0:0:0:
402,192,164962,1,0,0:0:0:0:
109,192,165034,1,0,0:0:0:0:
182,192,165034,1,0,0:0:0:0:
475,192,165034,1,0,0:0:0:0:
36,192,165034,1,0,0:0:0:0:
256,192,165105,1,0,0:0:0:0:
329,192,165177,1,0,0:0:0:0:
402,192,165248,1,0,0:0:0:0:
36,192,165319,1,0,0:0:0:0:
182,192,165319,1,0,0:0:0:0:
475,192,165319,1,0,0:0:0:0:
256,192,165319,1,0,0:0:0:0:
109,192,165391,1,0,0:0:0:0:
402,192,165462,1,0,0:0:0:0:
329,192,165534,1,0,0:0:0:0:
256,192,165605,1,0,0:0:0:0:
36,192,165605,1,0,0:0:0:0:
475,192,165605,1,0,0:0:0:0:
109,192,165605,1,0,0:0:0:0:
182,192,165677,1,0,0:0:0:0:
475,192,165748,1,0,0:0:0:0:
402,192,165819,1,0,0:0:0:0:
329,192,165891,1,0,0:0:0:0:
182,192,165891,1,0,0:0:0:0:
36,192,165891,1,0,0:0:0:0:
256,192,165891,1,0,0:0:0:0:
109,192,165962,1,0,0:0:0:0:
475,192,166034,1,0,0:0:0:0:
329,192,166034,1,0,0:0:0:0:
402,192,166034,1,0,0:0:0:0:
256,192,166105,1,0,0:0:0:0:
329,192,166177,1,0,0:0:0:0:
182,192,166177,1,0,0:0:0:0:
36,192,166177,1,0,0:0:0:0:
475,192,166177,1,0,0:0:0:0:
109,192,166248,1,0,0:0:0:0:
475,192,166319,1,0,0:0:0:0:
329,192,166319,1,0,0:0:0:0:
256,192,166319,1,0,0:0:0:0:
402,192,166391,1,0,0:0:0:0:
182,192,166462,1,0,0:0:0:0:
109,192,166462,1,0,0:0:0:0:
256,192,166462,1,0,0:0:0:0:
36,192,166462,1,0,0:0:0:0:
329,192,166534,1,0,0:0:0:0:
256,192,166605,1,0,0:0:0:0:
475,192,166605,1,0,0:0:0:0:
109,192,166605,1,0,0:0:0:0:
402,192,166677,1,0,0:0:0:0:
329,192,166748,1,0,0:0:0:0:
182,192,166748,1,0,0:0:0:0:
36,192,166748,1,0,0:0:0:0:
256,192,166748,1,0,0:0:0:0:
109,192,166819,1,0,0:0:0:0:
256,192,166891,1,0,0:0:0:0:
402,192,166891,1,0,0:0:0:0:
329,192,166891,1,0,0:0:0:0:
475,192,166962,1,0,0:0:0:0:
36,192,167034,1,0,0:0:0:0:
109,192,167034,1,0,0:0:0:0:
182,192,167034,1,0,0:0:0:0:
329,192,167105,1,0,0:0:0:0:
402,192,167105,1,0,0:0:0:0:
475,192,167105,1,0,0:0:0:0:
182,192,167177,1,0,0:0:0:0:
109,192,167177,1,0,0:0:0:0:
36,192,167177,1,0,0:0:0:0:
402,192,167248,1,0,0:0:0:0:
329,192,167248,1,0,0:0:0:0:
475,192,167248,1,0,0:0:0:0:
182,192,167319,1,0,0:0:0:0:
36,192,167319,1,0,0:0:0:0:
109,192,167319,1,0,0:0:0:0:
329,192,167391,1,0,0:0:0:0:
402,192,167391,1,0,0:0:0:0:
475,192,167391,1,0,0:0:0:0:
36,192,167462,1,0,0:0:0:0:
109,192,167462,1,0,0:0:0:0:
182,192,167462,1,0,0:0:0:0:
329,192,167534,1,0,0:0:0:0:
402,192,167534,1,0,0:0:0:0:
475,192,167534,1,0,0:0:0:0:
109,192,167605,1,0,0:0:0:0:
182,192,167605,1,0,0:0:0:0:
36,192,167605,1,0,0:0:0:0:
329,192,167677,1,0,0:0:0:0:
402,192,167677,1,0,0:0:0:0:
475,192,167677,1,0,0:0:0:0:
36,192,167748,1,0,0:0:0:0:
109,192,167748,1,0,0:0:0:0:
182,192,167748,1,0,0:0:0:0:
329,192,167819,1,0,0:0:0:0:
402,192,167819,1,0,0:0:0:0:
475,192,167819,1,0,0:0:0:0:
36,192,167891,1,0,0:0:0:0:
109,192,167891,1,0,0:0:0:0:
182,192,167891,1,0,0:0:0:0:
329,192,167962,1,0,0:0:0:0:
402,192,167962,1,0,0:0:0:0:
475,192,167962,1,0,0:0:0:0:
36,192,168034,1,0,0:0:0:0:
109,192,168034,1,0,0:0:0:0:
182,192,168034,1,0,0:0:0:0:
329,192,168105,1,0,0:0:0:0:
475,192,168105,1,0,0:0:0:0:
402,192,168105,1,0,0:0:0:0:
36,192,168177,1,0,0:0:0:0:
256,192,168177,1,0,0:0:0:0:
182,192,168319,1,0,0:0:0:0:
402,192,168462,1,0,0:0:0:0:
329,192,168605,1,0,0:0:0:0:
256,192,168748,1,0,0:0:0:0:
182,192,168891,1,0,0:0:0:0:
402,192,169034,1,0,0:0:0:0:
36,192,169177,1,0,0:0:0:0:
256,192,169462,1,0,0:0:0:0:
402,192,169748,1,0,0:0:0:0:
109,192,170034,1,0,0:0:0:0:
329,192,170034,1,0,0:0:0:0:
109,192,170177,1,0,0:0:0:0:
329,192,170177,1,0,0:0:0:0:
109,192,170319,1,0,0:0:0:0:
329,192,170319,1,0,0:0:0:0:
256,192,170462,1,0,0:0:0:0:
182,192,170605,1,0,0:0:0:0:
402,192,170748,1,0,0:0:0:0:
329,192,170891,1,0,0:0:0:0:
475,192,171034,1,0,0:0:0:0:
109,192,171177,1,0,0:0:0:0:
182,192,171319,1,0,0:0:0:0:
256,192,171462,1,0,0:0:0:0:
329,192,171748,1,0,0:0:0:0:
475,192,172034,1,0,0:0:0:0:
109,192,172319,1,0,0:0:0:0:
475,192,172319,1,0,0:0:0:0:
109,192,172462,1,0,0:0:0:0:
475,192,172462,1,0,0:0:0:0:
109,192,172605,1,0,0:0:0:0:
475,192,172605,1,0,0:0:0:0:
256,192,172748,1,0,0:0:0:0:
36,192,172891,1,0,0:0:0:0:
402,192,173034,1,0,0:0:0:0:
256,192,173177,1,0,0:0:0:0:
182,192,173319,1,0,0:0:0:0:
109,192,173462,1,0,0:0:0:0:
329,192,173605,1,0,0:0:0:0:
475,192,173748,1,0,0:0:0:0:
182,192,174034,1,0,0:0:0:0:
256,192,174319,1,0,0:0:0:0:
109,192,174605,1,0,0:0:0:0:
402,192,174605,1,0,0:0:0:0:
109,192,174748,1,0,0:0:0:0:
402,192,174748,1,0,0:0:0:0:
109,192,174891,1,0,0:0:0:0:
402,192,174891,1,0,0:0:0:0:
256,192,175034,1,0,0:0:0:0:
475,192,175177,1,0,0:0:0:0:
109,192,175319,1,0,0:0:0:0:
182,192,175462,1,0,0:0:0:0:
402,192,175605,1,0,0:0:0:0:
329,192,175748,1,0,0:0:0:0:
182,192,175891,1,0,0:0:0:0:
36,192,176034,1,0,0:0:0:0:
475,192,176319,1,0,0:0:0:0:
256,192,176605,1,0,0:0:0:0:
109,192,176891,1,0,0:0:0:0:
402,192,176891,1,0,0:0:0:0:
402,192,177034,1,0,0:0:0:0:
109,192,177034,1,0,0:0:0:0:
109,192,177177,1,0,0:0:0:0:
402,192,177177,1,0,0:0:0:0:
