osu file format v14

[General]
AudioFilename: audio.mp3
AudioLeadIn: 0
PreviewTime: 45900
Countdown: 0
SampleSet: Soft
StackLeniency: 0.7
Mode: 0
LetterboxInBreaks: 0
WidescreenStoryboard: 1

[Editor]
Bookmarks: 126463
DistanceSpacing: 0.9
BeatDivisor: 4
GridSize: 4
TimelineZoom: 1.4

[Metadata]
Title:Aimai Elegy
TitleUnicode:愛迷エレジー
Artist:DECO*27 feat. marina
ArtistUnicode:DECO*27 feat. marina
Creator:Nevo
Version:Azunyan's Normal
Source:
Tags:spoes yudragen risen aakki japanese rock utaite cover Azunyan- Mayu Sakuma Xexyz
BeatmapID:2400920
BeatmapSetID:1126026

[Difficulty]
HPDrainRate:4
CircleSize:3
OverallDifficulty:4
ApproachRate:6
SliderMultiplier:1
SliderTickRate:1

[Events]
//Background and Video events
0,0,"14923463_p0_waifu2x_art_noise3_scale_tta_1.png",0,0
Video,-3000,"marina.mp4"
//Break Periods
2,37029,44772
2,73620,84804
//Storyboard Layer 0 (Background)
//Storyboard Layer 1 (Fail)
//Storyboard Layer 2 (Pass)
//Storyboard Layer 3 (Foreground)
//Storyboard Layer 4 (Overlay)
//Storyboard Sound Samples

[TimingPoints]
258,285.714285714286,4,2,1,80,1,0
2543,281.69014084507,4,2,1,80,1,0
3669,288.461538461538,4,2,1,80,1,0
4822,285.714285714286,4,2,1,80,1,0
7107,284.36018957346,4,2,1,80,1,0
8244,288.461538461538,4,2,1,80,1,0
9397,285.714285714286,4,2,1,80,1,0
9968,266.666666666667,4,2,1,80,1,0
10234,300,4,2,1,80,1,0
10534,285.714285714286,4,2,1,80,1,0
13391,276.497695852535,4,2,1,80,1,0
13943,285.714285714286,4,2,1,80,1,0
14514,303.030303030303,4,2,1,80,1,0
15120,283.018867924528,4,2,1,80,1,0
16252,285.714285714286,4,2,1,80,1,0
17394,284.36018957346,4,2,1,80,1,0
18531,294.117647058824,4,2,2,65,1,0
19707,279.06976744186,4,2,2,65,1,0
20544,285.714285714286,4,2,2,65,1,0
20829,285.714285714286,4,2,2,65,1,0
23114,285.035629453682,4,2,2,65,1,0
24254,285.714285714286,4,2,2,65,1,0
25396,284.36018957346,4,2,2,65,1,0
26533,285.714285714286,4,2,2,65,1,0
27675,291.26213592233,4,2,2,65,1,0
28840,284.36018957346,4,2,2,65,1,0
29977,285.714285714286,4,2,2,65,1,0
31119,285.035629453682,4,2,2,65,1,0
32259,287.081339712919,4,2,2,65,1,0
33407,285.714285714286,4,2,2,65,1,0
35121,280.373831775701,4,2,2,65,1,0
35681,285.714285714286,4,2,2,65,1,0
36823,292.682926829268,4,2,1,80,1,0
37993,285.714285714286,4,2,1,65,1,0
39707,272.727272727273,4,2,1,65,1,0
40252,283.018867924528,4,2,1,65,1,0
41384,285.714285714286,4,2,1,65,1,0
42812,291.26213592233,4,2,1,65,1,0
43685,285.714285714286,4,2,1,65,1,0
44542,277.777777777778,4,2,1,65,1,0
44819,285.714285714286,4,2,1,65,1,0
45961,289.855072463768,4,2,2,65,1,0
47120,285.714285714286,4,2,2,65,1,0
48262,284.36018957346,4,2,2,65,1,0
50536,289.855072463768,4,2,2,65,1,0
51695,283.018867924528,4,2,2,65,1,0
52827,285.714285714286,4,2,2,65,1,0
56827,291.26213592233,4,2,2,65,1,0
57409,285.714285714286,4,2,2,65,1,0
59123,281.69014084507,4,2,2,65,1,0
59686,285.714285714286,4,2,2,65,1,0
60828,283.018867924528,4,2,2,65,1,0
61960,287.081339712919,4,2,2,65,1,0
63043,-100,4,2,2,80,0,0
63108,285.714285714286,4,2,1,70,1,0
64250,298.507462686567,4,2,1,90,1,1
64847,285.714285714286,4,2,1,90,1,1
65418,285.714285714286,4,2,1,90,1,1
66560,282.352941176471,4,2,1,90,1,1
67689,285.714285714286,4,2,1,90,1,1
69403,279.06976744186,4,2,1,90,1,1
69961,288.461538461538,4,2,1,90,1,1
71114,300,4,2,1,90,1,1
71414,279.06976744186,4,2,1,90,1,1
72251,285.714285714286,4,2,1,90,1,1
72822,288.461538461538,4,2,1,90,1,1
73254,315.789473684211,4,2,1,90,1,1
73411,450.281425891182,4,2,1,90,1,0
74768,-100,4,2,1,50,0,0
74986,450.281425891182,4,2,1,50,1,0
76561,450.281425891182,4,2,1,50,1,0
78136,451.127819548872,4,2,1,50,1,0
79714,449.438202247191,4,2,1,50,1,0
81287,447.761194029851,4,2,1,50,1,0
82854,447.761194029851,4,2,1,50,1,0
84421,454.201362604088,4,2,1,50,1,0
85329,461.538461538462,4,2,1,50,1,0
86021,428.571428571429,4,2,1,65,1,0
87572,458.015267175573,4,2,1,65,1,0
88920,480,4,2,1,65,1,0
89160,449.438202247191,4,2,1,65,1,0
90733,447.761194029851,4,2,1,65,1,0
92300,434.782608695652,4,2,1,65,1,0
93169,454.545454545455,4,2,1,65,1,0
93850,454.545454545455,4,2,1,65,1,0
95440,449.438202247191,4,2,1,65,1,0
97013,454.545454545455,4,2,1,65,1,0
97922,461.538461538462,4,2,1,65,1,0
98383,491.400491400491,5,2,1,65,1,0
98476,-100,5,2,1,5,0,0
100840,284.36018957346,4,2,2,80,1,0
101113,-100,4,2,2,65,0,0
103114,285.714285714286,4,2,2,80,1,0
103399,-100,4,2,2,65,0,0
104398,-100,4,2,2,80,0,0
104542,-100,4,2,2,65,0,0
106542,284.36018957346,4,2,2,80,1,0
107970,-100,4,2,2,65,0,0
108816,285.714285714286,4,2,2,80,1,0
109970,-100,4,2,2,65,0,0
112398,-100,4,2,2,80,0,0
112542,-100,4,2,2,65,0,0
113387,287.081339712919,4,2,2,80,1,0
116831,284.36018957346,4,2,2,80,1,0
117113,-100,4,2,2,65,0,0
117684,272.727272727273,4,2,2,80,1,0
117956,286.396181384248,4,2,2,80,1,0
119101,285.714285714286,4,2,2,80,1,0
119958,307.692307692308,4,2,2,80,1,0
120265,284.36018957346,4,2,2,80,1,0
121402,283.018867924528,4,2,2,80,1,0
122534,287.769784172662,4,2,2,80,1,0
122827,-100,4,2,2,65,0,0
122965,-100,4,2,2,65,0,0
123109,-100,4,2,2,65,0,0
123685,285.714285714286,4,2,2,80,1,0
124827,284.090909090909,4,2,2,80,1,0
125963,285.714285714286,4,2,2,80,1,0
127105,289.855072463768,4,2,2,70,1,0
127255,-100,4,2,2,80,0,0
127394,-100,4,2,2,70,0,0
127399,-100,4,2,2,70,0,0
127541,-100,4,2,2,80,0,0
127684,-100,4,2,2,70,0,0
128184,-100,4,2,2,80,0,0
128264,287.081339712919,4,2,2,65,1,0
128398,-100,4,2,2,80,0,0
128542,-100,4,2,2,65,0,0
129412,283.018867924528,4,2,2,80,1,0
130544,287.081339712919,4,2,2,80,1,0
130828,-100,4,2,2,65,0,0
131692,285.714285714286,4,2,2,80,1,0
131970,-100,4,2,2,65,0,0
132120,-100,4,2,2,65,0,0
132263,-100,4,2,2,65,0,0
132834,285.035629453682,4,2,2,80,1,0
133974,280.373831775701,4,2,2,80,1,0
135095,285.714285714286,4,2,2,80,1,0
136237,294.117647058824,4,2,2,80,1,0
137113,-100,4,2,2,65,0,0
137255,-100,4,2,2,80,0,0
137413,287.081339712919,4,2,1,90,1,1
139709,283.018867924528,4,2,1,90,1,1
139827,-100,4,2,1,80,0,1
139970,-100,4,2,1,90,0,1
140255,-100,4,2,1,80,0,1
140399,-100,4,2,1,90,0,1
141973,285.714285714286,4,2,1,90,1,1
143115,284.36018957346,4,2,1,90,1,1
144252,285.714285714286,4,2,1,90,1,1
144398,-100,4,2,1,80,0,1
144537,-100,4,2,1,90,0,1
144542,-100,4,2,1,90,0,1
144827,-100,4,2,1,80,0,1
144970,-100,4,2,1,90,0,1
146537,283.018867924528,4,2,1,90,1,1
146684,-100,4,2,1,80,0,1
146828,-100,4,2,1,90,0,1
147113,-100,4,2,1,80,0,1
147255,-100,4,2,1,90,0,1
147669,288.461538461538,4,2,1,90,1,1
147827,-100,4,2,1,80,0,1
147971,-100,4,2,1,90,0,1
148256,-100,4,2,1,80,0,1
148398,-100,4,2,1,90,0,1
148822,285.714285714286,4,2,1,90,1,1
151255,-100,4,2,1,80,0,1
151399,-100,4,2,1,90,0,1
151685,-100,4,2,1,80,0,1
151827,-100,4,2,1,90,0,1
152250,283.687943262411,4,2,1,90,1,1
153384,285.714285714286,4,2,1,90,1,1
153541,-100,4,2,1,80,0,1
153685,-100,4,2,1,90,0,1
153970,-100,4,2,1,80,0,1
154114,-100,4,2,1,90,0,1
154684,-100,4,2,1,80,0,1
154828,-100,4,2,1,90,0,1
155098,300,4,2,1,90,1,1
155698,285.714285714286,4,2,1,95,1,0
155827,-100,4,2,1,80,0,0
155970,-100,4,2,1,95,0,0
156112,-100,4,2,1,80,0,0
156256,-100,4,2,1,95,0,0
156398,-100,4,2,1,80,0,0
156541,-100,4,2,1,95,0,0
156683,-100,4,2,1,80,0,0
156828,-100,4,2,1,95,0,0
157826,-100,4,2,1,80,0,0
157983,281.69014084507,4,2,1,95,1,0
159109,285.714285714286,4,2,1,80,1,0
160185,-100,4,2,1,60,0,0
160251,-100,4,2,1,95,0,0
160256,-100,4,2,1,95,0,0
160398,-100,4,2,1,60,0,0
160542,-100,4,2,1,95,0,0
160684,-100,4,2,1,60,0,0
160823,-100,4,2,1,95,0,0
160828,-100,4,2,1,95,0,0
160970,-100,4,2,1,60,0,0
161109,-100,4,2,1,95,0,0
161113,-100,4,2,1,95,0,0
161255,-100,4,2,1,60,0,0
161394,283.018867924528,4,2,1,95,1,0
162526,289.156626506024,4,2,1,80,1,0
163682,291.26213592233,4,2,1,80,1,0
163827,-100,4,2,1,60,0,0
163970,-100,4,2,1,95,0,0
164112,-100,4,2,1,60,0,0
164256,-100,4,2,1,95,0,0
164398,-100,4,2,1,60,0,0
164542,-100,4,2,1,95,0,0
164828,-100,4,2,1,80,0,0
165283,449.438202247191,7,2,1,50,1,0

[Colours]
Combo1 : 255,147,147
Combo2 : 192,192,192
Combo3 : 0,204,204

[HitObjects]
420,130,18531,6,0,P|437:181|401:319,1,200,10|2,2:1|2:3,2:0:0:0:
321,377,19413,1,2,1:3:0:0:
249,306,19707,2,0,B|148:279|149:342|40:300,1,200,10|2,2:1|2:3,2:0:0:0:
17,211,20544,1,2,1:3:0:0:
85,137,20829,6,0,L|188:146,1,100,10|2,2:1|1:3,2:0:0:0:
248,223,21400,2,0,L|347:214,1,100,2|2,2:3|1:3,2:0:0:0:
408,134,21971,2,0,P|458:141|512:153,2,100,10|2|2,2:1|1:3|2:3,2:0:0:0:
370,42,22829,1,2,1:0:0:0:
271,28,23114,6,0,P|227:38|67:26,1,200,10|2,2:1|2:3,2:0:0:0:
0,96,23969,1,2,1:3:0:0:
53,180,24254,2,0,P|37:232|64:377,1,200,10|2,2:1|2:3,2:0:0:0:
145,318,25111,1,2,1:3:0:0:
238,353,25396,6,0,B|289:334|289:334|434:348,1,200,10|2,2:1|2:3,2:0:0:0:
496,269,26249,1,2,1:3:0:0:
441,185,26533,2,0,L|341:193,1,100,10|2,2:1|1:3,2:0:0:0:
249,153,27104,1,2,2:3:0:0:
188,232,27390,1,2,1:0:0:0:
90,211,27675,6,0,P|51:110|66:7,1,200,14|2,2:1|2:3,2:0:0:0:
151,63,28548,1,2,1:3:0:0:
246,33,28840,2,0,B|297:14|297:14|442:28,1,200,10|2,2:1|2:3,2:0:0:0:
491,115,29693,1,2,1:3:0:0:
442,202,29977,6,0,P|430:250|429:316,1,100,10|2,2:1|1:3,2:0:0:0:
349,363,30548,2,0,L|229:352,1,100,2|2,2:3|1:3,2:0:0:0:
173,288,31119,2,0,P|123:297|67:319,2,100,10|2|2,2:1|1:3|2:3,2:0:0:0:
214,196,31974,1,2,1:0:0:0:
313,203,32259,6,0,L|522:163,1,200,10|2,2:1|2:3,2:0:0:0:
492,66,33120,1,2,1:3:0:0:
406,14,33407,2,0,B|305:-10|322:60|193:22,1,200,10|2,2:1|2:3,2:0:0:0:
113,2,34264,1,2,1:3:0:0:
56,83,34549,6,0,L|73:282,1,200,10|2,2:1|2:3,2:0:0:0:
162,327,35401,1,2,1:3:0:0:
222,247,35681,2,0,L|213:147,1,100,10|2,2:1|1:3,2:0:0:0:
255,56,36252,2,0,P|309:28|361:23,1,100,6|0,2:1|1:0,2:0:0:0:
441,56,36823,5,12,2:1:0:0:
97,306,45961,6,0,P|80:255|100:111,1,200,10|2,2:1|2:3,2:0:0:0:
165,37,46830,1,2,1:3:0:0:
262,63,47120,2,0,B|314:85|314:85|471:69,1,200,10|2,2:1|2:3,2:0:0:0:
492,163,47977,1,2,1:3:0:0:
426,238,48262,6,0,L|323:229,1,100,10|2,2:1|1:3,2:0:0:0:
249,165,48830,2,0,L|150:174,1,100,2|2,2:3|1:3,2:0:0:0:
101,262,49399,2,0,P|55:261|3:279,2,100,10|2|2,2:1|1:3|2:3,2:0:0:0:
154,346,50252,1,2,1:0:0:0:
253,340,50536,6,0,B|357:314|341:375|457:342,1,200,10|2,2:1|2:3,2:0:0:0:
512,272,51405,1,2,1:3:0:0:
446,196,51695,2,0,L|240:178,1,200,10|2,2:1|2:3,2:0:0:0:
165,237,52544,1,2,1:3:0:0:
63,204,52827,6,0,B|44:153|44:153|58:8,1,200,10|2,2:1|2:3,2:0:0:0:
145,57,53684,1,2,1:3:0:0:
238,22,53969,2,0,L|338:14,1,100,10|2,2:1|1:3,2:0:0:0:
437,0,54541,1,2,2:3:0:0:
482,91,54827,1,2,1:0:0:0:
409,161,55112,6,0,P|431:253|433:365,1,200,10|2,2:1|2:3,2:0:0:0:
335,379,55969,1,2,1:3:0:0:
250,327,56255,2,0,B|199:308|199:308|54:322,1,200,10|2,2:1|2:3,2:0:0:0:
5,234,57118,1,2,1:3:0:0:
62,152,57409,6,0,P|74:104|75:38,1,100,10|2,2:1|1:3,2:0:0:0:
168,13,57980,2,0,L|288:24,1,100,2|2,2:3|1:3,2:0:0:0:
354,72,58551,2,0,P|404:63|460:41,2,100,10|2|2,2:1|1:3|2:3,2:0:0:0:
263,115,59404,1,2,1:0:0:0:
215,203,59686,6,0,B|108:218|124:164|8:198,1,200,10|2,2:1|2:3,2:0:0:0:
0,293,60543,1,2,1:3:0:0:
65,367,60828,2,0,L|284:347,1,200,10|2,2:1|2:3,2:0:0:0:
361,374,61677,1,2,1:3:0:0:
442,316,61960,6,0,P|436:210|443:113,1,200,10|2,2:1|2:3,2:0:0:0:
350,57,62821,1,2,1:3:0:0:
290,137,63108,2,0,L|299:237,1,100,14|10,2:1|2:1,2:0:0:0:
264,330,63679,1,10,2:1:0:0:
164,317,63965,1,0,1:0:0:0:
69,350,64250,6,0,L|60:250,1,100,14|2,2:1|1:0,2:0:0:0:
82,205,64697,2,0,L|92:48,1,146,10|0,2:1|1:0,2:0:0:0:
183,15,65418,2,0,P|240:2|299:14,1,100,10|2,2:1|1:0,2:0:0:0:
320,38,65846,2,0,P|398:50|483:39,1,150,10|2,2:1|1:0,2:0:0:0:
504,136,66560,5,10,2:1:0:0:
444,217,66842,1,2,1:0:0:0:
444,217,66983,2,0,P|443:272|458:379,1,150,10|2,2:1|1:0,2:0:0:0:
368,372,67689,2,0,L|248:361,1,100,10|2,2:1|1:0,2:0:0:0:
227,333,68117,2,0,L|72:346,1,150,10|2,2:1|1:0,2:0:0:0:
2,279,68831,5,10,2:1:0:0:
50,193,69117,1,2,1:0:0:0:
50,193,69260,2,0,L|199:205,1,148,10|2,2:1|1:0,2:0:0:0:
315,213,69961,2,0,P|386:202|435:199,1,100,10|0,2:1|1:0,2:0:0:0:
460,219,70393,2,0,P|479:136|459:64,1,150,10|2,2:1|1:0,2:0:0:0:
388,8,71114,5,10,2:1:0:0:
304,60,71414,1,2,1:0:0:0:
304,60,71553,2,0,L|144:46,1,150,10|2,2:1|1:0,2:0:0:0:
57,21,72251,2,0,P|68:81|73:136,1,100,10|2,2:1|1:0,2:0:0:0:
98,162,72679,2,0,P|87:222|84:333,1,151.5,10|2,2:1|1:0,2:0:0:0:
131,382,73411,5,12,2:1:0:0:
299,355,86021,6,0,L|392:342,2,75,12|8|8,2:1|2:1|2:1,2:0:0:0:
218,296,87092,2,0,L|154:290,1,50,8|2,2:1|1:3,2:0:0:0:
123,314,87572,2,0,P|77:303|30:298,1,75,12|8,2:1|2:1,2:0:0:0:
0,232,88259,1,8,2:1:0:0:
53,147,88717,2,0,L|57:96,1,44.5,8|2,2:1|1:3,2:0:0:0:
96,65,89160,6,0,P|126:56|177:58,1,75,12|8,2:1|2:1,2:0:0:0:
239,96,89834,1,8,2:1:0:0:
329,53,90283,2,0,L|378:48,1,50,8|2,2:1|1:3,2:0:0:0:
415,82,90733,2,0,L|489:88,2,75,12|8|8,2:1|2:1|2:1,2:0:0:0:
356,162,91852,2,0,L|362:217,1,50,8|2,2:1|1:2,2:0:0:0:
394,249,92300,6,0,P|386:307|386:335,1,75,12|8,2:1|2:1,2:0:0:0:
330,383,92952,1,8,2:1:0:0:
242,333,93396,2,0,L|174:327,1,50,8|2,2:1|1:3,2:0:0:0:
153,297,93850,2,0,L|78:303,2,75,12|8|8,2:1|2:1|2:1,2:0:0:0:
177,200,94986,2,0,L|180:132,1,50,8|2,2:1|1:3,2:0:0:0:
151,108,95440,6,0,P|114:116|68:115,2,75,12|8|8,2:1|2:1|2:1,2:0:0:0:
223,38,96563,2,0,L|286:41,1,50,8|2,2:1|1:3,2:0:0:0:
307,77,97013,2,0,P|356:66|391:60,1,75,12|8,2:1|2:1,2:0:0:0:
453,100,97694,1,8,2:1:0:0:
431,207,98152,2,0,L|424:272,1,50,8|6,2:1|1:3,2:0:0:0:
427,251,100840,6,0,P|444:200|422:53,1,200,10|2,2:1|2:3,2:0:0:0:
336,7,101693,1,2,1:3:0:0:
259,71,101977,2,0,B|195:90|195:90|50:77,1,200,10|2,2:1|2:3,2:0:0:0:
14,165,102830,1,2,1:3:0:0:
56,255,103114,6,0,L|159:246,1,100,10|2,2:1|1:3,2:0:0:0:
246,204,103685,2,0,L|345:213,1,100,2|2,2:3|1:3,2:0:0:0:
414,286,104256,2,0,P|464:279|518:267,2,100,10|2|2,2:1|1:3|2:3,2:0:0:0:
353,365,105114,1,2,1:0:0:0:
263,329,105399,6,0,P|219:319|59:331,1,200,10|2,2:1|2:3,2:0:0:0:
10,245,106256,1,2,1:3:0:0:
77,171,106542,2,0,B|177:142|177:142|273:181,1,200,10|2,2:1|2:3,2:0:0:0:
329,255,107395,1,2,1:3:0:0:
427,242,107679,6,0,B|446:191|446:191|432:46,1,200,10|2,2:1|2:3,2:0:0:0:
342,1,108532,1,2,1:3:0:0:
267,67,108816,2,0,L|167:59,1,100,10|2,2:1|1:3,2:0:0:0:
77,103,109387,1,2,2:3:0:0:
116,194,109673,1,2,1:0:0:0:
48,268,109958,6,0,P|71:363|172:364,1,200,14|2,2:1|2:3,2:0:0:0:
217,289,110816,1,2,1:3:0:0:
296,349,111101,2,0,B|347:368|347:368|492:354,1,200,10|2,2:1|2:3,2:0:0:0:
497,254,111958,1,2,1:3:0:0:
437,173,112244,6,0,P|425:125|424:59,1,100,10|2,2:1|1:3,2:0:0:0:
341,16,112816,2,0,L|221:27,1,100,2|2,2:3|1:3,2:0:0:0:
165,90,113387,2,0,P|115:81|59:59,2,100,10|2|2,2:1|1:3|2:3,2:0:0:0:
203,182,114248,1,2,1:0:0:0:
302,170,114535,6,0,P|385:146|504:125,1,200,10|2,2:1|2:3,2:0:0:0:
510,225,115396,1,2,1:3:0:0:
458,310,115683,2,0,B|375:355|375:355|270:323,1,200,10|2,2:1|2:3,2:0:0:0:
177,293,116544,1,2,1:3:0:0:
93,347,116831,6,0,L|76:148,1,200,10|2,2:1|2:3,2:0:0:0:
139,70,117684,1,2,1:3:0:0:
220,128,117956,2,0,L|320:137,1,100,10|2,2:1|1:3,2:0:0:0:
414,105,118528,1,6,2:1:0:0:
487,171,118815,1,0,1:0:0:0:
467,267,119101,6,0,P|419:281|369:284,1,100,14|2,2:1|1:3,2:0:0:0:
272,257,119672,1,2,2:3:0:0:
185,306,119958,2,0,L|180:357,1,50,2|8,1:3|2:1,2:0:0:0:
133,371,120265,2,0,P|105:377|28:369,1,100,10|2,2:1|1:3,2:0:0:0:
0,277,120833,2,0,P|-7:227|0:178,1,100,2|2,2:3|1:3,2:0:0:0:
46,89,121402,5,10,2:1:0:0:
132,141,121685,2,0,B|211:157|201:115|290:136,1,150,2|8,1:3|2:1,2:0:0:0:
377,153,122392,1,8,2:1:0:0:
438,74,122677,1,0,2:0:0:0:
390,3,122965,1,8,2:1:0:0:
390,3,123109,2,0,P|337:-8|275:5,1,100,2|2,2:3|1:0,2:0:0:0:
209,55,123685,5,10,2:1:0:0:
113,27,123970,1,2,1:3:0:0:
32,86,124256,1,2,2:3:0:0:
32,86,124399,2,0,L|47:193,1,100,8|0,2:1|1:0,2:0:0:0:
74,226,124827,2,0,L|59:333,1,100,10|2,2:1|1:3,2:0:0:0:
151,365,125395,2,0,P|204:371|250:356,1,100,2|2,2:3|1:3,2:0:0:0:
295,269,125963,5,10,2:1:0:0:
392,287,126248,2,0,P|448:284|493:268,1,100,2|2,1:3|2:3,2:0:0:0:
505,222,126677,1,8,2:1:0:0:
485,118,126963,2,0,P|422:112|332:134,1,151,2|10,1:2|2:1,2:0:0:0:
237,136,127684,1,10,2:1:0:0:
147,91,127974,1,0,1:0:0:0:
67,151,128264,6,0,P|56:197|64:259,1,100,10|2,2:1|1:3,2:0:0:0:
110,336,128838,1,2,2:3:0:0:
205,306,129125,2,0,L|256:311,1,50,2|0,1:3|1:0,2:0:0:0:
285,350,129412,2,0,P|313:344|390:352,1,100,10|2,2:1|1:3,2:0:0:0:
456,280,129978,2,0,P|462:230|455:181,1,100,2|2,2:3|1:3,2:0:0:0:
369,130,130544,5,10,2:1:0:0:
292,194,130831,2,0,B|213:210|223:168|134:189,1,150,2|8,1:3|2:1,2:0:0:0:
45,204,131548,1,8,2:1:0:0:
0,112,131834,1,0,2:0:0:0:
73,44,132120,1,8,2:1:0:0:
73,44,132263,2,0,P|126:33|188:46,1,100,2|2,2:3|1:0,2:0:0:0:
262,80,132834,5,10,2:1:0:0:
354,42,133119,1,2,1:3:0:0:
453,76,133404,1,2,2:3:0:0:
453,76,133546,2,0,P|467:124|468:183,1,100,8|0,2:1|1:0,2:0:0:0:
448,219,133974,2,0,L|468:325,1,100,10|2,2:1|1:3,2:0:0:0:
377,363,134534,2,0,P|326:376|277:371,1,100,2|2,2:3|1:3,2:0:0:0:
195,317,135095,5,10,2:1:0:0:
100,349,135380,2,0,P|55:328|22:290,1,100,2|2,1:3|2:3,2:0:0:0:
16,240,135809,1,8,2:1:0:0:
38,142,136095,2,0,B|129:117|129:117|183:127,1,153,2|2,1:3|1:3,2:0:0:0:
281,151,136825,1,2,1:3:0:0:
373,112,137119,1,2,1:3:0:0:
451,174,137413,6,0,L|460:274,1,100,14|2,2:1|1:0,2:0:0:0:
440,319,137843,2,0,P|370:347|282:350,1,150,10|0,2:1|1:0,2:0:0:0:
217,290,138561,2,0,P|163:284|112:303,1,100,10|2,2:1|1:0,2:0:0:0:
80,328,138991,2,0,P|79:248|59:171,1,150,10|2,2:1|1:0,2:0:0:0:
105,90,139709,5,10,2:1:0:0:
201,131,139992,1,2,1:0:0:0:
201,131,140133,2,0,P|268:129|363:145,1,150,10|2,2:1|1:0,2:0:0:0:
449,130,140841,2,0,P|461:74|460:10,1,100,10|2,2:1|1:0,2:0:0:0:
415,12,141265,2,0,L|243:-2,1,150,10|2,2:1|1:0,2:0:0:0:
184,58,141973,5,10,2:1:0:0:
98,16,142258,1,2,1:0:0:0:
98,16,142401,2,0,P|97:86|86:165,1,150,10|2,2:1|1:0,2:0:0:0:
99,264,143115,2,0,P|170:253|219:250,1,100,10|0,2:1|1:0,2:0:0:0:
223,294,143541,2,0,P|295:279|367:298,1,150,10|2,2:1|1:0,2:0:0:0:
459,338,144252,5,10,2:1:0:0:
496,247,144537,1,2,1:0:0:0:
496,247,144680,2,0,L|510:87,1,150,10|2,2:1|1:0,2:0:0:0:
438,26,145394,2,0,P|388:31|339:41,1,100,10|2,2:1|1:3,2:0:0:0:
298,70,145823,2,0,P|223:67|149:54,1,150,10|2,2:1|1:3,2:0:0:0:
55,19,146537,6,0,L|46:119,1,100,14|2,2:1|1:0,2:0:0:0:
68,163,146961,2,0,P|55:241|63:325,1,150,10|0,2:1|1:0,2:0:0:0:
150,354,147669,2,0,P|197:350|254:365,1,100,10|2,2:1|1:0,2:0:0:0:
292,339,148101,2,0,L|441:325,1,150,10|2,2:1|1:0,2:0:0:0:
502,246,148822,5,10,2:1:0:0:
451,165,149107,1,2,1:0:0:0:
451,165,149250,2,0,P|449:98|465:3,1,150,10|2,2:1|1:0,2:0:0:0:
361,12,149964,2,0,P|312:0|262:-1,1,100,10|2,2:1|1:0,2:0:0:0:
229,36,150393,2,0,L|79:48,1,150,10|2,2:1|1:0,2:0:0:0:
35,138,151107,5,10,2:1:0:0:
118,202,151393,1,2,1:0:0:0:
118,202,151536,2,0,L|267:214,1,150,10|2,2:1|1:0,2:0:0:0:
364,188,152250,2,0,P|420:203|482:195,1,100,10|0,2:1|1:0,2:0:0:0:
507,221,152675,2,0,P|508:295|493:369,1,150,10|2,2:1|1:0,2:0:0:0:
399,333,153384,5,10,2:1:0:0:
307,365,153669,1,2,1:0:0:0:
306,366,153812,2,0,L|146:380,1,150,10|2,2:1|1:0,2:0:0:0:
72,323,154526,2,0,P|73:274|61:220,1,100,10|2,2:1|1:3,2:0:0:0:
27,189,154955,2,0,L|41:21,1,155,10|2,2:1|1:3,2:0:0:0:
133,4,155698,5,4,1:0:0:0:
215,60,155983,1,2,1:3:0:0:
308,24,156269,2,0,P|362:18|411:27,1,100,2|2,1:3|1:3,2:0:0:0:
471,102,156840,1,2,1:3:0:0:
431,193,157126,1,2,1:3:0:0:
471,284,157412,2,0,P|461:322|418:382,1,100,2|2,1:3|1:3,2:0:0:0:
336,384,157983,5,2,1:3:0:0:
268,310,158264,1,2,1:3:0:0:
185,366,158546,1,2,1:3:0:0:
117,292,158828,1,2,1:3:0:0:
34,347,159109,2,0,P|11:275|13:230,1,100,2|2,1:3|1:3,2:0:0:0:
76,175,159680,2,0,L|183:184,1,100,2|2,1:3|1:3,2:0:0:0:
264,229,160251,6,0,L|363:220,1,100,6|2,1:0|1:3,2:0:0:0:
462,238,160823,1,2,1:3:0:0:
510,150,161109,1,2,1:3:0:0:
441,77,161394,2,0,P|394:66|341:68,1,100,2|2,1:3|1:3,2:0:0:0:
247,100,161960,2,0,P|197:102|148:91,1,100,2|2,1:3|1:3,2:0:0:0:
49,73,162526,5,6,1:0:0:0:
7,164,162815,1,2,1:3:0:0:
46,255,163104,2,0,P|41:307|52:360,1,100,2|2,1:3|1:3,2:0:0:0:
149,346,163682,2,0,L|252:355,1,100,6|2,1:0|1:3,2:0:0:0:
320,285,164264,2,0,L|419:276,1,100,2|2,1:3|1:3,2:0:0:0:
464,298,164701,1,14,1:3:0:0:
490,169,165283,5,4,3:2:0:0:
