osu file format v14

[General]
AudioFilename: Counselor.mp3
AudioLeadIn: 0
PreviewTime: 45287
Countdown: 0
SampleSet: Normal
StackLeniency: 0.7
Mode: 0
LetterboxInBreaks: 0
WidescreenStoryboard: 0

[Editor]
DistanceSpacing: 1
BeatDivisor: 4
GridSize: 4
TimelineZoom: 1.25

[Metadata]
Title:Counselor
TitleUnicode:Counselor
Artist:DECO*27 feat. echo
ArtistUnicode:DECO*27 feat. echo
Creator:Junux
Version:Advanced
Source:CHUNITHM
Tags:chunithm maimai pop rock original sega
BeatmapID:866633
BeatmapSetID:398566

[Difficulty]
HPDrainRate:6
CircleSize:4
OverallDifficulty:6
ApproachRate:8
SliderMultiplier:1
SliderTickRate:1

[Events]
//Background and Video events
0,0,"counselor.jpg",0,0
//Break Periods
2,75320,88814
//Storyboard Layer 0 (Background)
//Storyboard Layer 1 (Fail)
//Storyboard Layer 2 (Pass)
//Storyboard Layer 3 (Foreground)
//Storyboard Sound Samples

[TimingPoints]
2676,222.222222222222,4,1,0,80,1,0
6009,-142.857142857143,4,1,0,80,0,0
8898,-100,4,1,0,80,0,0
9564,-200,4,1,0,80,0,0
11453,-125,4,1,0,80,0,0
13203,-100,4,1,0,80,0,0
31120,-200,4,1,0,80,0,0
44898,-100,4,1,0,80,0,0

[HitObjects]
424,224,2676,5,0,0:0:0:0:
248,320,3120,1,0,0:0:0:0:
124,164,3564,1,0,0:0:0:0:
280,36,4009,1,0,0:0:0:0:
432,168,4453,1,0,0:0:0:0:
268,284,4898,1,0,0:0:0:0:
132,136,5342,1,0,0:0:0:0:
304,32,5787,1,0,0:0:0:0:
416,116,6231,5,0,0:0:0:0:
400,184,6453,2,0,L|344:240,1,69.9999978637696
244,324,7120,1,0,0:0:0:0:
196,272,7342,2,0,L|170:204,1,69.9999978637696
84,96,8009,1,0,0:0:0:0:
208,40,8342,1,0,0:0:0:0:
308,132,8675,1,0,0:0:0:0:
440,168,9120,2,0,P|472:231|456:269,1,100
416,276,9787,6,0,L|368:300,1,50
220,304,10231,2,0,L|172:280,1,50
152,132,10675,2,0,L|192:92,1,50
336,72,11120,2,0,L|376:112,1,50
408,160,11564,5,0,0:0:0:0:
413,183,11675,1,0,0:0:0:0:
405,207,11787,1,0,0:0:0:0:
389,225,11898,1,0,0:0:0:0:
368,240,12009,2,0,B|344:248|320:248|296:232,1,75
240,144,12453,5,0,0:0:0:0:
227,123,12564,1,0,0:0:0:0:
205,111,12675,1,0,0:0:0:0:
181,109,12787,1,0,0:0:0:0:
152,120,12898,2,0,B|127:125|106:137|96:168,1,75
68,268,13342,6,0,P|44:252|44:228,2,50
208,212,13787,2,0,L|272:140,1,87.5
424,88,14231,2,0,P|406:65|384:64,2,50
288,148,14675,2,0,L|336:236,1,100
452,332,15120,2,0,B|412:368|345:385|271:356|236:335|236:335,1,225
80,264,16009,2,0,B|38:227|11:159|53:101|72:84|72:84,1,200
272,52,16898,5,0,0:0:0:0:
140,136,17120,2,0,P|100:162|60:131,2,100
340,148,18009,2,0,P|352:188|320:236,1,100
248,316,18453,1,0,0:0:0:0:
272,316,18564,1,0,0:0:0:0:
232,312,18675,2,0,B|152:288|132:236|156:156,1,200
232,100,19342,1,0,0:0:0:0:
244,92,19453,1,0,0:0:0:0:
384,64,19787,2,0,B|416:88|448:128|432:208,2,150
284,56,20675,1,0,0:0:0:0:
360,240,21120,6,0,B|376:288|360:311|360:311|344:336,1,100
144,232,21564,2,0,B|127:184|143:159|143:159|160:136,1,100
236,76,22009,1,0,0:0:0:0:
256,192,22453,12,0,23787,0:0:0:0:
416,288,24231,6,0,B|400:312|382:273|368:322|342:275|311:309,1,100
224,288,24675,1,0,0:0:0:0:
128,224,24898,1,0,0:0:0:0:
96,128,25120,2,0,B|140:88|184:72|228:72|288:88|288:88|288:88|288:88,1,200
512,288,26231,1,0,0:0:0:0:
368,324,26453,1,0,0:0:0:0:
224,256,26675,1,0,0:0:0:0:
132,100,27342,5,0,0:0:0:0:
320,32,27564,1,0,0:0:0:0:
192,288,28231,1,0,0:0:0:0:
384,192,28453,1,0,0:0:0:0:
148,376,29120,2,0,B|92:352|124:328|188:288|148:240|108:208,1,200
72,116,29787,2,0,P|104:84|160:76,1,100
308,76,30231,2,0,P|364:84|396:124,1,100
380,264,30675,2,0,P|376:292|312:324,1,100
252,288,31120,6,0,B|212:264|204:244|228:200,1,100
364,152,32009,2,0,B|392:116|380:88|340:64,1,100
200,92,32898,1,0,0:0:0:0:
320,4,33342,1,0,0:0:0:0:
380,144,33787,1,0,0:0:0:0:
256,228,34231,1,0,0:0:0:0:
208,80,34675,6,0,B|240:46|266:109|299:76,1,100
296,228,35564,2,0,B|263:261|237:196|204:229,1,100
92,128,36453,1,0,0:0:0:0:
228,64,36898,1,0,0:0:0:0:
352,152,37342,1,0,0:0:0:0:
260,272,37787,1,0,0:0:0:0:
140,184,38231,6,0,B|124:200|148:240|68:184|92:224|60:240,2,100
196,136,39342,1,0,0:0:0:0:
272,140,39564,2,0,B|288:156|264:196|344:140|320:180|352:196,2,100
332,96,40675,1,0,0:0:0:0:
260,112,40898,1,0,0:0:0:0:
268,188,41120,2,0,B|268:244|252:276|244:284,2,100
344,184,42231,2,0,B|344:240|360:272|368:280,2,100
232,84,43564,1,0,0:0:0:0:
284,184,43898,1,0,0:0:0:0:
176,208,44231,1,0,0:0:0:0:
96,80,44675,1,0,0:0:0:0:
96,80,45342,6,0,B|168:80|184:80|208:72|200:32|248:16|296:40|264:72|296:96|312:64|336:88|392:72,1,300
456,184,46453,1,0,0:0:0:0:
456,200,46675,1,0,0:0:0:0:
456,224,46898,1,0,0:0:0:0:
384,304,47120,2,0,B|312:304|296:304|272:312|280:352|232:368|184:344|216:312|184:288|168:320|144:296|88:312,1,300
72,208,48231,2,0,B|88:184|128:152|160:152,1,100
248,120,48898,5,0,0:0:0:0:
396,100,49564,2,0,B|444:132|396:164|396:164|396:180|396:180|436:220|388:268,1,200
380,300,50231,2,0,B|376:344|351:366|316:356,1,100
256,272,50675,2,0,L|256:120,2,150
215,356,51787,2,0,B|180:366|155:344|152:300,1,100
108,280,52231,6,0,P|60:232|68:200,2,100
136,304,52898,1,0,0:0:0:0:
160,288,53120,2,0,L|248:224,1,100
320,184,53564,2,0,P|368:152|384:112,1,100
380,76,54009,1,0,0:0:0:0:
364,68,54120,1,0,0:0:0:0:
344,68,54231,1,0,0:0:0:0:
296,64,54453,2,0,L|184:64,1,100
64,136,54898,2,0,P|64:192|96:240,1,100
120,264,55342,1,0,0:0:0:0:
252,332,55564,5,0,0:0:0:0:
248,280,55787,2,0,B|248:264|232:272|200:256|256:224|240:200|200:184,1,100
196,148,56231,2,0,B|156:156|140:140|132:100|132:76,1,100
88,68,56675,1,0,0:0:0:0:
72,88,56787,1,0,0:0:0:0:
68,112,56898,1,0,0:0:0:0:
56,180,57120,2,0,L|104:268,1,100
144,300,57564,2,0,B|168:332|208:348|240:340,1,100
280,344,58009,2,0,L|400:336,1,100
424,320,58453,2,0,B|456:280|464:232|432:184|400:152|376:136,1,200
328,88,59120,1,0,0:3:0:0:
312,76,59232,1,0,0:3:0:0:
296,64,59343,1,0,0:3:0:0:
208,72,59564,6,0,B|208:144|208:159|216:184|256:176|272:223|248:272|216:240|192:272|224:288|200:312|216:368,1,300
120,328,60675,1,0,0:0:0:0:
120,312,60897,1,0,0:0:0:0:
120,288,61120,1,0,0:0:0:0:
120,200,61342,2,0,B|192:200|208:200|232:192|224:152|272:136|320:160|288:192|320:216|336:184|360:208|416:192,1,300
480,144,62453,2,0,B|464:120|424:88|392:88,1,100
328,80,62898,1,0,0:0:0:0:
256,80,63120,5,0,0:0:0:0:
116,128,63786,2,0,B|68:160|116:192|116:192|116:208|116:208|76:248|124:296,1,200
160,328,64453,2,0,B|189:348|244:357|263:336,1,100
288,248,64897,2,0,L|288:96,2,150
344,332,66009,2,0,B|378:342|433:334|445:307,1,100
468,276,66453,6,0,P|516:228|508:196,2,100
420,292,67120,1,0,0:0:0:0:
372,272,67342,2,0,L|284:208,1,100
192,212,67786,2,0,P|144:180|128:140,1,100
128,92,68231,1,0,0:0:0:0:
136,84,68342,1,0,0:0:0:0:
152,76,68453,1,0,0:0:0:0:
200,72,68675,2,0,L|312:72,1,100
396,100,69120,2,0,P|396:156|364:204,1,100
340,228,69564,1,0,0:0:0:0:
212,304,69786,5,0,0:0:0:0:
216,256,70009,2,0,B|216:240|232:248|264:232|208:200|224:176|264:160,1,100
292,152,70453,2,0,B|332:160|348:144|356:104|356:80,1,100
388,56,70898,1,0,0:0:0:0:
396,80,71010,1,0,0:0:0:0:
400,104,71121,1,0,0:0:0:0:
400,152,71342,2,0,L|352:240,1,100
320,280,71786,2,0,B|296:312|256:328|224:320,1,100
160,256,72453,2,0,B|216:240|288:200|320:160|320:112|304:72|264:40|192:16|136:16,1,400
124,112,73787,5,0,0:0:0:0:
56,300,74231,1,0,0:0:0:0:
252,256,74675,1,0,0:0:0:0:
276,56,75120,1,0,0:0:0:0:
416,128,89564,5,0,0:0:0:0:
384,104,89787,2,0,B|336:56|224:24|144:48|72:80|8:112|-24:232,1,500
120,276,91564,2,0,L|160:244,2,50
120,276,92009,2,0,L|160:324,2,50
72,272,92453,1,0,0:0:0:0:
164,236,92898,1,0,0:0:0:0:
144,192,93120,1,0,0:0:0:0:
104,104,93342,6,0,B|152:56|264:24|344:48|416:80|480:112|512:232,1,500
364,260,95120,2,0,L|324:228,2,50
364,260,95564,2,0,L|324:308,2,50
412,252,96009,1,0,0:0:0:0:
456,228,96231,2,0,B|456:172|440:140|408:124|376:116|344:108|320:108,1,200
280,128,96898,2,0,L|240:220,1,100
216,264,97342,2,0,L|136:192,1,100
144,148,97787,6,0,B|96:148|56:164|24:212|0:276,1,200
36,308,98453,1,0,0:0:0:0:
68,324,98675,1,0,0:0:0:0:
112,344,98898,2,0,B|192:400|232:368|296:312,1,200
316,220,99787,2,0,L|316:116,2,100
336,316,100675,2,0,B|392:365|432:397|512:341,1,200
496,292,101341,1,0,0:0:0:0:
484,244,101563,1,0,0:0:0:0:
468,196,101787,2,0,B|446:138|414:90|374:74|326:74,1,200
308,172,102675,6,0,B|284:172|292:140|332:132|300:108|276:100|252:100|220:100|204:108|172:132|212:140|220:172|180:172,2,200
352,264,104009,1,0,0:0:0:0:
184,372,104453,1,0,0:0:0:0:
72,204,104898,1,0,0:0:0:0:
240,100,105342,1,0,0:0:0:0:
112,40,105787,6,0,B|125:85|101:109|133:125|109:157|77:125|53:173|69:221|109:213|117:237|117:253|117:325,1,300
216,328,106898,1,0,0:0:0:0:
231,328,107120,1,0,0:0:0:0:
255,328,107343,1,0,0:0:0:0:
356,332,107565,2,0,B|342:286|366:262|334:246|358:214|390:246|414:198|398:150|358:158|350:134|350:118|350:46,1,300
248,48,108676,2,0,B|223:47|183:79|167:103,1,100
108,184,109343,5,0,0:0:0:0:
184,312,110009,2,0,B|213:361|247:315|247:315|263:316|263:316|301:358|352:312,1,200
392,332,110676,2,0,B|409:326|418:271|409:238,1,100
348,184,111120,2,0,L|198:185,2,150
400,100,112231,2,0,B|409:65|396:11|379:7,1,100
344,8,112675,6,0,P|277:-5|255:19,2,100
248,40,113342,1,0,0:0:0:0:
224,84,113564,2,0,L|168:180,1,100
140,208,114008,2,0,P|76:224|52:192,1,100
28,164,114453,1,0,0:0:0:0:
20,148,114564,1,0,0:0:0:0:
20,132,114675,1,0,0:0:0:0:
28,84,114897,2,0,L|116:20,1,100
184,0,115342,2,0,P|243:-15|280:7,1,100
364,48,115786,5,0,0:0:0:0:
296,124,116009,2,0,B|285:117|284:135|254:155|254:91|225:93|208:110,1,100
160,116,116453,2,0,B|131:86|109:90|80:118|75:126,1,100
44,164,116898,1,0,0:0:0:0:
40,188,117010,1,0,0:0:0:0:
40,212,117120,1,0,0:0:0:0:
64,256,117342,2,0,L|152:304,1,100
196,328,117786,2,0,B|220:360|260:376|282:369,1,100
332,364,118231,2,0,L|452:360,1,100
476,340,118675,2,0,B|508:300|516:252|484:204|452:172|439:164,1,200
376,88,119564,1,0,0:3:0:0:
356,72,119676,1,0,0:3:0:0:
336,56,119787,1,0,0:3:0:0:
244,56,120009,6,0,B|244:128|244:143|252:168|292:160|308:207|284:256|252:224|228:256|260:272|236:296|252:352,1,300
148,348,121120,1,0,0:0:0:0:
132,324,121342,1,0,0:0:0:0:
120,296,121565,1,0,0:0:0:0:
100,248,121787,2,0,B|-4:208|12:112|92:40|156:8|236:0|236:0|316:8|444:72|524:184|324:248,1,800
292,384,124231,2,0,B|252:335|220:382|220:382|204:382|204:382|156:336|115:389,1,200
80,352,124898,2,0,B|70:335|99:288|128:268,1,100,0|0,0:3|0:3,0:3:0:0:
212,220,125342,2,0,L|212:68,2,150
304,264,126454,2,0,B|332:282|361:330|351:346,1,100,0|0,0:3|0:3,0:3:0:0:
400,360,126898,6,0,P|448:312|440:280,2,100
368,324,127565,1,0,0:0:0:0:
332,288,127787,2,0,L|244:224,1,100
212,200,128231,2,0,P|164:168|148:128,1,100
152,80,128676,1,0,0:0:0:0:
172,64,128787,1,0,0:0:0:0:
196,60,128898,1,0,0:0:0:0:
244,60,129120,2,0,L|356:60,1,100
392,72,129565,2,0,P|413:123|403:180,1,100
392,216,130009,1,0,0:0:0:0:
328,296,130232,5,0,0:0:0:0:
288,264,130454,2,0,B|288:248|304:256|336:240|280:208|296:184|336:168,1,100
352,140,130898,2,0,B|392:148|408:132|416:92|416:68,1,100
448,44,131343,1,0,0:0:0:0:
456,68,131454,1,0,0:0:0:0:
464,92,131565,1,0,0:0:0:0:
464,140,131787,2,0,L|352:100,1,100
324,92,132232,2,0,B|300:60|260:44|228:52,1,100
140,64,132898,2,0,B|84:80|12:120|-20:160|-20:208|-4:248|36:280|108:304|164:304,1,400
344,324,134231,5,0,0:0:0:0:
480,176,134675,1,0,0:0:0:0:
324,52,135120,1,0,0:0:0:0:
192,200,135564,1,0,0:0:0:0:
92,200,136009,2,0,P|44:200|100:128,1,200
296,120,136898,2,0,P|370:154|301:196,1,200
196,368,137787,5,0,0:0:0:0:
172,168,138231,1,0,0:0:0:0:
368,212,138675,1,0,0:0:0:0:
304,24,139120,1,0,0:0:0:0:
132,128,139564,2,0,P|84:128|140:56,1,200
336,44,140453,2,0,P|410:78|341:120,1,200
