osu file format v14

[General]
AudioFilename: audio.mp3
AudioLeadIn: 0
PreviewTime: 55165
Countdown: 0
SampleSet: Soft
StackLeniency: 0.7
Mode: 0
LetterboxInBreaks: 0
WidescreenStoryboard: 0

[Editor]
Bookmarks: 6025,11025,21025,31025,40556,41025,56025,75946,86025,91103,101025,111025,126025,146025,156103,178525,188603,199853,219853,229610,239775,242275,262275
DistanceSpacing: 0.1
BeatDivisor: 4
GridSize: 32
TimelineZoom: 3.599999

[Metadata]
Title:AI
TitleUnicode:アイ
Artist:DECO*27 feat. Hatsune Miku
ArtistUnicode:DECO*27 feat. 初音ミク
Creator:Nao Tomori
Version:Yuki no Hanabira
Source:
Tags:japanese jrock rockwell snow miku 2019 vocaloid 爱 愛 akitoshi corinn -laura- air
BeatmapID:2086666
BeatmapSetID:955580

[Difficulty]
HPDrainRate:5.5
CircleSize:4.3
OverallDifficulty:8.7
ApproachRate:9.3
SliderMultiplier:1.76
SliderTickRate:1

[Events]
//Background and Video events
0,0,"bg aaaaaaa.jpg",0,0
//Break Periods
2,178716,185306
//Storyboard Layer 0 (Background)
//Storyboard Layer 1 (Fail)
//Storyboard Layer 2 (Pass)
//Storyboard Layer 3 (Foreground)
//Storyboard Layer 4 (Overlay)
//Storyboard Sound Samples

[TimingPoints]
1017,312.5,4,2,2,50,1,0
1017,-100,4,2,2,50,0,0
6017,-100,4,2,2,65,0,0
8517,-100,4,2,1,65,0,0
10235,-59.8802395209581,4,2,1,65,0,0
10704,-100,4,2,1,65,0,0
13048,-100,4,2,2,65,0,0
13204,-100,4,2,1,65,0,0
15548,-100,4,2,2,65,0,0
15704,-100,4,2,1,65,0,0
18204,-76.9230769230769,4,2,1,65,0,0
18517,-100,4,2,1,65,0,0
21017,-133.333333333333,4,2,1,45,0,0
30704,-100,4,2,1,55,0,0
41017,-133.333333333333,4,2,1,45,0,0
42892,-66.6666666666667,4,2,1,65,0,0
43517,-133.333333333333,4,2,1,45,0,0
47892,-72.7272727272727,4,2,1,65,0,0
48517,-100,4,2,1,55,0,0
51017,-83.3333333333333,4,2,1,65,0,0
53517,-83.3333333333333,4,2,1,65,0,0
56017,-83.3333333333333,4,2,1,70,0,1
63204,-66.6666666666667,4,2,1,70,0,1
63517,-76.9230769230769,4,2,1,70,0,1
65392,-100,4,2,1,70,0,1
65704,-66.6666666666667,4,2,1,70,0,1
66017,-83.3333333333333,4,2,1,70,0,1
73204,-66.6666666666667,4,2,1,70,0,1
73517,-76.9230769230769,4,2,1,70,0,1
75392,-66.6666666666667,4,2,1,70,0,1
76017,-83.3333333333333,4,2,1,70,0,1
76329,-66.6666666666667,4,2,1,70,0,1
76642,-83.3333333333333,4,2,1,70,0,1
76954,-66.6666666666667,4,2,1,70,0,1
77267,-83.3333333333333,4,2,1,70,0,1
78517,-66.6666666666667,4,2,1,70,0,1
78826,-83.3333333333333,4,2,1,70,0,1
81017,-83.3333333333333,4,2,1,70,0,1
81329,-66.6666666666667,4,2,1,70,0,1
81642,-83.3333333333333,4,2,1,70,0,1
81954,-66.6666666666667,4,2,1,70,0,1
82267,-83.3333333333333,4,2,1,70,0,1
83829,-100,4,2,1,70,0,1
84610,-83.3333333333333,4,2,1,70,0,1
84767,-83.3333333333333,4,2,1,80,0,0
85548,-83.3333333333333,4,2,1,60,0,0
85704,-133.333333333333,4,2,1,60,0,0
86017,-114.942528735632,4,2,1,60,0,0
91017,-114.285714285714,4,2,2,50,0,0
91485,-133.333333333333,4,2,2,50,0,0
93517,-114.285714285714,4,2,2,50,0,0
93829,-133.333333333333,4,2,2,50,0,0
96017,-114.285714285714,4,2,2,50,0,0
96173,-133.333333333333,4,2,2,50,0,0
99767,-133.333333333333,4,2,1,60,0,0
101017,-100,4,2,1,65,0,0
109610,-76.9230769230769,4,2,1,65,0,0
111017,-133.333333333333,4,2,1,45,0,0
112892,-80,4,2,1,65,0,0
113517,-133.333333333333,4,2,1,45,0,0
117892,-66.6666666666667,4,2,1,65,0,0
118517,-133.333333333333,4,2,1,45,0,0
121017,-100,4,2,1,65,0,0
124610,-133.333333333333,4,2,1,65,0,0
125392,-44.4444444444445,4,2,1,65,0,0
126017,-83.3333333333333,4,2,1,70,0,1
133204,-66.6666666666667,4,2,1,70,0,1
133517,-76.9230769230769,4,2,1,70,0,1
136017,-83.3333333333333,4,2,1,70,0,1
143204,-66.6666666666667,4,2,1,70,0,1
143517,-76.9230769230769,4,2,1,70,0,1
146017,-250,4,2,1,70,0,1
146329,-74.0740740740741,4,2,1,70,0,1
146642,-250,4,2,1,70,0,1
146954,-74.0740740740741,4,2,1,70,0,1
147267,-83.3333333333333,4,2,1,70,0,1
151017,-250,4,2,1,70,0,1
151329,-74.0740740740741,4,2,1,70,0,1
151642,-250,4,2,1,70,0,1
151954,-74.0740740740741,4,2,1,70,0,1
152267,-83.3333333333333,4,2,1,70,0,1
153829,-100,4,2,1,70,0,1
154767,-100,4,2,1,80,0,0
156017,-86.9565217391304,4,2,1,70,0,0
161017,-80,4,2,1,70,0,0
166017,-86.9565217391304,4,2,1,70,0,0
172267,-100,4,2,1,70,0,0
172579,-86.9565217391304,4,2,1,70,0,0
172892,-76.9230769230769,4,2,1,70,0,0
173517,-90.9090909090909,4,2,1,70,0,0
173985,-76.9230769230769,4,2,1,70,0,0
176017,-270.27027027027,4,2,1,70,0,0
186017,-100,4,2,1,65,0,0
188517,-285.714285714286,4,2,1,45,0,0
192110,-133.333333333333,4,2,1,45,0,0
192892,-114.285714285714,4,2,1,45,0,0
193204,-66.6666666666667,4,2,1,65,0,0
193517,-200,4,2,1,65,0,0
199767,-285.714285714286,4,2,1,65,0,0
200079,-76.9230769230769,4,2,1,70,0,1
206954,-68.9655172413793,4,2,1,70,0,1
207267,-76.9230769230769,4,2,1,70,0,1
216954,-68.9655172413793,4,2,1,70,0,1
217267,-76.9230769230769,4,2,1,70,0,1
219767,-400,4,2,1,70,0,1
220079,-50,4,2,1,70,0,1
220392,-400,4,2,1,70,0,1
220704,-50,4,2,1,70,0,1
221017,-76.9230769230769,4,2,1,70,0,1
224767,-400,4,2,1,70,0,1
225079,-47.6190476190476,4,2,1,70,0,1
225392,-400,4,2,1,70,0,1
225704,-47.6190476190476,4,2,1,70,0,1
226017,-76.9230769230769,4,2,1,70,0,1
229767,-500,4,2,1,70,0,1
230079,-35.0877192982456,4,2,1,70,0,1
230392,-500,4,2,1,70,0,1
230704,-35.0877192982456,4,2,1,70,0,1
231017,-76.9230769230769,4,2,1,70,0,1
238517,-76.9230769230769,4,2,1,80,0,1
238829,-76.9230769230769,4,2,1,80,0,0
242267,-90.9090909090909,4,2,1,65,0,0
244298,-90.9090909090909,4,2,2,65,0,0
244454,-90.9090909090909,4,2,1,65,0,0
246798,-90.9090909090909,4,2,2,65,0,0
246954,-90.9090909090909,4,2,1,65,0,0
249454,-71.4285714285714,4,2,1,65,0,0
249767,-90.9090909090909,4,2,1,65,0,0
254298,-90.9090909090909,4,2,2,65,0,0
254454,-90.9090909090909,4,2,1,65,0,0
256798,-90.9090909090909,4,2,2,65,0,0
256954,-90.9090909090909,4,2,1,65,0,0
259454,-66.6666666666667,4,2,1,65,0,0
259688,-90.9090909090909,4,2,1,65,0,0
262345,-90.9090909090909,4,2,1,11,0,0

[Colours]
Combo1 : 170,243,154
Combo2 : 247,194,176
Combo3 : 159,233,251
Combo4 : 222,198,242

[HitObjects]
121,82,548,5,2,0:2:0:0:
121,82,626,1,2,0:2:0:0:
121,82,704,2,0,P|151:157|129:225,1,132,2|0,0:3|0:2,0:2:0:0:
70,175,1017,5,2,3:2:0:0:
289,277,1173,2,0,L|395:261,1,88,2|8,0:2|0:2,0:2:0:0:
246,344,1485,5,2,0:2:0:0:
387,190,1642,1,2,0:2:0:0:
247,343,1798,2,0,L|145:334,1,88,2|8,0:2|0:2,0:2:0:0:
13,195,2110,6,0,B|108:172|96:256|206:228,1,176,2|2,0:2|0:2,0:2:0:0:
299,159,2579,2,0,P|307:107|292:64,1,88,10|0,0:2|0:2,0:2:0:0:
42,273,2892,2,0,P|34:325|49:368,1,88,2|0,0:2|0:2,0:2:0:0:
129,384,3204,1,10,0:2:0:0:
333,294,3360,5,2,3:2:0:0:
395,356,3517,2,0,B|338:376|338:376|200:339,1,176,6|8,3:2|0:2,0:2:0:0:
457,298,3985,5,2,0:2:0:0:
374,187,4142,2,0,L|349:0,1,176,2|8,0:2|0:2,0:2:0:0:
440,77,4610,5,2,3:2:0:0:
295,209,4767,2,0,P|235:197|176:259,1,132,4|0,0:3|0:2,0:2:0:0:
236,293,5079,5,10,0:2:0:0:
128,179,5235,2,0,L|119:88,1,88,10|0,0:2|0:2,0:2:0:0:
12,274,5548,5,0,3:2:0:0:
26,299,5626,1,0,3:2:0:0:
45,320,5704,2,0,P|90:306|157:307,1,88,10|0,0:2|0:2,0:2:0:0:
320,334,6017,6,0,P|374:356|491:308,1,176,6|8,3:2|0:2,0:2:0:0:
394,170,6485,2,0,P|394:219|394:273,1,88,10|0,0:2|0:2,0:2:0:0:
223,383,6798,1,0,0:2:0:0:
223,383,6954,2,0,P|223:344|223:295,1,88,8|0,0:2|0:2,0:2:0:0:
62,46,7267,6,0,P|32:122|64:228,1,176,6|8,3:2|0:2,0:2:0:0:
215,136,7735,2,0,P|160:134|96:123,1,88,8|0,0:2|0:2,0:2:0:0:
282,219,8048,1,0,0:2:0:0:
282,219,8204,2,0,P|326:214|370:213,1,88,8|0,0:2|0:2,0:2:0:0:
502,41,8517,6,0,B|390:30|434:102|307:80,1,176,6|8,3:2|0:2,0:2:0:0:
226,20,8985,1,0,0:2:0:0:
110,166,9142,1,0,3:2:0:0:
28,109,9298,1,0,3:2:0:0:
26,75,9376,1,0,3:2:0:0:
25,44,9454,1,0,3:2:0:0:
317,214,9610,5,2,0:2:0:0:
316,245,9923,5,2,0:2:0:0:
317,275,10235,6,2,B|351:274|375:260|375:260|395:260|432:271|432:271|382:297|364:292,1,146.959995403015,2|0,0:1|0:2,0:1:0:0:
470,51,10704,5,2,0:2:0:0:
421,27,10782,1,2,0:2:0:0:
366,31,10860,1,2,0:2:0:0:
322,63,10938,1,2,0:2:0:0:
299,112,11017,6,0,P|224:133|189:120,1,88,6|0,3:2|0:2,0:2:0:0:
1,188,11329,2,0,P|44:188|84:208,1,88,10|0,0:2|0:2,0:2:0:0:
192,353,11642,1,2,3:2:0:0:
266,270,11798,1,2,0:2:0:0:
331,362,11954,1,10,0:2:0:0:
476,254,12110,6,0,P|501:180|464:65,1,176,2|0,3:2|0:2,0:2:0:0:
317,163,12579,2,0,P|384:160|439:165,1,88,10|0,0:2|3:2,0:2:0:0:
257,82,12892,1,2,3:2:0:0:
327,251,13048,1,10,0:2:0:0:
139,196,13204,1,10,0:2:0:0:
209,365,13360,1,2,0:2:0:0:
438,316,13517,6,0,P|497:306|557:318,1,88,6|0,3:2|0:2,0:2:0:0:
249,201,13829,2,0,P|234:258|267:309,1,88,10|0,0:2|0:2,0:2:0:0:
352,162,14142,1,2,3:2:0:0:
270,22,14298,1,0,3:2:0:0:
270,22,14376,1,0,3:2:0:0:
270,22,14454,1,10,0:2:0:0:
156,159,14610,6,0,P|73:147|-6:165,1,132,2|0,0:2|0:2,0:2:0:0:
64,224,14923,1,0,3:2:0:0:
230,117,15079,2,0,P|232:76|235:17,1,88,10|0,0:2|0:2,0:2:0:0:
347,202,15392,2,0,P|344:158|342:114,1,88,2|8,3:2|0:2,0:2:0:0:
440,240,15704,1,8,0:2:0:0:
413,274,15782,1,8,0:2:0:0:
375,295,15860,1,8,0:2:0:0:
331,298,15938,1,8,0:2:0:0:
291,282,16017,6,0,B|198:258|204:337|96:291,1,176,6|8,3:2|0:2,0:2:0:0:
144,126,16485,2,0,P|153:175|154:213,1,88,2|0,0:2|3:2,0:2:0:0:
256,365,16798,1,2,0:2:0:0:
300,180,16954,1,10,0:2:0:0:
439,320,17110,6,0,P|513:317|562:309,1,88,2|0,2:2|3:2,0:2:0:0:
291,282,17423,2,0,P|247:277|203:277,1,88,2|8,0:2|0:2,0:2:0:0:
411,219,17735,1,0,3:2:0:0:
434,184,17813,1,0,3:2:0:0:
445,150,17892,2,0,L|449:51,1,88,2|0,3:2|3:2,0:2:0:0:
149,46,18204,6,0,B|201:86|201:86|251:67|251:67|347:76,1,171.599992144776,14|0,0:2|0:2,0:2:0:0:
110,140,18517,6,0,P|44:156|-4:144,1,88,14|0,2:2|3:2,3:2:0:0:
337,254,18829,2,0,P|403:270|451:258,1,88,10|0,0:2|3:2,0:2:0:0:
272,157,19142,1,10,2:2:0:0:
348,377,19298,1,2,3:2:0:0:
500,192,19454,1,8,0:2:0:0:
250,280,19610,5,2,3:2:0:0:
216,270,19923,5,2,3:2:0:0:
179,261,20235,6,0,P|115:244|38:296,1,132,2|0,3:2|0:2,0:2:0:0:
91,340,20548,5,8,0:2:0:0:
135,161,20704,1,8,2:3:0:0:
254,287,20860,1,4,0:3:0:0:
319,229,21017,6,0,P|446:220|476:218,1,132.000005035401,6|8,3:2|0:2,0:2:0:0:
493,150,21485,1,0,0:2:0:0:
493,150,21563,1,0,0:2:0:0:
493,150,21642,2,0,P|500:96|491:70,1,66.0000025177003,2|0,3:2|3:2,0:2:0:0:
434,30,21954,1,10,0:2:0:0:
290,98,22110,6,0,L|433:110,1,132.000005035401,2|0,0:2|0:2,0:2:0:0:
334,191,22579,2,0,P|280:189|242:199,1,66.0000025177003,10|0,0:2|0:2,0:2:0:0:
204,254,22892,1,2,3:2:0:0:
204,254,23048,1,2,2:2:0:0:
83,192,23204,2,0,L|148:183,1,66.0000025177003,10|0,0:2|3:2,0:2:0:0:
41,115,23517,6,0,P|9:152|20:248,1,132.000005035401,2|8,3:2|0:2,0:2:0:0:
76,313,23985,1,0,0:2:0:0:
76,313,24063,1,0,0:2:0:0:
76,313,24142,2,0,P|130:320|162:323,1,66.0000025177003,2|0,3:2|3:2,0:2:0:0:
214,256,24454,1,10,0:2:0:0:
341,339,24610,6,0,P|290:324|213:370,1,132.000005035401,2|0,0:2|0:2,0:2:0:0:
417,282,25079,2,0,P|391:224|373:199,1,66.0000025177003,10|0,0:2|0:2,0:2:0:0:
501,232,25392,2,0,P|497:170|491:146,1,66.0000025177003,2|0,3:2|0:2,0:2:0:0:
430,85,25704,1,10,0:2:0:0:
430,85,25860,1,0,3:2:0:0:
294,190,26017,6,0,P|231:220|155:191,2,132.000005035401,2|8|2,3:2|0:2|3:2,0:2:0:0:
225,129,26798,1,2,3:2:0:0:
150,292,26954,1,10,0:2:0:0:
84,228,27110,6,0,P|42:226|10:231,1,66.0000025177003,2|0,3:2|0:2,0:2:0:0:
53,133,27423,2,0,P|95:135|127:130,1,66.0000025177003,2|8,3:2|0:2,0:2:0:0:
190,74,27735,1,2,0:2:0:0:
338,122,27892,2,0,L|349:218,2,66.0000025177003,2|2|10,3:2|3:2|0:2,0:2:0:0:
391,48,28360,1,2,0:2:0:0:
252,145,28517,6,0,P|230:206|253:282,1,132.000005035401,2|8,3:3|0:2,0:2:0:0:
190,356,28985,1,0,3:2:0:0:
190,356,29063,1,0,3:2:0:0:
190,356,29142,2,0,P|156:334|118:323,1,66.0000025177003,2|8,3:2|0:3,0:2:0:0:
40,337,29454,1,2,0:2:0:0:
351,251,29610,5,2,3:2:0:0:
389,237,29923,5,2,3:2:0:0:
431,226,30235,6,0,L|443:120,1,99.0000037765504,6|0,3:2|0:2,0:2:0:0:
466,114,30548,1,0,3:2:0:0:
344,293,30704,6,0,L|310:140,1,132,14|0,2:2|0:2,0:2:0:0:
235,229,31017,6,0,B|141:212|173:290|58:263,1,176,6|8,3:2|0:2,0:2:0:0:
0,143,31485,1,0,0:2:0:0:
97,97,31642,2,0,P|102:152|95:194,1,88,2|0,3:2|3:2,0:2:0:0:
213,312,31954,1,10,0:2:0:0:
323,240,32110,6,0,B|432:209|432:209|467:230|478:267,1,176,2|0,0:2|3:2,0:2:0:0:
242,287,32579,2,0,P|227:238|233:196,1,88,10|0,0:2|0:2,0:2:0:0:
313,145,32892,1,2,3:2:0:0:
313,145,33048,1,2,0:0:0:0:
242,287,33204,2,0,L|134:280,1,88,10|0,0:2|0:2,0:2:0:0:
28,376,33517,6,0,P|-10:294|18:232,1,132,2|0,3:2|0:2,0:2:0:0:
73,89,33829,2,0,B|79:129|79:129|59:173|59:173|69:235,1,132,8|0,0:2|0:2,0:2:0:0:
142,242,34142,2,0,P|180:213|218:200,1,88,2|0,3:2|3:2,0:2:0:0:
380,210,34454,1,10,0:2:0:0:
317,303,34610,6,0,P|294:166|287:108,1,176,2|0,0:2|3:2,0:2:0:0:
388,2,35079,2,0,P|401:62|408:106,1,88,10|0,0:2|0:2,0:2:0:0:
385,225,35392,1,2,3:2:0:0:
385,225,35548,1,0,3:2:0:0:
195,171,35704,1,10,0:2:0:0:
318,45,35860,1,8,0:2:0:0:
260,274,36017,6,0,P|173:264|80:285,1,176,6|8,3:2|0:2,0:2:0:0:
264,360,36485,1,2,0:2:0:0:
315,191,36642,1,2,3:2:0:0:
375,283,36798,2,0,P|451:276|496:272,1,88,2|8,0:2|0:2,0:2:0:0:
220,132,37110,6,0,P|156:121|93:174,1,132,2|0,3:2|0:2,0:2:0:0:
29,216,37423,2,0,P|11:156|-2:119,1,88,2|8,3:2|0:2,0:2:0:0:
171,208,37735,1,2,0:2:0:0:
171,208,37892,2,0,P|157:249|144:291,1,88,2|0,3:2|0:2,0:2:0:0:
102,156,38204,1,10,0:2:0:0:
254,287,38360,6,0,P|377:275|418:272,1,132,6|0,3:2|0:2,0:2:0:0:
453,320,38673,1,0,3:2:0:0:
489,162,38829,2,0,P|493:106|467:68,1,88,8|0,0:2|0:2,0:2:0:0:
239,115,39142,6,0,B|329:93|317:161|427:126,1,176,2|10,3:2|0:2,0:2:0:0:
231,29,39610,5,6,3:2:0:0:
222,4,39923,5,0,3:2:0:0:
141,110,40079,2,0,P|86:120|43:103,1,88,10|0,0:2|3:2,0:2:0:0:
197,189,40392,1,2,0:2:0:0:
273,114,40548,1,8,0:2:0:0:
315,103,40626,1,8,0:2:0:0:
357,113,40704,1,8,2:3:0:0:
440,53,40860,1,4,0:3:0:0:
502,147,41017,6,0,L|515:305,1,132.000005035401,6|2,3:2|0:2,0:2:0:0:
446,357,41485,1,2,3:2:0:0:
292,303,41642,1,10,2:2:0:0:
292,303,41798,2,0,P|324:299|357:306,1,66.0000025177003,2|0,0:2|3:2,0:2:0:0:
213,354,42110,6,0,P|169:370|69:354,1,132.000005035401,2|2,0:2|0:2,0:2:0:0:
16,284,42579,2,0,L|9:207,1,66.0000025177003,10|2,0:2|0:2,0:2:0:0:
291,31,42892,6,0,B|308:93|308:93|283:176,1,132.000005035401,6|0,3:2|0:2,0:2:0:0:
101,208,43204,6,0,B|84:146|84:146|109:63,1,132.000005035401,14|0,2:2|0:2,0:2:0:0:
194,134,43517,6,0,L|200:281,1,132.000005035401,6|2,3:2|0:2,0:2:0:0:
277,339,43985,1,0,3:2:0:0:
350,280,44142,1,10,0:2:0:0:
428,334,44298,2,0,L|507:330,1,66.0000025177003,0|2,3:2|0:2,0:2:0:0:
343,374,44610,6,0,P|297:359|213:374,1,132.000005035401,0|0,3:2|3:2,0:2:0:0:
132,226,45079,2,0,L|110:87,1,132.000005035401,2|10,3:2|0:2,0:2:0:0:
200,124,45548,1,8,2:3:0:0:
52,206,45704,1,4,0:3:0:0:
158,7,45860,1,0,3:2:0:0:
158,7,45938,1,0,3:2:0:0:
158,7,46017,6,0,P|193:52|197:139,1,132.000005035401,6|2,3:2|0:2,0:2:0:0:
152,202,46485,1,2,3:2:0:0:
152,202,46642,2,0,L|135:341,1,132.000005035401,10|2,0:2|3:2,0:2:0:0:
279,167,47110,6,0,L|299:326,1,132.000005035401,2|2,0:2|0:2,0:2:0:0:
367,199,47579,1,2,3:2:0:0:
191,166,47735,1,0,0:2:0:0:
389,216,47892,6,0,B|463:246|521:198|521:198|508:169|480:150|444:166,1,181.500001730919,6|0,3:2|0:2,0:2:0:0:
175,149,48204,6,0,B|101:119|43:167|43:167|56:196|84:215|120:199,1,181.500001730919,14|0,0:2|0:2,0:2:0:0:
273,327,48517,6,0,P|275:208|279:137,1,176,2|10,3:2|0:2,0:2:0:0:
351,90,48985,1,0,3:2:0:0:
351,90,49063,1,0,3:2:0:0:
351,90,49142,2,0,P|364:145|357:184,1,88,2|0,3:2|0:2,0:2:0:0:
191,271,49454,2,0,P|178:216|185:177,1,88,10|0,0:2|0:2,0:2:0:0:
414,257,49767,6,0,P|501:247|532:245,1,88,6|0,3:2|0:2,0:2:0:0:
220,364,50079,2,0,P|176:359|133:353,1,88,10|0,0:2|0:2,0:2:0:0:
276,287,50392,2,0,P|310:343|311:388,1,88,2|0,3:2|3:2,0:2:0:0:
193,264,50704,2,0,P|217:227|254:204,1,88,10|0,0:2|0:2,0:2:0:0:
407,308,51017,6,0,P|464:306|522:306,1,105.599996777344,6|0,3:2|0:2,0:2:0:0:
316,109,51329,2,0,P|263:108|210:106,1,105.599996777344,10|0,0:2|0:2,0:2:0:0:
397,63,51642,1,2,3:2:0:0:
403,88,51720,1,0,3:2:0:0:
404,114,51798,1,2,3:2:0:0:
398,140,51876,1,0,3:2:0:0:
387,164,51954,1,10,0:2:0:0:
376,188,52032,1,0,3:2:0:0:
370,214,52110,1,2,3:2:0:0:
370,240,52188,1,0,3:2:0:0:
374,268,52267,5,10,0:2:0:0:
338,251,52345,1,0,3:2:0:0:
299,244,52423,1,0,3:2:0:0:
259,247,52501,1,0,3:2:0:0:
221,261,52579,5,10,0:2:0:0:
188,239,52657,1,0,3:2:0:0:
166,206,52735,1,0,3:2:0:0:
159,167,52813,1,0,3:2:0:0:
167,129,52892,5,10,0:2:0:0:
220,168,52970,1,8,0:2:0:0:
244,228,53048,1,8,0:2:0:0:
234,293,53126,1,8,0:2:0:0:
192,342,53204,5,8,0:3:0:0:
128,329,53282,1,8,0:3:0:0:
77,288,53360,1,4,0:3:0:0:
51,228,53438,1,4,0:3:0:0:
56,163,53517,6,0,B|108:150|108:150|185:165,1,105.599996777344,6|0,3:2|0:2,0:2:0:0:
370,230,53829,1,10,0:2:0:0:
284,36,53985,1,0,0:2:0:0:
259,277,54142,5,2,3:2:0:0:
427,86,54298,1,2,3:2:0:0:
504,326,54454,1,10,0:2:0:0:
248,105,54610,5,6,3:2:0:0:
258,63,54923,5,2,3:2:0:0:
271,21,55235,5,2,3:2:0:0:
336,331,55392,1,10,0:2:0:0:
242,22,56017,6,0,P|226:85|242:190,1,158.399995166016,6|0,3:2|0:2,0:2:0:0:
315,134,56329,1,10,0:2:0:0:
155,23,56485,2,0,P|85:22|19:36,1,105.599996777344,2|0,0:2|3:2,0:2:0:0:
334,152,56798,2,0,P|404:153|470:139,1,105.599996777344,2|8,0:2|0:2,0:2:0:0:
240,293,57110,5,2,3:2:0:0:
240,293,57188,1,0,3:2:0:0:
240,293,57267,2,0,P|158:285|3:299,1,211.199993554688,0|8,3:2|0:2,0:2:0:0:
205,187,57735,5,2,0:2:0:0:
260,374,57892,1,2,3:2:0:0:
398,223,58048,1,2,0:2:0:0:
134,306,58204,2,0,L|19:292,1,105.599996777344,10|0,0:2|0:2,0:2:0:0:
282,94,58517,6,0,P|310:159|291:266,1,158.399995166016,6|0,3:2|0:2,0:2:0:0:
228,214,58829,1,10,0:2:0:0:
362,59,58985,2,0,P|417:54|487:51,1,105.599996777344,2|0,0:2|3:2,0:2:0:0:
244,308,59298,2,0,P|187:325|129:297,1,105.599996777344,2|8,0:2|0:2,0:2:0:0:
49,217,59532,1,0,3:2:0:0:
72,197,59610,6,0,P|87:107|100:25,1,158.399995166016,2|0,3:2|0:2,0:2:0:0:
25,8,59923,1,0,3:2:0:0:
166,150,60079,2,0,P|220:157|291:126,1,105.599996777344,10|0,0:2|0:2,0:2:0:0:
505,54,60392,2,0,P|454:46|403:57,1,105.599996777344,2|0,3:2|0:2,0:2:0:0:
441,292,60704,1,10,0:2:0:0:
445,252,60782,1,8,0:2:0:0:
450,213,60860,1,8,0:2:0:0:
454,173,60938,1,8,0:2:0:0:
459,134,61017,6,0,B|344:114|376:194|220:163,1,211.199993554688,6|8,3:2|0:2,0:2:0:0:
50,101,61485,1,2,0:2:0:0:
151,32,61642,2,0,P|156:136|159:268,1,211.199993554688,2|8,3:2|0:2,0:2:0:0:
264,329,62110,1,2,3:2:0:0:
264,329,62188,1,0,3:2:0:0:
264,329,62267,6,0,P|246:267|267:205,1,105.599996777344,2|0,3:2|0:2,0:2:0:0:
412,105,62579,2,0,P|430:167|409:229,1,105.599996777344,8|0,0:2|3:2,0:2:0:0:
335,271,62813,1,0,3:2:0:0:
335,271,62892,2,0,L|340:166,1,105.599996777344,2|0,3:2|3:2,0:2:0:0:
135,338,63204,6,0,B|117:280|117:280|137:232|137:232|85:140,1,198.000007553101,12|0,2:2|2:2,2:2:0:0:
50,365,63517,6,0,P|29:323|-23:265,1,114.399994763184,10|0,2:2|3:2,0:2:0:0:
214,282,63829,2,0,P|233:242|248:160,1,114.399994763184,10|0,0:2|3:2,0:2:0:0:
62,12,64142,5,10,0:2:0:0:
113,235,64298,1,2,3:2:0:0:
327,281,64454,1,2,3:2:0:0:
480,107,64610,5,6,3:2:0:0:
490,58,64923,5,2,3:2:0:0:
498,10,65235,5,2,3:2:0:0:
369,52,65392,6,0,P|360:106|377:157,1,88,0|8,3:2|0:2,0:2:0:0:
449,180,65626,1,8,0:2:0:0:
449,180,65704,2,0,L|458:103,1,66.0000025177003,10|8,0:2|0:2,0:2:0:0:
273,43,65860,2,0,L|280:128,1,66.0000025177003,10|8,0:2|0:2,0:2:0:0:
169,243,66017,6,0,P|95:226|-13:249,1,158.399995166016,6|0,3:2|0:2,0:2:0:0:
56,308,66329,1,10,0:2:0:0:
169,152,66485,2,0,P|164:74|164:12,1,105.599996777344,2|0,0:2|3:2,0:2:0:0:
402,138,66798,2,0,P|400:191|397:244,1,105.599996777344,2|8,0:2|0:2,0:2:0:0:
117,228,67110,5,2,3:2:0:0:
117,228,67188,1,0,3:2:0:0:
117,228,67267,2,0,B|229:253|197:180|321:205,1,211.199993554688,0|8,3:2|0:2,0:2:0:0:
77,315,67735,5,2,0:2:0:0:
153,142,67892,1,2,3:2:0:0:
279,283,68048,1,2,0:2:0:0:
30,180,68204,2,0,P|10:101|27:66,1,105.599996777344,10|0,0:2|0:2,0:2:0:0:
247,111,68517,6,0,P|134:117|48:118,1,158.399995166016,6|0,3:2|0:2,0:2:0:0:
142,38,68829,1,10,0:2:0:0:
269,187,68985,2,0,P|326:189|372:158,1,105.599996777344,2|0,0:2|3:2,0:2:0:0:
124,30,69298,2,0,L|18:26,1,105.599996777344,2|8,0:2|0:2,0:2:0:0:
226,284,69610,1,2,3:2:0:0:
239,305,69688,1,0,3:2:0:0:
255,324,69767,6,0,P|309:316|392:327,1,105.599996777344,0|0,3:2|0:2,0:2:0:0:
104,227,70079,2,0,P|52:230|0:223,1,105.599996777344,10|0,0:2|0:2,0:2:0:0:
185,168,70392,1,2,3:2:0:0:
50,328,70548,1,0,0:2:0:0:
14,129,70704,1,10,0:2:0:0:
58,101,70782,1,8,0:2:0:0:
110,100,70860,1,8,0:2:0:0:
156,124,70938,1,8,0:2:0:0:
185,168,71017,6,0,B|254:192|254:192|399:165,1,211.199993554688,6|8,3:2|0:2,0:2:0:0:
263,108,71485,1,2,0:2:0:0:
455,227,71642,2,0,P|477:170|450:95,1,105.599996777344,2|0,3:2|3:2,0:2:0:0:
450,101,71876,1,0,3:2:0:0:
450,101,71954,1,8,0:2:0:0:
190,214,72110,1,2,0:2:0:0:
385,164,72267,6,0,B|252:146|311:233|186:213,1,211.199993554688,2|8,3:2|0:2,0:2:0:0:
41,93,72735,1,2,3:2:0:0:
64,74,72813,1,0,3:2:0:0:
97,74,72892,2,0,P|117:150|99:194,1,105.599996777344,2|0,3:2|0:2,0:2:0:0:
394,347,73204,6,0,B|414:275|414:275|375:204|375:204|389:161,1,198.000007553101,14|0,0:2|0:2,0:2:0:0:
297,298,73517,6,0,P|268:216|227:183,1,114.399994763184,10|0,2:2|3:2,0:2:0:0:
464,45,73829,2,0,P|493:127|534:160,1,114.399994763184,10|0,0:2|3:2,0:2:0:0:
207,286,74142,5,8,0:3:0:0:
303,33,74298,1,8,0:3:0:0:
486,232,74454,1,4,0:3:0:0:
170,123,74610,5,14,2:2:0:0:
73,112,74923,5,10,0:2:0:0:
215,47,75079,1,8,0:3:0:0:
215,207,75235,1,8,0:3:0:0:
479,124,75392,6,0,B|447:119|447:119|415:127,1,66.0000025177003,6|0,3:2|0:2,0:2:0:0:
299,131,75548,2,0,B|402:104|388:186|508:151,1,198.000007553101,2|0,3:2|0:2,0:2:0:0:
336,221,75860,1,10,2:2:0:0:
208,162,76017,6,0,L|187:34,1,105.599996777344,2|0,3:2|0:2,0:2:0:0:
26,236,76329,2,0,B|25:304|25:304|58:368,1,132.000005035401,12|2,0:2|0:2,0:2:0:0:
311,192,76642,6,0,L|295:88,1,105.599996777344,2|0,3:2|0:2,0:2:0:0:
115,208,76954,2,0,B|114:276|114:276|144:333,1,132.000005035401,12|0,0:2|3:2,0:2:0:0:
280,376,77188,1,0,3:2:0:0:
316,354,77267,6,0,P|380:330|437:336,1,105.599996777344,2|0,3:2|0:2,0:2:0:0:
192,111,77579,2,0,P|139:109|91:87,1,105.599996777344,10|0,0:2|0:2,0:2:0:0:
288,6,77892,1,2,3:2:0:0:
198,231,78048,1,0,3:2:0:0:
208,276,78126,1,0,3:2:0:0:
222,321,78204,1,10,0:2:0:0:
59,200,78360,1,0,3:2:0:0:
328,252,78517,6,0,L|515:229,1,132.000005035401,6|0,3:2|0:2,0:2:0:0:
198,88,78829,2,0,P|130:79|69:102,1,105.599996777344,10|0,0:2|0:2,0:2:0:0:
274,180,79142,1,2,3:2:0:0:
231,10,79298,1,2,3:2:0:0:
231,10,79376,1,0,3:2:0:0:
231,10,79454,1,10,0:2:0:0:
147,169,79610,1,2,3:2:0:0:
331,80,79767,5,6,3:2:0:0:
351,286,79923,1,0,3:2:0:0:
167,166,80079,5,10,0:2:0:0:
151,373,80235,2,0,P|130:320|117:293,1,52.7999983886719,0|0,3:2|3:2,0:2:0:0:
2,205,80392,5,10,0:2:0:0:
22,253,80470,1,8,0:2:0:0:
63,284,80548,1,8,0:2:0:0:
115,291,80626,1,8,0:2:0:0:
163,272,80704,2,0,P|167:201|167:148,1,105.599996777344,14|2,0:2|0:2,0:2:0:0:
359,20,81017,6,0,P|369:110|377:157,1,105.599996777344,2|0,3:2|0:2,0:2:0:0:
493,352,81329,2,0,B|507:286|507:286|484:204,1,132.000005035401,12|2,0:2|0:2,0:2:0:0:
268,19,81642,6,0,P|278:109|286:156,1,105.599996777344,2|0,3:2|0:2,0:2:0:0:
402,351,81954,2,0,B|416:285|416:285|393:203,1,132.000005035401,12|2,0:2|3:2,0:2:0:0:
203,98,82188,1,0,3:2:0:0:
178,86,82267,6,0,P|114:91|50:99,1,105.599996777344,2|0,3:2|0:2,0:2:0:0:
226,296,82579,2,0,P|290:291|354:283,1,105.599996777344,10|0,0:2|0:2,0:2:0:0:
258,194,82892,1,2,3:2:0:0:
173,380,83048,1,2,3:2:0:0:
152,374,83126,1,0,3:2:0:0:
132,366,83204,2,0,P|109:312|131:250,1,105.599996777344,10|0,0:2|0:2,0:2:0:0:
313,135,83517,5,0,3:2:0:0:
395,185,83673,1,2,0:2:0:0:
464,122,83829,2,0,P|475:57|456:10,1,88,10|0,0:2|0:2,0:2:0:0:
230,174,84142,5,2,3:2:0:0:
389,70,84298,1,2,3:2:0:0:
230,174,84454,1,10,0:2:0:0:
402,286,84610,1,2,3:2:0:0:
254,0,84767,5,4,3:2:0:0:
244,21,85548,5,2,0:2:0:0:
195,101,85704,2,0,L|208:193,1,82.5000031471254,2|0,0:2|0:2,0:2:0:0:
207,207,86017,6,0,P|261:224|355:186,1,153.120001285034,6|8,3:2|0:2,0:2:0:0:
65,192,86485,2,0,P|119:175|213:213,1,153.120001285034,2|0,0:2|0:2,0:2:0:0:
64,267,86954,2,0,P|62:199|81:161,1,76.5600006425171,10|0,0:2|0:2,0:2:0:0:
207,131,87267,1,2,3:2:0:0:
207,131,87423,2,0,P|209:199|190:237,2,76.5600006425171,2|8|0,0:2|0:2|0:2,0:2:0:0:
124,72,87892,5,2,3:2:0:0:
198,286,88048,1,2,0:2:0:0:
352,139,88204,2,0,P|409:130|456:128,1,76.5600006425171,10|0,0:2|0:2,0:2:0:0:
451,29,88517,6,0,P|371:43|299:48,1,153.120001285034,6|8,3:2|0:2,0:2:0:0:
182,98,88985,2,0,P|94:90|70:87,2,76.5600006425171,2|0|0,0:2|3:2|0:2,0:2:0:0:
38,20,89454,1,10,0:2:0:0:
173,250,89610,5,2,3:2:0:0:
167,297,89923,5,2,3:2:0:0:
161,346,90235,6,0,B|79:319|79:380|1:346,1,153.120001285034,2|0,3:2|3:2,0:2:0:0:
247,202,90704,2,0,P|265:252|241:315,1,114.840000963776,12|0,0:2|0:2,0:2:0:0:
179,257,91017,6,0,L|360:275,1,154.000001468658,2|0,3:2|0:2,0:2:0:0:
432,324,91485,1,2,0:2:0:0:
512,255,91642,2,0,P|530:199|500:122,1,132.000005035401,10|2,0:2|0:2,0:2:0:0:
421,85,92110,2,0,L|339:92,2,66.0000025177003,2|0|8,0:2|3:2|0:2,0:2:0:0:
305,171,92579,2,0,P|250:182|164:168,1,132.000005035401,2|10,0:2|0:2,0:2:0:0:
214,90,93048,1,2,0:2:0:0:
278,269,93204,1,2,0:2:0:0:
39,187,93517,6,0,P|27:144|44:83,1,77.0000007343292,14|0,0:2|0:2,0:2:0:0:
120,9,93829,2,0,L|112:160,2,132.000005035401,0|10|2,3:2|0:2|0:2,0:2:0:0:
201,119,94610,2,0,L|210:201,2,66.0000025177003,2|0|8,0:2|3:2|0:2,0:2:0:0:
291,55,95079,2,0,L|285:148,1,66.0000025177003,2|0,0:2|0:2,0:2:0:0:
398,210,95392,2,0,L|373:67,1,132.000005035401,10|10,0:2|0:2,0:2:0:0:
470,128,95860,1,0,3:2:0:0:
298,279,96017,6,0,B|261:273|261:273|205:286,1,77.0000007343292,14|0,2:2|0:2,0:2:0:0:
135,358,96329,2,0,B|177:373|177:373|293:351,1,132.000005035401,0|10,3:2|0:2,0:2:0:0:
358,376,96798,1,2,0:2:0:0:
444,324,96954,1,0,0:2:0:0:
358,215,97110,6,0,P|360:272|365:299,1,66.0000025177003,2|0,3:2|3:2,0:2:0:0:
459,231,97423,2,0,P|456:137|447:84,1,132.000005035401,10|2,0:2|0:2,0:2:0:0:
432,73,97813,1,2,0:2:0:0:
432,73,97892,2,0,P|424:32|420:-4,1,66.0000025177003,10|0,0:2|0:2,0:2:0:0:
344,69,98204,2,0,P|339:101|333:134,1,66.0000025177003,2|0,3:2|0:2,0:2:0:0:
155,184,98517,6,0,P|236:175|287:220,1,132.000005035401,14|0,0:2|3:2,0:2:0:0:
84,274,99142,2,0,B|-10:260|-10:260|28:281,1,132.000005035401,2|0,3:2|3:2,0:2:0:0:
167,378,99610,1,2,3:2:0:0:
193,371,99688,1,0,3:2:0:0:
222,363,99767,5,10,0:2:0:0:
480,40,100235,5,0,3:2:0:0:
439,25,100313,1,0,3:2:0:0:
396,31,100392,5,10,0:2:0:0:
370,234,100548,1,8,0:2:0:0:
165,215,100704,1,10,0:2:0:0:
191,12,100860,2,0,L|200:49,1,33.0000012588501,8|8,0:2|0:2,0:2:0:0:
254,84,101017,6,0,P|166:89|79:86,1,176,6|8,3:2|0:2,0:2:0:0:
11,153,101485,1,0,0:2:0:0:
11,153,101563,1,0,0:2:0:0:
11,153,101642,2,0,P|-8:202|4:260,1,88,2|0,3:2|3:2,0:2:0:0:
63,300,101954,1,10,0:2:0:0:
250,236,102110,6,0,P|181:222|63:210,1,176,6|0,3:2|3:2,0:2:0:0:
342,210,102579,2,0,P|373:112|373:101,1,88,10|0,0:2|0:2,0:2:0:0:
326,299,102892,2,0,P|375:330|425:343,1,88,2|0,3:2|0:2,0:2:0:0:
483,295,103204,1,10,0:2:0:0:
412,247,103360,1,8,0:2:0:0:
265,361,103517,6,0,P|181:356|67:350,1,176,6|8,3:2|0:2,0:2:0:0:
29,279,103985,1,0,0:2:0:0:
29,279,104063,1,0,0:2:0:0:
29,279,104142,2,0,P|19:221|44:173,1,88,2|0,3:2|3:2,0:2:0:0:
105,143,104454,1,10,0:2:0:0:
275,226,104610,6,0,B|211:218|211:218|165:239|165:239|89:231,1,176,6|0,3:2|3:2,0:2:0:0:
339,165,105079,2,0,P|362:219|340:276,1,88,10|0,0:2|0:2,0:2:0:0:
150,153,105392,2,0,P|147:109|168:71,1,88,2|0,3:2|0:2,0:2:0:0:
231,133,105704,1,10,0:2:0:0:
54,158,105860,1,8,0:2:0:0:
308,105,106017,6,0,B|325:201|257:178|282:299,1,176,6|8,3:2|0:2,0:2:0:0:
231,133,106485,1,0,0:2:0:0:
363,248,106642,1,2,3:2:0:0:
190,307,106798,1,2,3:2:0:0:
55,179,106954,1,10,0:2:0:0:
136,35,107110,6,0,L|137:126,1,88,2|0,3:2|0:2,0:2:0:0:
277,312,107423,2,0,L|277:224,1,88,2|8,3:2|0:2,0:2:0:0:
386,100,107735,1,2,3:2:0:0:
401,86,107813,1,0,3:2:0:0:
417,73,107892,2,0,P|479:63|523:78,1,88,2|0,3:2|3:2,0:2:0:0:
366,191,108204,1,10,0:2:0:0:
291,125,108360,6,0,P|281:72|267:25,1,88,6|0,3:2|0:2,0:2:0:0:
450,249,108673,1,2,0:2:0:0:
450,249,108829,2,0,P|460:166|466:140,1,88,8|0,0:2|0:2,0:2:0:0:
203,173,109142,2,0,P|254:210|383:168,1,176,2|8,3:2|0:2,0:2:0:0:
100,282,109610,6,0,B|45:273|45:273|-24:288,1,114.399994763184,6|0,3:2|0:2,0:2:0:0:
167,366,109923,1,0,3:2:0:0:
109,193,110079,1,10,0:2:0:0:
252,318,110235,1,0,3:2:0:0:
100,282,110392,5,2,3:2:0:0:
262,216,110548,1,8,0:2:0:0:
290,227,110626,1,8,0:2:0:0:
319,237,110704,1,8,0:3:0:0:
479,143,110860,1,4,0:3:0:0:
403,73,111017,6,0,P|392:141|404:219,1,132.000005035401,6|2,3:2|0:2,0:2:0:0:
462,284,111485,1,2,3:2:0:0:
392,348,111642,2,0,P|346:358|263:348,1,132.000005035401,10|0,0:2|3:2,0:2:0:0:
173,266,112110,2,0,P|246:260|319:255,1,132.000005035401,2|2,3:2|0:2,0:2:0:0:
112,208,112579,2,0,P|94:252|96:289,1,66.0000025177003,0|2,3:2|0:2,0:2:0:0:
312,172,112892,6,0,B|343:124|342:66|299:23|277:76,1,165,6|0,3:2|0:2,0:2:0:0:
112,208,113204,6,0,B|81:256|82:314|125:357|147:304,1,165,14|0,0:2|0:2,0:2:0:0:
372,213,113517,6,0,P|331:208|214:202,1,132.000005035401,2|2,3:2|0:2,0:2:0:0:
424,295,113985,1,0,3:2:0:0:
486,231,114142,2,0,P|494:180|496:138,1,66.0000025177003,10|0,0:2|3:2,0:2:0:0:
414,47,114454,1,2,0:2:0:0:
414,47,114610,2,0,P|416:93|424:134,1,66.0000025177003,0|2,3:2|0:2,0:2:0:0:
313,181,114923,1,0,3:2:0:0:
313,181,115079,6,0,P|250:187|171:194,1,132.000005035401,2|10,3:2|0:2,0:2:0:0:
115,148,115548,1,0,3:2:0:0:
243,265,115704,1,8,0:3:0:0:
274,101,115860,1,4,0:3:0:0:
307,78,115938,1,4,0:3:0:0:
348,74,116017,6,0,L|490:81,1,132.000005035401,6|2,3:2|0:2,0:2:0:0:
275,8,116485,1,0,3:2:0:0:
275,8,116642,2,0,P|223:30|148:11,1,132.000005035401,10|0,0:2|3:2,0:2:0:0:
89,83,117110,2,0,L|93:242,1,132.000005035401,2|2,0:2|0:2,0:2:0:0:
28,297,117579,2,0,L|19:370,1,66.0000025177003,2|0,3:2|0:2,0:2:0:0:
266,171,117892,6,0,B|330:153|330:153|394:167,1,132.000005035401,6|0,3:2|0:2,0:2:0:0:
265,360,118204,6,0,B|202:379|202:379|138:365,1,132.000005035401,14|0,0:2|0:2,0:2:0:0:
203,267,118517,6,0,L|335:267,2,132.000005035401,6|2|10,3:2|3:2|0:2,0:2:0:0:
405,334,119298,2,0,P|427:294|400:200,1,132.000005035401,0|0,3:2|3:2,0:2:0:0:
272,81,119767,2,0,P|265:113|270:145,1,66.0000025177003,10|0,0:2|0:2,0:2:0:0:
227,219,120079,2,0,P|203:197|188:168,1,66.0000025177003,2|0,3:2|0:2,0:2:0:0:
350,117,120392,2,0,P|367:89|393:70,1,66.0000025177003,10|0,0:2|3:2,0:2:0:0:
492,138,120704,2,0,P|460:137|428:147,1,66.0000025177003,2|0,0:2|3:2,0:2:0:0:
120,231,121017,6,0,P|108:184|93:127,1,88,6|0,3:2|0:2,0:2:0:0:
451,310,121329,2,0,L|470:213,1,88,8|0,0:2|0:2,0:2:0:0:
512,384,121642,1,0,3:2:0:0:
383,197,121798,1,0,3:2:0:0:
260,326,121954,1,8,2:2:0:0:
217,335,122032,1,0,3:2:0:0:
175,322,122110,1,0,3:2:0:0:
145,291,122188,1,0,3:2:0:0:
133,249,122267,5,2,3:2:0:0:
171,228,122345,1,0,3:2:0:0:
195,192,122423,1,0,3:2:0:0:
200,149,122501,1,0,3:2:0:0:
184,107,122579,5,10,0:2:0:0:
148,82,122657,1,0,3:2:0:0:
106,70,122735,1,0,3:2:0:0:
62,72,122813,1,0,3:2:0:0:
21,88,122892,5,10,0:2:0:0:
36,140,122970,1,0,3:2:0:0:
72,181,123048,1,8,0:2:0:0:
122,203,123126,1,0,3:2:0:0:
177,200,123204,5,10,0:2:0:0:
235,171,123282,1,8,0:2:0:0:
301,174,123360,1,8,0:2:0:0:
356,209,123438,1,8,0:2:0:0:
394,262,123517,6,0,L|514:256,1,88,6|0,3:2|3:2,0:2:0:0:
445,342,123751,1,0,3:2:0:0:
445,342,123829,1,0,3:2:0:0:
295,61,123985,5,14,0:2:0:0:
158,302,124142,1,2,3:2:0:0:
42,243,124298,1,2,3:2:0:0:
346,175,124454,1,10,0:2:0:0:
221,144,124610,6,0,L|218:209,1,66.0000025177003,6|0,3:2|0:2,0:2:0:0:
340,15,124923,6,0,P|339:48|350:80,1,66.0000025177003,2|0,3:2|0:2,0:2:0:0:
151,339,125235,5,0,3:2:0:0:
147,318,125313,1,0,3:2:0:0:
143,296,125392,2,2,B|152:251|207:230|207:230|245:275|219:326,1,198.000007553101,2|0,3:1|0:2,0:1:0:0:
51,250,125704,5,8,0:2:0:0:
20,194,125782,1,8,0:2:0:0:
32,131,125860,1,8,0:2:0:0:
81,91,125938,1,8,0:2:0:0:
145,90,126017,6,0,P|243:91|346:79,1,158.399995166016,6|0,3:2|0:2,0:2:0:0:
246,12,126329,1,10,0:2:0:0:
151,179,126485,2,0,P|80:182|32:186,1,105.599996777344,2|0,0:2|3:2,0:2:0:0:
313,298,126798,2,0,P|365:301|418:303,1,105.599996777344,2|8,0:2|0:2,0:2:0:0:
0,372,127110,5,2,3:2:0:0:
0,372,127188,1,0,3:2:0:0:
0,372,127267,2,0,P|91:355|239:380,1,211.199993554688,2|8,3:2|0:2,0:2:0:0:
417,174,127735,5,2,0:2:0:0:
213,219,127892,1,2,3:2:0:0:
378,384,128048,1,2,0:2:0:0:
297,95,128204,1,10,0:2:0:0:
378,384,128360,1,2,0:2:0:0:
419,163,128517,6,0,B|339:149|350:214|239:180,1,158.399995166016,6|0,3:2|0:2,0:2:0:0:
178,137,128829,1,10,0:2:0:0:
24,291,128985,2,0,P|9:219|-5:161,1,105.599996777344,2|0,0:2|3:2,0:2:0:0:
151,376,129298,2,0,P|166:304|180:246,1,105.599996777344,2|8,0:2|0:2,0:2:0:0:
487,304,129610,5,2,3:2:0:0:
487,304,129688,1,0,3:2:0:0:
487,304,129767,2,0,P|423:280|317:330,1,158.399995166016,0|0,3:2|0:2,0:2:0:0:
280,362,130079,2,0,P|310:304|290:198,1,158.399995166016,10|0,0:2|0:2,0:2:0:0:
122,121,130392,2,0,P|114:183|105:244,1,105.599996777344,2|0,3:2|3:2,0:2:0:0:
44,50,130704,1,10,0:2:0:0:
89,25,130782,1,8,0:2:0:0:
141,25,130860,1,8,0:2:0:0:
187,49,130938,1,8,0:2:0:0:
216,92,131017,6,0,B|446:85,1,211.199993554688,6|8,3:2|0:2,0:2:0:0:
213,208,131485,1,2,3:2:0:0:
213,208,131563,1,0,3:2:0:0:
213,208,131642,2,0,P|93:188|0:235,1,211.199993554688,2|8,3:2|0:2,0:2:0:0:
250,307,132110,1,2,0:2:0:0:
353,245,132267,6,0,L|360:107,1,105.599996777344,2|0,3:2|0:2,0:2:0:0:
224,0,132579,2,0,L|218:105,1,105.599996777344,8|2,0:2|3:2,0:2:0:0:
117,195,132813,1,0,3:2:0:0:
117,195,132892,2,0,P|49:211|-7:190,1,105.599996777344,2|0,3:2|3:2,0:2:0:0:
165,301,133126,1,0,3:2:0:0:
165,301,133204,6,0,B|242:279|242:279|309:318|309:318|371:306,1,198.000007553101,14|0,0:2|0:2,0:2:0:0:
82,354,133517,6,0,P|80:263|65:194,1,114.399994763184,10|0,2:2|3:2,0:2:0:0:
330,218,133829,2,0,P|323:161|324:104,1,114.399994763184,10|0,0:2|3:2,0:2:0:0:
485,234,134142,5,2,3:2:0:0:
220,369,134298,1,2,3:2:0:0:
31,164,134454,1,10,2:2:0:0:
294,24,134610,5,6,3:2:0:0:
311,73,134923,5,2,3:2:0:0:
320,125,135235,5,2,3:2:0:0:
233,191,135392,5,0,3:2:0:0:
226,203,135470,1,0,3:2:0:0:
221,217,135548,1,8,0:2:0:0:
219,231,135626,1,8,0:2:0:0:
220,250,135704,2,0,L|312:238,1,57.1999973815919,10|8,0:2|2:2,0:2:0:0:
96,145,135860,2,0,L|0:152,1,57.1999973815919,10|8,0:2|0:2,0:2:0:0:
260,353,136017,5,6,3:2:0:0:
326,96,136173,1,2,0:2:0:0:
445,341,136329,1,10,0:2:0:0:
220,250,136485,2,0,P|164:242|91:253,1,105.599996777344,2|0,0:2|3:2,0:2:0:0:
399,176,136798,2,0,P|455:180|509:173,1,105.599996777344,2|8,0:2|0:2,0:2:0:0:
242,56,137110,5,2,3:2:0:0:
242,56,137188,1,0,3:2:0:0:
242,56,137267,2,0,P|127:60|1:58,1,211.199993554688,0|8,3:2|0:2,0:2:0:0:
275,159,137735,5,2,0:2:0:0:
382,20,137892,1,2,3:2:0:0:
325,286,138048,1,2,0:2:0:0:
112,167,138204,2,0,P|46:158|-26:171,1,105.599996777344,10|0,0:2|0:2,0:2:0:0:
240,328,138517,6,0,P|353:323|430:316,1,158.399995166016,6|0,3:2|0:2,0:2:0:0:
335,239,138829,1,10,0:2:0:0:
149,376,138985,2,0,P|86:366|32:362,1,105.599996777344,2|0,0:2|3:2,0:2:0:0:
216,122,139298,2,0,P|238:190|207:262,1,105.599996777344,2|8,0:2|0:2,0:2:0:0:
34,185,139610,1,2,3:2:0:0:
34,185,139688,1,0,3:2:0:0:
34,185,139767,6,0,P|116:184|162:187,1,105.599996777344,0|0,3:2|0:2,0:2:0:0:
399,60,140079,2,0,P|346:64|293:68,1,105.599996777344,10|0,0:2|0:2,0:2:0:0:
155,279,140392,1,2,3:2:0:0:
51,58,140548,1,0,3:2:0:0:
312,187,140704,1,10,0:2:0:0:
351,183,140782,1,8,0:2:0:0:
390,179,140860,1,8,0:2:0:0:
430,175,140938,1,8,0:2:0:0:
469,172,141017,6,0,B|443:144|408:127|408:127|368:201|406:259,1,211.199993554688,6|8,3:2|0:2,0:2:0:0:
491,330,141485,1,2,0:2:0:0:
314,128,141642,2,0,P|300:202|314:266,1,105.599996777344,2|0,3:2|3:2,0:2:0:0:
321,262,141876,1,0,3:2:0:0:
321,262,141954,1,8,0:2:0:0:
201,324,142110,1,2,0:2:0:0:
1,276,142267,6,0,B|85:287|85:287|116:313|116:313|229:328,1,211.199993554688,2|8,3:2|0:2,0:2:0:0:
429,214,142735,1,2,0:2:0:0:
299,126,142892,2,0,P|276:202|297:252,1,105.599996777344,2|0,3:2|3:2,0:2:0:0:
192,20,143204,6,0,B|157:77|157:77|189:154|189:154|161:225,1,198.000007553101,14|0,0:2|0:2,0:2:0:0:
81,129,143517,6,0,P|69:54|43:2,1,114.399994763184,10|0,0:2|3:2,0:2:0:0:
254,266,143829,2,0,P|279:214|317:172,1,114.399994763184,10|0,0:2|3:2,0:2:0:0:
408,309,144142,5,8,0:3:0:0:
114,252,144298,1,8,0:3:0:0:
408,310,144454,1,4,0:3:0:0:
308,41,144610,5,6,3:2:0:0:
221,76,144923,5,10,0:2:0:0:
382,168,145079,1,8,0:3:0:0:
457,21,145235,5,4,0:3:0:0:
311,134,145392,6,0,P|300:185|350:244,1,114.399994763184,6|0,3:2|3:2,0:2:0:0:
465,203,145626,1,0,3:2:0:0:
465,203,145704,2,0,P|476:152|426:93,1,114.399994763184,8|2,0:2|0:2,0:2:0:0:
161,44,146017,6,0,L|98:42,1,52.8,2|0,3:2|0:2,0:2:0:0:
13,106,146329,2,0,B|112:125|82:55|180:63,1,178.200000679779,12|0,0:2|0:2,0:2:0:0:
247,217,146642,6,0,L|299:215,1,52.8,2|0,3:2|0:2,0:2:0:0:
321,196,146954,2,0,B|223:204|253:134|154:152,1,178.200000679779,12|0,0:2|0:2,0:2:0:0:
391,257,147267,6,0,P|411:189|377:124,1,105.599996777344,6|0,3:2|0:2,0:2:0:0:
87,95,147579,2,0,P|67:163|101:228,1,105.599996777344,10|0,0:2|0:2,0:2:0:0:
296,115,147892,1,2,3:2:0:0:
174,235,148048,1,0,3:2:0:0:
166,281,148126,1,0,3:2:0:0:
157,325,148204,1,10,0:2:0:0:
75,194,148360,1,0,3:2:0:0:
332,342,148517,6,0,P|386:334|460:330,1,105.599996777344,6|0,3:2|0:2,0:2:0:0:
296,115,148829,2,0,P|243:111|191:103,1,105.599996777344,10|0,0:2|0:2,0:2:0:0:
350,224,149142,1,2,3:2:0:0:
271,15,149298,1,2,3:2:0:0:
271,15,149376,1,0,3:2:0:0:
271,15,149454,1,10,0:2:0:0:
116,184,149610,1,2,3:2:0:0:
379,113,149767,5,6,3:2:0:0:
408,297,149923,1,0,3:2:0:0:
211,186,150079,5,10,0:2:0:0:
156,371,150235,2,0,P|142:329|142:297,1,52.7999983886719,0|0,3:2|3:2,0:2:0:0:
289,118,150392,5,0,3:2:0:0:
309,166,150470,1,0,3:2:0:0:
305,218,150548,1,0,3:2:0:0:
277,263,150626,1,0,3:2:0:0:
233,290,150704,5,14,0:2:0:0:
32,238,150860,2,0,P|17:209|13:171,1,52.7999983886719,2|0,0:2|0:2,0:2:0:0:
237,93,151017,6,0,P|233:64|220:34,1,52.8,2|0,3:2|0:2,0:2:0:0:
150,11,151329,2,0,P|114:51|146:172,1,178.200000679779,12|0,0:2|0:2,0:2:0:0:
291,209,151642,6,0,P|294:182|303:158,1,52.8,2|0,3:2|0:2,0:2:0:0:
373,126,151954,2,0,P|418:199|386:279,1,178.200000679779,12|0,0:2|0:2,0:2:0:0:
163,290,152267,6,0,P|248:282|290:298,1,105.599996777344,6|0,3:2|0:2,0:2:0:0:
59,212,152579,2,0,L|41:72,1,105.599996777344,10|0,0:2|0:2,0:2:0:0:
14,314,152892,1,2,3:2:0:0:
160,185,153048,1,2,3:2:0:0:
189,166,153126,1,0,3:2:0:0:
219,146,153204,2,0,L|346:128,1,105.599996777344,10|0,2:2|0:2,0:2:0:0:
461,280,153517,5,4,3:2:0:0:
378,234,153673,1,2,0:2:0:0:
302,291,153829,2,0,P|288:342|298:384,1,88,10|0,0:2|0:2,0:2:0:0:
461,280,154142,5,2,3:2:0:0:
351,136,154298,1,2,3:2:0:0:
205,251,154454,1,10,0:2:0:0:
71,179,154610,2,0,L|54:108,1,44,2|0,3:2|3:2,0:2:0:0:
40,252,154767,5,4,3:2:0:0:
494,27,156017,6,0,B|433:37|433:37|409:64|409:64|345:77,1,151.800002895355,6|0,3:1|0:2,0:2:0:0:
277,35,156329,1,10,2:1:0:0:
128,124,156485,2,0,P|110:185|126:251,1,101.200001930237,2|0,0:1|3:2,0:2:0:0:
312,361,156798,2,0,P|330:300|314:234,1,101.200001930237,2|8,0:1|0:2,0:2:0:0:
142,321,157110,5,2,0:1:0:0:
142,321,157188,1,0,3:2:0:0:
142,321,157267,2,0,L|256:297,1,101.200001930237,0|0,3:2|3:2,0:2:0:0:
432,192,157579,1,10,0:1:0:0:
308,54,157735,2,0,P|303:115|301:162,1,101.200001930237,2|0,0:1|3:2,0:2:0:0:
375,370,158048,2,0,P|373:320|369:270,1,101.200001930237,2|8,0:1|0:2,0:2:0:0:
207,112,158360,5,0,3:2:0:0:
207,112,158438,1,0,3:2:0:0:
207,112,158517,2,0,P|193:185|205:274,1,151.800002895355,6|0,3:1|0:2,0:2:0:0:
270,326,158829,1,10,0:1:0:0:
120,112,158985,2,0,P|106:28|94:-26,1,101.200001930237,2|0,0:1|3:2,0:2:0:0:
50,183,159298,1,2,0:1:0:0:
195,34,159454,1,8,0:2:0:0:
51,288,159610,6,0,B|89:292|121:277|121:277|171:299|171:299|199:276|265:289,1,202.400003860474,6|0,3:1|3:2,0:2:0:0:
462,184,160079,1,10,0:1:0:0:
433,159,160157,1,0,3:2:0:0:
396,150,160235,1,0,3:2:0:0:
359,158,160313,1,0,3:2:0:0:
331,182,160392,6,0,P|342:239|351:295,1,101.200001930237,6|0,3:1|3:2,0:2:0:0:
193,183,160704,1,10,0:1:0:0:
193,157,160782,1,8,0:2:0:0:
193,132,160860,1,8,0:2:0:0:
194,107,160938,1,8,0:2:0:0:
193,84,161017,6,0,B|241:90|271:111|271:111|304:85|364:94|364:94|322:76|294:52,1,220,6|8,2:1|2:2,2:2:0:0:
100,37,161485,1,2,0:1:0:0:
331,182,161642,2,0,B|374:192|420:171|420:171|482:214|458:288,1,220,2|8,3:1|0:2,0:2:0:0:
500,96,162110,1,2,0:1:0:0:
363,282,162267,2,0,B|316:288|284:277|284:277|256:286|233:323|233:323|196:308|129:327,1,220,2|8,3:1|0:2,0:2:0:0:
325,376,162735,1,2,0:1:0:0:
59,237,162892,2,0,B|100:245|129:223|129:223|161:239|192:239|192:239|218:203|263:195,1,220,2|8,3:1|0:2,0:2:0:0:
74,154,163360,1,2,0:1:0:0:
274,280,163517,6,0,P|334:281|400:300,1,110,6|0,3:1|0:2,0:2:0:0:
239,47,163829,2,0,P|208:98|158:146,1,110,10|0,0:1|0:2,0:2:0:0:
458,133,164142,2,0,P|428:80|412:13,1,110,2|0,3:1|3:2,0:2:0:0:
316,162,164454,1,10,0:1:0:0:
97,183,164610,6,0,P|167:175|322:161,1,220,6|0,3:1|3:2,0:2:0:0:
67,94,165079,1,8,0:2:0:0:
167,267,165235,1,0,3:2:0:0:
167,267,165313,1,0,3:2:0:0:
167,267,165392,2,0,P|180:339|165:387,1,110,2|0,3:1|3:2,0:2:0:0:
131,369,165626,1,0,3:2:0:0:
131,369,165704,1,10,0:1:0:0:
280,225,165860,1,8,0:2:0:0:
274,182,165938,1,8,0:2:0:0:
269,141,166017,5,6,3:1:0:0:
360,309,166173,1,0,3:1:0:0:
385,118,166329,1,10,2:1:0:0:
203,232,166485,2,0,P|132:219|73:207,1,101.200001930237,2|0,0:1|3:2,0:2:0:0:
241,328,166798,5,2,0:1:0:0:
192,105,166954,1,10,0:1:0:0:
13,247,167110,2,0,P|45:291|162:289,1,151.800002895355,6|0,3:1|0:2,0:2:0:0:
171,377,167423,1,0,3:2:0:0:
340,300,167579,6,0,P|347:223|348:148,1,151.800002895355,10|0,0:1|0:2,0:2:0:0:
425,245,167892,2,0,P|433:320|443:378,1,101.200001930237,2|0,3:1|0:2,0:2:0:0:
499,97,168204,1,10,2:1:0:0:
485,57,168282,1,2,3:2:0:0:
467,14,168360,1,2,3:2:0:0:
229,93,168517,5,6,3:1:0:0:
380,147,168673,1,0,3:2:0:0:
238,240,168829,1,10,0:1:0:0:
85,182,168985,1,0,3:2:0:0:
110,63,169142,5,2,3:1:0:0:
145,311,169298,1,0,3:2:0:0:
110,63,169454,1,10,0:1:0:0:
354,257,169610,6,0,P|427:251|555:245,1,151.800002895355,6|0,3:1|0:2,0:2:0:0:
445,166,169923,1,0,3:2:0:0:
302,334,170079,1,8,0:2:0:0:
244,211,170235,1,0,3:2:0:0:
67,340,170392,5,6,3:1:0:0:
6,121,170548,1,0,3:2:0:0:
6,121,170626,1,0,3:2:0:0:
6,121,170704,1,10,0:1:0:0:
221,188,170860,1,8,0:2:0:0:
91,227,171017,5,6,3:1:0:0:
261,59,171173,1,2,0:2:0:0:
326,270,171329,1,10,0:2:0:0:
407,218,171485,5,2,0:1:0:0:
505,214,171642,2,0,P|453:205|403:219,1,101.200001930237,2|0,3:1|0:2,0:2:0:0:
248,348,171954,1,10,0:1:0:0:
165,192,172110,1,0,3:2:0:0:
371,305,172267,6,0,L|488:297,1,88,2|0,0:1|0:2,0:2:0:0:
183,279,172579,2,0,P|237:260|308:275,1,101.200001930237,2|0,3:1|0:2,0:2:0:0:
99,240,172892,6,0,B|91:294|91:294|120:355,1,114.399994763184,6|0,3:1|0:2,0:2:0:0:
349,192,173204,6,0,B|357:138|357:138|328:77,1,114.399994763184,14|0,2:1|0:2,0:2:0:0:
114,58,173517,5,6,3:1:0:0:
264,151,173673,2,0,L|108:153,1,145.200004431152,8|0,0:1|0:2,0:2:0:0:
287,231,173985,6,0,B|183:233|183:233|157:248|157:248|56:251,1,228.799989526368,2|8,3:1|0:2,0:2:0:0:
352,156,174454,6,0,B|386:231|386:231|341:320,1,171.599992144776,6|0,3:1|0:2,0:2:0:0:
251,361,174767,5,2,3:1:0:0:
287,231,174923,1,0,3:2:0:0:
468,357,175079,5,10,0:1:0:0:
158,270,175235,1,0,3:2:0:0:
289,88,175392,1,2,3:2:0:0:
370,382,175548,1,10,0:2:0:0:
82,161,175704,5,8,0:3:0:0:
10,268,175860,1,4,0:3:0:0:
0,91,176017,6,0,B|84:40|158:83|158:83|243:140|320:84|320:84|309:30|263:7|263:7|229:27|227:75,1,520.96001271875,6|6,3:2|3:2,0:2:0:0:
174,238,185860,5,0,3:2:0:0:
97,188,186017,6,0,L|79:87,1,88,2|0,3:2|0:2,0:2:0:0:
261,222,186329,2,0,P|259:265|236:302,1,88,2|0,3:2|0:2,0:2:0:0:
53,351,186642,5,2,3:2:0:0:
101,272,186798,1,2,0:2:0:0:
154,360,186954,1,0,3:2:0:0:
418,286,187110,5,6,3:2:0:0:
446,304,187423,5,2,3:2:0:0:
393,161,187579,5,6,3:2:0:0:
373,162,187683,1,0,3:2:0:0:
353,163,187787,1,0,3:2:0:0:
273,171,187892,5,8,0:2:0:0:
224,150,187996,1,8,0:2:0:0:
178,157,188100,1,8,0:2:0:0:
120,203,188204,5,8,0:3:0:0:
99,194,188308,1,8,0:3:0:0:
79,184,188412,1,4,0:3:0:0:
11,219,188517,6,0,P|-15:143|34:46,1,184.799994360352,6|0,3:2|0:2,0:2:0:0:
326,99,189610,6,0,B|200:72|220:172|84:140,1,246.399992480469,6|0,3:2|0:2,0:2:0:0:
296,187,191017,6,0,L|486:169,1,184.799994360352,6|0,3:2|0:2,0:2:0:0:
351,281,192110,6,0,L|192:297,1,132.000005035401,6|0,3:2|3:2,0:2:0:0:
127,344,192579,2,0,P|67:356|34:345,1,66.0000025177003,10|0,0:2|0:2,0:2:0:0:
322,184,192892,2,0,P|361:185|397:199,1,77.0000007343292,2|0,3:2|0:2,0:2:0:0:
138,78,193204,6,0,B|157:41|215:22|215:22|243:90|194:138,1,198.000007553101,14|0,0:2|0:2,0:2:0:0:
116,164,193517,6,0,P|61:160|4:224,1,132,2|2,3:2|3:2,0:2:0:0:
100,326,194142,2,0,L|79:232,1,88,10|0,0:2|3:2,0:2:0:0:
32,371,194610,2,0,L|1:322,1,44,2|2,3:2|0:2,0:2:0:0:
182,355,194923,2,0,P|190:302|209:264,1,88,8|2,0:2|3:2,0:2:0:0:
393,137,195392,5,10,0:2:0:0:
307,201,195548,1,8,0:2:0:0:
273,196,195626,1,8,0:2:0:0:
239,191,195704,1,10,0:2:0:0:
167,135,195860,1,0,3:2:0:0:
151,137,195938,1,0,3:2:0:0:
135,139,196016,5,2,3:2:0:0:
77,38,196173,1,0,3:2:0:0:
102,22,196642,5,2,3:2:0:0:
19,156,196799,1,0,3:2:0:0:
400,266,197110,5,2,3:2:0:0:
484,230,197423,5,2,3:2:0:0:
411,178,197735,5,2,3:2:0:0:
190,345,198048,5,0,3:2:0:0:
128,299,198204,1,8,0:2:0:0:
189,158,198360,5,2,3:2:0:0:
272,212,198673,5,2,3:2:0:0:
277,110,198985,5,2,3:2:0:0:
366,168,199454,6,0,L|437:163,1,66,2|0,0:2|0:2,0:2:0:0:
457,165,199767,6,0,P|471:199|469:215,1,46.1999985900879,2|0,0:2|0:2,0:2:0:0:
470,139,200079,6,0,P|499:208|472:318,1,171.599992144776,14|0,2:2|0:2,0:2:0:0:
380,344,200392,1,0,3:2:0:0:
110,249,200548,2,0,P|167:254|224:264,1,114.399994763184,2|8,0:2|0:2,0:2:0:0:
422,59,200860,5,2,3:2:0:0:
422,59,200938,1,0,3:2:0:0:
422,59,201017,2,0,P|348:79|165:44,1,228.799989526368,0|8,3:2|0:2,0:2:0:0:
71,241,201485,5,2,0:2:0:0:
233,181,201642,1,2,3:2:0:0:
101,60,201798,1,2,0:2:0:0:
187,292,201954,1,10,0:2:0:0:
101,60,202110,1,10,0:2:0:0:
268,195,202267,6,0,P|348:186|477:178,1,171.599992144776,6|0,3:2|0:2,0:2:0:0:
392,273,202579,1,10,0:2:0:0:
172,183,202735,2,0,P|157:103|142:38,1,114.399994763184,2|0,0:2|3:2,0:2:0:0:
349,354,203048,2,0,P|426:357|477:301,1,114.399994763184,2|8,0:2|0:2,0:2:0:0:
186,264,203360,5,2,3:2:0:0:
186,264,203438,1,0,3:2:0:0:
186,264,203517,2,0,P|68:255|-1:250,1,171.599992144776,0|0,3:2|0:2,0:2:0:0:
148,359,203829,2,0,P|219:345|303:328,1,114.399994763184,10|0,0:2|0:2,0:2:0:0:
109,58,204142,2,0,P|72:128|93:185,1,114.399994763184,2|0,3:2|0:2,0:2:0:0:
368,85,204454,1,10,0:2:0:0:
316,54,204532,1,8,0:2:0:0:
257,54,204610,1,8,0:2:0:0:
206,85,204688,1,8,0:2:0:0:
178,136,204767,6,0,L|198:345,1,171.599992144776,6|0,3:2|0:2,0:2:0:0:
139,367,205079,1,8,0:2:0:0:
269,154,205235,1,2,0:2:0:0:
101,71,205392,2,0,P|80:142|112:196,1,114.399994763184,2|0,3:2|3:2,0:2:0:0:
109,189,205626,1,0,3:2:0:0:
109,189,205704,1,8,0:2:0:0:
237,56,205860,1,2,0:2:0:0:
393,253,206017,6,0,L|518:238,1,114.399994763184,2|0,3:2|0:2,0:2:0:0:
350,151,206329,1,8,0:2:0:0:
228,339,206485,1,2,3:2:0:0:
196,322,206563,1,0,3:2:0:0:
173,289,206642,2,0,P|243:269|298:287,1,114.399994763184,2|0,3:2|3:2,0:2:0:0:
95,206,206954,6,0,B|64:267|64:267|91:328|91:328|89:384,1,191.400005841065,14|0,0:2|0:2,0:2:0:0:
3,169,207267,6,0,P|-9:103|-30:26,1,114.399994763184,10|0,2:2|3:2,0:2:0:0:
172,274,207579,2,0,P|205:216|251:150,1,114.399994763184,10|0,0:2|3:2,0:2:0:0:
0,353,207892,5,10,0:2:0:0:
303,272,208048,1,2,3:2:0:0:
93,53,208204,1,10,0:2:0:0:
134,352,208360,5,6,3:2:0:0:
141,327,208673,5,2,3:2:0:0:
148,303,208985,5,2,3:2:0:0:
220,231,209142,5,8,0:2:0:0:
273,211,209220,1,0,3:2:0:0:
329,218,209298,1,0,3:2:0:0:
375,250,209376,1,0,3:2:0:0:
402,300,209454,5,10,0:2:0:0:
379,317,209532,1,8,0:2:0:0:
351,324,209610,1,10,0:2:0:0:
323,323,209688,1,8,0:2:0:0:
297,312,209766,5,6,3:2:0:0:
391,62,209923,1,2,0:2:0:0:
484,249,210079,1,10,0:2:0:0:
184,125,210235,2,0,P|110:118|43:144,1,114.399994763184,2|0,0:2|3:2,0:2:0:0:
374,223,210548,2,0,P|429:234|485:226,1,114.399994763184,2|8,0:2|0:2,0:2:0:0:
246,353,210860,5,2,3:2:0:0:
246,353,210938,1,0,3:2:0:0:
246,353,211017,2,0,P|162:344|15:362,1,228.799989526368,0|8,3:2|0:2,0:2:0:0:
205,166,211485,5,2,0:2:0:0:
354,364,211642,1,2,3:2:0:0:
452,123,211798,1,2,3:2:0:0:
452,123,211876,1,0,3:2:0:0:
452,123,211954,1,10,0:2:0:0:
281,242,212110,1,8,0:2:0:0:
20,44,212267,6,0,B|106:22|99:102|211:66,1,171.599992144776,6|0,3:2|0:2,0:2:0:0:
291,17,212579,1,10,0:2:0:0:
43,122,212735,2,0,P|23:182|47:261,1,114.399994763184,2|0,0:2|3:2,0:2:0:0:
377,262,213048,2,0,P|384:205|364:152,1,114.399994763184,2|8,0:2|0:2,0:2:0:0:
136,192,213360,1,2,3:2:0:0:
136,192,213438,1,0,3:2:0:0:
136,192,213517,6,0,P|221:227|318:206,1,171.599992144776,2|0,3:2|0:2,0:2:0:0:
196,318,213829,2,0,P|110:329|62:346,1,114.399994763184,10|0,0:2|0:2,0:2:0:0:
224,99,214142,1,2,3:2:0:0:
309,361,214298,1,0,3:2:0:0:
492,171,214454,1,10,0:2:0:0:
512,118,214532,1,8,0:2:0:0:
495,65,214610,1,8,0:2:0:0:
447,35,214688,1,8,0:2:0:0:
392,42,214767,6,0,L|374:260,1,171.599992144776,6|0,3:2|0:2,0:2:0:0:
434,287,215079,1,8,0:2:0:0:
300,145,215235,1,2,3:2:0:0:
300,145,215313,1,0,3:2:0:0:
300,145,215392,2,0,P|233:129|176:138,1,114.399994763184,2|0,3:2|3:2,0:2:0:0:
293,44,215704,1,8,0:2:0:0:
144,257,215860,1,2,3:2:0:0:
97,237,215938,1,0,3:2:0:0:
52,209,216017,6,0,P|31:268|57:354,1,114.399994763184,2|0,3:2|3:2,0:2:0:0:
212,321,216251,1,0,3:2:0:0:
212,321,216329,2,0,P|227:266|216:210,1,114.399994763184,8|2,0:2|3:2,0:2:0:0:
397,60,216642,2,0,P|393:123|391:175,1,114.399994763184,2|0,3:2|0:2,0:2:0:0:
122,95,216954,6,0,B|202:73|202:73|248:113|248:113|333:113,1,191.400005841065,14|0,0:2|0:2,0:2:0:0:
47,160,217267,6,0,P|24:84|-9:36,1,114.399994763184,10|0,0:2|3:2,0:2:0:0:
361,191,217579,2,0,P|408:127|456:93,1,114.399994763184,10|0,0:2|3:2,0:2:0:0:
411,303,217892,5,10,0:2:0:0:
336,27,218048,5,2,3:2:0:0:
56,81,218204,5,10,2:2:0:0:
131,357,218360,5,6,3:2:0:0:
165,339,218673,5,8,0:3:0:0:
59,222,218829,1,8,0:3:0:0:
204,340,218985,5,2,3:2:0:0:
339,231,219142,2,0,P|422:213|459:224,1,114.399994763184,6|0,3:2|3:2,0:2:0:0:
487,241,219376,1,0,3:2:0:0:
487,241,219454,1,8,0:2:0:0:
400,303,219610,1,4,0:3:0:0:
507,32,219767,6,0,L|496:-2,1,33,2|0,3:2|0:2,0:2:0:0:
500,56,220079,2,0,P|430:32|312:190,1,264,12|0,0:2|0:2,0:2:0:0:
9,172,220392,6,0,L|20:138,1,33,2|0,3:2|0:2,0:2:0:0:
16,196,220704,2,0,P|86:172|204:330,1,264,12|0,0:2|0:2,0:2:0:0:
124,384,221017,6,0,P|120:323|119:265,1,114.399994763184,6|0,3:2|0:2,0:2:0:0:
260,71,221329,2,0,P|264:142|265:190,1,114.399994763184,10|0,0:2|0:2,0:2:0:0:
392,298,221642,2,0,B|448:283|448:283|529:287,1,114.399994763184,2|0,3:2|3:2,0:2:0:0:
324,369,221876,1,0,3:2:0:0:
324,369,221954,2,0,B|267:373|267:373|199:360,1,114.399994763184,10|0,0:2|0:2,0:2:0:0:
51,200,222267,6,0,P|36:126|82:63,1,114.399994763184,6|0,3:2|0:2,0:2:0:0:
264,136,222579,2,0,L|115:142,1,114.399994763184,10|0,0:2|0:2,0:2:0:0:
279,34,222892,1,2,3:2:0:0:
359,146,223048,1,2,3:2:0:0:
397,138,223126,1,0,3:2:0:0:
440,130,223204,1,10,0:2:0:0:
301,243,223360,1,2,0:2:0:0:
193,48,223517,6,0,P|138:35|86:58,1,114.399994763184,6|0,3:2|0:2,0:2:0:0:
320,274,223829,2,0,L|443:270,1,114.399994763184,10|0,0:2|3:2,0:2:0:0:
494,231,224063,1,0,3:2:0:0:
494,231,224142,2,0,P|511:161|503:144,1,57.1999973815919,2|0,3:2|3:2,0:2:0:0:
242,298,224298,2,0,L|267:387,1,57.1999973815919,2|0,3:2|3:2,0:2:0:0:
93,269,224454,6,0,B|108:207|108:207|146:173|146:173|133:82,1,171.599992144776,14|0,0:2|0:2,0:2:0:0:
49,48,224767,6,0,P|45:66|43:87,1,33,2|0,3:2|0:2,0:2:0:0:
19,92,225079,2,0,B|84:63|126:83|126:83|134:84|134:84|146:84|146:84|215:132|300:79,1,277.199991540528,12|0,0:2|0:2,0:2:0:0:
486,277,225392,6,0,P|492:245|492:240,1,33,2|0,3:2|0:2,0:2:0:0:
464,270,225704,2,0,B|408:214|342:237|342:237|326:227|326:227|305:237|305:237|245:255|179:211,1,277.199991540528,12|0,0:2|0:2,0:2:0:0:
41,343,226017,6,0,P|27:265|14:212,1,114.399994763184,6|0,3:2|0:2,0:2:0:0:
302,34,226329,2,0,P|285:92|270:146,1,114.399994763184,10|0,0:2|0:2,0:2:0:0:
427,341,226642,1,2,3:2:0:0:
410,121,226798,1,2,3:2:0:0:
386,134,226876,1,0,3:2:0:0:
377,156,226954,2,0,P|422:202|527:175,1,171.599992144776,10|0,0:2|0:2,0:2:0:0:
342,266,227267,6,0,P|244:260|200:265,1,114.399994763184,6|2,3:2|0:2,0:2:0:0:
270,74,227579,2,0,P|327:75|383:69,1,114.399994763184,10|0,0:2|0:2,0:2:0:0:
194,8,227892,1,2,3:2:0:0:
457,130,228048,1,2,3:2:0:0:
219,296,228204,1,10,0:2:0:0:
10,148,228360,2,0,P|-2:68|-12:22,1,114.399994763184,2|0,0:2|0:2,0:2:0:0:
3,239,228673,5,2,3:2:0:0:
199,76,228829,2,0,P|146:56|92:72,1,114.399994763184,10|0,0:2|0:2,0:2:0:0:
284,265,229142,5,6,3:2:0:0:
432,136,229298,1,8,0:2:0:0:
470,118,229376,1,8,0:2:0:0:
512,99,229454,1,8,0:2:0:0:
314,31,229610,6,0,P|308:91|311:97,1,57.1999973815919,2|0,3:2|0:2,0:2:0:0:
468,341,229767,6,0,L|500:335,1,26.4,2|0,3:2|0:2,0:2:0:0:
512,351,230079,6,0,B|581:266|465:140|358:223|375:346|217:293|209:210,1,376.200003587723,12|0,0:2|0:2,0:2:0:0:
96,61,230392,6,0,L|95:35,1,26.4,2|0,3:2|0:2,0:2:0:0:
68,32,230704,6,0,B|-1:117|115:243|222:160|205:37|363:90|371:173,1,376.200003587723,12|0,0:2|0:2,0:2:0:0:
441,312,231017,5,2,3:2:0:0:
287,189,231173,1,0,3:2:0:0:
466,95,231329,5,10,0:2:0:0:
342,346,231485,1,0,3:2:0:0:
152,227,231642,5,2,3:2:0:0:
66,321,231798,1,0,3:2:0:0:
66,321,231876,1,0,3:2:0:0:
66,321,231954,1,10,0:2:0:0:
29,110,232110,1,8,0:2:0:0:
210,348,232267,6,0,P|325:329|376:320,1,114.399994763184,6|0,3:2|0:2,0:2:0:0:
165,133,232579,2,0,P|50:114|-1:105,1,114.399994763184,10|0,0:2|0:2,0:2:0:0:
264,67,232892,1,2,3:2:0:0:
128,239,233048,1,2,3:2:0:0:
91,231,233126,1,0,3:2:0:0:
53,223,233204,1,10,0:2:0:0:
212,337,233360,1,2,3:2:0:0:
301,94,233517,5,14,0:2:0:0:
354,244,233673,1,0,3:2:0:0:
473,79,233829,5,10,0:2:0:0:
355,277,233985,1,0,3:2:0:0:
343,304,234063,1,0,3:2:0:0:
331,332,234142,6,0,L|254:323,1,57.1999973815919,10|8,0:2|0:2,0:2:0:0:
449,213,234298,2,0,L|506:207,1,57.1999973815919,2|0,3:2|3:2,0:2:0:0:
300,140,234454,6,0,B|198:119|236:200|106:184,1,171.599992144776,14|0,0:2|0:2,0:2:0:0:
91,112,234767,5,2,3:2:0:0:
104,90,234923,1,0,3:2:0:0:
241,329,235079,5,12,0:2:0:0:
117,60,235235,1,2,3:2:0:0:
291,166,235392,5,2,3:2:0:0:
295,142,235548,1,0,3:2:0:0:
459,353,235704,5,14,0:2:0:0:
302,115,235860,1,2,3:2:0:0:
72,293,236017,5,6,3:2:0:0:
276,228,236173,1,0,3:2:0:0:
121,86,236329,5,10,0:2:0:0:
210,355,236485,1,0,3:2:0:0:
409,152,236642,5,2,3:2:0:0:
131,227,236798,1,2,3:2:0:0:
102,237,236876,1,0,3:2:0:0:
73,244,236954,2,0,P|47:164|86:90,1,171.599992144776,10|0,0:2|0:2,0:2:0:0:
49,11,237267,5,4,3:2:0:0:
179,161,237423,1,2,0:2:0:0:
327,80,237579,2,0,L|451:67,1,114.399994763184,10|0,0:2|0:2,0:2:0:0:
248,4,237892,5,2,3:2:0:0:
404,187,238048,1,2,3:2:0:0:
167,239,238204,1,10,0:2:0:0:
312,97,238360,1,2,3:2:0:0:
128,371,238517,5,4,0:3:0:0:
100,30,238673,1,4,0:3:0:0:
420,189,238829,1,4,0:3:0:0:
411,206,241798,5,0,3:2:0:0:
328,164,241954,2,0,B|232:157|264:236|146:217,1,171.599992144776,8|0,0:1|0:2,0:2:0:0:
295,83,242267,5,6,3:2:0:0:
224,299,242423,1,0,0:2:0:0:
188,135,242579,5,10,0:2:0:0:
231,321,242735,1,0,0:2:0:0:
52,225,242892,5,2,3:2:0:0:
240,344,243048,1,2,0:2:0:0:
252,131,243204,1,10,0:2:0:0:
174,239,243360,6,0,P|263:229|374:219,1,193.600005908203,2|0,3:2|3:2,0:2:0:0:
509,136,243829,2,0,P|441:120|393:134,1,96.8000029541017,10|0,0:2|3:2,0:2:0:0:
395,321,244142,2,0,P|463:337|511:323,1,96.8000029541017,2|8,3:2|0:2,0:2:0:0:
304,166,244454,2,0,P|247:173|178:183,1,96.8000029541017,10|0,0:2|0:2,0:2:0:0:
22,70,244767,5,6,3:2:0:0:
84,273,244923,1,0,0:2:0:0:
135,110,245079,5,10,2:2:0:0:
85,303,245235,1,0,0:2:0:0:
243,220,245392,5,2,3:2:0:0:
88,332,245548,1,2,0:2:0:0:
64,152,245704,1,10,0:2:0:0:
218,349,245860,6,0,B|257:319|304:329|304:329|344:376|422:362,1,193.600005908203,2|0,3:2|3:2,0:2:0:0:
243,147,246329,2,0,P|224:220|240:274,1,96.8000029541017,10|0,0:2|0:2,0:2:0:0:
383,277,246642,2,0,P|402:204|386:150,1,96.8000029541017,2|8,3:2|0:2,0:2:0:0:
122,125,246954,1,10,0:2:0:0:
123,149,247032,1,8,0:2:0:0:
125,173,247110,1,8,0:2:0:0:
127,197,247188,1,8,0:2:0:0:
129,221,247267,6,0,B|267:203|267:203|216:249,1,193.600005908203,6|8,3:2|0:2,0:2:0:0:
256,105,247735,2,0,B|368:96|322:163|440:160,1,193.600005908203,2|2,0:2|0:2,0:2:0:0:
319,11,248204,1,8,0:2:0:0:
267,204,248360,6,0,B|289:229|290:249|290:249|302:232|329:222,1,96.8000029541017,2|0,3:2|0:2,0:2:0:0:
211,20,248673,2,0,B|178:26|160:17|160:17|169:36|164:64,1,96.8000029541017,2|8,0:2|0:2,0:2:0:0:
344,35,248985,1,10,0:2:0:0:
371,49,249063,1,8,0:2:0:0:
398,63,249142,2,0,B|408:31|425:20|425:20|404:18|382:0,1,96.8000029541017,2|0,3:2|3:2,3:2:0:0:
82,135,249454,6,0,B|120:151|156:144|156:144|176:158|176:158|233:150|272:171,1,184.799994360352,14|0,0:2|0:2,0:2:0:0:
12,68,249767,6,0,P|-18:126|2:193,1,96.8000029541017,14|0,2:2|3:2,0:2:0:0:
147,338,250079,2,0,L|130:223,1,96.8000029541017,10|0,0:2|3:2,0:2:0:0:
268,60,250392,1,10,0:2:0:0:
157,5,250548,2,0,L|171:100,1,96.8000029541017,2|8,3:2|0:2,0:2:0:0:
340,358,250860,5,6,3:2:0:0:
479,56,251173,5,2,3:2:0:0:
148,87,251485,5,2,3:2:0:0:
318,188,251642,1,10,0:2:0:0:
260,75,251798,5,8,0:2:0:0:
260,75,251876,1,8,0:2:0:0:
260,75,251954,1,8,0:2:0:0:
181,236,252110,1,8,0:2:0:0:
186,259,252188,1,8,0:2:0:0:
191,282,252267,6,0,P|120:271|61:261,1,96.8000029541017,6|0,3:2|0:2,0:2:0:0:
326,361,252579,2,0,P|375:346|428:358,1,96.8000029541017,10|0,0:2|0:2,0:2:0:0:
272,129,252892,1,2,3:2:0:0:
291,273,253048,1,2,3:2:0:0:
396,182,253204,1,10,0:2:0:0:
189,214,253360,6,0,P|118:198|-26:171,1,193.600005908203,2|0,3:2|3:2,0:2:0:0:
150,319,253829,2,0,B|198:327|198:327|266:308,1,96.8000029541017,10|0,0:2|0:2,0:2:0:0:
248,81,254142,2,0,B|200:73|200:73|132:92,1,96.8000029541017,2|8,3:2|0:2,0:2:0:0:
351,203,254454,2,0,P|419:191|472:182,1,96.8000029541017,10|2,0:2|0:2,0:2:0:0:
244,314,254767,5,6,3:2:0:0:
326,106,254923,1,0,0:2:0:0:
184,187,255079,5,10,0:2:0:0:
309,130,255235,1,0,0:2:0:0:
208,64,255392,5,2,3:2:0:0:
290,151,255548,1,2,3:2:0:0:
325,34,255704,1,10,0:2:0:0:
200,191,255860,6,0,P|246:236|375:197,1,193.600005908203,2|0,3:2|3:2,0:2:0:0:
160,317,256329,2,0,P|104:305|44:320,1,96.8000029541017,10|0,0:2|0:2,0:2:0:0:
290,151,256642,1,2,3:2:0:0:
269,372,256798,1,8,0:2:0:0:
85,187,256954,1,10,0:2:0:0:
73,141,257032,1,8,0:2:0:0:
97,101,257110,1,8,0:2:0:0:
143,90,257188,1,8,0:2:0:0:
183,115,257267,6,0,B|249:128|310:91|310:91|333:120|405:127,1,193.600005908203,6|8,3:2|0:2,0:2:0:0:
512,102,257735,2,0,B|486:73|486:73|405:128|458:233,1,193.600005908203,2|2,0:2|0:2,0:2:0:0:
496,316,258204,1,10,0:2:0:0:
251,257,258360,6,0,P|190:245|137:236,1,96.8000029541017,2|0,0:2|3:2,0:2:0:0:
266,57,258673,2,0,P|286:115|304:166,1,96.8000029541017,2|8,0:2|0:2,0:2:0:0:
86,145,258985,1,2,3:2:0:0:
86,145,259063,1,0,3:2:0:0:
86,145,259142,2,0,P|126:98|161:56,1,96.8000029541017,2|0,3:2|3:2,0:2:0:0:
204,156,259454,6,0,B|306:140|285:222|398:204,1,198.000007553101,14|0,0:2|0:2,0:2:0:0:
494,53,259767,6,0,P|467:103|477:168,1,96.8000029541017,14|0,2:2|3:2,0:2:0:0:
287,383,260079,2,0,L|274:251,1,96.8000029541017,10|0,0:2|3:2,0:2:0:0:
133,45,260392,1,10,0:2:0:0:
20,286,260548,1,2,3:2:0:0:
233,184,260704,1,8,2:2:0:0:
16,44,260860,5,6,3:2:0:0:
256,384,261173,5,2,3:2:0:0:
496,44,261485,5,2,3:2:0:0:
192,128,261798,5,8,0:2:0:0:
256,160,261954,1,8,0:3:0:0:
323,194,262110,1,4,0:3:0:0:
0,288,262267,5,6,3:2:0:0:
256,192,262345,12,0,267267,0:2:0:0:
