osu file format v14

[General]
AudioFilename: audio.mp3
AudioLeadIn: 0
PreviewTime: 55165
Countdown: 0
SampleSet: Soft
StackLeniency: 0.7
Mode: 0
LetterboxInBreaks: 0
WidescreenStoryboard: 1

[Editor]
Bookmarks: 1017,11017,21017,31017,41017,51017,56017,66017,76017,86017,91017,101017,111017,121017,126017,136017,146017,156017,166017,176017,178517,186017,188517,199767,209767,219767,229767,239767,242267,252267,262267,267267
DistanceSpacing: 1.5
BeatDivisor: 4
GridSize: 32
TimelineZoom: 2.2

[Metadata]
Title:AI
TitleUnicode:アイ
Artist:DECO*27 feat. Hatsune Miku
ArtistUnicode:DECO*27 feat. 初音ミク
Creator:Nao Tomori
Version:Akitoshi's Insane
Source:
Tags:japanese jrock rockwell snow miku 2019 vocaloid 爱 愛 akitoshi corinn -laura- air
BeatmapID:2216650
BeatmapSetID:955580

[Difficulty]
HPDrainRate:5.8
CircleSize:3.8
OverallDifficulty:7.8
ApproachRate:9
SliderMultiplier:1.5
SliderTickRate:1

[Events]
//Background and Video events
0,0,"bg aaaaaaa.jpg",0,0
//Break Periods
2,178717,185417
//Storyboard Layer 0 (Background)
//Storyboard Layer 1 (Fail)
//Storyboard Layer 2 (Pass)
//Storyboard Layer 3 (Foreground)
//Storyboard Layer 4 (Overlay)
//Storyboard Sound Samples

[TimingPoints]
1017,312.5,4,2,2,50,1,0
1017,-142.857142857143,4,2,2,50,0,0
6017,-125,4,2,2,65,0,0
8517,-125,4,2,1,65,0,0
10392,-125,4,2,1,65,0,0
10704,-125,4,2,1,65,0,0
11017,-100,4,2,1,65,0,0
13048,-100,4,2,2,65,0,0
13204,-100,4,2,1,65,0,0
15548,-100,4,2,2,65,0,0
15704,-100,4,2,1,65,0,0
21017,-125,4,2,1,45,0,0
29610,-111.111111111111,4,2,1,45,0,0
30704,-111.111111111111,4,2,1,55,0,0
30938,-111.111111111111,4,2,1,55,0,0
31017,-111.111111111111,4,2,1,55,0,0
41017,-125,4,2,1,45,0,0
42892,-90.9090909090909,4,2,1,65,0,0
43126,-90.9090909090909,4,2,1,65,0,0
43204,-90.9090909090909,4,2,1,65,0,0
43438,-90.9090909090909,4,2,1,65,0,0
43517,-125,4,2,1,45,0,0
47892,-90.9090909090909,4,2,1,65,0,0
48126,-90.9090909090909,4,2,1,65,0,0
48204,-90.9090909090909,4,2,1,65,0,0
48517,-125,4,2,1,55,0,0
51017,-100,4,2,1,65,0,0
56017,-90.9090909090909,4,2,1,70,0,1
84767,-90.9090909090909,4,2,1,80,0,1
85548,-90.9090909090909,4,2,1,60,0,1
85938,-90.9090909090909,4,2,1,60,0,1
86017,-111.111111111111,4,2,1,60,0,0
90704,-76.9230769230769,4,2,1,60,0,0
91017,-142.857142857143,4,2,2,50,0,0
99767,-142.857142857143,4,2,1,60,0,0
100392,-111.111111111111,4,2,1,60,0,0
101017,-111.111111111111,4,2,1,65,0,0
111017,-125,4,2,1,45,0,0
112892,-90.9090909090909,4,2,1,65,0,0
113126,-90.9090909090909,4,2,1,65,0,0
113204,-90.9090909090909,4,2,1,65,0,0
113438,-90.9090909090909,4,2,1,65,0,0
113517,-125,4,2,1,45,0,0
117892,-90.9090909090909,4,2,1,65,0,0
118126,-90.9090909090909,4,2,1,65,0,0
118204,-90.9090909090909,4,2,1,65,0,0
118517,-125,4,2,1,45,0,0
121017,-100,4,2,1,65,0,0
125392,-76.9230769230769,4,2,1,65,0,0
125704,-100,4,2,1,65,0,0
126017,-90.9090909090909,4,2,1,70,0,1
154767,-90.9090909090909,4,2,1,80,0,1
156017,-100,4,2,1,70,0,0
176017,-142.857142857143,4,2,1,70,0,0
186017,-142.857142857143,4,2,1,65,0,0
188517,-133.333333333333,4,2,1,45,0,0
193204,-86.9565217391303,4,2,1,65,0,0
193438,-86.9565217391303,4,2,1,65,0,0
193517,-125,4,2,1,65,0,0
196017,-111.111111111111,4,2,1,65,0,0
198360,-100,4,2,1,65,0,0
199688,-100,4,2,1,65,0,0
199767,-166.666666666667,4,2,1,65,0,0
200001,-166.666666666667,4,2,1,65,0,0
200079,-66.6666666666667,4,2,1,70,0,1
200157,-66.6666666666667,4,2,1,70,0,1
200235,-86.9565217391304,4,2,1,70,0,1
238517,-86.9565217391304,4,2,1,80,0,1
239454,-125,4,2,1,80,0,0
242188,-125,4,2,1,80,0,0
242267,-100,4,2,1,65,0,0
244298,-100,4,2,2,65,0,0
244454,-100,4,2,1,65,0,0
246798,-100,4,2,2,65,0,0
246954,-100,4,2,1,65,0,0
254298,-100,4,2,2,65,0,0
254454,-100,4,2,1,65,0,0
256798,-100,4,2,2,65,0,0
256954,-100,4,2,1,65,0,0
262345,-100,4,2,1,11,0,0
263517,-100,4,2,1,11,0,0
266017,-100,4,2,1,11,0,0
267267,-100,4,2,1,11,0,0

[Colours]
Combo1 : 170,243,154
Combo2 : 247,194,176
Combo3 : 159,233,251
Combo4 : 222,198,242

[HitObjects]
135,135,1017,5,2,3:2:0:0:
135,135,1173,1,2,0:2:0:0:
198,198,1329,2,0,P|242:192|310:185,1,104.999996795654,8|2,0:2|0:2,0:0:0:0:
456,94,1954,2,0,P|403:88|351:81,1,104.999996795654,8|0,0:2|0:0,0:0:0:0:
181,28,2579,5,10,0:2:0:0:
181,28,2735,2,0,P|127:26|66:57,1,104.999996795654,0|0,0:2|0:2,0:0:0:0:
18,109,3204,1,10,0:2:0:0:
102,136,3360,1,2,3:2:0:0:
35,196,3517,6,0,P|40:229|45:265,1,52.4999983978272,6|0,3:2|0:0,0:0:0:0:
112,311,3829,1,8,0:2:0:0:
112,311,3985,2,0,P|158:290|226:291,1,104.999996795654,2|0,0:2|0:0,0:0:0:0:
297,313,4454,1,8,0:2:0:0:
354,245,4610,1,2,3:2:0:0:
267,221,4767,6,0,P|270:190|274:154,1,52.4999983978272,4|0,0:3|0:0,0:0:0:0:
319,92,5079,1,10,0:2:0:0:
388,148,5235,2,0,P|447:166|498:145,1,104.999996795654,10|0,0:2|3:2,0:0:0:0:
510,136,5626,1,0,3:2:0:0:
510,136,5704,2,0,P|506:108|500:74,1,52.4999983978272,10|0,0:2|0:2,0:0:0:0:
410,2,6017,6,0,P|404:31|400:61,1,60,6|0,3:2|0:0,0:0:0:0:
319,92,6329,1,8,0:2:0:0:
319,92,6485,2,0,P|275:74|204:88,1,120,10|0,0:2|0:2,0:0:0:0:
146,155,6954,2,0,P|151:184|155:214,1,60,8|0,0:2|0:2,0:0:0:0:
234,305,7267,6,0,P|238:275|243:245,1,60,6|0,3:2|0:0,0:0:0:0:
313,189,7579,1,8,0:2:0:0:
313,189,7735,2,0,P|357:171|428:185,1,120,8|0,0:2|0:2,0:0:0:0:
491,246,8204,2,0,P|496:275|500:305,1,60,8|0,0:2|0:2,0:0:0:0:
394,362,8517,6,0,P|398:332|403:302,1,60,6|0,3:2|0:0,0:0:0:0:
315,282,8829,2,0,P|280:287|245:279,1,60,8|0,0:2|0:2,0:0:0:0:
174,244,9142,1,0,3:2:0:0:
185,333,9298,1,0,3:2:0:0:
245,195,9454,1,0,3:2:0:0:
95,208,9610,5,2,0:2:0:0:
95,208,9923,5,2,0:2:0:0:
95,208,10235,6,2,P|50:206|35:212,1,60,2|0,0:1|0:2,0:1:0:0:
36,211,10704,6,0,L|41:250,3,30,2|2|2|2,0:2|0:2|0:2|0:2,0:0:0:0:
101,290,11017,6,0,P|95:334|91:371,1,75,6|0,3:2|0:2,0:0:0:0:
187,239,11329,2,0,P|193:283|197:320,1,75,10|0,0:2|0:2,0:0:0:0:
288,379,11642,1,2,3:2:0:0:
293,266,11798,1,2,0:2:0:0:
385,332,11954,1,10,0:2:0:0:
393,220,12110,6,0,B|483:237|483:237|512:227|515:192,1,150,2|0,3:2|0:2,0:0:0:0:
451,98,12579,2,0,P|396:104|374:107,1,75,10|0,0:2|3:2,0:0:0:0:
291,180,12892,1,2,3:2:0:0:
193,123,13048,1,10,0:2:0:0:
193,123,13204,2,0,B|183:86|183:86|195:47,1,75,10|2,0:2|0:2,0:0:0:0:
291,180,13517,6,0,P|282:235|278:258,1,75,6|0,3:2|0:2,0:0:0:0:
174,212,13829,2,0,P|183:267|187:290,1,75,10|0,0:2|0:2,0:0:0:0:
102,361,14142,1,2,3:2:0:0:
84,250,14298,1,0,3:2:0:0:
192,316,14454,1,10,0:2:0:0:
167,182,14610,6,0,B|202:144|263:146|263:146|291:180,1,150,2|0,0:2|3:2,0:0:0:0:
389,234,15079,2,0,P|402:194|396:153,1,75,10|0,0:2|0:2,0:0:0:0:
366,53,15392,1,2,3:2:0:0:
478,61,15548,1,8,0:2:0:0:
478,61,15704,2,0,L|485:104,3,37.5,8|8|8|8,0:2|0:2|0:2|0:2,0:0:0:0:
511,172,16017,6,0,P|495:248|483:333,1,150,6|8,3:2|0:2,0:0:0:0:
332,279,16485,2,0,P|370:262|407:259,1,75,2|0,0:2|3:2,0:0:0:0:
315,372,16798,1,2,0:2:0:0:
249,245,16954,1,10,0:2:0:0:
167,322,17110,6,0,P|127:316|93:314,1,75,2|0,2:2|3:2,0:0:0:0:
39,214,17423,2,0,P|76:211|113:205,1,75,2|8,0:2|0:2,0:0:0:0:
201,135,17735,1,0,3:2:0:0:
201,135,17813,1,0,3:2:0:0:
201,135,17892,1,2,3:2:0:0:
93,103,18048,1,0,3:2:0:0:
209,21,18204,2,0,B|242:34|242:34|286:26,1,75,14|0,0:2|0:0,0:0:0:0:
423,11,18517,6,0,P|397:79|390:161,1,150,14|10,2:2|0:2,0:0:0:0:
347,259,18985,1,0,3:2:0:0:
285,164,19142,1,10,2:2:0:0:
209,247,19298,2,0,P|220:290|224:324,1,75,2|8,3:2|0:2,0:0:0:0:
97,192,19610,5,2,3:2:0:0:
97,192,19923,5,2,3:2:0:0:
97,192,20235,6,0,P|46:202|15:227,1,75,2|0,3:2|0:0,0:0:0:0:
124,285,20548,1,8,0:2:0:0:
195,219,20704,1,8,2:3:0:0:
175,123,20860,1,4,0:3:0:0:
274,148,21017,6,0,P|330:150|408:119,1,120,6|8,3:2|0:2,0:0:0:0:
505,268,21642,2,0,P|494:301|491:333,1,60,2|0,3:2|3:2,0:0:0:0:
412,369,21954,1,10,0:2:0:0:
412,369,22110,6,0,P|355:349|295:351,1,120,2|0,0:2|0:2,0:0:0:0:
250,272,22579,2,0,P|284:264|315:257,1,60,10|0,0:2|0:2,0:0:0:0:
397,240,22892,1,2,3:2:0:0:
341,169,23048,1,2,2:2:0:0:
341,169,23204,2,0,P|307:161|276:154,1,60,10|0,0:2|3:2,0:0:0:0:
192,144,23517,6,0,P|151:169|69:166,1,120,2|8,3:2|0:2,0:0:0:0:
181,20,24142,2,0,P|240:18|292:46,1,120,2|10,3:2|0:2,0:0:0:0:
353,112,24610,6,0,P|341:162|330:241,1,120,2|0,0:2|0:2,0:0:0:0:
324,319,25079,2,0,P|364:334|392:338,1,60,10|0,0:0|0:0,0:0:0:0:
236,322,25392,2,0,P|243:364|253:390,1,60,2|0,3:2|0:0,0:0:0:0:
181,253,25704,1,10,0:0:0:0:
181,253,25860,1,0,3:2:0:0:
123,322,26017,6,0,B|42:335|42:335|6:307,1,120,2|8,3:2|0:2,0:0:0:0:
0,137,26642,2,0,P|7:103|12:76,1,60,2|2,3:2|3:2,0:0:0:0:
88,31,26954,1,10,0:2:0:0:
88,31,27110,6,0,P|100:59|99:89,1,60,2|0,3:2|0:2,0:0:0:0:
185,116,27423,2,0,P|185:86|196:58,1,60,2|8,3:2|0:2,0:0:0:0:
269,6,27735,1,2,0:2:0:0:
338,73,27892,1,2,3:2:0:0:
338,73,28048,2,0,P|368:67|400:61,1,60,2|10,3:2|0:2,0:0:0:0:
477,102,28360,1,2,0:2:0:0:
413,166,28517,6,0,P|406:197|405:232,1,60,2|0,3:3|0:0,0:0:0:0:
318,249,28829,2,0,P|316:219|309:189,1,60,8|0,0:2|3:2,0:0:0:0:
248,123,29142,1,2,3:2:0:0:
212,210,29298,1,8,0:3:0:0:
156,139,29454,1,2,0:2:0:0:
107,250,29610,5,2,3:2:0:0:
107,250,29923,5,2,3:2:0:0:
107,250,30235,6,0,P|114:289|119:321,1,67.4999979400635,6|0,3:2|0:0,0:0:0:0:
209,375,30548,1,0,3:2:0:0:
291,305,30704,2,0,P|332:284|394:294,1,101.249996910095,14|0,2:2|0:2,0:0:0:0:
415,305,31017,6,0,B|425:258|425:258|410:220|410:220|422:166,1,134.999995880127,6|8,3:2|0:2,0:0:0:0:
334,120,31485,1,0,0:2:0:0:
334,120,31642,2,0,P|318:166|321:195,1,67.4999979400635,2|0,3:2|3:2,0:0:0:0:
284,279,31954,1,10,0:2:0:0:
206,213,32110,6,0,P|138:223|68:235,1,134.999995880127,2|0,0:2|3:2,0:0:0:0:
26,325,32579,2,0,P|59:330|92:335,1,67.4999979400635,10|0,0:2|0:2,0:0:0:0:
193,350,32892,1,2,3:2:0:0:
193,350,33048,1,2,0:2:0:0:
287,315,33204,2,0,P|293:280|283:245,1,67.4999979400635,10|0,0:2|0:2,0:0:0:0:
361,182,33517,6,0,P|403:187|430:190,1,67.4999979400635,2|0,3:2|0:0,0:0:0:0:
325,92,33829,2,0,B|294:104|294:104|250:96,1,67.4999979400635,8|0,0:2|0:0,0:0:0:0:
160,77,34142,2,0,P|165:113|168:149,1,67.4999979400635,2|0,3:2|3:2,0:0:0:0:
186,243,34454,1,10,0:2:0:0:
92,205,34610,6,0,P|28:222|0:281,1,134.999995880127,2|0,0:2|3:2,0:0:0:0:
70,355,35079,2,0,P|121:349|146:348,1,67.4999979400635,10|0,0:2|0:2,0:0:0:0:
238,338,35392,1,2,3:2:0:0:
215,239,35548,1,0,3:2:0:0:
341,286,35704,1,10,0:2:0:0:
318,187,35860,1,8,0:2:0:0:
186,243,36017,6,0,B|137:236|137:236|108:215|108:215|49:206,1,134.999995880127,6|8,3:2|0:2,0:0:0:0:
15,116,36485,1,2,0:2:0:0:
15,116,36642,2,0,P|52:110|86:102,1,67.4999979400635,2|2,3:2|0:2,0:0:0:0:
177,71,36954,1,8,0:2:0:0:
224,160,37110,6,0,P|215:207|212:233,1,67.4999979400635,2|0,3:2|0:0,0:0:0:0:
269,310,37423,1,2,3:2:0:0:
357,261,37579,2,0,P|388:266|430:259,1,67.4999979400635,8|2,0:2|0:2,0:0:0:0:
509,206,37892,1,2,3:2:0:0:
416,164,38048,1,0,0:2:0:0:
501,109,38204,1,10,0:2:0:0:
369,81,38360,6,0,B|335:90|335:90|290:83,1,67.4999979400635,6|0,3:2|0:0,0:0:0:0:
203,62,38673,1,0,3:2:0:0:
236,157,38829,2,0,P|231:191|225:232,1,67.4999979400635,8|0,0:2|0:2,0:0:0:0:
133,266,39142,2,0,B|50:252|50:252|14:264|8:288,1,134.999995880127,2|10,3:2|0:2,0:0:0:0:
124,364,39610,6,0,P|167:359|195:356,1,67.4999979400635,6|0,3:2|0:0,0:0:0:0:
305,346,39923,1,0,3:2:0:0:
231,257,40079,2,0,P|227:221|237:185,1,67.4999979400635,10|0,0:2|3:2,0:0:0:0:
291,91,40392,1,2,0:2:0:0:
356,199,40548,1,8,0:2:0:0:
356,199,40626,1,8,0:2:0:0:
356,199,40704,1,8,2:3:0:0:
413,100,40860,1,4,0:3:0:0:
270,74,41017,6,0,P|208:84|139:97,1,120,6|2,3:2|0:2,0:0:0:0:
79,157,41485,1,2,3:2:0:0:
161,216,41642,1,10,2:2:0:0:
161,216,41798,2,0,P|171:262|177:291,1,60,2|0,0:2|3:2,0:0:0:0:
257,320,42110,6,0,P|305:286|370:294,1,120,2|2,0:2|0:2,0:0:0:0:
449,342,42579,1,10,0:2:0:0:
449,342,42735,1,2,0:2:0:0:
499,258,42892,6,0,B|470:220|470:220|494:131,1,123.75000377655,6|0,3:2|0:0,0:0:0:0:
499,115,43204,2,0,P|453:132|392:71,1,123.75000377655,14|0,2:2|0:0,0:0:0:0:
386,63,43517,6,0,P|316:76|260:86,1,120,6|2,3:2|0:2,0:0:0:0:
193,145,43985,1,0,3:2:0:0:
263,210,44142,2,0,P|255:258|251:280,1,60,10|0,0:2|3:2,0:0:0:0:
165,307,44454,2,0,P|159:277|154:247,1,60,2|0,0:2|3:2,0:0:0:0:
104,165,44767,6,0,P|48:181|0:149,2,120,0|2|10,0:0|3:2|0:2,0:0:0:0:
187,116,45548,1,8,2:3:0:0:
101,72,45704,1,4,0:3:0:0:
179,17,45860,1,0,3:2:0:0:
179,17,45938,1,0,3:2:0:0:
179,17,46017,6,0,P|242:25|309:34,1,120,6|2,3:2|0:2,0:0:0:0:
367,98,46485,1,2,3:2:0:0:
280,140,46642,2,0,P|266:178|262:207,1,60,10|0,0:0|0:0,0:0:0:0:
272,292,46954,1,2,3:2:0:0:
364,267,47110,6,0,P|408:260|481:302,1,120,2|2,0:2|0:2,0:0:0:0:
401,357,47579,1,2,3:2:0:0:
401,357,47735,1,0,0:2:0:0:
304,333,47892,6,0,B|233:322|233:322|217:345|190:360,1,123.75000377655,6|0,3:2|0:2,0:0:0:0:
163,366,48204,2,0,P|143:326|145:279,1,82.5000025177003,14|0,0:2|0:0,0:0:0:0:
171,197,48517,6,0,P|220:205|284:160,2,120,2|10|2,3:2|0:2|3:2,0:0:0:0:
85,152,49298,1,0,0:2:0:0:
85,152,49454,2,0,P|82:114|98:80,1,60,10|0,0:2|0:2,0:0:0:0:
166,36,49767,6,0,P|221:44|302:57,2,120,6|10|2,3:2|0:2|3:2,0:0:0:0:
74,6,50548,1,0,3:2:0:0:
74,6,50704,2,0,P|27:17|3:23,1,60,10|0,0:2|0:2,0:0:0:0:
4,139,51017,6,0,P|22:172|27:219,1,75,6|0,3:2|0:2,0:0:0:0:
130,269,51329,2,0,P|135:232|153:199,1,75,10|0,0:2|0:2,0:0:0:0:
253,133,51642,2,0,L|294:138,3,37.5,2|0|2|0,3:2|3:2|3:2|3:2,0:0:0:0:
316,163,51954,2,0,L|357:158,3,37.5,10|0|2|0,0:2|3:2|3:2|3:2,0:0:0:0:
391,155,52267,5,10,0:2:0:0:
411,185,52345,1,0,3:2:0:0:
420,222,52423,1,0,3:2:0:0:
415,259,52501,1,0,3:2:0:0:
398,292,52579,2,0,L|357:287,3,37.5,10|0|0|0,0:2|3:2|3:2|3:2,0:0:0:0:
290,242,52892,6,0,L|249:247,1,37.5,10|8,0:2|0:2,0:0:0:0:
196,307,53048,1,8,0:2:0:0:
196,307,53126,1,8,0:2:0:0:
196,307,53204,2,0,P|151:311|118:295,1,75,8|4,0:3|0:3,0:0:0:0:
79,179,53517,6,0,P|130:170|175:162,1,75,6|0,3:2|0:2,0:0:0:0:
253,88,53829,2,0,P|216:81|179:74,1,75,10|0,0:2|0:2,0:0:0:0:
315,1,54142,1,2,3:2:0:0:
339,148,54298,1,2,3:2:0:0:
445,22,54454,1,10,0:2:0:0:
469,169,54610,5,6,3:2:0:0:
469,169,54923,5,2,3:2:0:0:
469,169,55235,5,2,3:2:0:0:
342,120,55392,1,10,0:2:0:0:
342,120,56017,6,0,B|317:210|317:210|347:230|361:270,1,165.000005035401,6|10,3:2|0:2,0:0:0:0:
190,302,56485,2,0,P|241:289|273:287,1,82.5000025177003,2|0,0:2|3:2,0:0:0:0:
123,211,56798,2,0,P|81:207|42:195,1,82.5000025177003,2|8,0:2|0:2,0:0:0:0:
158,79,57110,6,0,B|211:64|211:64|241:32|241:32|306:19,1,165.000005035401,2|0,3:2|0:0,0:0:0:0:
363,156,57579,2,0,P|315:149|258:141,1,82.5000025177003,8|2,0:2|0:2,0:0:0:0:
139,189,57892,1,2,3:2:0:0:
268,261,58048,1,2,0:2:0:0:
126,306,58204,2,0,P|75:314|35:302,1,82.5000025177003,10|0,0:2|0:2,0:0:0:0:
1,167,58517,6,0,B|103:144|103:144|138:157|142:205,1,165.000005035401,6|10,3:2|0:2,0:0:0:0:
238,320,58985,2,0,P|248:262|258:240,1,82.5000025177003,2|0,0:2|3:2,0:0:0:0:
352,105,59298,2,0,P|366:143|371:184,1,82.5000025177003,2|8,0:2|0:2,0:0:0:0:
374,225,59532,1,0,3:2:0:0:
374,225,59610,6,0,P|454:220|511:288,1,165.000005035401,2|0,3:2|3:2,0:0:0:0:
399,367,60079,2,0,P|353:360|307:355,1,82.5000025177003,10|0,0:2|0:2,0:0:0:0:
203,273,60392,2,0,P|243:268|284:261,1,82.5000025177003,2|0,3:2|0:2,0:0:0:0:
103,220,60704,1,10,0:2:0:0:
103,220,60782,1,8,0:2:0:0:
103,220,60860,1,8,0:2:0:0:
103,220,60938,1,8,0:2:0:0:
103,220,61017,6,0,B|72:318|72:318|96:336|115:366,1,165.000005035401,6|8,3:2|0:2,0:0:0:0:
0,212,61485,1,2,0:2:0:0:
124,129,61642,2,0,B|209:119|193:179|292:159,1,165.000005035401,2|8,3:2|0:2,0:0:0:0:
386,68,62110,1,2,3:2:0:0:
485,168,62267,6,0,P|477:210|469:252,1,82.5000025177003,2|0,3:2|0:2,0:0:0:0:
392,366,62579,1,8,0:2:0:0:
292,266,62735,1,0,3:2:0:0:
292,266,62813,1,0,3:2:0:0:
292,266,62892,2,0,P|284:219|303:171,1,82.5000025177003,2|0,3:2|3:2,0:0:0:0:
164,84,63204,2,0,B|177:134|177:134|159:173,1,82.5000025177003,12|0,2:2|0:0,0:0:0:0:
11,227,63517,6,0,P|14:183|20:137,1,82.5000025177003,10|0,2:2|3:2,0:0:0:0:
123,322,63829,2,0,P|119:278|114:232,1,82.5000025177003,10|0,0:2|3:2,0:0:0:0:
164,84,64142,1,10,0:2:0:0:
260,185,64298,1,2,3:2:0:0:
289,48,64454,1,2,3:2:0:0:
420,147,64610,6,0,P|460:139|501:135,1,82.5000025177003,6|0,3:2|0:0,0:0:0:0:
346,260,64923,2,0,P|386:267|427:271,1,82.5000025177003,2|0,3:2|0:0,0:0:0:0:
266,157,65235,1,2,3:2:0:0:
224,291,65392,1,0,3:2:0:0:
127,189,65548,1,8,0:2:0:0:
127,189,65626,1,8,0:2:0:0:
127,189,65704,2,0,L|76:196,1,41.2500012588501,10|8,0:2|0:2,0:0:0:0:
49,282,65860,2,0,L|89:287,1,41.2500012588501,10|8,0:2|0:2,0:0:0:0:
195,296,66017,6,0,B|290:279|290:279|301:318|336:342,1,165.000005035401,6|10,3:2|0:2,0:0:0:0:
459,289,66485,2,0,P|412:281|379:268,1,82.5000025177003,2|0,0:2|3:2,0:0:0:0:
264,186,66798,2,0,P|302:171|343:165,1,82.5000025177003,2|8,0:2|0:2,0:0:0:0:
489,90,67110,6,0,B|431:85|431:85|392:56|392:56|332:51,1,165.000005035401,2|0,3:2|0:0,0:0:0:0:
193,44,67579,2,0,P|175:81|178:131,1,82.5000025177003,8|2,0:2|0:2,0:0:0:0:
207,258,67892,1,2,3:2:0:0:
298,151,68048,1,2,0:2:0:0:
330,288,68204,2,0,P|322:335|314:386,1,82.5000025177003,10|0,0:2|0:2,0:0:0:0:
175,367,68517,6,0,B|85:348|85:348|61:373|17:382,1,165.000005035401,6|10,3:2|0:2,0:0:0:0:
35,241,68985,2,0,P|83:231|124:224,1,82.5000025177003,2|0,0:2|3:2,0:0:0:0:
218,128,69298,2,0,P|177:120|137:112,1,82.5000025177003,2|8,0:2|0:2,0:0:0:0:
290,31,69610,6,0,B|342:20|389:9|389:9|431:23|424:64,1,165.000005035401,2|0,3:2|0:2,0:0:0:0:
370,185,70079,2,0,P|326:195|281:183,1,82.5000025177003,10|0,0:2|0:2,0:0:0:0:
190,287,70392,2,0,P|230:285|267:302,1,82.5000025177003,2|0,3:2|0:2,0:0:0:0:
424,376,70704,1,10,0:2:0:0:
424,376,70782,1,8,0:2:0:0:
424,376,70860,1,8,0:2:0:0:
424,376,70938,1,8,0:2:0:0:
424,376,71017,6,0,B|473:331|473:331|438:209,1,165.000005035401,6|8,3:2|0:2,0:0:0:0:
329,158,71485,1,2,0:2:0:0:
233,261,71642,2,0,P|180:293|75:256,1,165.000005035401,2|8,3:2|0:2,0:0:0:0:
10,149,72110,1,2,0:2:0:0:
147,112,72267,6,0,P|152:153|156:195,1,82.5000025177003,2|0,3:2|0:0,0:0:0:0:
271,78,72579,1,8,0:2:0:0:
139,21,72735,1,2,3:2:0:0:
242,160,72892,2,0,P|284:169|330:157,1,82.5000025177003,2|0,3:2|0:2,0:0:0:0:
482,226,73204,2,0,B|439:219|439:219|398:233,1,82.5000025177003,14|0,0:2|0:0,0:0:0:0:
236,285,73517,6,0,P|244:328|253:370,1,82.5000025177003,10|0,2:2|3:2,0:0:0:0:
136,205,73829,2,0,P|128:248|119:290,1,82.5000025177003,10|0,0:2|3:2,0:0:0:0:
9,140,74142,1,8,0:3:0:0:
143,178,74298,1,8,0:3:0:0:
77,54,74454,1,4,0:3:0:0:
229,90,74610,6,0,P|267:104|319:98,1,82.5000025177003,14|0,2:2|0:0,0:0:0:0:
455,44,74923,1,10,0:2:0:0:
394,170,75079,1,8,0:3:0:0:
366,7,75235,1,8,0:3:0:0:
494,136,75392,2,0,B|508:177|508:177|496:222,1,82.5000025177003,6|2,3:2|3:2,0:0:0:0:
469,292,75626,1,0,3:0:0:0:
469,292,75704,2,0,P|422:284|384:280,1,82.5000025177003,0|10,3:0|2:2,0:0:0:0:
239,262,76017,6,0,P|228:313|224:348,1,82.5000025177003,2|0,3:2|0:2,0:0:0:0:
81,218,76329,2,0,B|69:178|69:178|90:133,1,82.5000025177003,12|2,0:2|0:2,0:0:0:0:
219,262,76642,6,0,P|208:313|204:348,1,82.5000025177003,2|0,3:2|0:2,0:0:0:0:
61,218,76954,2,0,B|49:178|49:178|70:133,1,82.5000025177003,12|0,0:2|3:2,0:0:0:0:
189,30,77267,6,0,P|242:33|278:51,1,82.5000025177003,2|0,3:2|0:2,0:0:0:0:
350,168,77579,2,0,P|311:182|270:182,1,82.5000025177003,10|0,0:2|0:2,0:0:0:0:
388,66,77892,1,2,3:2:0:0:
483,168,78048,1,0,3:2:0:0:
483,168,78126,1,0,3:2:0:0:
483,168,78204,2,0,P|475:220|471:255,1,82.5000025177003,10|0,0:2|3:2,0:0:0:0:
359,371,78517,6,0,P|342:331|344:281,1,82.5000025177003,6|0,3:2|0:2,0:0:0:0:
207,250,78829,2,0,P|205:290|189:328,1,82.5000025177003,10|0,0:2|0:2,0:0:0:0:
51,358,79142,1,2,3:2:0:0:
103,228,79298,1,2,3:2:0:0:
103,228,79376,1,0,3:2:0:0:
103,228,79454,2,0,P|99:184|94:142,1,82.5000025177003,10|2,0:2|3:2,0:0:0:0:
207,61,79767,6,0,P|231:113|232:145,1,82.5000025177003,6|0,3:2|3:2,0:0:0:0:
317,248,80079,1,10,0:2:0:0:
410,144,80235,1,0,3:2:0:0:
410,144,80313,1,0,3:2:0:0:
410,144,80392,2,0,L|466:151,3,41.2500012588501,10|8|8|8,0:2|0:2|0:2|0:2,0:0:0:0:
486,223,80704,2,0,P|443:230|395:238,1,82.5000025177003,14|2,0:2|0:2,0:0:0:0:
251,299,81017,6,0,P|236:351|230:384,1,82.5000025177003,2|0,3:2|0:2,0:0:0:0:
35,312,81329,2,0,B|77:324|77:324|121:303,1,82.5000025177003,12|2,0:2|0:2,0:0:0:0:
271,289,81642,6,0,P|256:341|250:374,1,82.5000025177003,2|0,3:2|0:2,0:0:0:0:
35,332,81954,2,0,B|77:344|77:344|121:323,1,82.5000025177003,12|2,0:2|3:2,0:0:0:0:
230,211,82267,6,0,P|193:191|152:189,1,82.5000025177003,2|0,3:2|0:2,0:0:0:0:
5,116,82579,2,0,P|45:113|82:94,1,82.5000025177003,10|0,0:2|0:2,0:0:0:0:
195,3,82892,1,2,3:2:0:0:
275,134,83048,1,2,3:2:0:0:
275,134,83126,1,0,3:2:0:0:
275,134,83204,2,0,P|267:177|260:219,1,82.5000025177003,10|0,0:2|0:2,0:0:0:0:
226,352,83517,5,0,3:2:0:0:
158,229,83673,1,2,0:2:0:0:
304,303,83829,2,0,P|346:304|392:282,1,82.5000025177003,10|0,0:2|0:2,0:0:0:0:
492,199,84142,1,2,3:2:0:0:
352,202,84298,1,2,3:2:0:0:
486,297,84454,1,10,0:2:0:0:
418,129,84610,1,2,3:2:0:0:
260,215,84767,5,4,3:2:0:0:
260,215,85704,6,0,P|200:189|139:219,1,123.75000377655,2|0,0:2|0:0,0:0:0:0:
124,232,86017,6,0,B|89:198|89:198|117:103,1,134.999995880127,6|8,3:2|0:2,0:0:0:0:
204,71,86485,2,0,P|198:37|190:4,2,67.4999979400635,2|0|0,0:2|0:0|0:2,0:0:0:0:
290,124,86954,6,0,P|328:105|419:137,1,134.999995880127,10|2,0:2|3:2,0:0:0:0:
449,224,87423,2,0,P|456:257|462:290,2,67.4999979400635,2|8|0,0:2|0:2|0:2,0:0:0:0:
353,190,87892,5,2,3:2:0:0:
353,190,88048,1,2,0:2:0:0:
303,278,88204,1,10,0:2:0:0:
303,278,88360,1,0,0:2:0:0:
217,222,88517,6,0,P|172:228|145:233,1,67.4999979400635,6|0,3:2|0:0,0:0:0:0:
215,121,88829,2,0,P|248:126|281:130,1,67.4999979400635,8|2,0:2|0:2,0:0:0:0:
374,88,89142,1,0,3:2:0:0:
282,44,89298,1,0,0:2:0:0:
375,0,89454,1,10,0:2:0:0:
367,180,89610,5,2,3:2:0:0:
367,180,89923,5,2,3:2:0:0:
367,180,90235,6,0,P|381:217|383:251,1,67.4999979400635,2|0,3:2|0:0,0:0:0:0:
339,336,90548,1,0,3:2:0:0:
250,276,90704,2,0,B|203:248|153:289|153:289|161:349|225:353,1,194.999991073609,12|2,0:2|3:2,0:0:0:0:
208,350,91642,6,0,P|152:355|95:362,1,104.999996795654,10|2,0:2|0:2,0:0:0:0:
9,220,92267,1,0,3:2:0:0:
9,220,92423,2,0,P|29:180|16:113,1,104.999996795654,8|0,0:2|0:0,0:0:0:0:
79,61,92892,2,0,P|123:66|142:68,1,52.4999983978272,10|2,0:2|0:2,0:0:0:0:
197,118,93204,2,0,P|241:113|260:111,1,52.4999983978272,2|0,0:2|0:0,0:0:0:0:
333,111,93517,6,0,B|352:146|352:146|335:214,1,104.999996795654,14|0,0:2|3:2,0:0:0:0:
196,302,94142,2,0,P|181:255|183:195,1,104.999996795654,10|2,0:2|0:2,0:0:0:0:
215,36,94767,1,0,3:2:0:0:
215,36,94923,2,0,P|155:46|94:59,1,104.999996795654,8|0,0:2|0:2,0:0:0:0:
38,97,95392,2,0,P|29:132|36:161,1,52.4999983978272,10|0,0:2|0:0,0:0:0:0:
79,216,95704,2,0,P|88:251|81:280,1,52.4999983978272,10|0,0:2|3:2,0:0:0:0:
51,343,96017,6,0,B|91:363|91:363|163:345,1,104.999996795654,14|0,2:2|3:2,0:0:0:0:
254,216,96642,2,0,P|259:161|265:108,1,104.999996795654,10|0,0:2|0:2,0:0:0:0:
411,29,97267,1,0,3:2:0:0:
411,29,97423,2,0,P|437:75|427:141,1,104.999996795654,10|2,0:2|0:2,0:0:0:0:
401,203,97892,2,0,P|447:229|513:219,1,104.999996795654,10|2,0:2|3:2,0:0:0:0:
393,358,98517,6,0,B|327:351|327:351|286:377,1,104.999996795654,14|0,0:2|3:2,0:0:0:0:
154,278,99142,2,0,P|205:289|269:253,1,104.999996795654,2|0,3:2|3:2,0:0:0:0:
346,81,99767,1,10,0:2:0:0:
73,147,100235,5,0,3:2:0:0:
73,147,100313,1,0,3:2:0:0:
73,147,100392,2,0,P|79:183|84:215,1,67.4999979400635,10|8,0:2|0:2,0:0:0:0:
173,166,100704,2,0,P|178:132|183:99,1,67.4999979400635,10|8,0:2|0:2,0:0:0:0:
280,14,101017,6,0,B|305:82|305:82|288:111|291:142,1,134.999995880127,6|8,3:2|0:2,0:0:0:0:
339,234,101485,1,0,0:2:0:0:
339,234,101642,2,0,P|386:228|425:224,1,67.4999979400635,2|0,3:2|3:2,0:0:0:0:
478,295,101954,1,10,0:2:0:0:
402,362,102110,6,0,B|333:342|333:342|313:369|279:377,1,134.999995880127,6|0,3:2|3:2,0:0:0:0:
193,325,102579,2,0,P|227:307|263:301,1,67.4999979400635,10|0,0:2|0:2,0:0:0:0:
313,217,102892,1,2,3:2:0:0:
313,217,103048,1,0,0:2:0:0:
219,177,103204,2,0,P|225:143|231:99,1,67.4999979400635,10|8,0:2|0:2,0:0:0:0:
280,22,103517,6,0,P|310:31|349:30,1,67.4999979400635,6|0,3:2|0:0,0:0:0:0:
407,110,103829,2,0,B|373:109|373:109|339:120,1,67.4999979400635,8|0,0:2|0:2,0:0:0:0:
313,217,104142,2,0,P|346:220|392:227,1,67.4999979400635,2|0,3:2|3:2,0:0:0:0:
453,293,104454,1,10,0:2:0:0:
375,357,104610,6,0,P|317:371|244:307,1,134.999995880127,6|0,3:2|3:2,0:0:0:0:
207,243,105079,2,0,P|172:246|128:250,1,67.4999979400635,10|0,0:2|0:2,0:0:0:0:
50,200,105392,1,2,3:2:0:0:
136,147,105548,1,0,0:2:0:0:
22,88,105704,1,10,0:2:0:0:
130,19,105860,1,8,0:2:0:0:
231,97,106017,6,0,B|306:116|306:116|335:104|355:67,1,134.999995880127,6|8,3:2|0:2,0:0:0:0:
432,21,106485,1,0,0:2:0:0:
432,21,106642,2,0,P|446:53|448:93,1,67.4999979400635,2|2,3:2|3:2,0:0:0:0:
399,173,106954,1,10,0:2:0:0:
307,216,107110,6,0,P|260:207|234:204,1,67.4999979400635,2|0,3:2|0:2,0:0:0:0:
317,299,107423,1,2,3:2:0:0:
398,239,107579,2,0,P|403:208|396:166,1,67.4999979400635,8|2,0:2|3:2,0:0:0:0:
494,138,107892,2,0,P|489:171|494:204,1,67.4999979400635,2|0,3:2|3:2,0:0:0:0:
511,304,108204,1,10,0:2:0:0:
428,362,108360,6,0,B|392:366|392:366|350:355,1,67.4999979400635,6|0,3:2|0:2,0:0:0:0:
271,310,108673,1,2,0:2:0:0:
307,216,108829,2,0,P|302:182|297:149,1,67.4999979400635,8|0,0:2|0:2,0:0:0:0:
225,77,109142,2,0,B|175:88|175:88|152:110|152:110|88:128,1,134.999995880127,2|8,3:2|0:2,0:0:0:0:
49,210,109610,6,0,B|81:222|81:222|129:215,1,67.4999979400635,6|0,3:2|0:2,0:0:0:0:
212,192,109923,1,0,3:2:0:0:
268,276,110079,2,0,P|260:308|264:342,1,67.4999979400635,10|0,0:2|3:2,0:0:0:0:
359,379,110392,1,2,3:2:0:0:
371,278,110548,1,8,0:2:0:0:
371,278,110626,1,8,0:2:0:0:
371,278,110704,1,8,0:3:0:0:
458,328,110860,1,4,0:3:0:0:
483,228,111017,6,0,B|497:154|497:154|462:109,1,120,6|2,3:2|0:2,0:0:0:0:
396,57,111485,1,2,3:2:0:0:
331,128,111642,1,10,0:2:0:0:
331,128,111798,2,0,P|285:118|256:112,1,60,0|0,0:0|3:2,0:0:0:0:
198,176,112110,6,0,P|223:217|230:244,1,60,2|0,3:2|0:0,0:0:0:0:
302,287,112423,2,0,P|313:259|330:234,1,60,2|0,0:2|3:2,0:0:0:0:
396,304,112735,1,2,0:2:0:0:
325,373,112892,6,0,B|283:384|248:358|248:358|229:373|198:378,1,123.75000377655,6|0,3:2|0:2,0:0:0:0:
177,379,113204,2,0,P|146:336|161:262,1,123.75000377655,14|0,0:2|0:2,0:0:0:0:
172,243,113517,6,0,P|112:233|50:221,1,120,2|2,3:2|0:2,0:0:0:0:
5,139,113985,1,0,3:2:0:0:
86,87,114142,2,0,P|101:126|103:162,1,60,10|0,0:2|3:2,0:0:0:0:
197,159,114454,2,0,P|202:129|214:102,1,60,2|0,0:2|3:2,0:0:0:0:
300,59,114767,6,0,P|335:92|422:90,2,120,2|2|10,0:2|3:2|0:2,0:0:0:0:
379,6,115548,1,0,3:2:0:0:
472,26,115704,1,8,0:3:0:0:
510,124,115860,1,4,0:3:0:0:
510,124,115938,1,4,0:3:0:0:
510,124,116017,6,0,P|502:187|493:254,1,120,6|2,3:2|0:2,0:0:0:0:
432,316,116485,1,0,3:2:0:0:
356,255,116642,1,10,0:2:0:0:
356,255,116798,2,0,P|319:263|291:269,1,60,0|0,0:0|3:2,0:0:0:0:
202,279,117110,6,0,P|180:227|203:155,1,120,2|2,0:2|0:2,0:0:0:0:
260,96,117579,1,2,3:2:0:0:
260,96,117735,1,0,0:2:0:0:
179,37,117892,6,0,B|143:45|127:68|127:68|95:57|65:64,1,123.75000377655,6|0,3:2|0:0,0:0:0:0:
35,75,118204,2,0,P|28:117|19:166,1,82.5000025177003,14|0,0:2|0:2,0:0:0:0:
69,239,118517,6,0,P|110:216|180:228,2,120,6|2|10,3:2|3:2|0:2,0:0:0:0:
51,338,119298,1,0,3:2:0:0:
51,338,119454,2,0,P|82:334|114:330,1,60,0|0,0:0|3:2,0:0:0:0:
206,317,119767,6,0,P|247:340|317:328,2,120,10|2|10,0:2|3:2|0:2,0:0:0:0:
179,227,120548,1,0,3:2:0:0:
179,227,120704,2,0,P|185:194|189:162,1,60,2|0,0:2|3:2,0:0:0:0:
261,71,121017,6,0,P|297:65|343:77,1,75,6|0,3:2|0:2,0:0:0:0:
382,182,121329,2,0,P|346:188|300:176,1,75,8|0,0:2|0:2,0:0:0:0:
188,167,121642,2,0,L|147:172,3,37.5,0|0|0|0,3:2|3:0|3:2|3:0,0:0:0:0:
118,191,121954,2,0,L|77:186,3,37.5,8|0|0|0,2:2|3:2|3:2|3:2,0:0:0:0:
43,178,122267,5,2,3:2:0:0:
37,215,122345,1,0,3:2:0:0:
32,252,122423,1,0,3:2:0:0:
27,289,122501,1,0,3:2:0:0:
24,326,122579,2,0,L|32:375,3,37.5,10|0|0|0,0:2|3:2|3:2|3:2,0:0:0:0:
111,382,122892,6,0,L|152:377,1,37.5,10|0,0:2|3:2,0:0:0:0:
237,371,123048,1,8,0:2:0:0:
237,371,123126,1,8,2:2:0:0:
237,371,123204,2,0,P|242:330|218:285,1,75,10|8,0:2|0:2,0:0:0:0:
172,174,123517,5,6,3:2:0:0:
307,211,123673,1,0,3:2:0:0:
307,211,123751,1,0,3:2:0:0:
307,211,123829,1,0,3:2:0:0:
289,77,123985,2,0,B|250:69|250:69|204:82,1,75,14|2,0:2|3:2,0:0:0:0:
86,117,124298,1,2,3:2:0:0:
140,5,124454,1,10,0:2:0:0:
172,174,124610,6,0,P|161:220|154:260,1,75,6|0,3:2|0:2,0:0:0:0:
299,313,124923,2,0,P|291:276|282:239,1,75,2|0,3:2|0:2,0:0:0:0:
359,138,125235,1,0,3:2:0:0:
359,138,125313,1,0,3:2:0:0:
359,138,125392,6,0,B|386:135|403:125|403:125|431:131|454:149,1,97.4999955368044,2|0,3:1|0:2,0:1:0:0:
489,282,125704,1,8,0:2:0:0:
489,282,125782,1,8,0:2:0:0:
489,282,125860,1,8,0:2:0:0:
489,282,125938,1,8,0:2:0:0:
489,282,126017,6,0,B|437:288|388:266|388:266|348:277|341:317,1,165.000005035401,6|10,3:2|0:2,0:0:0:0:
227,382,126485,2,0,P|216:335|210:288,1,82.5000025177003,2|0,0:2|3:2,0:0:0:0:
101,213,126798,2,0,P|94:253|85:293,1,82.5000025177003,2|8,0:2|0:2,0:0:0:0:
47,116,127110,6,0,B|82:92|140:100|140:100|169:127|222:118,1,165.000005035401,2|0,3:2|0:0,0:0:0:0:
339,83,127579,2,0,P|356:128|346:180,1,82.5000025177003,8|2,0:2|0:2,0:0:0:0:
280,282,127892,2,0,P|274:242|264:187,1,82.5000025177003,2|2,3:2|0:2,0:0:0:0:
233,370,128204,1,10,0:2:0:0:
379,294,128360,1,2,0:2:0:0:
263,175,128517,6,0,B|216:189|168:172|168:172|152:202|114:221,1,165.000005035401,6|10,3:2|0:2,0:0:0:0:
0,144,128985,2,0,P|5:102|14:50,1,82.5000025177003,2|0,0:2|3:2,0:0:0:0:
137,0,129298,2,0,P|144:40|148:81,1,82.5000025177003,2|8,0:2|0:2,0:0:0:0:
263,175,129610,6,0,B|354:157|339:219|432:193,1,165.000005035401,2|0,3:2|0:0,0:0:0:0:
511,86,130079,2,0,P|501:45|492:4,1,82.5000025177003,10|0,0:2|0:0,0:0:0:0:
351,5,130392,2,0,P|342:45|332:85,1,82.5000025177003,2|0,3:2|3:2,0:0:0:0:
304,222,130704,1,10,0:2:0:0:
304,222,130782,1,8,0:2:0:0:
304,222,130860,1,8,0:2:0:0:
304,222,130938,1,8,0:2:0:0:
304,222,131017,6,0,B|239:211|239:211|208:181|208:181|126:169,1,165.000005035401,6|8,3:2|0:2,0:0:0:0:
16,206,131485,1,2,3:2:0:0:
57,340,131642,2,0,P|108:360|207:322,1,165.000005035401,2|8,3:2|0:2,0:0:0:0:
304,222,132110,1,2,0:2:0:0:
420,300,132267,6,0,P|412:342|404:384,1,82.5000025177003,2|0,3:2|0:2,0:0:0:0:
302,252,132579,1,8,0:2:0:0:
429,194,132735,1,2,3:2:0:0:
429,194,132813,1,0,3:2:0:0:
429,194,132892,2,0,P|476:186|524:205,1,82.5000025177003,2|0,3:2|3:2,0:0:0:0:
360,90,133204,2,0,B|324:101|324:101|272:92,1,82.5000025177003,14|0,0:2|0:0,0:0:0:0:
138,195,133517,6,0,P|180:190|219:185,1,82.5000025177003,10|0,2:2|3:2,0:0:0:0:
86,307,133829,2,0,P|128:311|167:316,1,82.5000025177003,10|0,0:2|3:2,0:0:0:0:
332,297,134142,1,2,3:2:0:0:
217,216,134298,1,2,3:2:0:0:
261,366,134454,1,10,2:2:0:0:
338,201,134610,6,0,P|378:193|419:189,1,82.5000025177003,6|0,3:2|0:0,0:0:0:0:
278,73,134923,2,0,P|318:80|359:84,1,82.5000025177003,2|0,3:2|0:0,0:0:0:0:
182,0,135235,1,2,3:2:0:0:
201,139,135392,1,0,3:2:0:0:
65,102,135548,1,8,0:2:0:0:
65,102,135626,1,8,0:2:0:0:
65,102,135704,2,0,L|58:153,1,41.2500012588501,10|8,0:2|2:2,0:0:0:0:
0,217,135860,2,0,L|5:257,1,41.2500012588501,10|8,0:2|0:2,0:0:0:0:
67,341,136017,6,0,B|108:352|108:352|150:338,1,82.5000025177003,6|2,3:2|0:2,0:0:0:0:
229,237,136329,1,10,0:2:0:0:
229,237,136485,2,0,P|190:219|149:216,1,82.5000025177003,2|0,0:2|3:2,0:0:0:0:
88,98,136798,2,0,P|128:94|166:76,1,82.5000025177003,2|8,0:2|0:2,0:0:0:0:
285,20,137110,6,0,B|263:112|263:112|276:147|327:156,1,165.000005035401,2|0,3:2|0:0,0:0:0:0:
444,186,137579,2,0,P|433:227|424:270,1,82.5000025177003,8|2,0:2|0:2,0:0:0:0:
344,381,137892,1,2,3:2:0:0:
308,246,138048,1,2,0:2:0:0:
182,308,138204,2,0,P|134:312|84:292,1,82.5000025177003,10|0,0:2|0:2,0:0:0:0:
63,166,138517,6,0,B|121:155|121:155|152:132|152:132|222:122,1,165.000005035401,6|10,3:2|0:2,0:0:0:0:
356,99,138985,2,0,P|347:58|339:18,1,82.5000025177003,2|0,0:2|3:2,0:0:0:0:
475,102,139298,2,0,P|467:142|458:182,1,82.5000025177003,2|8,0:2|0:2,0:0:0:0:
395,307,139610,6,0,B|302:325|302:325|266:305|285:261,1,165.000005035401,2|0,3:2|0:2,0:0:0:0:
223,137,140079,2,0,P|175:131|131:125,1,82.5000025177003,10|0,0:2|0:2,0:0:0:0:
32,36,140392,2,0,P|72:30|113:25,1,82.5000025177003,2|0,3:2|3:2,0:0:0:0:
265,64,140704,1,10,0:2:0:0:
265,64,140782,1,8,0:2:0:0:
265,64,140860,1,8,0:2:0:0:
265,64,140938,1,8,0:2:0:0:
265,64,141017,6,0,B|249:114|233:160|233:160|257:174|283:213,1,165.000005035401,6|8,3:2|0:2,0:0:0:0:
336,323,141485,1,2,0:2:0:0:
467,271,141642,2,0,P|501:212|470:106,1,165.000005035401,2|8,3:2|0:2,0:0:0:0:
396,10,142110,1,2,0:2:0:0:
283,94,142267,6,0,P|326:100|371:107,1,82.5000025177003,2|0,3:2|0:0,0:0:0:0:
213,190,142579,1,8,0:2:0:0:
178,54,142735,1,2,0:2:0:0:
105,174,142892,2,0,P|96:216|108:262,1,82.5000025177003,2|0,3:2|3:2,0:0:0:0:
293,185,143204,2,0,B|250:178|250:178|209:192,1,82.5000025177003,14|0,0:2|0:0,0:0:0:0:
397,140,143517,6,0,P|405:183|414:225,1,82.5000025177003,10|0,0:2|3:2,0:0:0:0:
275,98,143829,2,0,P|267:141|258:183,1,82.5000025177003,10|0,0:2|3:2,0:0:0:0:
227,316,144142,1,8,0:3:0:0:
126,218,144298,1,8,0:3:0:0:
95,356,144454,1,4,0:3:0:0:
236,289,144610,6,0,P|274:303|326:297,1,82.5000025177003,6|0,3:2|0:0,0:0:0:0:
437,201,144923,1,10,0:2:0:0:
293,185,145079,1,8,0:3:0:0:
408,290,145235,1,4,0:3:0:0:
507,137,145392,2,0,B|488:95|488:95|495:48,1,82.5000025177003,6|0,3:2|3:2,0:0:0:0:
423,23,145626,1,0,3:2:0:0:
423,23,145704,2,0,P|384:41|344:38,1,82.5000025177003,8|2,0:2|0:2,0:0:0:0:
197,17,146017,6,0,P|205:61|214:104,1,82.5000025177003,2|0,3:2|0:0,0:0:0:0:
23,89,146329,2,0,B|64:96|64:96|104:81,1,82.5000025177003,12|0,0:2|0:0,0:0:0:0:
217,17,146642,6,0,P|225:61|234:104,1,82.5000025177003,2|0,3:2|0:0,0:0:0:0:
23,109,146954,2,0,B|64:116|64:116|104:101,1,82.5000025177003,12|0,0:2|0:0,0:0:0:0:
221,216,147267,6,0,P|182:201|141:201,1,82.5000025177003,6|0,3:2|0:2,0:0:0:0:
200,328,147579,2,0,P|241:327|279:313,1,82.5000025177003,10|0,0:2|0:2,0:0:0:0:
365,201,147892,1,2,3:2:0:0:
479,281,148048,1,0,3:2:0:0:
479,281,148126,1,0,3:2:0:0:
479,281,148204,2,0,P|485:324|474:370,1,82.5000025177003,10|0,0:2|3:2,0:0:0:0:
321,383,148517,6,0,P|314:342|306:293,1,82.5000025177003,6|0,3:2|0:2,0:0:0:0:
181,241,148829,2,0,P|174:281|167:322,1,82.5000025177003,10|0,0:2|0:2,0:0:0:0:
75,184,149142,1,2,3:2:0:0:
206,136,149298,1,2,3:2:0:0:
206,136,149376,1,0,3:2:0:0:
206,136,149454,2,0,P|250:132|293:149,1,82.5000025177003,10|2,0:2|3:2,0:0:0:0:
419,188,149767,6,0,P|423:149|429:97,1,82.5000025177003,6|0,3:2|3:2,0:0:0:0:
504,279,150079,1,10,0:2:0:0:
364,273,150235,1,0,3:2:0:0:
364,273,150313,1,0,3:2:0:0:
364,273,150392,2,0,L|308:280,3,41.2500012588501,0|0|0|0,3:2|3:2|3:2|3:2,0:0:0:0:
249,314,150704,2,0,P|207:322|159:303,1,82.5000025177003,14|2,0:2|0:2,0:0:0:0:
108,183,151017,6,0,P|101:137|94:94,1,82.5000025177003,2|0,3:2|0:0,0:0:0:0:
276,90,151329,2,0,B|235:83|235:83|188:102,1,82.5000025177003,12|0,0:2|0:0,0:0:0:0:
88,193,151642,6,0,P|81:147|74:104,1,82.5000025177003,2|0,3:2|0:0,0:0:0:0:
276,110,151954,2,0,B|235:103|235:103|188:122,1,82.5000025177003,12|0,0:2|0:0,0:0:0:0:
285,228,152267,6,0,P|325:233|369:217,1,82.5000025177003,6|0,3:2|0:2,0:0:0:0:
241,341,152579,2,0,P|202:328|161:332,1,82.5000025177003,10|0,0:2|0:2,0:0:0:0:
25,368,152892,1,2,3:2:0:0:
73,236,153048,1,2,3:2:0:0:
73,236,153126,1,0,3:2:0:0:
73,236,153204,2,0,P|65:193|58:151,1,82.5000025177003,10|0,2:2|0:2,0:0:0:0:
132,34,153517,5,4,3:2:0:0:
186,163,153673,1,2,0:2:0:0:
263,46,153829,2,0,P|303:40|356:55,1,82.5000025177003,10|0,0:2|0:2,0:0:0:0:
439,152,154142,1,2,3:2:0:0:
298,152,154298,1,2,3:2:0:0:
442,57,154454,1,10,0:2:0:0:
369,223,154610,1,2,3:2:0:0:
250,73,154767,5,4,3:2:0:0:
250,73,156017,6,0,B|235:126|235:126|252:165|252:165|232:230,1,150,6|10,3:1|2:1,0:0:0:0:
95,200,156485,2,0,P|127:178|166:171,1,75,2|0,0:1|3:2,0:0:0:0:
97,290,156798,2,0,P|60:282|30:260,1,75,2|8,0:1|0:2,0:0:0:0:
159,374,157110,6,0,B|255:350|255:350|271:370|295:380,1,150,2|0,0:1|3:2,0:0:0:0:
420,355,157579,1,10,0:1:0:0:
374,236,157735,2,0,P|346:259|331:299,1,75,2|0,0:1|3:2,0:0:0:0:
208,327,158048,2,0,P|194:292|165:268,2,75,2|8|0,0:1|0:2|3:2,0:0:0:0:
56,279,158517,6,0,B|63:226|63:226|87:193|87:193|93:137,1,150,6|10,3:1|0:1,0:0:0:0:
178,42,158985,2,0,P|188:100|190:121,1,75,2|0,0:1|3:2,0:0:0:0:
299,181,159298,2,0,P|303:143|310:106,1,75,2|8,0:1|0:2,0:0:0:0:
440,181,159610,6,0,B|463:268|463:268|443:299|406:293,1,150,6|0,3:1|3:2,0:0:0:0:
284,294,160079,1,10,0:1:0:0:
284,294,160157,1,0,3:2:0:0:
284,294,160235,1,0,3:2:0:0:
284,294,160313,1,0,3:2:0:0:
284,294,160392,2,0,P|227:307|202:313,1,75,6|0,3:1|3:2,0:0:0:0:
111,231,160704,1,10,0:1:0:0:
111,231,160782,1,8,0:2:0:0:
111,231,160860,2,0,L|120:185,1,37.5,8|8,0:2|0:2,0:0:0:0:
143,110,161017,6,0,B|234:93|234:93|245:128|284:151,1,150,6|8,2:1|2:2,0:0:0:0:
349,42,161485,1,2,0:1:0:0:
453,116,161642,2,0,P|434:171|421:267,1,150,2|8,3:1|0:2,0:0:0:0:
310,323,162110,5,2,0:1:0:0:
310,323,162267,2,0,P|287:288|175:288,1,150,2|8,3:1|0:2,0:0:0:0:
84,354,162735,1,2,0:1:0:0:
1,255,162892,2,0,P|5:217|10:180,1,75,2|0,3:1|0:0,0:0:0:0:
70,68,163204,1,8,0:2:0:0:
128,181,163360,1,2,0:1:0:0:
235,110,163517,6,0,B|246:73|246:73|235:31,1,75,6|0,3:1|0:2,0:0:0:0:
360,7,163829,2,0,P|355:46|349:85,1,75,10|0,0:1|0:2,0:0:0:0:
402,197,164142,1,2,3:1:0:0:
473,91,164298,1,0,3:2:0:0:
347,110,164454,1,10,0:1:0:0:
488,178,164610,6,0,B|511:266|511:266|476:286|461:319,1,150,6|0,3:1|3:2,0:0:0:0:
351,358,165079,2,0,P|343:316|333:265,1,75,8|0,0:2|3:2,0:0:0:0:
328,252,165313,1,0,3:2:0:0:
328,252,165392,2,0,P|282:267|238:259,1,75,2|0,3:1|3:2,0:0:0:0:
135,224,165704,1,10,0:1:0:0:
223,132,165860,1,8,0:2:0:0:
223,132,165938,1,8,0:2:0:0:
223,132,166017,6,0,B|256:116|295:125|295:125|302:134|302:134|333:155|386:136,1,150,6|10,3:1|2:1,0:0:0:0:
490,123,166485,2,0,P|482:164|476:209,1,75,2|0,0:1|3:2,0:0:0:0:
445,320,166798,1,2,0:1:0:0:
352,232,166954,1,10,0:1:0:0:
274,333,167110,6,0,B|222:341|222:341|193:369|193:369|132:378,1,150,6|0,3:1|3:2,0:0:0:0:
49,283,167579,2,0,P|89:268|132:267,1,75,10|0,0:1|0:0,0:0:0:0:
189,158,167892,2,0,P|151:154|117:140,1,75,2|0,3:1|0:2,0:0:0:0:
277,103,168204,1,10,2:1:0:0:
277,103,168282,1,2,3:2:0:0:
277,103,168360,1,2,3:2:0:0:
277,103,168438,1,2,3:2:0:0:
277,103,168517,6,0,P|285:139|288:176,1,75,6|0,3:1|3:2,0:0:0:0:
375,269,168829,2,0,P|378:231|386:195,1,75,10|0,0:1|3:2,0:0:0:0:
427,73,169142,1,2,3:1:0:0:
512,156,169298,1,0,3:2:0:0:
392,170,169454,1,10,0:1:0:0:
291,79,169610,6,0,B|205:66|205:66|163:82|179:124,1,150,6|0,3:1|3:2,0:0:0:0:
229,231,170079,2,0,P|224:269|217:309,1,75,8|0,0:2|3:2,0:0:0:0:
110,375,170392,1,6,3:1:0:0:
116,247,170548,1,0,3:2:0:0:
116,247,170626,1,0,3:2:0:0:
116,247,170704,1,10,0:1:0:0:
210,332,170860,1,8,0:2:0:0:
258,213,171017,6,0,P|309:207|381:271,1,150,6|10,3:1|0:2,0:0:0:0:
442,360,171485,1,2,0:1:0:0:
502,264,171642,2,0,P|510:224|512:178,1,75,2|0,3:1|0:2,0:0:0:0:
484,80,171954,1,10,0:1:0:0:
484,80,172110,1,0,3:2:0:0:
381,128,172267,6,0,P|341:128|303:112,1,75,2|0,0:1|0:2,0:0:0:0:
226,39,172579,2,0,P|261:26|298:26,1,75,2|0,3:1|0:2,0:0:0:0:
227,193,172892,2,0,B|215:159|215:159|228:115,1,75,6|0,3:1|0:2,0:0:0:0:
104,21,173204,2,0,B|116:55|116:55|103:99,1,75,14|0,2:1|0:2,0:0:0:0:
40,237,173517,6,0,B|71:322|71:322|52:350|15:347,1,150,6|0,3:1|0:0,0:0:0:0:
175,257,173985,2,0,B|232:242|232:242|251:217|251:217|324:198,1,150,2|8,3:1|0:2,0:0:0:0:
456,172,174454,5,6,3:1:0:0:
325,98,174610,1,0,3:0:0:0:
325,98,174688,1,0,3:2:0:0:
325,98,174767,1,2,3:1:0:0:
392,248,174923,1,0,3:2:0:0:
479,145,175079,6,0,P|486:104|473:57,1,75,10|0,0:1|3:2,0:0:0:0:
387,6,175392,1,2,3:2:0:0:
325,98,175548,1,10,0:2:0:0:
456,172,175704,1,8,0:3:0:0:
393,36,175860,1,4,0:3:0:0:
289,184,176017,5,6,3:2:0:0:
256,192,176095,12,6,178517,3:2:0:0:
166,115,186017,6,0,P|174:150|180:177,1,52.4999983978272,2|0,3:2|0:2,0:0:0:0:
282,133,186329,2,0,P|274:168|268:195,1,52.4999983978272,2|0,3:2|0:2,0:0:0:0:
255,272,186642,2,0,P|281:282|320:281,1,52.4999983978272,2|2,3:2|0:2,0:0:0:0:
391,259,186954,1,0,3:2:0:0:
375,346,187110,5,6,3:2:0:0:
375,346,187423,5,2,3:2:0:0:
454,305,187579,2,0,L|498:310,2,34.9999989318848,6|0|0,3:2|3:2|3:2,0:0:0:0:
391,259,187892,5,8,0:2:0:0:
391,259,187996,2,0,P|386:234|389:218,1,34.9999989318848,8|8,0:2|0:2,0:0:0:0:
331,166,188204,1,8,0:3:0:0:
331,166,188308,2,0,P|350:149|365:143,1,34.9999989318848,8|4,0:3|0:3,0:0:0:0:
447,118,188517,6,0,B|359:142|302:82|302:82|235:69|174:115|174:115|199:118|235:131,1,337.500012874604,6|0,3:2|0:2,0:0:0:0:
232,225,189610,6,0,B|136:165|67:240|67:240|67:305|129:355|129:355|174:335|164:286,1,393.750015020371,6|0,3:2|0:0,0:0:0:0:
165,295,191017,6,0,B|206:296|239:324|239:324|274:322|304:286|304:286|346:296|346:296|388:282|388:282|427:314|474:307,1,337.500012874604,6|0,3:2|0:2,0:0:0:0:
457,207,192110,6,0,B|428:174|428:174|442:96,1,112.500004291535,6|0,3:2|3:2,0:0:0:0:
372,46,192579,2,0,P|358:68|353:108,1,56.2500021457673,10|0,0:2|0:2,0:0:0:0:
286,158,192892,1,2,3:2:0:0:
286,158,193048,1,0,0:2:0:0:
216,96,193204,6,0,B|160:68|116:102|116:102|143:125,1,129.375002467632,14|0,0:2|0:2,0:0:0:0:
152,140,193517,6,0,P|142:196|133:264,1,120,2|0,3:2|0:0,0:0:0:0:
187,338,193985,1,2,3:2:0:0:
269,288,194142,2,0,P|309:311|388:290,1,120,10|0,0:2|3:2,0:0:0:0:
446,230,194610,1,2,3:2:0:0:
378,161,194767,6,0,P|359:189|353:218,1,60,2|8,0:2|0:2,0:0:0:0:
267,171,195079,2,0,P|259:142|242:117,1,60,0|2,0:0|3:2,0:0:0:0:
161,64,195392,1,10,0:2:0:0:
75,106,195548,1,8,0:2:0:0:
75,106,195626,1,8,0:2:0:0:
75,106,195704,1,10,0:2:0:0:
53,199,195860,1,0,3:2:0:0:
53,199,195938,1,0,3:2:0:0:
53,199,196017,5,2,3:2:0:0:
179,179,196173,1,0,3:2:0:0:
334,22,196642,5,2,3:2:0:0:
354,148,196798,1,0,3:2:0:0:
354,148,197110,6,0,P|345:193|341:224,1,67.4999979400635,2|0,3:2|0:0,0:0:0:0:
486,253,197423,2,0,P|451:222|426:203,1,67.4999979400635,2|0,3:2|0:0,0:0:0:0:
330,314,197735,2,0,P|373:299|402:287,1,67.4999979400635,2|0,3:2|0:0,0:0:0:0:
258,245,198048,1,0,3:2:0:0:
237,364,198204,1,8,0:2:0:0:
121,293,198360,6,0,P|77:303|50:321,1,75,2|0,3:2|0:0,0:0:0:0:
145,163,198673,2,0,P|114:129|85:115,1,75,2|0,3:2|0:0,0:0:0:0:
267,121,198985,2,0,P|280:77|278:45,1,75,2|0,3:2|0:0,0:0:0:0:
278,48,199454,6,0,P|319:33|390:53,1,112.5,2|0,0:2|0:2,0:0:0:0:
404,70,199767,6,0,P|394:122|391:140,1,67.4999979400635,2|0,0:2|0:2,0:0:0:0:
374,158,200079,6,0,P|378:187|384:222,1,56.2500021457673,14|0,2:2|0:0,0:0:0:0:
396,298,200235,2,0,P|441:307|488:291,1,86.2500016450882,0|0,0:0|3:2,0:0:0:0:
298,357,200548,2,0,P|256:346|214:355,1,86.2500016450882,2|8,0:2|0:2,0:0:0:0:
89,297,200860,6,0,B|122:254|122:254|89:140,1,172.500003290176,2|0,3:2|0:0,0:0:0:0:
218,90,201329,2,0,P|212:139|207:184,1,86.2500016450882,8|2,0:2|0:2,0:0:0:0:
304,274,201642,1,2,3:2:0:0:
332,139,201798,1,2,0:2:0:0:
423,264,201954,1,10,0:2:0:0:
451,129,202110,1,10,0:2:0:0:
317,252,202267,6,0,P|262:284|154:258,1,172.500003290176,6|10,3:2|0:2,0:0:0:0:
42,189,202735,2,0,P|27:243|20:279,1,86.2500016450882,2|0,0:2|3:2,0:0:0:0:
147,167,203048,2,0,P|138:124|126:83,1,86.2500016450882,2|8,0:2|0:2,0:0:0:0:
250,24,203360,6,0,P|303:60|404:23,1,172.500003290176,2|0,3:2|0:0,0:0:0:0:
476,174,203829,2,0,P|423:165|373:155,1,86.2500016450882,10|0,0:2|0:2,0:0:0:0:
281,281,204142,2,0,P|323:272|365:265,1,86.2500016450882,2|0,3:2|0:2,0:0:0:0:
212,170,204454,1,10,0:2:0:0:
212,170,204532,1,8,0:2:0:0:
212,170,204610,1,8,0:2:0:0:
212,170,204688,1,8,0:2:0:0:
212,170,204767,6,0,B|114:151|114:151|72:175|86:217,1,172.500003290176,6|8,3:2|0:2,0:0:0:0:
183,306,205235,1,2,0:2:0:0:
318,274,205392,2,0,P|309:180|301:98,1,172.500003290176,2|8,3:2|0:2,0:0:0:0:
403,9,205860,1,2,0:2:0:0:
496,111,206017,6,0,P|500:163|485:205,1,86.2500016450882,2|0,3:2|0:2,0:0:0:0:
418,312,206329,1,8,0:2:0:0:
396,175,206485,1,2,3:2:0:0:
396,175,206563,1,0,3:2:0:0:
396,175,206642,1,2,3:2:0:0:
303,299,206798,1,0,3:2:0:0:
210,174,206954,2,0,B|198:132|198:132|211:92,1,86.2500016450882,14|0,0:2|0:0,0:0:0:0:
63,41,207267,6,0,P|75:100|81:138,1,86.2500016450882,10|0,2:2|3:2,0:0:0:0:
228,7,207579,2,0,P|216:66|210:104,1,86.2500016450882,10|0,0:2|3:2,0:0:0:0:
303,206,207892,1,10,0:2:0:0:
347,84,208048,1,2,3:2:0:0:
206,122,208204,1,10,0:2:0:0:
330,213,208360,6,0,P|336:263|341:305,1,86.2500016450882,6|0,3:2|0:0,0:0:0:0:
179,213,208673,2,0,P|173:263|168:305,1,86.2500016450882,2|0,3:2|0:0,0:0:0:0:
65,161,208985,1,2,3:2:0:0:
188,97,209142,1,8,0:2:0:0:
67,50,209298,1,0,3:2:0:0:
67,50,209376,1,0,3:2:0:0:
67,50,209454,2,0,L|13:58,1,43.1250008225441,10|8,0:2|0:2,0:0:0:0:
23,155,209610,2,0,L|65:161,1,43.1250008225441,10|8,0:2|0:2,0:0:0:0:
133,246,209767,6,0,B|143:291|143:291|130:333,1,86.2500016450882,6|2,3:2|0:2,0:0:0:0:
262,371,210079,1,10,0:2:0:0:
262,371,210235,2,0,P|257:329|250:273,1,86.2500016450882,2|0,0:2|3:2,0:0:0:0:
378,230,210548,2,0,P|372:272|367:315,1,86.2500016450882,2|8,0:2|0:2,0:0:0:0:
296,158,210860,6,0,B|326:192|374:195|374:195|417:178|435:125,1,172.500003290176,2|0,3:2|0:0,0:0:0:0:
327,43,211329,2,0,P|283:52|232:62,1,86.2500016450882,8|2,0:2|0:2,0:0:0:0:
129,140,211642,1,2,3:2:0:0:
265,158,211798,1,2,3:2:0:0:
175,262,211954,2,0,P|124:262|66:230,1,86.2500016450882,10|0,0:2|0:2,0:0:0:0:
234,362,212267,6,0,B|330:337|330:337|356:369|395:378,1,172.500003290176,6|10,3:2|0:2,0:0:0:0:
492,285,212735,2,0,P|450:278|408:284,1,86.2500016450882,2|0,0:2|3:2,0:0:0:0:
351,157,213048,2,0,P|393:162|435:155,1,86.2500016450882,2|8,0:2|0:2,0:0:0:0:
294,28,213360,6,0,B|260:26|237:11|237:11|259:121,1,172.500003290176,2|0,3:2|0:0,0:0:0:0:
191,241,213829,2,0,P|146:233|92:224,1,86.2500016450882,10|0,0:2|0:2,0:0:0:0:
20,117,214142,2,0,P|62:109|104:102,1,86.2500016450882,2|0,3:2|3:2,0:0:0:0:
246,140,214454,1,10,0:2:0:0:
246,140,214532,1,8,0:2:0:0:
246,140,214610,1,8,0:2:0:0:
246,140,214688,1,8,0:2:0:0:
246,140,214767,6,0,B|343:167|343:167|379:151|381:111,1,172.500003290176,6|8,3:2|0:2,0:0:0:0:
483,203,215235,1,2,3:2:0:0:
381,297,215392,2,0,P|322:267|219:280,1,172.500003290176,2|8,3:2|0:2,0:0:0:0:
94,338,215860,1,2,3:2:0:0:
8,229,216017,6,0,P|15:173|21:139,1,86.2500016450882,2|0,3:2|3:2,0:0:0:0:
82,20,216329,1,8,0:2:0:0:
152,138,216485,1,2,3:2:0:0:
214,15,216642,2,0,P|257:12|301:25,1,86.2500016450882,2|0,3:2|0:2,0:0:0:0:
356,148,216954,2,0,P|314:159|271:156,1,86.2500016450882,14|0,0:2|0:0,0:0:0:0:
130,241,217267,6,0,P|138:288|145:329,1,86.2500016450882,10|0,0:2|3:2,0:0:0:0:
312,258,217579,2,0,P|304:305|297:346,1,86.2500016450882,10|0,0:2|3:2,0:0:0:0:
451,246,217892,1,10,0:2:0:0:
356,148,218048,1,2,3:2:0:0:
341,284,218204,1,10,2:2:0:0:
246,183,218360,6,0,P|235:123|247:89,1,86.2500016450882,6|0,3:2|0:0,0:0:0:0:
354,179,218673,1,8,0:3:0:0:
250,270,218829,2,0,P|206:273|164:277,1,86.2500016450882,8|2,0:3|3:2,0:0:0:0:
25,285,219142,1,6,3:2:0:0:
106,169,219298,1,0,3:2:0:0:
106,169,219376,1,0,3:2:0:0:
106,169,219454,2,0,P|144:153|206:158,1,86.2500016450882,8|4,0:2|0:3,0:0:0:0:
343,208,219767,6,0,P|349:251|357:306,1,86.2500016450882,2|0,3:2|0:0,0:0:0:0:
453,101,220079,2,0,B|462:59|462:59|437:2,1,86.2500016450882,12|0,0:2|0:0,0:0:0:0:
323,208,220392,6,0,P|329:251|337:306,1,86.2500016450882,2|0,3:2|0:0,0:0:0:0:
473,101,220704,2,0,B|482:59|482:59|457:2,1,86.2500016450882,12|0,0:2|0:0,0:0:0:0:
285,86,221017,6,0,P|337:75|384:67,1,86.2500016450882,6|0,3:2|0:2,0:0:0:0:
225,178,221329,2,0,P|182:170|140:161,1,86.2500016450882,10|0,0:2|0:2,0:0:0:0:
6,125,221642,1,2,3:2:0:0:
109,33,221798,1,0,3:2:0:0:
109,33,221876,1,0,3:2:0:0:
109,33,221954,2,0,P|153:29|201:44,1,86.2500016450882,10|0,0:2|0:2,0:0:0:0:
333,108,222267,6,0,P|324:156|318:200,1,86.2500016450882,6|0,3:2|0:2,0:0:0:0:
439,259,222579,2,0,P|432:216|424:173,1,86.2500016450882,10|0,0:2|0:2,0:0:0:0:
307,289,222892,1,2,3:2:0:0:
416,372,223048,1,2,3:2:0:0:
416,372,223126,1,0,3:2:0:0:
416,372,223204,2,0,P|457:378|499:366,1,86.2500016450882,10|2,0:2|0:2,0:0:0:0:
288,314,223517,6,0,P|234:324|197:331,1,86.2500016450882,6|0,3:2|0:2,0:0:0:0:
74,279,223829,1,10,0:2:0:0:
186,199,223985,1,0,3:2:0:0:
186,199,224063,1,0,3:2:0:0:
186,199,224142,2,0,L|174:135,3,43.1250008225441,2|0|2|0,3:2|3:2|3:2|3:2,0:0:0:0:
109,104,224454,2,0,B|96:64|96:64|121:11,1,86.2500016450882,14|0,0:2|0:0,0:0:0:0:
288,78,224767,6,0,P|230:71|200:69,1,86.2500016450882,2|0,3:2|0:0,0:0:0:0:
348,226,225079,2,0,B|391:236|391:236|446:218,1,86.2500016450882,12|0,0:2|0:0,0:0:0:0:
288,58,225392,6,0,P|230:51|200:49,1,86.2500016450882,2|0,3:2|0:0,0:0:0:0:
348,246,225704,2,0,B|391:256|391:256|446:238,1,86.2500016450882,12|0,0:2|0:0,0:0:0:0:
211,324,226017,6,0,B|168:314|168:314|113:332,1,86.2500016450882,6|0,3:2|0:2,0:0:0:0:
32,194,226329,2,0,P|75:199|119:206,1,86.2500016450882,10|0,0:2|0:2,0:0:0:0:
253,232,226642,1,2,3:2:0:0:
219,98,226798,1,2,3:2:0:0:
219,98,226876,1,0,3:2:0:0:
219,98,226954,2,0,P|172:78|112:79,1,86.2500016450882,10|0,0:2|0:0,0:0:0:0:
238,211,227267,5,6,3:2:0:0:
326,105,227423,1,2,0:2:0:0:
410,213,227579,2,0,P|397:270|392:308,1,86.2500016450882,10|0,0:2|0:2,0:0:0:0:
275,370,227892,1,2,3:2:0:0:
253,232,228048,1,2,3:2:0:0:
384,329,228204,1,10,0:2:0:0:
204,307,228360,6,0,P|159:317|113:311,1,86.2500016450882,2|0,0:2|0:2,0:0:0:0:
20,216,228673,1,2,3:2:0:0:
118,119,228829,2,0,P|123:161|130:208,1,86.2500016450882,10|0,0:2|0:2,0:0:0:0:
263,125,229142,1,6,3:2:0:0:
145,24,229298,1,8,0:2:0:0:
145,24,229376,1,8,0:2:0:0:
145,24,229454,2,0,B|101:19|101:19|55:38,1,86.2500016450882,8|2,0:2|3:2,0:0:0:0:
259,100,229767,6,0,P|316:89|362:82,1,86.2500016450882,2|0,3:2|0:0,0:0:0:0:
508,234,230079,2,0,B|467:245|467:245|419:233,1,86.2500016450882,12|0,0:2|0:0,0:0:0:0:
259,80,230392,6,0,P|316:69|362:62,1,86.2500016450882,2|0,3:2|0:0,0:0:0:0:
508,254,230704,2,0,B|467:265|467:265|419:253,1,86.2500016450882,12|0,0:2|0:0,0:0:0:0:
197,175,231017,6,0,B|181:215|181:215|194:270,1,86.2500016450882,2|0,3:2|3:2,0:0:0:0:
22,319,231329,2,0,P|28:274|36:216,1,86.2500016450882,10|0,0:2|3:2,0:0:0:0:
63,93,231642,1,2,3:2:0:0:
212,151,231798,1,0,3:2:0:0:
212,151,231876,1,0,3:2:0:0:
212,151,231954,2,0,P|252:162|310:148,1,86.2500016450882,10|0,0:2|0:2,0:0:0:0:
425,106,232267,6,0,P|416:62|406:19,1,86.2500016450882,6|0,3:2|0:2,0:0:0:0:
318,179,232579,2,0,P|308:221|299:263,1,86.2500016450882,10|0,0:2|0:2,0:0:0:0:
210,369,232892,1,2,3:2:0:0:
131,255,233048,1,2,3:2:0:0:
131,255,233126,1,0,3:2:0:0:
131,255,233204,2,0,P|179:240|232:249,1,86.2500016450882,10|2,0:2|3:2,0:0:0:0:
387,299,233517,6,0,P|396:341|405:383,1,86.2500016450882,14|0,0:2|3:2,0:0:0:0:
480,209,233829,1,10,0:2:0:0:
360,140,233985,1,0,3:2:0:0:
360,140,234063,1,0,3:2:0:0:
360,140,234142,2,0,L|310:148,3,43.1250008225441,10|8|2|0,0:2|0:2|3:2|3:2,0:0:0:0:
232,160,234454,2,0,B|216:118|216:118|235:65,1,86.2500016450882,14|0,0:2|0:0,0:0:0:0:
32,26,234767,6,0,P|37:70|43:122,1,86.2500016450882,2|0,3:2|3:2,0:0:0:0:
229,241,235079,2,0,B|244:200|244:200|229:153,1,86.2500016450882,12|2,0:2|3:2,0:0:0:0:
12,26,235392,6,0,P|17:70|23:122,1,86.2500016450882,2|0,3:2|3:2,0:0:0:0:
249,241,235704,2,0,B|264:200|264:200|249:153,1,86.2500016450882,14|2,0:2|3:2,0:0:0:0:
98,332,236017,6,0,B|139:347|139:347|186:332,1,86.2500016450882,6|0,3:2|3:2,0:0:0:0:
352,280,236329,2,0,P|359:324|368:374,1,86.2500016450882,10|0,0:2|3:2,0:0:0:0:
495,291,236642,1,2,3:2:0:0:
430,183,236798,1,2,3:2:0:0:
430,183,236876,1,0,3:2:0:0:
430,183,236954,2,0,P|385:177|336:193,1,86.2500016450882,10|0,0:2|0:0,0:0:0:0:
187,231,237267,5,4,3:2:0:0:
225,98,237423,1,2,0:2:0:0:
94,142,237579,2,0,P|52:133|0:132,1,86.2500016450882,10|0,0:2|0:2,0:0:0:0:
67,275,237892,1,2,3:2:0:0:
195,202,238048,1,2,3:2:0:0:
178,347,238204,1,10,0:2:0:0:
71,246,238360,1,2,3:2:0:0:
263,296,238517,5,4,0:3:0:0:
77,365,238673,1,4,0:3:0:0:
168,189,238829,1,4,0:3:0:0:
256,192,239454,12,0,241798,3:2:0:0:
256,192,241954,6,0,P|216:174|161:183,1,90,8|0,0:1|0:2,0:0:0:0:
145,194,242267,6,0,P|150:233|153:276,1,75,6|0,3:2|0:2,0:0:0:0:
277,216,242579,2,0,P|272:255|269:298,1,75,10|0,0:2|0:2,0:0:0:0:
353,377,242892,1,2,3:2:0:0:
386,261,243048,1,2,0:2:0:0:
469,346,243204,1,10,0:2:0:0:
498,229,243360,6,0,B|510:134|510:134|467:87,1,150,2|0,3:2|3:2,0:0:0:0:
365,39,243829,2,0,P|371:76|377:123,1,75,10|0,0:2|3:2,0:0:0:0:
282,189,244142,1,2,3:2:0:0:
188,113,244298,1,8,0:2:0:0:
188,113,244454,2,0,P|147:116|108:135,1,75,10|0,0:2|0:2,0:0:0:0:
45,226,244767,6,0,P|52:269|57:304,1,75,6|0,3:2|0:2,0:0:0:0:
167,211,245079,2,0,P|160:254|155:289,1,75,10|0,2:2|0:2,0:0:0:0:
225,383,245392,1,2,3:2:0:0:
264,269,245548,1,2,0:2:0:0:
153,315,245704,1,10,0:2:0:0:
314,347,245860,6,0,B|364:331|364:331|405:373|459:359,1,150,2|0,3:2|3:2,0:0:0:0:
510,254,246329,2,0,P|450:238|426:234,1,75,10|0,0:2|0:2,0:0:0:0:
331,178,246642,1,2,3:2:0:0:
429,109,246798,1,8,0:2:0:0:
429,109,246954,2,0,L|419:51,3,37.5,10|8|8|8,0:2|0:2|0:2|0:2,0:0:0:0:
350,39,247267,6,0,P|306:72|212:58,1,150,6|8,3:2|0:2,0:0:0:0:
103,19,247735,2,0,P|107:56|112:93,1,75,2|0,0:2|0:0,0:0:0:0:
135,211,248048,1,2,0:2:0:0:
24,164,248204,1,8,0:2:0:0:
46,281,248360,6,0,P|63:321|72:356,1,75,2|0,3:2|0:2,0:0:0:0:
187,381,248673,2,0,P|197:344|212:310,1,75,2|8,0:2|0:2,0:0:0:0:
285,216,248985,1,10,0:2:0:0:
285,216,249063,1,8,0:2:0:0:
285,216,249142,1,2,3:2:0:0:
338,322,249298,1,0,3:2:0:0:
417,204,249454,2,0,B|428:166|428:166|416:116,1,75,14|0,0:2|0:0,0:0:0:0:
293,77,249767,6,0,B|261:163|261:163|281:185|285:221,1,150,14|10,2:2|0:2,0:0:0:0:
211,310,250235,2,0,P|167:294|128:287,1,75,0|10,3:2|0:2,0:0:0:0:
36,225,250548,1,2,3:2:0:0:
151,193,250704,1,8,0:2:0:0:
54,326,250860,5,6,3:2:0:0:
54,326,251173,5,2,3:2:0:0:
54,326,251485,5,2,3:2:0:0:
12,212,251642,2,0,P|16:173|19:137,1,75,10|8,0:2|0:2,0:0:0:0:
57,70,251876,1,8,0:2:0:0:
57,70,251954,2,0,P|91:61|138:72,1,75,8|8,0:2|0:2,0:0:0:0:
204,108,252188,1,8,0:2:0:0:
204,108,252267,6,0,P|207:145|210:182,1,75,6|0,3:2|0:2,0:0:0:0:
332,61,252579,2,0,P|328:98|325:135,1,75,10|0,0:2|0:2,0:0:0:0:
353,252,252892,1,2,3:2:0:0:
427,157,253048,1,2,3:2:0:0:
497,253,253204,1,10,0:2:0:0:
426,349,253360,6,0,B|373:340|373:340|337:379|285:371,1,150,2|0,3:2|3:2,0:0:0:0:
187,301,253829,2,0,P|249:281|275:279,1,75,10|0,0:2|0:2,0:0:0:0:
120,371,254142,1,2,3:2:0:0:
107,244,254298,1,8,0:2:0:0:
107,244,254454,2,0,P|150:195|172:180,1,75,10|2,0:2|0:2,0:0:0:0:
262,115,254767,6,0,P|269:151|279:197,1,75,6|0,3:2|0:2,0:0:0:0:
399,78,255079,2,0,P|392:114|382:160,1,75,10|0,0:2|0:2,0:0:0:0:
353,268,255392,1,2,3:2:0:0:
252,202,255548,1,2,3:2:0:0:
234,320,255704,1,10,0:2:0:0:
133,254,255860,6,0,B|95:266|69:289|69:289|22:275|5:233,1,150,2|0,3:2|3:2,0:0:0:0:
72,140,256329,2,0,P|123:129|148:126,1,75,10|0,0:2|0:2,0:0:0:0:
264,109,256642,1,2,3:2:0:0:
228,223,256798,1,8,0:2:0:0:
228,223,256954,2,0,L|235:269,3,37.5,10|8|8|8,0:2|0:2|0:2|0:2,0:0:0:0:
241,297,257267,6,0,P|305:325|388:282,1,150,6|8,3:2|0:2,0:0:0:0:
425,187,257735,2,0,P|479:177|508:174,1,75,2|0,0:2|0:0,0:0:0:0:
384,89,258048,1,2,0:2:0:0:
324,192,258204,1,10,0:2:0:0:
245,101,258360,6,0,P|231:55|233:17,1,75,2|0,0:2|3:2,0:0:0:0:
110,28,258673,2,0,P|108:65|96:100,1,75,2|8,0:2|0:2,0:0:0:0:
31,201,258985,1,2,3:2:0:0:
31,201,259063,1,0,3:2:0:0:
31,201,259142,1,2,3:2:0:0:
7,83,259298,1,0,3:2:0:0:
127,184,259454,2,0,B|139:222|139:222|126:261,1,75,14|0,0:2|0:0,0:0:0:0:
223,361,259767,6,0,P|254:330|364:328,1,150,14|10,2:2|0:2,0:0:0:0:
421,223,260235,2,0,P|358:214|328:209,1,75,0|10,3:2|0:2,0:0:0:0:
259,128,260548,1,2,3:2:0:0:
376,104,260704,1,8,2:2:0:0:
249,231,260860,5,6,3:2:0:0:
190,28,261173,5,2,3:2:0:0:
44,178,261485,5,2,3:2:0:0:
249,231,261798,5,8,0:2:0:0:
176,306,261954,1,8,0:3:0:0:
148,204,262110,1,4,0:3:0:0:
249,231,262267,5,6,3:2:0:0:
256,192,262345,12,0,267267,0:2:0:0:
