osu file format v14

[General]
AudioFilename: hibana.mp3
AudioLeadIn: 0
PreviewTime: 48101
Countdown: 0
SampleSet: Normal
StackLeniency: 0.7
Mode: 0
LetterboxInBreaks: 0
WidescreenStoryboard: 1

[Editor]
DistanceSpacing: 1
BeatDivisor: 4
GridSize: 32
TimelineZoom: 2.050002

[Metadata]
Title:hibana
TitleUnicode:ヒバナ
Artist:DECO*27
ArtistUnicode:DECO*27
Creator:Awaken
Version:321
Source:
Tags:hibana hatsune miku deco 27 vocaloid
BeatmapID:1467386
BeatmapSetID:693503

[Difficulty]
HPDrainRate:0
CircleSize:4
OverallDifficulty:9.5
ApproachRate:9.3
SliderMultiplier:2
SliderTickRate:1

[Events]
//Background and Video events
0,0,"hibana.png",0,0
//Break Periods
2,67726,76272
2,157526,161772
2,170776,173772
//Storyboard Layer 0 (Background)
//Storyboard Layer 1 (Fail)
//Storyboard Layer 2 (Pass)
//Storyboard Layer 3 (Foreground)
//Storyboard Sound Samples

[TimingPoints]
2726,300,4,1,0,60,1,0
4526,-100,4,1,0,60,0,0
4776,-200,4,1,0,60,0,0
5126,-100,4,1,0,60,0,0
19526,-142.857142857143,4,1,0,60,0,0
24326,-83.3333333333333,4,1,0,60,0,0
24926,-142.857142857143,4,1,0,60,0,0
25526,-83.3333333333333,4,1,0,60,0,0
26126,-142.857142857143,4,1,0,60,0,0
29126,-100,4,1,0,60,0,0
46826,-200,4,1,0,60,0,0
47726,-100,4,1,0,60,0,0
48326,-100,4,1,0,60,0,1
67226,-200,4,1,0,60,0,0
77126,-142.857142857143,4,1,0,60,0,0
86726,-100,4,1,0,60,0,0
96326,-200,4,1,0,60,0,0
96926,-100,4,1,0,60,0,0
98726,-200,4,1,0,60,0,0
99326,-100,4,1,0,60,0,0
104426,-66.6666666666667,4,1,0,60,0,0
105926,-100,4,1,0,60,0,1
124826,-200,4,1,0,60,0,0
125126,-133.333333333333,4,1,0,60,0,0
133376,-50,4,1,0,60,0,0
134126,-200,4,1,0,60,0,0
145526,-100,4,1,0,60,0,0
153176,-133.333333333333,4,1,0,60,0,0
153626,-200,4,1,0,60,0,0
155126,-100,4,1,0,60,0,0
164726,-200,4,1,0,60,0,0
167126,-100,4,1,0,60,0,0

[HitObjects]
110,167,2726,5,0,0:0:0:0:
428,210,2926,1,0,0:0:0:0:
110,167,3126,5,0,0:0:0:0:
428,210,3326,1,0,0:0:0:0:
413,119,3526,5,0,0:0:0:0:
117,252,3726,1,0,0:0:0:0:
413,119,3926,5,0,0:0:0:0:
117,252,4126,1,0,0:0:0:0:
300,72,4326,5,0,0:0:0:0:
283,363,4526,6,0,L|267:201,1,150
189,166,4826,6,0,P|177:201|182:242,1,75
180,238,5126,5,0,0:0:0:0:
361,155,5276,2,0,L|422:170,1,50
481,216,5426,1,0,0:0:0:0:
290,210,5576,2,0,P|270:157|281:115,1,100
482,29,5876,1,0,0:0:0:0:
481,73,5951,1,0,0:0:0:0:
474,117,6026,1,0,0:0:0:0:
405,331,6176,1,0,0:0:0:0:
365,309,6251,1,0,0:0:0:0:
320,300,6326,6,0,P|273:316|209:315,1,100
108,120,6626,1,0,0:0:0:0:
331,175,6776,2,0,L|445:159,1,100
247,50,7076,1,0,0:0:0:0:
281,271,7226,5,0,0:0:0:0:
248,239,7301,1,0,0:0:0:0:
204,227,7376,1,0,0:0:0:0:
159,235,7451,1,0,0:0:0:0:
114,233,7526,6,0,P|81:188|76:139,1,100
250,26,7826,1,0,0:0:0:0:
261,368,7976,5,0,0:0:0:0:
309,382,8051,1,0,0:0:0:0:
358,382,8126,1,0,0:0:0:0:
400,357,8201,1,0,0:0:0:0:
424,313,8276,1,0,0:0:0:0:
421,264,8351,1,0,0:0:0:0:
399,218,8426,1,0,0:0:0:0:
379,171,8501,1,0,0:0:0:0:
375,121,8576,5,0,0:0:0:0:
406,44,8651,1,0,0:0:0:0:
484,12,8726,1,0,0:0:0:0:
492,25,9176,1,0,0:0:0:0:
499,39,9626,2,0,L|504:73,7,25
475,138,9926,6,0,P|448:193|448:238,1,100
348,381,10226,2,0,P|332:326|299:289,1,100
239,159,10526,1,0,0:0:0:0:
232,368,10676,1,0,0:0:0:0:
396,255,10826,1,0,0:0:0:0:
152,270,10976,1,0,0:0:0:0:
381,230,11126,6,0,P|388:179|370:118,1,100
114,69,11426,2,0,P|107:120|125:181,1,100
398,148,11726,1,0,0:0:0:0:
235,113,11876,1,0,0:0:0:0:
130,289,12026,1,0,0:0:0:0:
330,302,12176,1,0,0:0:0:0:
182,188,12326,6,0,P|126:192|75:188,1,100
373,230,12626,2,0,P|429:226|480:230,1,100
292,112,12926,2,0,P|288:56|292:5,1,100
255,285,13226,2,0,P|259:341|255:392,1,100
256,384,13451,1,0,0:0:0:0:
256,384,13526,1,0,0:0:0:0:
160,272,13676,1,0,0:0:0:0:
279,120,13826,1,0,0:0:0:0:
337,252,13976,1,0,0:0:0:0:
130,171,14126,5,0,0:0:0:0:
414,88,14276,1,0,0:0:0:0:
188,51,14426,1,0,0:0:0:0:
138,51,14501,1,0,0:0:0:0:
88,60,14576,1,0,0:0:0:0:
47,88,14651,1,0,0:0:0:0:
26,133,14726,6,0,P|23:84|4:25,1,100
118,267,15026,2,0,P|121:316|140:375,1,100
405,117,15326,2,0,P|351:103|302:107,1,100
255,318,15626,2,0,P|304:320|352:306,1,100
203,186,15926,1,0,0:0:0:0:
160,376,16076,1,0,0:0:0:0:
50,231,16226,1,0,0:0:0:0:
326,135,16376,1,0,0:0:0:0:
326,135,16451,1,0,0:0:0:0:
326,135,16526,5,0,0:0:0:0:
303,262,16676,1,0,0:0:0:0:
163,328,16826,1,0,0:0:0:0:
41,256,16976,1,0,0:0:0:0:
57,107,17126,6,0,L|168:119,1,100
314,27,17426,1,0,0:0:0:0:
268,251,17576,2,0,L|169:264,1,100
444,144,17876,1,0,0:0:0:0:
406,366,18026,2,0,P|386:304|384:252,1,100
244,134,18326,5,0,0:0:0:0:
478,246,18476,1,0,0:0:0:0:
478,246,18551,1,0,0:0:0:0:
478,246,18626,1,0,0:0:0:0:
214,262,18776,1,0,0:0:0:0:
381,148,18926,5,0,0:0:0:0:
325,271,19076,1,0,0:0:0:0:
322,79,19226,1,0,0:0:0:0:
352,346,19376,1,0,0:0:0:0:
390,68,19526,6,0,P|314:39|262:62,1,139.999995727539
161,129,19976,1,0,0:0:0:0:
161,129,20126,2,0,P|120:131|84:122,1,69.9999978637696
18,196,20426,1,0,0:0:0:0:
44,293,20576,2,0,L|121:284,1,69.9999978637696
237,232,20876,2,0,L|313:240,1,69.9999978637696
451,187,21176,2,0,P|464:154|457:108,1,69.9999978637696
219,55,21476,1,0,0:0:0:0:
337,139,21626,6,0,L|260:145,1,69.9999978637696
146,214,21926,2,0,P|131:258|156:348,1,139.999995727539
299,286,22376,1,0,0:0:0:0:
299,286,22526,2,0,L|295:361,1,69.9999978637696
375,202,22826,1,0,0:0:0:0:
443,291,22976,2,0,L|522:285,1,69.9999978637696
414,128,23276,2,0,P|374:118|339:124,1,69.9999978637696
183,301,23576,1,0,0:0:0:0:
184,77,23726,5,0,0:0:0:0:
280,220,23876,1,0,0:0:0:0:
314,215,23951,1,0,0:0:0:0:
348,210,24026,1,0,0:0:0:0:
380,207,24326,6,0,L|241:195,1,119.999996337891
113,307,24926,6,0,L|189:300,2,69.9999978637696
46,244,25376,1,0,0:0:0:0:
227,132,25526,6,0,L|88:117,1,119.999996337891
362,264,26126,6,0,P|350:306|356:333,1,69.9999978637696
477,191,26426,2,0,P|489:233|483:260,1,69.9999978637696
361,143,26726,5,0,0:0:0:0:
235,237,26876,1,0,0:0:0:0:
234,118,27026,1,0,0:0:0:0:
234,118,27176,1,0,0:0:0:0:
350,256,27326,5,0,0:0:0:0:
140,177,27476,1,0,0:0:0:0:
323,42,27626,1,0,0:0:0:0:
271,195,27776,5,0,0:0:0:0:
271,195,27851,1,0,0:0:0:0:
271,195,27926,1,0,0:0:0:0:
111,148,28076,1,0,0:0:0:0:
260,281,28226,1,0,0:0:0:0:
49,230,28376,1,0,0:0:0:0:
370,230,28526,5,0,0:0:0:0:
145,226,28676,1,0,0:0:0:0:
485,51,28826,1,0,0:0:0:0:
191,332,29126,6,0,P|127:336|78:319,1,100
283,203,29426,2,0,P|347:199|396:216,1,100
174,132,29726,2,0,P|152:79|154:30,2,100
197,244,30176,1,0,0:0:0:0:
197,244,30251,1,0,0:0:0:0:
197,244,30326,2,0,B|247:222|247:222|302:226|329:285,1,150
412,313,30626,2,0,P|340:318|288:302,1,100
357,97,30926,5,0,0:0:0:0:
491,257,31076,1,0,0:0:0:0:
251,198,31226,1,0,0:0:0:0:
451,173,31376,1,0,0:0:0:0:
451,173,31451,1,0,0:0:0:0:
451,173,31526,2,0,P|480:119|416:58,1,150
389,54,31826,2,0,B|342:57|342:57|322:47|322:47|266:48,1,100
236,293,32126,5,0,0:0:0:0:
203,160,32276,1,0,0:0:0:0:
253,170,32351,1,0,0:0:0:0:
302,181,32426,1,0,0:0:0:0:
87,322,32576,2,0,L|75:209,1,100
203,62,32876,2,0,P|259:53|311:66,1,100
446,212,33176,5,0,0:0:0:0:
446,212,33251,1,0,0:0:0:0:
446,212,33326,2,0,L|432:271,1,50
309,324,33476,2,0,L|302:275,1,50
181,350,33626,2,0,P|123:353|72:277,1,150
87,206,33926,6,0,B|96:164|96:164|112:147|112:147|125:100,1,100
279,19,34226,2,0,B|287:51|287:51|303:68|303:68|312:110,1,100
390,266,34526,1,0,0:0:0:0:
199,211,34676,1,0,0:0:0:0:
390,266,34826,1,0,0:0:0:0:
196,359,34976,2,0,P|144:369|92:362,1,100
348,289,35276,2,0,P|400:279|452:286,1,100
227,213,35576,5,0,0:0:0:0:
227,213,35651,1,0,0:0:0:0:
227,213,35726,2,0,P|195:159|204:115,1,100
390,31,36026,2,0,B|398:86|398:86|366:124|378:186,1,150
376,174,36326,5,0,0:0:0:0:
248,84,36476,1,0,0:0:0:0:
468,155,36626,1,0,0:0:0:0:
222,276,36776,1,0,0:0:0:0:
418,259,36926,1,0,0:0:0:0:
135,194,37076,1,0,0:0:0:0:
261,174,37226,1,0,0:0:0:0:
304,346,37376,5,0,0:0:0:0:
304,346,37451,1,0,0:0:0:0:
304,346,37526,1,0,0:0:0:0:
187,130,37676,1,0,0:0:0:0:
187,130,37751,1,0,0:0:0:0:
187,130,37826,1,0,0:0:0:0:
360,234,37976,1,0,0:0:0:0:
99,325,38126,1,0,0:0:0:0:
229,53,38276,1,0,0:0:0:0:
177,258,38426,5,0,0:0:0:0:
163,209,38501,1,0,0:0:0:0:
128,172,38576,1,0,0:0:0:0:
86,143,38651,1,0,0:0:0:0:
40,123,38726,2,0,B|0:173|21:221|21:221|72:217,1,150
225,149,39026,2,0,B|272:149|272:149|288:157|288:157|339:154,1,100
397,340,39326,1,0,0:0:0:0:
99,325,39476,1,0,0:0:0:0:
138,59,39776,5,0,0:0:0:0:
292,293,40076,1,0,0:0:0:0:
250,148,40226,1,0,0:0:0:0:
92,272,40376,1,0,0:0:0:0:
92,272,40451,1,0,0:0:0:0:
92,272,40526,1,0,0:0:0:0:
415,238,40676,1,0,0:0:0:0:
171,335,40826,2,0,B|104:282|129:199|129:199|186:220,1,200
398,51,41426,5,0,0:0:0:0:
97,240,41726,1,0,0:0:0:0:
319,212,41876,1,0,0:0:0:0:
191,95,42026,1,0,0:0:0:0:
292,306,42176,6,0,P|362:303|412:184,1,200
191,95,42626,2,0,L|84:82,1,100
91,82,42851,1,0,0:0:0:0:
91,82,42926,1,0,0:0:0:0:
130,269,43076,1,0,0:0:0:0:
354,72,43226,2,0,B|415:35|415:35|495:66|477:169,1,200
213,287,43676,5,0,0:0:0:0:
226,200,43826,1,0,0:0:0:0:
300,248,43976,1,0,0:0:0:0:
180,275,44126,5,0,0:0:0:0:
276,201,44276,1,0,0:0:0:0:
288,318,44426,1,0,0:0:0:0:
177,223,44576,5,0,0:0:0:0:
327,266,44726,1,0,0:0:0:0:
206,373,44876,1,0,0:0:0:0:
266,173,45026,5,0,0:0:0:0:
315,363,45176,1,0,0:0:0:0:
123,310,45326,1,0,0:0:0:0:
419,224,45476,5,0,0:0:0:0:
206,373,45626,1,0,0:0:0:0:
191,127,45776,1,0,0:0:0:0:
455,333,45926,5,0,0:0:0:0:
455,333,46076,1,0,0:0:0:0:
95,244,46226,1,0,0:0:0:0:
398,65,46376,1,0,0:0:0:0:
398,65,46526,1,0,0:0:0:0:
246,355,46676,1,0,0:0:0:0:
77,88,46826,6,0,B|117:43|168:56|168:56|195:89|247:87|247:87|268:44|317:35,1,275
353,39,47726,5,0,0:0:0:0:
400,53,47801,1,0,0:0:0:0:
438,85,47876,1,0,0:0:0:0:
460,130,47951,1,0,0:0:0:0:
463,179,48026,1,0,0:0:0:0:
445,226,48101,1,0,0:0:0:0:
411,262,48176,1,0,0:0:0:0:
365,281,48251,1,0,0:0:0:0:
316,281,48326,6,0,P|257:257|163:288,1,150
108,154,48626,6,0,P|167:178|261:147,1,150
330,78,48926,6,0,P|271:54|177:85,1,150
189,74,49226,1,0,0:0:0:0:
423,164,49376,2,0,P|460:114|461:65,1,100
250,198,49676,1,0,0:0:0:0:
379,358,49826,1,0,0:0:0:0:
250,198,49976,1,0,0:0:0:0:
155,342,50126,2,0,P|99:348|46:334,1,100
337,270,50426,2,0,P|393:264|446:278,1,100
435,273,50651,1,0,0:0:0:0:
435,273,50726,1,0,0:0:0:0:
392,119,50876,6,0,P|321:143|183:133,1,200
72,311,51326,2,0,P|137:288|181:288,1,100
373,355,51626,1,0,0:0:0:0:
276,98,51776,2,0,P|257:157|281:297,1,200
450,226,52226,1,0,0:0:0:0:
459,171,52301,1,0,0:0:0:0:
468,116,52376,1,0,0:0:0:0:
319,16,52526,5,0,0:0:0:0:
261,292,52676,1,0,0:0:0:0:
355,196,52826,1,0,0:0:0:0:
309,165,52901,1,0,0:0:0:0:
255,153,52976,1,0,0:0:0:0:
200,159,53051,1,0,0:0:0:0:
147,176,53126,6,0,P|81:186|48:111,1,150
123,17,53426,6,0,B|173:24|173:24|223:60|204:119,1,150
305,110,53726,6,0,B|289:60|339:24|339:24|389:17,1,150
459,74,54026,1,0,0:0:0:0:
273,280,54176,2,0,L|171:271,1,100
235,52,54476,1,0,0:0:0:0:
317,197,54626,1,0,0:0:0:0:
158,339,54776,1,0,0:0:0:0:
390,376,54926,6,0,P|439:336|367:286,1,150
432,212,55226,2,0,P|391:175|387:132,1,100
412,56,55451,1,0,0:0:0:0:
412,56,55526,1,0,0:0:0:0:
394,279,55676,1,0,0:0:0:0:
186,161,55826,1,0,0:0:0:0:
163,379,55976,1,0,0:0:0:0:
79,209,56126,6,0,P|134:188|233:268,1,200
319,184,56576,2,0,P|299:127|299:84,1,100
408,17,56876,1,0,0:0:0:0:
437,223,57026,1,0,0:0:0:0:
437,223,57101,1,0,0:0:0:0:
437,223,57176,1,0,0:0:0:0:
437,223,57251,1,0,0:0:0:0:
437,223,57326,2,0,L|456:277,1,50
322,266,57476,2,0,L|306:219,1,50
229,111,57626,6,0,B|180:145|166:196|166:196|183:255,1,150
206,306,57926,5,0,0:0:0:0:
119,96,58076,1,0,0:0:0:0:
213,320,58226,5,0,0:0:0:0:
114,82,58376,1,0,0:0:0:0:
219,336,58526,5,0,0:0:0:0:
110,64,58676,1,0,0:0:0:0:
226,351,58826,5,0,0:0:0:0:
104,47,58976,1,0,0:0:0:0:
394,170,59126,5,0,0:0:0:0:
91,235,59276,1,0,0:0:0:0:
416,165,59426,5,0,0:0:0:0:
72,242,59576,1,0,0:0:0:0:
436,159,59726,5,0,0:0:0:0:
53,251,59876,1,0,0:0:0:0:
456,152,60026,5,0,0:0:0:0:
31,264,60176,1,0,0:0:0:0:
379,344,60326,2,0,L|497:359,1,100
219,208,60626,2,0,L|115:211,1,100
349,38,60926,2,0,B|315:151|396:112|340:252,1,200
94,236,61376,2,0,P|141:168|253:185,1,200
404,328,61826,2,0,P|346:340|292:317,1,100
308,328,62051,1,0,0:0:0:0:
308,328,62126,5,0,0:0:0:0:
175,210,62276,1,0,0:0:0:0:
240,41,62426,1,0,0:0:0:0:
442,60,62576,1,0,0:0:0:0:
477,246,62726,5,0,0:0:0:0:
399,151,62876,1,0,0:0:0:0:
483,256,63026,5,0,0:0:0:0:
274,182,63176,1,0,0:0:0:0:
491,269,63326,5,0,0:0:0:0:
138,219,63476,1,0,0:0:0:0:
500,282,63626,5,0,0:0:0:0:
19,251,63776,1,0,0:0:0:0:
204,100,63926,5,0,0:0:0:0:
153,346,64076,1,0,0:0:0:0:
207,83,64226,5,0,0:0:0:0:
158,330,64376,1,0,0:0:0:0:
210,66,64526,5,0,0:0:0:0:
161,314,64676,1,0,0:0:0:0:
213,48,64826,5,0,0:0:0:0:
510,220,64976,2,0,B|496:287|430:313|430:313|390:293|394:238,1,200
277,169,65426,2,0,P|212:159|155:170,1,100
69,250,65726,2,0,B|34:320|88:374|88:374|122:384|179:358,1,200
305,299,66176,2,0,B|366:276|438:309|438:309|460:368,1,200
318,125,66626,5,0,0:0:0:0:
388,176,66776,1,0,0:0:0:0:
395,96,66926,1,0,0:0:0:0:
395,96,67226,6,0,L|310:91,1,75
320,91,67526,1,0,0:0:0:0:
256,192,76826,5,0,0:0:0:0:
256,192,77126,2,0,L|332:186,2,69.9999978637696
174,336,77726,2,0,P|123:344|92:334,1,69.9999978637696
32,294,78026,1,0,0:0:0:0:
23,211,78176,2,0,B|61:207|85:226|85:226|94:185|83:144,1,139.999995727539
84,152,78776,1,0,0:0:0:0:
326,58,79076,5,0,0:0:0:0:
409,59,79226,2,0,P|401:99|368:132,1,69.9999978637696
326,58,79526,1,0,0:0:0:0:
366,248,79976,1,0,0:0:0:0:
446,311,80126,2,0,L|461:384,2,69.9999978637696
366,248,80576,2,0,P|301:239|219:249,1,139.999995727539
227,246,81176,1,0,0:0:0:0:
66,82,81926,6,0,P|107:104|215:118,1,139.999995727539
426,255,82526,2,0,P|393:242|359:238,2,69.9999978637696
347,324,82976,2,0,P|284:326|197:349,1,139.999995727539
132,99,83726,6,0,P|115:151|223:135,1,209.999993591309
272,82,84326,6,0,L|364:73,1,69.9999978637696
419,126,84626,2,0,P|431:172|429:202,1,69.9999978637696
361,256,84926,2,0,L|291:262,1,69.9999978637696
173,180,85226,1,0,0:0:0:0:
96,366,85376,6,0,P|138:349|247:368,1,139.999995727539
230,358,85751,1,0,0:0:0:0:
230,358,85826,1,0,0:0:0:0:
173,179,85976,1,0,0:0:0:0:
323,281,86126,1,0,0:0:0:0:
106,246,86276,1,0,0:0:0:0:
106,246,86351,1,0,0:0:0:0:
106,246,86426,1,0,0:0:0:0:
326,118,86576,5,0,0:0:0:0:
354,161,86651,1,0,0:0:0:0:
383,197,86726,2,0,B|378:248|378:248|339:286|269:284,1,150
254,305,87026,2,0,B|308:313|308:313|356:341,1,100
506,163,87326,2,0,P|510:213|494:260,1,100
334,31,87626,1,0,0:0:0:0:
233,189,87776,2,0,L|383:197,1,150
419,282,88076,2,0,L|298:275,1,100
141,357,88376,1,0,0:0:0:0:
146,148,88526,5,0,0:0:0:0:
217,267,88676,1,0,0:0:0:0:
217,267,88751,1,0,0:0:0:0:
217,267,88826,2,0,L|225:333,1,50
126,238,88976,2,0,L|73:244,1,50
192,169,89126,6,0,P|228:131|338:134,1,150
397,91,89426,2,0,P|316:95|285:84,1,100
135,34,89726,2,0,L|79:44,2,50
276,202,90026,1,0,0:0:0:0:
34,122,90176,6,0,P|21:177|36:224,1,100
166,278,90476,2,0,L|272:253,1,100
444,361,90776,1,0,0:0:0:0:
444,361,90851,1,0,0:0:0:0:
444,361,90926,1,0,0:0:0:0:
260,302,91076,1,0,0:0:0:0:
385,178,91226,6,0,P|444:197|385:242,1,150
308,219,91526,2,0,B|287:175|303:140|303:140|293:109,1,100
132,335,91826,1,0,0:0:0:0:
322,352,91976,1,0,0:0:0:0:
322,352,92051,1,0,0:0:0:0:
322,352,92126,1,0,0:0:0:0:
212,273,92276,1,0,0:0:0:0:
54,360,92426,1,0,0:0:0:0:
20,235,92576,6,0,P|6:184|21:130,1,100
207,78,92876,2,0,P|221:129|206:183,1,100
350,235,93176,1,0,0:0:0:0:
138,132,93326,1,0,0:0:0:0:
206,349,93476,1,0,0:0:0:0:
206,349,93551,1,0,0:0:0:0:
206,349,93626,1,0,0:0:0:0:
206,349,93926,6,0,P|155:363|93:338,1,100
197,194,94226,1,0,0:0:0:0:
197,194,94376,1,0,0:0:0:0:
414,353,94526,1,0,0:0:0:0:
414,353,94676,1,0,0:0:0:0:
280,225,94826,1,0,0:0:0:0:
280,225,94976,1,0,0:0:0:0:
310,60,95126,5,0,0:0:0:0:
319,346,95276,1,0,0:0:0:0:
319,346,95351,1,0,0:0:0:0:
319,346,95426,1,0,0:0:0:0:
172,217,95576,1,0,0:0:0:0:
366,188,95726,5,0,0:0:0:0:
93,236,95876,1,0,0:0:0:0:
459,190,96026,1,0,0:0:0:0:
21,185,96176,1,0,0:0:0:0:
255,245,96326,6,0,P|276:199|248:152,1,100
250,152,96926,6,0,L|127:165,1,100
36,37,97376,2,0,P|121:63|216:-17,1,200
396,69,97826,2,0,P|385:127|390:186,1,100
282,343,98126,2,0,P|275:291|252:235,1,100
259,24,98426,1,0,0:0:0:0:
254,372,98576,1,0,0:0:0:0:
303,196,98726,6,0,P|256:180|211:196,1,100
203,205,99326,6,0,L|194:103,1,100
411,35,99776,2,0,B|397:119|397:119|415:159|415:159|402:244,1,200
210,335,100226,2,0,L|318:361,1,100
233,217,100526,2,0,L|136:194,1,100
78,34,100826,2,0,L|186:60,1,100
175,57,101051,1,0,0:0:0:0:
175,57,101126,5,0,0:0:0:0:
70,252,101276,1,0,0:0:0:0:
263,360,101426,1,0,0:0:0:0:
368,165,101576,1,0,0:0:0:0:
187,52,101726,5,0,0:0:0:0:
82,247,101876,1,0,0:0:0:0:
275,355,102026,1,0,0:0:0:0:
380,160,102176,1,0,0:0:0:0:
202,45,102326,5,0,0:0:0:0:
97,240,102476,1,0,0:0:0:0:
290,348,102626,1,0,0:0:0:0:
395,153,102776,1,0,0:0:0:0:
216,41,102926,5,0,0:0:0:0:
111,236,103076,1,0,0:0:0:0:
304,344,103226,1,0,0:0:0:0:
409,149,103376,1,0,0:0:0:0:
97,136,103526,5,0,0:0:0:0:
97,136,103676,1,0,0:0:0:0:
388,255,103826,1,0,0:0:0:0:
27,333,103976,1,0,0:0:0:0:
27,333,104126,1,0,0:0:0:0:
314,81,104276,1,0,0:0:0:0:
228,328,104426,6,0,B|270:349|317:336|317:336|362:326|392:349|392:349|386:320|410:278,1,225.000008583069
431,244,104726,5,0,0:0:0:0:
478,207,104801,1,0,0:0:0:0:
492,148,104876,1,0,0:0:0:0:
478,89,104951,1,0,0:0:0:0:
442,40,105026,1,0,0:0:0:0:
383,26,105101,1,0,0:0:0:0:
323,30,105176,1,0,0:0:0:0:
269,57,105251,1,0,0:0:0:0:
213,80,105326,6,0,P|170:87|133:83,1,75.0000028610231
32,185,105476,2,0,P|75:178|112:182,1,75.0000028610231
302,234,105626,2,0,P|259:241|222:237,1,75.0000028610231
36,347,105776,2,0,P|79:340|116:344,1,75.0000028610231
322,309,105926,6,0,P|251:330|181:305,1,150
263,226,106226,6,0,P|334:205|404:230,1,150
336,106,106526,6,0,P|265:127|195:102,1,150
195,102,106826,1,0,0:0:0:0:
375,215,106976,2,0,L|475:200,1,100
246,287,107276,1,0,0:0:0:0:
195,102,107426,1,0,0:0:0:0:
246,287,107576,1,0,0:0:0:0:
357,42,107726,2,0,P|413:36|466:50,1,100
195,102,108026,2,0,P|139:108|86:94,1,100
97,99,108251,1,0,0:0:0:0:
97,99,108326,1,0,0:0:0:0:
120,265,108476,6,0,P|191:241|329:251,1,200
440,73,108926,2,0,P|375:96|331:96,1,100
139,29,109226,1,0,0:0:0:0:
236,286,109376,2,0,P|255:227|231:87,1,200
62,158,109826,1,0,0:0:0:0:
53,213,109901,1,0,0:0:0:0:
44,268,109976,1,0,0:0:0:0:
193,368,110126,5,0,0:0:0:0:
251,92,110276,1,0,0:0:0:0:
157,188,110426,1,0,0:0:0:0:
203,219,110501,1,0,0:0:0:0:
257,231,110576,1,0,0:0:0:0:
312,225,110651,1,0,0:0:0:0:
365,208,110726,6,0,P|431:198|464:273,1,150
389,367,111026,6,0,B|339:360|339:360|289:324|308:265,1,150
207,274,111326,6,0,B|223:324|173:360|173:360|123:367,1,150
53,310,111626,1,0,0:0:0:0:
239,104,111776,2,0,L|341:113,1,100
277,332,112076,1,0,0:0:0:0:
195,187,112226,1,0,0:0:0:0:
354,45,112376,1,0,0:0:0:0:
122,8,112526,6,0,P|73:48|145:98,1,150
80,172,112826,2,0,P|121:209|125:252,1,100
100,328,113051,1,0,0:0:0:0:
100,328,113126,1,0,0:0:0:0:
117,104,113276,1,0,0:0:0:0:
262,259,113426,1,0,0:0:0:0:
303,17,113576,1,0,0:0:0:0:
433,175,113726,6,0,P|378:196|279:116,1,200
193,200,114176,2,0,P|213:257|213:300,1,100
104,367,114476,1,0,0:0:0:0:
75,161,114626,5,0,0:0:0:0:
75,161,114701,1,0,0:0:0:0:
75,161,114776,1,0,0:0:0:0:
75,161,114851,1,0,0:0:0:0:
75,161,114926,2,0,L|56:107,1,50
190,118,115076,2,0,L|206:165,1,50
283,273,115226,6,0,B|332:239|346:188|346:188|329:129,1,150
306,78,115526,5,0,0:0:0:0:
393,288,115676,1,0,0:0:0:0:
299,64,115826,5,0,0:0:0:0:
398,302,115976,1,0,0:0:0:0:
293,48,116126,5,0,0:0:0:0:
402,320,116276,1,0,0:0:0:0:
286,33,116426,5,0,0:0:0:0:
408,337,116576,1,0,0:0:0:0:
118,214,116726,5,0,0:0:0:0:
421,149,116876,1,0,0:0:0:0:
96,219,117026,5,0,0:0:0:0:
440,142,117176,1,0,0:0:0:0:
76,225,117326,5,0,0:0:0:0:
459,133,117476,1,0,0:0:0:0:
56,232,117626,5,0,0:0:0:0:
481,120,117776,1,0,0:0:0:0:
133,40,117926,2,0,L|15:25,1,100
293,176,118226,2,0,L|397:173,1,100
163,346,118526,2,0,B|197:233|116:272|172:132,1,200
418,148,118976,2,0,P|371:216|259:199,1,200
108,56,119426,2,0,P|166:44|220:67,1,100
204,56,119651,1,0,0:0:0:0:
204,56,119726,5,0,0:0:0:0:
337,174,119876,1,0,0:0:0:0:
70,324,120026,1,0,0:0:0:0:
272,343,120176,1,0,0:0:0:0:
35,138,120326,5,0,0:0:0:0:
113,233,120476,1,0,0:0:0:0:
29,128,120626,5,0,0:0:0:0:
238,202,120776,1,0,0:0:0:0:
21,115,120926,5,0,0:0:0:0:
374,165,121076,1,0,0:0:0:0:
12,102,121226,5,0,0:0:0:0:
505,124,121376,1,0,0:0:0:0:
308,284,121526,5,0,0:0:0:0:
360,18,121676,1,0,0:0:0:0:
305,301,121826,5,0,0:0:0:0:
356,37,121976,1,0,0:0:0:0:
302,318,122126,5,0,0:0:0:0:
352,54,122276,1,0,0:0:0:0:
299,336,122426,5,0,0:0:0:0:
18,156,122576,2,0,B|32:89|98:63|98:63|138:83|134:138,1,200
235,215,123026,2,0,P|300:225|357:214,1,100
443,134,123326,2,0,B|462:61|414:14|414:14|371:3|333:26,1,200
60,250,123776,2,0,B|41:323|89:370|89:370|132:381|170:358,1,200
215,135,124226,5,0,0:0:0:0:
240,221,124376,1,0,0:0:0:0:
299,161,124526,1,0,0:0:0:0:
299,161,124826,6,0,L|208:166,1,75
149,198,125126,6,0,P|121:193|143:249,1,112.500004291535
157,286,125426,2,0,P|198:280|237:282,1,75.0000028610231
370,303,125726,1,0,0:0:0:0:
370,303,125876,1,0,0:0:0:0:
433,199,126026,1,0,0:0:0:0:
333,103,126176,1,0,0:0:0:0:
330,122,126251,1,0,0:0:0:0:
327,141,126326,1,0,0:0:0:0:
228,251,126476,5,0,0:0:0:0:
219,234,126551,1,0,0:0:0:0:
210,217,126626,2,0,L|187:177,1,37.5000014305115
111,299,126776,2,0,L|134:339,1,37.5000014305115
71,205,126926,2,0,L|34:209,1,37.5000014305115
93,84,127076,2,0,L|150:78,1,37.5000014305115
292,177,127226,1,0,0:0:0:0:
292,177,127376,1,0,0:0:0:0:
466,173,127526,6,0,P|462:136|441:106,1,75.0000028610231
132,191,127826,2,0,P|136:227|157:258,1,75.0000028610231
447,178,128126,2,0,P|442:141|421:110,1,75.0000028610231
109,196,128426,2,0,P|113:232|134:263,1,75.0000028610231
318,175,128726,5,0,0:0:0:0:
263,113,128876,1,0,0:0:0:0:
185,84,129026,1,0,0:0:0:0:
102,84,129176,1,0,0:0:0:0:
169,164,129326,5,0,0:0:0:0:
270,192,129476,1,0,0:0:0:0:
373,175,129626,1,0,0:0:0:0:
461,118,129776,1,0,0:0:0:0:
493,18,129926,5,0,0:0:0:0:
455,202,130076,2,0,L|503:196,1,37.5000014305115
446,222,130226,2,0,B|483:217|483:217|505:254|485:307,1,112.500004291535
334,325,130526,2,0,P|381:319|423:327,1,75.0000028610231
307,222,130826,2,0,P|260:228|218:220,1,75.0000028610231
377,73,131126,6,0,L|380:159,1,75.0000028610231
367,56,131351,1,0,0:0:0:0:
367,56,131426,2,0,L|359:139,1,75.0000028610231
378,42,131651,1,0,0:0:0:0:
378,42,131726,1,0,0:0:0:0:
500,159,131876,1,0,0:0:0:0:
270,209,132026,1,0,0:0:0:0:
230,12,132176,1,0,0:0:0:0:
349,141,132326,5,0,0:0:0:0:
374,186,132401,1,0,0:0:0:0:
373,238,132476,1,0,0:0:0:0:
350,285,132551,1,0,0:0:0:0:
302,307,132626,1,0,0:0:0:0:
249,311,132701,1,0,0:0:0:0:
200,290,132776,1,0,0:0:0:0:
177,242,132851,1,0,0:0:0:0:
136,209,132926,5,0,0:0:0:0:
83,213,133001,1,0,0:0:0:0:
35,235,133076,1,0,0:0:0:0:
12,282,133151,1,0,0:0:0:0:
11,334,133226,1,0,0:0:0:0:
36,379,133301,1,0,0:0:0:0:
94,384,133376,6,0,B|253:365|253:365|173:303,1,200
243,277,134126,6,0,L|250:236,1,25
247,284,134276,2,0,L|254:243,1,25
237,286,134426,2,0,L|244:245,1,25
240,295,134576,2,0,L|247:254,1,25
290,53,134726,6,0,P|321:73|310:109,1,75
361,276,135026,2,0,L|385:334,1,50
98,197,135326,2,0,L|33:191,1,50
48,192,135626,5,0,0:0:0:0:
242,167,135776,1,0,0:0:0:0:
401,191,135926,2,0,L|435:190,2,25
215,344,136226,1,0,0:0:0:0:
201,311,136301,1,0,0:0:0:0:
203,276,136376,1,0,0:0:0:0:
427,286,136526,2,0,L|421:346,1,50
316,208,136826,1,0,0:0:0:0:
341,384,136976,1,0,0:0:0:0:
441,139,137126,6,0,L|432:203,1,50
230,200,137426,2,0,L|225:150,1,50
323,55,137726,2,0,B|330:111|330:111|323:132|323:132|330:182,1,125
317,342,138176,2,0,L|320:363,2,12.5
351,263,138326,6,0,L|237:247,1,100
186,157,138776,2,0,P|174:160|162:161,1,25
121,231,138926,6,0,P|152:204|298:211,1,175
345,247,139526,5,0,0:0:0:0:
412,96,139676,1,0,0:0:0:0:
378,105,139751,1,0,0:0:0:0:
343,104,139826,1,0,0:0:0:0:
454,208,139976,1,0,0:0:0:0:
242,145,140126,2,0,P|239:175|249:210,1,50
342,344,140426,2,0,L|351:292,1,50
219,303,140726,5,0,0:0:0:0:
337,195,140876,1,0,0:0:0:0:
337,195,140951,1,0,0:0:0:0:
337,195,141026,1,0,0:0:0:0:
451,309,141176,1,0,0:0:0:0:
467,168,141326,2,0,L|464:118,1,50
451,309,141626,2,0,L|454:359,1,50
348,280,141926,6,0,P|306:267|265:273,1,75
111,362,142226,2,0,P|143:365|178:358,1,50
419,381,142526,1,0,0:0:0:0:
133,262,142676,2,0,L|129:206,1,50
275,27,142976,1,0,0:0:0:0:
393,283,143126,6,0,P|363:264|350:293,1,75
349,292,143426,1,0,0:0:0:0:
419,381,143576,1,0,0:0:0:0:
439,184,143726,2,0,L|436:204,6,12.5
348,142,144026,2,0,P|327:148|294:152,1,50
92,341,144476,6,0,L|73:335,4,12.5
92,341,145076,6,0,L|73:335,10,12.5
189,360,145526,6,0,B|246:360|246:360|294:329,1,100
221,94,145826,2,0,B|164:94|164:94|116:125,1,100
361,202,146126,1,0,0:0:0:0:
361,202,146276,1,0,0:0:0:0:
206,241,146426,1,0,0:0:0:0:
359,91,146576,5,0,0:0:0:0:
412,290,146726,1,0,0:0:0:0:
412,290,146801,1,0,0:0:0:0:
412,290,146876,1,0,0:0:0:0:
176,328,147026,1,0,0:0:0:0:
310,198,147176,1,0,0:0:0:0:
486,354,147326,1,0,0:0:0:0:
486,354,147626,1,0,0:0:0:0:
396,297,147776,1,0,0:0:0:0:
486,217,147926,6,0,B|497:166|497:166|486:109,1,100
173,118,148226,2,0,B|162:169|162:169|173:226,1,100
350,175,148526,1,0,0:0:0:0:
350,175,148676,1,0,0:0:0:0:
289,74,148826,5,0,0:0:0:0:
310,276,148976,1,0,0:0:0:0:
310,276,149051,1,0,0:0:0:0:
310,276,149126,1,0,0:0:0:0:
452,191,149276,1,0,0:0:0:0:
226,195,149426,1,0,0:0:0:0:
376,86,149576,1,0,0:0:0:0:
310,276,149726,5,0,0:0:0:0:
512,117,149876,1,0,0:0:0:0:
117,38,150026,1,0,0:0:0:0:
487,242,150326,5,0,0:0:0:0:
466,287,150401,1,0,0:0:0:0:
429,320,150476,1,0,0:0:0:0:
382,335,150551,1,0,0:0:0:0:
332,331,150626,1,0,0:0:0:0:
289,306,150701,1,0,0:0:0:0:
259,267,150776,1,0,0:0:0:0:
247,219,150851,1,0,0:0:0:0:
258,169,150926,5,0,0:0:0:0:
267,121,151001,1,0,0:0:0:0:
255,72,151076,1,0,0:0:0:0:
225,33,151151,1,0,0:0:0:0:
182,9,151226,1,0,0:0:0:0:
132,4,151301,1,0,0:0:0:0:
85,19,151376,1,0,0:0:0:0:
48,52,151451,1,0,0:0:0:0:
33,99,151526,5,0,0:0:0:0:
34,148,151601,1,0,0:0:0:0:
56,193,151676,1,0,0:0:0:0:
95,224,151751,1,0,0:0:0:0:
142,238,151826,1,0,0:0:0:0:
191,231,151901,1,0,0:0:0:0:
233,205,151976,1,0,0:0:0:0:
261,163,152051,1,0,0:0:0:0:
270,114,152126,5,0,0:0:0:0:
220,123,152201,1,0,0:0:0:0:
179,152,152276,1,0,0:0:0:0:
159,199,152351,1,0,0:0:0:0:
155,249,152426,1,0,0:0:0:0:
173,295,152501,1,0,0:0:0:0:
209,330,152576,1,0,0:0:0:0:
255,349,152651,1,0,0:0:0:0:
303,360,152726,6,0,B|329:353|358:365|358:365|388:344|388:344|414:374|468:358,1,150
512,332,153026,1,0,0:0:0:0:
325,262,153176,6,0,B|339:256|358:263|358:263|383:252|383:252|411:270|450:254,1,112.500004291535
510,228,153476,1,0,0:0:0:0:
350,155,153626,6,0,B|364:149|383:156|383:156|397:150|397:150|413:160|435:156,1,75
505,97,153926,1,0,0:0:0:0:
256,192,154001,12,0,155051,0:0:0:0:
201,111,155126,6,0,P|168:142|228:218,1,150
213,218,155426,1,0,0:0:0:0:
374,209,155576,2,0,P|433:180|472:265,1,150
480,236,155876,1,0,0:0:0:0:
296,363,156026,1,0,0:0:0:0:
419,155,162326,5,0,0:0:0:0:
335,255,162626,1,0,0:0:0:0:
225,173,162926,1,0,0:0:0:0:
309,73,163226,1,0,0:0:0:0:
448,261,163526,5,0,0:0:0:0:
214,317,163826,1,0,0:0:0:0:
154,84,164126,1,0,0:0:0:0:
407,27,164426,1,0,0:0:0:0:
157,220,164726,6,0,L|54:215,1,100
422,140,165326,2,0,L|319:135,1,100
467,359,165776,1,0,0:0:0:0:
467,359,165926,2,0,L|364:354,1,100
214,126,166526,2,0,L|230:229,1,100
224,243,167126,6,0,B|279:248|279:248|321:218,1,100
200,107,167426,2,0,B|237:81|237:81|292:86,1,100
163,321,167726,2,0,B|215:346|215:346|270:342,1,100
141,21,168026,2,0,B|193:-3|193:-3|236:0,1,100
382,242,168326,6,0,B|329:247|329:247|292:220,1,100
407,106,168626,2,0,B|370:79|370:79|315:84,1,100
445,320,168926,2,0,B|393:345|393:345|350:341,1,100
491,26,169226,2,0,B|439:1|439:1|384:5,1,100
500,118,169451,5,0,0:0:0:0:
500,118,169526,2,0,L|479:235,1,100
353,298,169826,2,0,L|370:199,1,100
270,97,170126,2,0,L|249:214,1,100
110,242,170426,2,0,L|127:143,1,100
235,136,174326,5,0,0:0:0:0:
235,136,174401,1,0,0:0:0:0:
235,136,174476,1,0,0:0:0:0:
235,136,174551,1,0,0:0:0:0:
235,136,174626,1,0,0:0:0:0:
235,136,174701,1,0,0:0:0:0:
235,136,174776,1,0,0:0:0:0:
235,136,174851,1,0,0:0:0:0:
235,136,174926,1,0,0:0:0:0:
235,136,175001,1,0,0:0:0:0:
235,136,175076,1,0,0:0:0:0:
235,136,175151,1,0,0:0:0:0:
235,136,175226,1,0,0:0:0:0:
235,136,175301,1,0,0:0:0:0:
235,136,175376,1,0,0:0:0:0:
235,136,175451,1,0,0:0:0:0:
235,136,175526,1,0,0:0:0:0:
235,136,175601,1,0,0:0:0:0:
235,136,175676,1,0,0:0:0:0:
235,136,175751,1,0,0:0:0:0:
235,136,175826,1,0,0:0:0:0:
235,136,175901,1,0,0:0:0:0:
235,136,175976,1,0,0:0:0:0:
235,136,176051,1,0,0:0:0:0:
235,136,176126,5,0,0:0:0:0:
316,281,176726,6,0,P|257:257|163:288,1,150
108,154,177026,6,0,P|167:178|261:147,1,150
330,78,177326,6,0,P|271:54|177:85,1,150
189,74,177626,1,0,0:0:0:0:
423,164,177776,2,0,P|460:114|461:65,1,100
250,198,178076,1,0,0:0:0:0:
379,358,178226,1,0,0:0:0:0:
250,198,178376,1,0,0:0:0:0:
155,342,178526,2,0,P|99:348|46:334,1,100
337,270,178826,2,0,P|393:264|446:278,1,100
435,273,179051,1,0,0:0:0:0:
435,273,179126,1,0,0:0:0:0:
392,119,179276,6,0,P|321:143|183:133,1,200
72,311,179726,2,0,P|137:288|181:288,1,100
373,355,180026,1,0,0:0:0:0:
276,98,180176,2,0,P|257:157|281:297,1,200
450,226,180626,1,0,0:0:0:0:
459,171,180701,1,0,0:0:0:0:
468,116,180776,1,0,0:0:0:0:
319,16,180926,1,0,0:0:0:0:
261,292,181076,1,0,0:0:0:0:
355,196,181226,5,0,0:0:0:0:
309,165,181301,1,0,0:0:0:0:
255,153,181376,1,0,0:0:0:0:
200,159,181451,1,0,0:0:0:0:
147,176,181526,6,0,P|81:186|48:111,1,150
123,17,181826,2,0,B|173:24|173:24|223:60|204:119,1,150
305,110,182126,2,0,B|289:60|339:24|339:24|389:17,1,150
459,74,182426,1,0,0:0:0:0:
273,280,182576,2,0,L|171:271,1,100
235,52,182876,1,0,0:0:0:0:
317,197,183026,1,0,0:0:0:0:
158,339,183176,1,0,0:0:0:0:
390,376,183326,6,0,P|439:336|367:286,1,150
432,212,183626,2,0,P|391:175|387:132,1,100
412,56,183851,1,0,0:0:0:0:
412,56,183926,1,0,0:0:0:0:
390,376,184076,1,0,0:0:0:0:
79,209,184526,2,0,P|134:188|233:268,1,200
319,184,184976,2,0,P|299:127|299:84,1,100
408,17,185276,1,0,0:0:0:0:
437,223,185426,5,0,0:0:0:0:
437,223,185501,1,0,0:0:0:0:
437,223,185576,1,0,0:0:0:0:
437,223,185651,1,0,0:0:0:0:
437,223,185726,2,0,L|456:277,1,50
322,266,185876,2,0,L|306:219,1,50
229,111,186026,6,0,B|180:145|166:196|166:196|183:255,1,150
206,306,186326,5,0,0:0:0:0:
119,96,186476,1,0,0:0:0:0:
213,320,186626,5,0,0:0:0:0:
114,82,186776,1,0,0:0:0:0:
219,336,186926,5,0,0:0:0:0:
110,64,187076,1,0,0:0:0:0:
226,351,187226,5,0,0:0:0:0:
104,47,187376,1,0,0:0:0:0:
394,170,187526,5,0,0:0:0:0:
91,235,187676,1,0,0:0:0:0:
416,165,187826,5,0,0:0:0:0:
72,242,187976,1,0,0:0:0:0:
436,159,188126,5,0,0:0:0:0:
53,251,188276,1,0,0:0:0:0:
456,152,188426,5,0,0:0:0:0:
31,264,188576,1,0,0:0:0:0:
379,344,188726,2,0,L|497:359,1,100
219,208,189026,2,0,L|115:211,1,100
349,38,189326,2,0,B|315:151|396:112|340:252,1,200
94,236,189776,2,0,P|141:168|253:185,1,200
404,328,190226,2,0,P|346:340|292:317,1,100
308,328,190451,1,0,0:0:0:0:
308,328,190526,5,0,0:0:0:0:
175,210,190676,1,0,0:0:0:0:
240,41,190826,1,0,0:0:0:0:
442,60,190976,1,0,0:0:0:0:
477,246,191126,5,0,0:0:0:0:
399,151,191276,1,0,0:0:0:0:
483,256,191426,5,0,0:0:0:0:
274,182,191576,1,0,0:0:0:0:
491,269,191726,5,0,0:0:0:0:
138,219,191876,1,0,0:0:0:0:
500,282,192026,5,0,0:0:0:0:
19,251,192176,1,0,0:0:0:0:
204,100,192326,5,0,0:0:0:0:
153,346,192476,1,0,0:0:0:0:
207,83,192626,5,0,0:0:0:0:
412,322,192776,1,0,0:0:0:0:
210,66,192926,5,0,0:0:0:0:
35,302,193076,1,0,0:0:0:0:
213,48,193226,5,0,0:0:0:0:
510,220,193376,2,0,B|496:287|430:313|430:313|390:293|394:238,1,200
277,169,193826,2,0,P|212:159|155:170,1,100
69,250,194126,2,0,B|34:320|88:374|88:374|122:384|179:358,1,200
305,299,194576,2,0,B|366:276|438:309|438:309|460:368,1,200
318,125,195026,5,0,0:0:0:0:
388,176,195176,1,0,0:0:0:0:
395,96,195326,1,0,0:0:0:0:
206,306,195926,5,0,0:0:0:0:
119,96,196076,1,0,0:0:0:0:
213,320,196226,5,0,0:0:0:0:
114,82,196376,1,0,0:0:0:0:
219,336,196526,5,0,0:0:0:0:
110,64,196676,1,0,0:0:0:0:
226,351,196826,5,0,0:0:0:0:
104,47,196976,1,0,0:0:0:0:
394,170,197126,5,0,0:0:0:0:
91,235,197276,1,0,0:0:0:0:
416,165,197426,5,0,0:0:0:0:
72,242,197576,1,0,0:0:0:0:
436,159,197726,5,0,0:0:0:0:
53,251,197876,1,0,0:0:0:0:
456,152,198026,5,0,0:0:0:0:
31,264,198176,1,0,0:0:0:0:
379,344,198326,2,0,L|497:359,1,100
219,208,198626,2,0,L|115:211,1,100
349,38,198926,2,0,B|315:151|396:112|340:252,1,200
94,236,199376,2,0,P|141:168|253:185,1,200
404,328,199826,2,0,P|346:340|292:317,1,100
308,328,200051,1,0,0:0:0:0:
308,328,200126,5,0,0:0:0:0:
175,210,200276,1,0,0:0:0:0:
240,41,200426,1,0,0:0:0:0:
442,60,200576,1,0,0:0:0:0:
206,306,200726,5,0,0:0:0:0:
119,96,200876,1,0,0:0:0:0:
213,320,201026,5,0,0:0:0:0:
114,82,201176,1,0,0:0:0:0:
219,336,201326,5,0,0:0:0:0:
110,64,201476,1,0,0:0:0:0:
226,351,201626,5,0,0:0:0:0:
104,47,201776,1,0,0:0:0:0:
394,170,201926,5,0,0:0:0:0:
91,235,202076,1,0,0:0:0:0:
416,165,202226,5,0,0:0:0:0:
72,242,202376,1,0,0:0:0:0:
436,159,202526,5,0,0:0:0:0:
53,251,202676,1,0,0:0:0:0:
456,152,202826,5,0,0:0:0:0:
510,220,202976,2,0,B|496:287|430:313|430:313|390:293|394:238,1,200
277,169,203426,2,0,P|212:159|155:170,1,100
69,250,203726,2,0,B|34:320|88:374|88:374|122:384|179:358,1,200
305,299,204176,2,0,B|366:276|438:309|438:309|460:368,1,200
318,125,204626,5,0,0:0:0:0:
388,176,204776,1,0,0:0:0:0:
395,96,204926,1,0,0:0:0:0:
