osu file format v14

[General]
AudioFilename: audio.mp3
AudioLeadIn: 0
PreviewTime: 36849
Countdown: 0
SampleSet: Normal
StackLeniency: 0.7
Mode: 1
LetterboxInBreaks: 0
WidescreenStoryboard: 1

[Editor]
DistanceSpacing: 0.4
BeatDivisor: 4
GridSize: 32
TimelineZoom: 2.7

[Metadata]
Title:Volt Tackle feat. Hatsune Miku
TitleUnicode:ボルテッカー feat. 初音ミク
Artist:DECO*27
ArtistUnicode:DECO*27
Creator:ler1211
Version:Muzukashii
Source:ポケットモンスター
Tags:haypzeh hpz Project VOLTAGE ポケミク pokemiku ポケモン pokémon pokemon pocket monsters vocaloid japanese rock jrock j-rock pop jpop j-pop
BeatmapID:4375391
BeatmapSetID:2067583

[Difficulty]
HPDrainRate:6
CircleSize:5
OverallDifficulty:5
ApproachRate:5
SliderMultiplier:1.4
SliderTickRate:1

[Events]
//Background and Video events
0,0,"F7LxouPasAAoh8H.jpg",0,27
//Break Periods
2,68581,76214
//Storyboard Layer 0 (Background)
//Storyboard Layer 1 (Fail)
//Storyboard Layer 2 (Pass)
//Storyboard Layer 3 (Foreground)
//Storyboard Layer 4 (Overlay)
//Storyboard Sound Samples

[TimingPoints]
1285,322.58064516129,4,1,0,85,1,0
6607,-100,4,1,0,70,0,0
11526,-100,4,1,0,85,0,0
37414,-100,4,1,0,100,0,1
58059,-100,4,1,0,100,0,0
58220,-100,4,1,0,85,0,0
68299,-100,4,1,0,60,0,0
68543,-100,4,1,0,40,0,0
77333,-100,4,1,0,60,0,0
78623,-100,4,1,0,80,0,0
78704,-100,4,1,0,80,0,1
89026,-100,4,1,0,85,0,0
109752,-100,4,1,0,5,0,0
110801,-100,4,1,0,85,0,0
124188,-100,4,1,0,100,0,1
141930,-100,4,1,0,85,0,0
146446,-100,4,1,0,70,0,0
147736,-100,4,1,0,70,0,1
149994,-100,4,1,0,70,0,0

[HitObjects]
256,192,1285,5,0,0:0:0:0:
256,192,1446,1,0,0:0:0:0:
256,192,1607,1,8,0:0:0:0:
256,192,1930,1,0,0:0:0:0:
256,192,2091,1,8,0:0:0:0:
256,192,2252,1,8,0:0:0:0:
256,192,2575,1,0,0:0:0:0:
256,192,2736,1,0,0:0:0:0:
256,192,2897,1,8,0:0:0:0:
256,192,3220,1,0,0:0:0:0:
256,192,3381,1,8,0:0:0:0:
256,192,3543,1,8,0:0:0:0:
256,192,3865,1,0,0:0:0:0:
256,192,4026,1,0,0:0:0:0:
256,192,4349,1,0,0:0:0:0:
256,192,4510,1,8,0:0:0:0:
256,192,4672,1,0,0:0:0:0:
256,192,4994,1,0,0:0:0:0:
256,192,5155,1,8,0:0:0:0:
256,192,5317,1,8,0:0:0:0:
256,192,5478,1,0,0:0:0:0:
256,192,5559,1,0,0:0:0:0:
256,192,5639,1,0,0:0:0:0:
256,192,5801,1,0,0:0:0:0:
256,192,5962,1,8,0:0:0:0:
256,192,6043,1,8,0:0:0:0:
256,192,6123,1,8,0:0:0:0:
256,192,6285,1,8,0:0:0:0:
256,192,6446,1,4,0:0:0:0:
256,192,6930,1,8,0:0:0:0:
256,192,7091,1,0,0:0:0:0:
256,192,7414,1,0,0:0:0:0:
256,192,7736,1,0,0:0:0:0:
256,192,7897,1,8,0:0:0:0:
256,192,8220,1,8,0:0:0:0:
256,192,8543,1,8,0:0:0:0:
256,192,8704,1,0,0:0:0:0:
256,192,8865,1,8,0:0:0:0:
256,192,9026,1,0,0:0:0:0:
256,192,9349,1,0,0:0:0:0:
256,192,9510,1,8,0:0:0:0:
256,192,9833,1,8,0:0:0:0:
256,192,10155,1,8,0:0:0:0:
256,192,10317,1,0,0:0:0:0:
256,192,10639,1,0,0:0:0:0:
256,192,10801,1,8,0:0:0:0:
256,192,10962,1,0,0:0:0:0:
256,192,11123,1,8,0:0:0:0:
256,192,11285,1,0,0:0:0:0:
256,192,11607,1,4,0:0:0:0:
256,192,12092,1,8,0:0:0:0:
256,192,12253,1,0,0:0:0:0:
256,192,12414,1,0,0:0:0:0:
256,192,12576,1,8,0:0:0:0:
256,192,12736,1,8,0:0:0:0:
256,192,12898,1,0,0:0:0:0:
256,192,13059,1,8,0:0:0:0:
256,192,13382,1,8,0:0:0:0:
256,192,13543,1,0,0:0:0:0:
256,192,13704,1,8,0:0:0:0:
256,192,13866,1,0,0:0:0:0:
256,192,14027,1,0,0:0:0:0:
256,192,14188,1,8,0:0:0:0:
256,192,14511,1,0,0:0:0:0:
256,192,14672,1,8,0:0:0:0:
256,192,14833,1,0,0:0:0:0:
256,192,14995,1,8,0:0:0:0:
256,192,15317,1,8,0:0:0:0:
256,192,15479,1,0,0:0:0:0:
256,192,15639,1,8,0:0:0:0:
256,192,15801,1,8,0:0:0:0:
256,192,15963,1,0,0:0:0:0:
256,192,16043,1,0,0:0:0:0:
256,192,16124,1,0,0:0:0:0:
256,192,16607,1,8,0:0:0:0:
256,192,16688,1,8,0:0:0:0:
256,192,16768,1,8,0:0:0:0:
256,192,16930,1,0,0:0:0:0:
256,192,17091,1,8,0:0:0:0:
256,192,17414,1,0,0:0:0:0:
256,192,17575,1,0,0:0:0:0:
256,192,17736,1,8,0:0:0:0:
256,192,17897,1,0,0:0:0:0:
256,192,18220,1,0,0:0:0:0:
256,192,18381,1,8,0:0:0:0:
256,192,18543,1,0,0:0:0:0:
256,192,18865,1,0,0:0:0:0:
256,192,19026,1,8,0:0:0:0:
256,192,19188,1,8,0:0:0:0:
256,192,19349,1,0,0:0:0:0:
256,192,19591,1,8,0:0:0:0:
256,192,19672,1,8,0:0:0:0:
256,192,19833,1,0,0:0:0:0:
256,192,20155,1,0,0:0:0:0:
256,192,20317,1,8,0:0:0:0:
256,192,20478,1,8,0:0:0:0:
256,192,20639,1,0,0:0:0:0:
256,192,20881,1,8,0:0:0:0:
256,192,20962,1,8,0:0:0:0:
256,192,21123,1,0,0:0:0:0:
256,192,21284,1,0,0:0:0:0:
256,192,21768,1,8,0:0:0:0:
256,192,21849,1,8,0:0:0:0:
256,192,21930,1,8,0:0:0:0:
256,192,22091,1,0,0:0:0:0:
256,192,22252,1,8,0:0:0:0:
256,192,22413,1,8,0:0:0:0:
256,192,22575,1,0,0:0:0:0:
256,192,22736,1,0,0:0:0:0:
256,192,22897,1,8,0:0:0:0:
256,192,23058,1,0,0:0:0:0:
256,192,23381,1,0,0:0:0:0:
256,192,23542,1,8,0:0:0:0:
256,192,23704,1,8,0:0:0:0:
256,192,24026,1,0,0:0:0:0:
256,192,24187,1,8,0:0:0:0:
256,192,24349,1,8,0:0:0:0:
256,192,24510,1,0,0:0:0:0:
256,192,24752,1,0,0:0:0:0:
256,192,24833,1,0,0:0:0:0:
256,192,24994,1,8,0:0:0:0:
256,192,25316,1,0,0:0:0:0:
256,192,25478,1,8,0:0:0:0:
256,192,25639,1,0,0:0:0:0:
256,192,25801,1,8,0:0:0:0:
256,192,26043,1,0,0:0:0:0:
256,192,26123,1,0,0:0:0:0:
256,192,26284,1,8,0:0:0:0:
256,192,26446,1,0,0:0:0:0:
256,192,26607,1,8,0:0:0:0:
256,192,26768,1,0,0:0:0:0:
256,192,26849,1,0,0:0:0:0:
256,192,26930,1,0,0:0:0:0:
256,192,27091,1,12,0:0:0:0:
256,192,27252,1,12,0:0:0:0:
256,192,27575,1,12,0:0:0:0:
256,192,27897,1,12,0:0:0:0:
256,192,28220,1,12,0:0:0:0:
256,192,28543,1,12,0:0:0:0:
256,192,28865,1,12,0:0:0:0:
256,192,29026,1,4,0:0:0:0:
256,192,29349,1,12,0:0:0:0:
256,192,29672,1,4,0:0:0:0:
256,192,29833,1,4,0:0:0:0:
256,192,30155,1,4,0:0:0:0:
256,192,30478,1,4,0:0:0:0:
256,192,30801,1,4,0:0:0:0:
256,192,31123,1,4,0:0:0:0:
256,192,31446,1,4,0:0:0:0:
256,192,31607,1,12,0:0:0:0:
256,192,31930,1,4,0:0:0:0:
256,192,32252,1,12,0:0:0:0:
256,192,32413,1,12,0:0:0:0:
256,192,32736,1,12,0:0:0:0:
256,192,33058,1,12,0:0:0:0:
256,192,33381,1,12,0:0:0:0:
256,192,33704,1,12,0:0:0:0:
256,192,34026,1,12,0:0:0:0:
256,192,34187,1,4,0:0:0:0:
256,192,34510,1,12,0:0:0:0:
256,192,34833,1,0,0:0:0:0:
256,192,34994,1,8,0:0:0:0:
256,192,35155,1,8,0:0:0:0:
256,192,35317,1,0,0:0:0:0:
256,192,35397,1,0,0:0:0:0:
256,192,35478,1,0,0:0:0:0:
256,192,35639,1,0,0:0:0:0:
256,192,35801,1,8,0:0:0:0:
256,192,35881,1,8,0:0:0:0:
256,192,35962,1,8,0:0:0:0:
256,192,36123,1,4,0:0:0:0:
256,192,36284,1,4,0:0:0:0:
256,192,36607,1,12,0:0:0:0:
256,192,37091,1,0,0:0:0:0:
256,192,37414,1,4,0:0:0:0:
256,192,37575,1,0,0:0:0:0:
256,192,37736,1,8,0:0:0:0:
256,192,38059,1,8,0:0:0:0:
256,192,38220,1,8,0:0:0:0:
256,192,38381,1,0,0:0:0:0:
256,192,38543,1,8,0:0:0:0:
256,192,38704,1,0,0:0:0:0:
256,192,38865,1,0,0:0:0:0:
256,192,39188,1,8,0:0:0:0:
256,192,39349,1,0,0:0:0:0:
256,192,39510,1,8,0:0:0:0:
256,192,39591,1,8,0:0:0:0:
256,192,39672,1,8,0:0:0:0:
256,192,39833,1,8,0:0:0:0:
256,192,39994,1,0,0:0:0:0:
256,192,40155,1,0,0:0:0:0:
256,192,40317,1,8,0:0:0:0:
256,192,40639,1,8,0:0:0:0:
256,192,40801,1,8,0:0:0:0:
256,192,40962,1,0,0:0:0:0:
256,192,41123,1,8,0:0:0:0:
256,192,41284,1,0,0:0:0:0:
256,192,41768,1,8,0:0:0:0:
256,192,41930,1,0,0:0:0:0:
256,192,42091,1,8,0:0:0:0:
256,192,42252,1,8,0:0:0:0:
256,192,42414,1,0,0:0:0:0:
256,192,42494,1,0,0:0:0:0:
256,192,42575,1,0,0:0:0:0:
256,192,42736,1,0,0:0:0:0:
256,192,42897,1,8,0:0:0:0:
256,192,43220,1,0,0:0:0:0:
256,192,43381,1,0,0:0:0:0:
256,192,43543,1,8,0:0:0:0:
256,192,43704,1,8,0:0:0:0:
256,192,43865,1,0,0:0:0:0:
256,192,44026,1,8,0:0:0:0:
256,192,44349,1,8,0:0:0:0:
256,192,44510,1,8,0:0:0:0:
256,192,44672,1,0,0:0:0:0:
256,192,44752,1,0,0:0:0:0:
256,192,44833,1,0,0:0:0:0:
256,192,44994,1,8,0:0:0:0:
256,192,45317,1,0,0:0:0:0:
256,192,45397,1,0,0:0:0:0:
256,192,45478,1,0,0:0:0:0:
256,192,45639,1,8,0:0:0:0:
256,192,45962,1,0,0:0:0:0:
256,192,46123,1,8,0:0:0:0:
256,192,46284,1,8,0:0:0:0:
256,192,46446,1,0,0:0:0:0:
256,192,46768,1,8,0:0:0:0:
256,192,46930,1,0,0:0:0:0:
256,192,47091,1,8,0:0:0:0:
256,192,47414,1,0,0:0:0:0:
256,192,47494,1,0,0:0:0:0:
256,192,47575,1,0,0:0:0:0:
256,192,47655,1,0,0:0:0:0:
256,192,47736,1,0,0:0:0:0:
256,192,48059,1,12,0:0:0:0:
256,192,48381,1,0,0:0:0:0:
256,192,48704,1,8,0:0:0:0:
256,192,48865,1,0,0:0:0:0:
256,192,49026,1,8,0:0:0:0:
256,192,49188,1,8,0:0:0:0:
256,192,49510,1,0,0:0:0:0:
256,192,49672,1,8,0:0:0:0:
256,192,49833,1,0,0:0:0:0:
256,192,49914,1,0,0:0:0:0:
256,192,49994,1,0,0:0:0:0:
256,192,50155,1,0,0:0:0:0:
256,192,50317,1,8,0:0:0:0:
256,192,50639,1,8,0:0:0:0:
256,192,50801,1,0,0:0:0:0:
256,192,50962,1,8,0:0:0:0:
256,192,51284,1,8,0:0:0:0:
256,192,51446,1,8,0:0:0:0:
256,192,51607,1,0,0:0:0:0:
256,192,52091,1,8,0:0:0:0:
256,192,52252,1,0,0:0:0:0:
256,192,52414,1,8,0:0:0:0:
256,192,52494,1,8,0:0:0:0:
256,192,52575,1,8,0:0:0:0:
256,192,52736,1,8,0:0:0:0:
256,192,52897,1,0,0:0:0:0:
256,192,53059,1,0,0:0:0:0:
256,192,53220,1,8,0:0:0:0:
256,192,53543,1,0,0:0:0:0:
256,192,53704,1,8,0:0:0:0:
256,192,53865,1,0,0:0:0:0:
256,192,54026,1,0,0:0:0:0:
256,192,54188,1,8,0:0:0:0:
256,192,54349,1,8,0:0:0:0:
256,192,54672,1,0,0:0:0:0:
256,192,54833,1,0,0:0:0:0:
256,192,54994,1,8,0:0:0:0:
256,192,55075,1,8,0:0:0:0:
256,192,55155,1,8,0:0:0:0:
256,192,55317,1,4,0:0:0:0:
256,192,55639,1,8,0:0:0:0:
256,192,55720,1,8,0:0:0:0:
256,192,55801,1,8,0:0:0:0:
256,192,55962,1,4,0:0:0:0:
256,192,56284,1,0,0:0:0:0:
256,192,56446,1,8,0:0:0:0:
256,192,56607,1,0,0:0:0:0:
256,192,56688,1,0,0:0:0:0:
256,192,56768,1,0,0:0:0:0:
256,192,56930,1,0,0:0:0:0:
256,192,57091,1,8,0:0:0:0:
256,192,57172,1,8,0:0:0:0:
256,192,57252,1,8,0:0:0:0:
256,192,57414,1,0,0:0:0:0:
256,192,57736,1,0,0:0:0:0:
256,192,58059,1,8,0:0:0:0:
256,192,58543,1,0,0:0:0:0:
256,192,58704,1,8,0:0:0:0:
256,192,59026,1,0,0:0:0:0:
256,192,59107,1,0,0:0:0:0:
256,192,59188,1,0,0:0:0:0:
256,192,59349,1,8,0:0:0:0:
256,192,59672,1,0,0:0:0:0:
256,192,59833,1,0,0:0:0:0:
256,192,59994,1,8,0:0:0:0:
256,192,60155,1,0,0:0:0:0:
256,192,60317,1,8,0:0:0:0:
256,192,60478,1,0,0:0:0:0:
256,192,60639,1,12,0:0:0:0:
256,192,60962,1,8,0:0:0:0:
256,192,61284,1,8,0:0:0:0:
256,192,61446,1,8,0:0:0:0:
256,192,61607,1,0,0:0:0:0:
256,192,61688,1,0,0:0:0:0:
256,192,61769,1,0,0:0:0:0:
256,192,61930,1,8,0:0:0:0:
256,192,62252,1,0,0:0:0:0:
256,192,62414,1,0,0:0:0:0:
256,192,62575,1,8,0:0:0:0:
256,192,62682,1,8,0:0:0:0:
256,192,62790,1,8,0:0:0:0:
256,192,62897,1,8,0:0:0:0:
256,192,63220,1,8,0:0:0:0:
256,192,63704,1,0,0:0:0:0:
256,192,63865,1,8,0:0:0:0:
256,192,64187,1,0,0:0:0:0:
256,192,64268,1,0,0:0:0:0:
256,192,64349,1,0,0:0:0:0:
256,192,64510,1,8,0:0:0:0:
256,192,64833,1,0,0:0:0:0:
256,192,64994,1,0,0:0:0:0:
256,192,65155,1,8,0:0:0:0:
256,192,65316,1,0,0:0:0:0:
256,192,65478,1,8,0:0:0:0:
256,192,65800,1,8,0:0:0:0:
256,192,65962,1,8,0:0:0:0:
256,192,66123,1,8,0:0:0:0:
256,192,66284,1,8,0:0:0:0:
256,192,66446,1,4,0:0:0:0:
256,192,66768,1,8,0:0:0:0:
256,192,66930,1,8,0:0:0:0:
256,192,67091,1,0,0:0:0:0:
256,192,67414,1,8,0:0:0:0:
256,192,67575,1,0,0:0:0:0:
256,192,67736,1,8,0:0:0:0:
256,192,67817,1,8,0:0:0:0:
256,192,67898,1,8,0:0:0:0:
256,192,67978,1,8,0:0:0:0:
256,192,68059,1,8,0:0:0:0:
256,192,68381,1,0,0:0:0:0:
256,192,77414,12,8,78543,0:0:0:0:
256,192,78704,5,4,0:0:0:0:
256,192,79672,1,8,0:0:0:0:
256,192,79994,1,0,0:0:0:0:
256,192,80639,1,0,0:0:0:0:
256,192,80962,1,8,0:0:0:0:
256,192,81123,1,8,0:0:0:0:
256,192,81284,1,0,0:0:0:0:
256,192,81768,1,8,0:0:0:0:
256,192,82252,1,8,0:0:0:0:
256,192,82575,1,0,0:0:0:0:
256,192,83059,1,8,0:0:0:0:
256,192,83220,1,0,0:0:0:0:
256,192,83543,1,8,0:0:0:0:
256,192,83865,1,0,0:0:0:0:
256,192,84188,1,8,0:0:0:0:
256,192,84349,1,8,0:0:0:0:
256,192,84510,1,8,0:0:0:0:
256,192,85155,1,0,0:0:0:0:
256,192,85478,1,8,0:0:0:0:
256,192,85801,1,0,0:0:0:0:
256,192,86123,1,8,0:0:0:0:
256,192,86284,1,8,0:0:0:0:
256,192,86446,1,0,0:0:0:0:
256,192,87091,1,8,0:0:0:0:
256,192,87414,1,8,0:0:0:0:
256,192,87736,1,0,0:0:0:0:
256,192,88059,1,8,0:0:0:0:
256,192,88220,1,8,0:0:0:0:
256,192,88381,1,0,0:0:0:0:
256,192,88865,1,8,0:0:0:0:
256,192,89026,1,4,0:0:0:0:
256,192,90801,1,8,0:0:0:0:
256,192,90881,1,8,0:0:0:0:
256,192,90962,1,8,0:0:0:0:
256,192,91204,1,8,0:0:0:0:
256,192,91446,1,8,0:0:0:0:
256,192,92736,1,0,0:0:0:0:
256,192,92897,1,8,0:0:0:0:
256,192,93059,1,0,0:0:0:0:
256,192,93220,1,0,0:0:0:0:
256,192,93381,1,8,0:0:0:0:
256,192,93543,1,0,0:0:0:0:
256,192,93704,1,8,0:0:0:0:
256,192,93865,1,8,0:0:0:0:
256,192,94026,1,0,0:0:0:0:
256,192,94107,1,0,0:0:0:0:
256,192,94188,1,0,0:0:0:0:
256,192,94510,1,0,0:0:0:0:
256,192,94833,1,0,0:0:0:0:
256,192,95155,1,0,0:0:0:0:
256,192,95317,1,8,0:0:0:0:
256,192,95478,1,0,0:0:0:0:
256,192,95801,1,0,0:0:0:0:
256,192,96123,1,0,0:0:0:0:
256,192,96446,1,0,0:0:0:0:
256,192,96607,1,8,0:0:0:0:
256,192,96768,1,0,0:0:0:0:
256,192,96930,1,8,0:0:0:0:
256,192,97091,1,0,0:0:0:0:
256,192,97414,1,0,0:0:0:0:
256,192,97736,1,0,0:0:0:0:
256,192,98059,1,4,0:0:0:0:
256,192,98704,1,0,0:0:0:0:
256,192,98865,1,8,0:0:0:0:
256,192,99026,1,8,0:0:0:0:
256,192,99107,1,8,0:0:0:0:
256,192,99188,1,8,0:0:0:0:
256,192,99349,1,0,0:0:0:0:
256,192,99672,1,12,0:0:0:0:
256,192,99994,1,12,0:0:0:0:
256,192,100317,1,8,0:0:0:0:
256,192,100478,1,0,0:0:0:0:
256,192,100801,1,0,0:0:0:0:
256,192,100962,1,8,0:0:0:0:
256,192,101123,1,0,0:0:0:0:
256,192,101284,1,0,0:0:0:0:
256,192,101446,1,8,0:0:0:0:
256,192,101526,1,8,0:0:0:0:
256,192,101607,1,8,0:0:0:0:
256,192,101768,1,8,0:0:0:0:
256,192,101930,1,0,0:0:0:0:
256,192,102252,1,12,0:0:0:0:
256,192,102575,1,12,0:0:0:0:
256,192,102897,1,8,0:0:0:0:
256,192,103059,1,0,0:0:0:0:
256,192,103220,1,8,0:0:0:0:
256,192,103381,1,0,0:0:0:0:
256,192,103704,1,8,0:0:0:0:
256,192,103784,1,8,0:0:0:0:
256,192,103865,1,8,0:0:0:0:
256,192,104026,1,0,0:0:0:0:
256,192,104188,1,8,0:0:0:0:
256,192,104349,1,8,0:0:0:0:
256,192,104510,1,0,0:0:0:0:
256,192,104833,1,12,0:0:0:0:
256,192,105155,1,12,0:0:0:0:
256,192,105478,1,8,0:0:0:0:
256,192,105639,1,0,0:0:0:0:
256,192,105962,1,0,0:0:0:0:
256,192,106123,1,8,0:0:0:0:
256,192,106284,1,8,0:0:0:0:
256,192,106446,1,0,0:0:0:0:
256,192,106607,1,8,0:0:0:0:
256,192,106688,1,8,0:0:0:0:
256,192,106768,1,8,0:0:0:0:
256,192,106930,1,8,0:0:0:0:
256,192,107091,1,0,0:0:0:0:
256,192,107414,1,12,0:0:0:0:
256,192,107736,1,12,0:0:0:0:
256,192,108059,1,8,0:0:0:0:
256,192,108220,1,0,0:0:0:0:
256,192,108301,1,0,0:0:0:0:
256,192,108381,1,0,0:0:0:0:
256,192,108543,1,8,0:0:0:0:
256,192,108704,1,8,0:0:0:0:
256,192,108865,1,0,0:0:0:0:
256,192,108946,1,0,0:0:0:0:
256,192,109026,1,0,0:0:0:0:
256,192,109188,1,0,0:0:0:0:
256,192,109349,1,8,0:0:0:0:
256,192,109430,1,8,0:0:0:0:
256,192,109510,1,8,0:0:0:0:
256,192,109672,1,0,0:0:0:0:
256,192,110962,1,4,0:0:0:0:
256,192,111607,1,8,0:0:0:0:
256,192,112252,1,4,0:0:0:0:
256,192,112736,1,8,0:0:0:0:
256,192,113059,1,8,0:0:0:0:
256,192,113220,1,8,0:0:0:0:
256,192,113381,1,8,0:0:0:0:
256,192,113543,1,4,0:0:0:0:
256,192,114188,1,4,0:0:0:0:
256,192,114833,1,4,0:0:0:0:
256,192,115155,1,8,0:0:0:0:
256,192,115478,1,8,0:0:0:0:
256,192,115639,1,8,0:0:0:0:
256,192,115801,1,8,0:0:0:0:
256,192,115962,1,8,0:0:0:0:
256,192,116123,1,4,0:0:0:0:
256,192,116446,1,0,0:0:0:0:
256,192,116607,1,8,0:0:0:0:
256,192,116768,1,0,0:0:0:0:
256,192,116930,1,0,0:0:0:0:
256,192,117091,1,8,0:0:0:0:
256,192,117252,1,0,0:0:0:0:
256,192,117414,1,8,0:0:0:0:
256,192,117575,1,8,0:0:0:0:
256,192,117897,1,8,0:0:0:0:
256,192,118059,1,0,0:0:0:0:
256,192,118220,1,8,0:0:0:0:
256,192,118381,1,8,0:0:0:0:
256,192,118543,1,0,0:0:0:0:
256,192,118623,1,0,0:0:0:0:
256,192,118704,1,0,0:0:0:0:
256,192,118865,1,8,0:0:0:0:
256,192,119026,1,8,0:0:0:0:
256,192,119188,1,0,0:0:0:0:
256,192,119268,1,0,0:0:0:0:
256,192,119349,1,0,0:0:0:0:
256,192,119510,1,8,0:0:0:0:
256,192,119672,1,8,0:0:0:0:
256,192,119833,1,4,0:0:0:0:
256,192,120155,1,4,0:0:0:0:
256,192,120478,1,4,0:0:0:0:
256,192,120639,1,4,0:0:0:0:
256,192,121607,1,0,0:0:0:0:
256,192,121768,1,8,0:0:0:0:
256,192,121930,1,0,0:0:0:0:
256,192,122010,1,0,0:0:0:0:
256,192,122091,1,0,0:0:0:0:
256,192,122252,1,0,0:0:0:0:
256,192,122414,1,8,0:0:0:0:
256,192,122575,1,4,0:0:0:0:
256,192,122736,1,4,0:0:0:0:
256,192,123059,1,12,0:0:0:0:
256,192,123381,1,0,0:0:0:0:
256,192,123543,1,8,0:0:0:0:
256,192,123623,1,8,0:0:0:0:
256,192,123704,1,8,0:0:0:0:
256,192,123865,1,0,0:0:0:0:
256,192,124188,1,12,0:0:0:0:
256,192,124510,1,8,0:0:0:0:
256,192,124672,1,0,0:0:0:0:
256,192,124752,1,0,0:0:0:0:
256,192,124833,1,0,0:0:0:0:
256,192,124994,1,8,0:0:0:0:
256,192,125155,1,0,0:0:0:0:
256,192,125317,1,0,0:0:0:0:
256,192,125639,1,8,0:0:0:0:
256,192,125801,1,0,0:0:0:0:
256,192,125962,1,8,0:0:0:0:
256,192,126043,1,8,0:0:0:0:
256,192,126123,1,8,0:0:0:0:
256,192,126285,1,0,0:0:0:0:
256,192,126365,1,0,0:0:0:0:
256,192,126446,1,0,0:0:0:0:
256,192,126607,1,0,0:0:0:0:
256,192,126768,1,8,0:0:0:0:
256,192,127091,1,0,0:0:0:0:
256,192,127252,1,0,0:0:0:0:
256,192,127414,1,8,0:0:0:0:
256,192,127575,1,8,0:0:0:0:
256,192,127736,1,0,0:0:0:0:
256,192,128220,1,8,0:0:0:0:
256,192,128381,1,8,0:0:0:0:
256,192,128543,1,0,0:0:0:0:
256,192,128623,1,0,0:0:0:0:
256,192,128704,1,0,0:0:0:0:
256,192,128865,1,8,0:0:0:0:
256,192,129188,1,0,0:0:0:0:
256,192,129268,1,0,0:0:0:0:
256,192,129349,1,0,0:0:0:0:
256,192,129510,1,8,0:0:0:0:
256,192,129833,1,0,0:0:0:0:
256,192,129994,1,8,0:0:0:0:
256,192,130155,1,8,0:0:0:0:
256,192,130317,1,0,0:0:0:0:
256,192,130478,1,0,0:0:0:0:
256,192,130639,1,8,0:0:0:0:
256,192,130801,1,0,0:0:0:0:
256,192,131123,1,8,0:0:0:0:
256,192,131285,1,0,0:0:0:0:
256,192,131365,1,0,0:0:0:0:
256,192,131446,1,0,0:0:0:0:
256,192,131607,1,8,0:0:0:0:
256,192,131768,1,8,0:0:0:0:
256,192,131930,1,0,0:0:0:0:
256,192,132091,1,8,0:0:0:0:
256,192,132252,1,0,0:0:0:0:
256,192,132575,1,8,0:0:0:0:
256,192,132736,1,0,0:0:0:0:
256,192,132897,1,8,0:0:0:0:
256,192,133059,1,8,0:0:0:0:
256,192,133381,1,0,0:0:0:0:
256,192,133543,1,8,0:0:0:0:
256,192,133704,1,0,0:0:0:0:
256,192,133785,1,0,0:0:0:0:
256,192,133865,1,0,0:0:0:0:
256,192,134026,1,0,0:0:0:0:
256,192,134188,1,8,0:0:0:0:
256,192,134510,1,8,0:0:0:0:
256,192,134672,1,0,0:0:0:0:
256,192,134833,1,8,0:0:0:0:
256,192,134914,1,8,0:0:0:0:
256,192,134994,1,8,0:0:0:0:
256,192,135155,1,0,0:0:0:0:
256,192,135317,1,0,0:0:0:0:
256,192,135478,1,8,0:0:0:0:
256,192,135962,1,8,0:0:0:0:
256,192,136123,1,0,0:0:0:0:
256,192,136285,1,8,0:0:0:0:
256,192,136365,1,8,0:0:0:0:
256,192,136446,1,8,0:0:0:0:
256,192,136607,1,8,0:0:0:0:
256,192,136768,1,0,0:0:0:0:
256,192,136930,1,0,0:0:0:0:
256,192,137091,1,8,0:0:0:0:
256,192,137414,1,8,0:0:0:0:
256,192,137575,1,8,0:0:0:0:
256,192,137736,1,0,0:0:0:0:
256,192,137817,1,0,0:0:0:0:
256,192,137897,1,0,0:0:0:0:
256,192,138059,1,8,0:0:0:0:
256,192,138220,1,8,0:0:0:0:
256,192,138543,1,0,0:0:0:0:
256,192,138704,1,0,0:0:0:0:
256,192,138865,1,8,0:0:0:0:
256,192,138946,1,8,0:0:0:0:
256,192,139026,1,8,0:0:0:0:
256,192,139188,1,4,0:0:0:0:
256,192,139510,1,8,0:0:0:0:
256,192,139591,1,8,0:0:0:0:
256,192,139672,1,8,0:0:0:0:
256,192,139833,1,4,0:0:0:0:
256,192,140155,1,0,0:0:0:0:
256,192,140317,1,8,0:0:0:0:
256,192,140478,1,0,0:0:0:0:
256,192,140559,1,0,0:0:0:0:
256,192,140639,1,0,0:0:0:0:
256,192,140801,1,0,0:0:0:0:
256,192,140962,1,8,0:0:0:0:
256,192,141043,1,8,0:0:0:0:
256,192,141123,1,8,0:0:0:0:
256,192,141285,1,0,0:0:0:0:
256,192,141607,1,0,0:0:0:0:
256,192,141930,1,8,0:0:0:0:
256,192,142414,1,0,0:0:0:0:
256,192,142575,1,8,0:0:0:0:
256,192,142897,1,0,0:0:0:0:
256,192,143543,1,0,0:0:0:0:
256,192,143704,1,0,0:0:0:0:
256,192,143865,1,8,0:0:0:0:
256,192,144026,1,8,0:0:0:0:
256,192,144349,1,0,0:0:0:0:
256,192,144510,1,8,0:0:0:0:
256,192,144672,1,8,0:0:0:0:
256,192,144833,1,8,0:0:0:0:
256,192,144994,1,8,0:0:0:0:
256,192,145155,1,8,0:0:0:0:
256,192,145317,1,8,0:0:0:0:
256,192,145478,1,8,0:0:0:0:
256,192,145640,1,8,0:0:0:0:
256,192,145801,1,8,0:0:0:0:
256,192,146123,1,0,0:0:0:0:
256,192,146284,1,8,0:0:0:0:
256,192,146446,8,0,147091,0:0:0:0:
256,192,147736,5,8,0:0:0:0:
256,192,148059,1,8,0:0:0:0:
256,192,148381,1,8,0:0:0:0:
256,192,149026,1,8,0:0:0:0:
256,192,149188,1,8,0:0:0:0:
256,192,149349,1,8,0:0:0:0:
256,192,149510,1,8,0:0:0:0:
256,192,149672,1,8,0:0:0:0:
256,192,149833,1,8,0:0:0:0:
256,192,149994,1,8,0:0:0:0:
