osu file format v14

[General]
AudioFilename: audio.mp3
AudioLeadIn: 0
PreviewTime: 55127
Countdown: 0
SampleSet: Normal
StackLeniency: 0.7
Mode: 1
LetterboxInBreaks: 0
WidescreenStoryboard: 1

[Editor]
Bookmarks: 965,24316,45073,55127,76208,96964,107019,128100,148856,159235,179992
DistanceSpacing: 1
BeatDivisor: 4
GridSize: 32
TimelineZoom: 2.2

[Metadata]
Title:Undercover feat. Hatsune Miku
TitleUnicode:アンダーカバー feat. Hatsune Miku
Artist:DECO*27
ArtistUnicode:DECO*27
Creator:MMzz
Version:Oni feat. Chromoxx
Source:MILGRAM
Tags:chromoxx tks ミルグラム, エス es vocaloid rock japanese j-rock jrock deco27 rockwell akka collab
BeatmapID:3530128
BeatmapSetID:1727421

[Difficulty]
HPDrainRate:5
CircleSize:5
OverallDifficulty:6
ApproachRate:5
SliderMultiplier:1.4
SliderTickRate:1

[Events]
//Background and Video events
0,0,"undercover.jpg",0,50
//Break Periods
//Storyboard Layer 0 (Background)
//Storyboard Layer 1 (Fail)
//Storyboard Layer 2 (Pass)
//Storyboard Layer 3 (Foreground)
//Storyboard Layer 4 (Overlay)
//Storyboard Sound Samples

[TimingPoints]
959,324.324324324324,4,1,0,40,1,0
3391,-100,4,1,0,60,0,0
12472,-100,4,1,0,40,0,0
13931,-100,4,1,0,80,0,0
24472,-100,4,1,0,65,0,0
34688,-100,4,1,0,80,0,0
45229,-100,4,1,0,70,0,0
55283,-100,4,1,0,70,0,0
55445,-100,4,1,0,90,0,1
75553,-100,4,1,0,90,0,0
76202,-100,4,1,0,80,0,0
86742,-100,4,1,0,65,0,0
96958,-100,4,1,0,70,0,0
107337,-100,4,1,0,90,0,1
128094,-100,4,1,0,90,0,0
128256,-100,4,1,0,60,0,0
148850,-100,4,1,0,70,0,0
157769,-100,4,1,0,80,0,0
159229,-100,4,1,0,90,0,1
179986,-100,4,1,0,80,0,0

[HitObjects]
256,192,959,12,0,3067,0:0:0:0:
201,297,3391,5,0,0:0:0:0:
320,170,3715,1,0,0:0:0:0:
320,170,3877,1,0,0:0:0:0:
118,144,4202,1,8,0:0:0:0:
138,237,4364,1,8,0:0:0:0:
238,249,4688,1,0,0:0:0:0:
150,259,5013,1,8,0:0:0:0:
238,249,5175,1,0,0:0:0:0:
139,279,5499,1,0,0:0:0:0:
156,259,5661,1,8,0:0:0:0:
282,215,5986,1,0,0:0:0:0:
267,258,6310,1,0,0:0:0:0:
144,191,6472,1,8,0:0:0:0:
267,258,6796,1,8,0:0:0:0:
245,161,6958,1,0,0:0:0:0:
245,258,7283,1,8,0:0:0:0:
245,258,7607,1,8,0:0:0:0:
245,258,7931,1,0,0:0:0:0:
245,258,8256,1,8,0:0:0:0:
245,258,8580,1,0,0:0:0:0:
207,189,8904,1,0,0:0:0:0:
207,189,9067,1,0,0:0:0:0:
167,187,9391,1,8,0:0:0:0:
167,187,9553,1,8,0:0:0:0:
167,187,9877,1,0,0:0:0:0:
296,259,10202,1,8,0:0:0:0:
167,187,10364,1,0,0:0:0:0:
236,285,10688,1,0,0:0:0:0:
167,187,10850,1,8,0:0:0:0:
167,187,11175,1,0,0:0:0:0:
298,207,11499,1,0,0:0:0:0:
298,207,11661,1,8,0:0:0:0:
298,207,11986,1,8,0:0:0:0:
298,207,12148,1,0,0:0:0:0:
256,192,12472,12,0,13607,0:0:0:0:
195,297,13931,5,4,0:0:0:0:
379,165,14256,1,8,0:0:0:0:
379,165,14418,1,0,0:0:0:0:
95,233,14499,1,0,0:0:0:0:
379,165,14580,1,0,0:0:0:0:
229,161,14742,1,8,0:0:0:0:
134,166,14904,1,0,0:0:0:0:
134,166,15067,1,0,0:0:0:0:
208,210,15391,1,8,0:0:0:0:
316,298,15553,1,0,0:0:0:0:
243,217,15715,1,0,0:0:0:0:
224,235,15877,1,8,0:0:0:0:
224,235,16040,1,0,0:0:0:0:
238,169,16202,1,8,0:0:0:0:
131,238,16364,1,0,0:0:0:0:
167,131,16688,1,0,0:0:0:0:
345,253,16850,1,8,0:0:0:0:
345,253,17013,1,8,0:0:0:0:
226,260,17175,1,0,0:0:0:0:
194,218,17256,1,0,0:0:0:0:
226,260,17337,1,0,0:0:0:0:
252,150,17418,1,0,0:0:0:0:
202,98,17499,1,8,0:0:0:0:
256,168,17661,1,4,0:0:0:0:
218,154,17986,1,12,0:0:0:0:
251,205,18148,1,0,0:0:0:0:
163,241,18229,1,0,0:0:0:0:
217,220,18310,1,8,0:0:0:0:
230,179,18472,1,0,0:0:0:0:
390,232,18634,1,8,0:0:0:0:
390,232,18715,1,8,0:0:0:0:
234,239,18796,1,0,0:0:0:0:
234,239,18877,1,0,0:0:0:0:
234,239,18958,1,0,0:0:0:0:
239,285,19283,1,0,0:0:0:0:
239,285,19445,1,8,0:0:0:0:
179,206,19607,1,0,0:0:0:0:
179,206,19769,1,0,0:0:0:0:
179,206,19931,1,8,0:0:0:0:
169,283,20094,1,0,0:0:0:0:
292,220,20256,1,0,0:0:0:0:
141,189,20580,1,8,0:0:0:0:
141,189,20742,1,0,0:0:0:0:
141,189,20904,1,0,0:0:0:0:
141,189,21067,1,8,0:0:0:0:
183,151,21229,1,0,0:0:0:0:
138,125,21310,1,0,0:0:0:0:
155,117,21391,1,8,0:0:0:0:
263,269,21553,1,0,0:0:0:0:
378,290,21877,1,0,0:0:0:0:
211,285,22040,1,8,0:0:0:0:
211,285,22202,1,8,0:0:0:0:
211,285,22364,1,0,0:0:0:0:
163,304,22445,1,0,0:0:0:0:
205,194,22526,1,0,0:0:0:0:
105,180,22607,1,0,0:0:0:0:
282,268,22688,1,8,0:0:0:0:
283,288,22850,1,4,0:0:0:0:
261,272,23175,1,0,0:0:0:0:
261,272,23256,1,0,0:0:0:0:
217,225,23337,1,8,0:0:0:0:
248,316,23499,1,0,0:0:0:0:
122,130,23580,1,8,0:0:0:0:
122,130,23661,1,8,0:0:0:0:
122,130,23823,1,8,0:0:0:0:
122,130,23986,1,8,0:0:0:0:
122,130,24148,1,8,0:0:0:0:
122,130,24310,1,0,0:0:0:0:
224,224,24796,1,0,0:0:0:0:
224,224,24958,1,8,0:0:0:0:
192,192,25283,1,0,0:0:0:0:
160,192,25445,1,0,0:0:0:0:
160,192,25607,1,8,0:0:0:0:
160,192,25769,1,8,0:0:0:0:
128,192,25931,1,0,0:0:0:0:
128,192,26256,1,8,0:0:0:0:
160,192,26742,1,0,0:0:0:0:
160,192,26904,1,8,0:0:0:0:
160,192,27229,1,8,0:0:0:0:
160,192,27391,1,0,0:0:0:0:
160,160,27715,1,8,0:0:0:0:
160,160,28040,1,0,0:0:0:0:
160,160,28364,1,0,0:0:0:0:
160,160,28526,1,0,0:0:0:0:
160,192,28850,1,8,0:0:0:0:
160,192,29175,1,8,0:0:0:0:
160,192,29499,1,0,0:0:0:0:
192,160,29986,1,0,0:0:0:0:
192,160,30148,1,8,0:0:0:0:
192,160,30472,1,8,0:0:0:0:
192,160,30634,1,0,0:0:0:0:
192,160,30796,1,8,0:0:0:0:
192,160,30958,1,8,0:0:0:0:
160,160,31121,1,0,0:0:0:0:
160,160,31445,1,8,0:0:0:0:
192,160,31769,1,0,0:0:0:0:
192,160,31931,1,8,0:0:0:0:
192,160,32256,1,8,0:0:0:0:
192,160,32418,1,0,0:0:0:0:
192,160,32580,1,0,0:0:0:0:
192,160,32742,1,8,0:0:0:0:
224,128,33067,1,0,0:0:0:0:
224,128,33229,1,8,0:0:0:0:
224,128,33553,5,8,0:0:0:0:
224,128,33715,1,8,0:0:0:0:
224,128,33877,1,0,0:0:0:0:
224,128,33958,1,0,0:0:0:0:
224,128,34040,1,8,0:0:0:0:
224,128,34202,1,0,0:0:0:0:
224,128,34364,1,8,0:0:0:0:
256,192,34688,5,4,0:0:0:0:
288,192,34850,1,0,0:0:0:0:
256,192,35013,1,8,0:0:0:0:
224,96,35175,1,0,0:0:0:0:
224,128,35256,1,0,0:0:0:0:
224,128,35337,1,8,0:0:0:0:
224,128,35499,1,8,0:0:0:0:
256,128,35661,1,0,0:0:0:0:
256,128,35823,1,0,0:0:0:0:
256,160,36148,1,8,0:0:0:0:
256,160,36310,1,0,0:0:0:0:
256,160,36472,1,0,0:0:0:0:
256,160,36634,1,8,0:0:0:0:
256,160,36796,1,0,0:0:0:0:
224,160,36958,1,8,0:0:0:0:
256,160,37121,1,0,0:0:0:0:
224,128,37445,1,8,0:0:0:0:
224,128,37607,1,0,0:0:0:0:
256,128,37769,1,0,0:0:0:0:
256,128,37931,1,8,0:0:0:0:
256,128,38013,1,0,0:0:0:0:
256,128,38094,1,0,0:0:0:0:
256,128,38175,1,0,0:0:0:0:
256,128,38256,1,8,0:0:0:0:
224,128,38418,1,8,0:0:0:0:
256,96,38742,1,8,0:0:0:0:
256,128,38904,1,0,0:0:0:0:
256,128,38986,1,0,0:0:0:0:
256,128,39067,1,8,0:0:0:0:
256,128,39229,1,0,0:0:0:0:
256,128,39391,1,8,0:0:0:0:
256,128,39553,1,8,0:0:0:0:
256,128,39715,1,0,0:0:0:0:
192,192,40040,1,8,0:0:0:0:
192,192,40202,1,0,0:0:0:0:
192,192,40364,1,0,0:0:0:0:
192,192,40526,1,8,0:0:0:0:
192,192,40688,1,8,0:0:0:0:
192,160,40850,1,0,0:0:0:0:
192,160,41013,1,0,0:0:0:0:
192,160,41337,1,8,0:0:0:0:
192,160,41499,1,0,0:0:0:0:
192,160,41661,1,0,0:0:0:0:
192,160,41823,1,8,0:0:0:0:
192,160,41986,1,0,0:0:0:0:
192,160,42067,1,0,0:0:0:0:
192,160,42148,1,8,0:0:0:0:
192,160,42310,1,0,0:0:0:0:
192,160,42634,1,0,0:0:0:0:
224,160,42715,1,0,0:0:0:0:
192,160,42796,1,8,0:0:0:0:
192,160,42958,1,8,0:0:0:0:
192,160,43040,1,8,0:0:0:0:
192,160,43121,1,8,0:0:0:0:
192,160,43283,1,0,0:0:0:0:
192,160,43607,1,0,0:0:0:0:
192,160,43688,1,0,0:0:0:0:
192,160,43769,1,8,0:0:0:0:
192,160,43850,1,8,0:0:0:0:
192,160,43931,5,0,0:0:0:0:
192,160,44094,1,0,0:0:0:0:
192,160,44175,1,0,0:0:0:0:
192,160,44256,1,8,0:0:0:0:
192,160,44418,1,0,0:0:0:0:
192,160,44580,1,8,0:0:0:0:
192,160,44742,1,8,0:0:0:0:
96,160,44823,1,8,0:0:0:0:
96,160,44904,1,8,0:0:0:0:
215,253,45067,5,4,0:0:0:0:
188,262,45391,1,8,0:0:0:0:
188,262,45553,1,0,0:0:0:0:
171,230,45634,1,0,0:0:0:0:
188,262,45715,1,0,0:0:0:0:
171,230,45877,1,0,0:0:0:0:
266,188,46040,1,8,0:0:0:0:
136,185,46202,1,0,0:0:0:0:
245,270,46526,1,0,0:0:0:0:
202,242,46688,1,8,0:0:0:0:
202,242,46850,1,8,0:0:0:0:
171,194,46931,1,8,0:0:0:0:
93,184,47013,1,0,0:0:0:0:
272,237,47175,1,0,0:0:0:0:
148,183,47337,1,8,0:0:0:0:
266,162,47499,1,0,0:0:0:0:
266,162,47661,1,8,0:0:0:0:
244,264,47986,1,8,0:0:0:0:
170,251,48148,1,0,0:0:0:0:
180,216,48229,1,0,0:0:0:0:
164,304,48310,1,0,0:0:0:0:
146,299,48472,1,0,0:0:0:0:
138,302,48634,1,8,0:0:0:0:
127,272,48796,1,0,0:0:0:0:
127,272,49121,1,0,0:0:0:0:
234,257,49283,1,8,0:0:0:0:
206,242,49445,1,8,0:0:0:0:
153,249,49526,1,8,0:0:0:0:
129,238,49607,1,0,0:0:0:0:
234,218,49769,1,0,0:0:0:0:
220,261,49850,1,0,0:0:0:0:
157,263,49931,1,8,0:0:0:0:
137,242,50013,1,8,0:0:0:0:
117,230,50094,1,0,0:0:0:0:
118,231,50256,1,8,0:0:0:0:
188,262,50580,1,0,0:0:0:0:
188,262,50742,1,8,0:0:0:0:
171,230,50823,1,8,0:0:0:0:
188,262,50904,1,8,0:0:0:0:
171,230,51067,1,8,0:0:0:0:
266,188,51229,1,0,0:0:0:0:
136,185,51391,1,8,0:0:0:0:
245,270,51715,1,8,0:0:0:0:
202,242,51877,1,0,0:0:0:0:
202,242,52040,1,0,0:0:0:0:
171,194,52121,1,0,0:0:0:0:
93,184,52202,1,8,0:0:0:0:
272,237,52364,1,8,0:0:0:0:
148,183,52526,1,0,0:0:0:0:
266,162,52688,1,8,0:0:0:0:
266,162,53013,1,8,0:0:0:0:
244,264,53175,1,0,0:0:0:0:
170,251,53337,1,8,0:0:0:0:
180,216,53418,1,8,0:0:0:0:
164,304,53499,1,8,0:0:0:0:
146,299,53661,1,8,0:0:0:0:
138,302,53823,1,0,0:0:0:0:
127,272,53986,1,8,0:0:0:0:
154,147,54148,1,0,0:0:0:0:
353,269,54310,1,0,0:0:0:0:
293,178,54391,1,0,0:0:0:0:
256,162,54472,1,8,0:0:0:0:
230,170,54553,1,8,0:0:0:0:
219,178,54634,1,0,0:0:0:0:
218,177,54715,1,0,0:0:0:0:
218,177,54796,1,8,0:0:0:0:
224,160,55283,1,8,0:0:0:0:
256,160,55445,1,4,0:0:0:0:
160,64,55688,1,0,0:0:0:0:
160,64,55769,1,8,0:0:0:0:
224,128,55931,1,4,0:0:0:0:
224,192,56256,1,0,0:0:0:0:
224,192,56418,1,8,0:0:0:0:
224,192,56580,1,0,0:0:0:0:
224,192,56661,1,0,0:0:0:0:
224,192,56742,1,0,0:0:0:0:
224,192,56904,1,0,0:0:0:0:
224,192,57067,1,8,0:0:0:0:
224,192,57229,1,0,0:0:0:0:
224,192,57310,1,8,0:0:0:0:
160,128,57391,1,0,0:0:0:0:
224,192,57553,1,0,0:0:0:0:
224,192,57715,1,8,0:0:0:0:
192,160,57877,1,0,0:0:0:0:
192,160,58040,1,4,0:0:0:0:
192,160,58283,1,0,0:0:0:0:
192,160,58364,1,8,0:0:0:0:
192,160,58526,1,4,0:0:0:0:
160,160,58850,1,0,0:0:0:0:
160,160,59013,1,8,0:0:0:0:
160,160,59094,1,8,0:0:0:0:
192,160,59175,1,0,0:0:0:0:
160,160,59337,1,0,0:0:0:0:
160,160,59499,1,0,0:0:0:0:
128,160,59661,1,8,0:0:0:0:
192,160,59823,1,0,0:0:0:0:
192,160,59904,1,8,0:0:0:0:
130,175,59986,1,0,0:0:0:0:
192,160,60148,1,0,0:0:0:0:
192,160,60310,1,8,0:0:0:0:
192,160,60391,1,8,0:0:0:0:
192,160,60472,1,8,0:0:0:0:
192,160,60553,1,8,0:0:0:0:
192,160,60634,1,0,0:0:0:0:
192,160,60796,1,0,0:0:0:0:
192,160,60958,1,8,0:0:0:0:
192,160,61121,1,12,0:0:0:0:
192,160,61445,1,0,0:0:0:0:
192,160,61607,1,8,0:0:0:0:
224,160,61769,1,0,0:0:0:0:
64,160,61850,1,0,0:0:0:0:
64,160,61931,1,0,0:0:0:0:
192,160,62094,1,0,0:0:0:0:
192,160,62256,1,8,0:0:0:0:
192,128,62418,1,12,0:0:0:0:
160,128,62742,1,0,0:0:0:0:
192,128,62904,1,8,0:0:0:0:
192,128,62986,1,8,0:0:0:0:
192,128,63067,1,0,0:0:0:0:
192,128,63229,1,0,0:0:0:0:
192,128,63391,1,0,0:0:0:0:
192,128,63553,1,8,0:0:0:0:
192,128,63715,1,0,0:0:0:0:
192,128,64040,1,0,0:0:0:0:
192,128,64202,1,8,0:0:0:0:
192,128,64364,1,0,0:0:0:0:
192,128,64445,1,0,0:0:0:0:
192,128,64526,1,8,0:0:0:0:
192,128,64688,1,0,0:0:0:0:
192,128,64850,1,0,0:0:0:0:
192,128,65013,1,8,0:0:0:0:
192,128,65175,1,0,0:0:0:0:
192,128,65337,1,0,0:0:0:0:
192,96,65418,1,0,0:0:0:0:
192,128,65499,1,8,0:0:0:0:
192,128,65580,1,8,0:0:0:0:
192,128,65661,1,8,0:0:0:0:
192,128,65823,1,4,0:0:0:0:
192,96,66067,1,0,0:0:0:0:
192,96,66148,1,8,0:0:0:0:
192,128,66310,1,4,0:0:0:0:
160,128,66634,1,0,0:0:0:0:
160,128,66796,1,8,0:0:0:0:
224,160,66958,1,0,0:0:0:0:
224,192,67040,1,0,0:0:0:0:
224,192,67121,1,0,0:0:0:0:
224,160,67283,1,0,0:0:0:0:
224,192,67445,1,8,0:0:0:0:
224,192,67607,1,0,0:0:0:0:
224,192,67688,1,8,0:0:0:0:
192,96,67769,1,0,0:0:0:0:
192,96,67931,1,0,0:0:0:0:
192,96,68094,1,8,0:0:0:0:
192,160,68256,1,0,0:0:0:0:
192,128,68337,1,0,0:0:0:0:
192,128,68418,1,0,0:0:0:0:
192,128,68661,1,0,0:0:0:0:
192,128,68742,1,8,0:0:0:0:
192,128,68904,1,4,0:0:0:0:
192,160,69229,1,0,0:0:0:0:
224,160,69391,1,8,0:0:0:0:
192,192,69472,1,8,0:0:0:0:
192,160,69553,1,0,0:0:0:0:
192,160,69715,1,0,0:0:0:0:
192,192,69877,1,0,0:0:0:0:
192,192,70040,1,8,0:0:0:0:
192,192,70202,1,0,0:0:0:0:
192,192,70283,1,8,0:0:0:0:
80,163,70364,1,0,0:0:0:0:
192,192,70526,1,0,0:0:0:0:
192,192,70688,1,8,0:0:0:0:
192,192,70769,1,8,0:0:0:0:
192,192,70850,1,8,0:0:0:0:
192,192,70931,1,8,0:0:0:0:
192,192,71013,1,0,0:0:0:0:
192,192,71175,1,0,0:0:0:0:
192,192,71337,1,8,0:0:0:0:
192,192,71499,1,12,0:0:0:0:
160,160,71823,1,0,0:0:0:0:
160,160,71986,1,8,0:0:0:0:
160,192,72148,1,0,0:0:0:0:
192,96,72229,1,0,0:0:0:0:
192,96,72310,1,0,0:0:0:0:
96,128,72472,1,0,0:0:0:0:
192,96,72634,1,8,0:0:0:0:
192,96,72796,1,12,0:0:0:0:
192,96,73121,1,0,0:0:0:0:
192,96,73283,1,8,0:0:0:0:
192,96,73364,1,8,0:0:0:0:
192,96,73445,1,0,0:0:0:0:
160,128,73607,1,0,0:0:0:0:
128,128,73769,1,0,0:0:0:0:
160,160,73931,1,8,0:0:0:0:
160,160,74094,1,0,0:0:0:0:
160,160,74418,1,0,0:0:0:0:
160,160,74580,1,8,0:0:0:0:
160,128,74742,1,0,0:0:0:0:
160,96,74823,5,0,0:0:0:0:
160,96,74904,1,8,0:0:0:0:
160,96,75067,1,8,0:0:0:0:
160,96,75148,1,0,0:0:0:0:
160,64,75229,1,0,0:0:0:0:
160,64,75391,1,0,0:0:0:0:
160,64,75472,1,0,0:0:0:0:
160,64,75553,1,8,0:0:0:0:
195,297,76202,5,4,0:0:0:0:
379,165,76526,1,8,0:0:0:0:
379,165,76688,1,0,0:0:0:0:
379,165,76850,1,0,0:0:0:0:
229,161,77013,1,8,0:0:0:0:
134,166,77175,1,0,0:0:0:0:
134,166,77337,1,0,0:0:0:0:
208,210,77661,1,8,0:0:0:0:
316,298,77823,1,0,0:0:0:0:
243,217,77986,1,0,0:0:0:0:
224,235,78148,1,8,0:0:0:0:
224,235,78310,1,0,0:0:0:0:
238,169,78472,1,8,0:0:0:0:
131,238,78634,1,0,0:0:0:0:
167,131,78958,1,0,0:0:0:0:
345,253,79121,1,8,0:0:0:0:
345,253,79283,1,8,0:0:0:0:
226,260,79445,1,0,0:0:0:0:
194,218,79526,1,0,0:0:0:0:
226,260,79607,1,0,0:0:0:0:
252,150,79688,1,0,0:0:0:0:
202,98,79769,1,8,0:0:0:0:
256,168,79931,1,4,0:0:0:0:
218,154,80256,1,12,0:0:0:0:
251,205,80418,1,0,0:0:0:0:
163,241,80499,1,0,0:0:0:0:
217,220,80580,1,8,0:0:0:0:
230,179,80742,1,0,0:0:0:0:
390,232,80904,1,8,0:0:0:0:
390,232,80986,1,8,0:0:0:0:
234,239,81067,1,0,0:0:0:0:
234,239,81148,1,0,0:0:0:0:
234,239,81229,1,0,0:0:0:0:
239,285,81553,1,0,0:0:0:0:
239,285,81715,1,8,0:0:0:0:
179,206,81877,1,0,0:0:0:0:
179,206,82040,1,0,0:0:0:0:
179,206,82202,1,8,0:0:0:0:
169,283,82364,1,0,0:0:0:0:
292,220,82526,1,0,0:0:0:0:
141,189,82850,1,8,0:0:0:0:
141,189,83013,1,0,0:0:0:0:
141,189,83175,1,0,0:0:0:0:
141,189,83337,1,8,0:0:0:0:
183,151,83499,1,0,0:0:0:0:
138,125,83580,1,0,0:0:0:0:
155,117,83661,1,8,0:0:0:0:
263,269,83823,1,0,0:0:0:0:
378,290,84148,1,0,0:0:0:0:
211,285,84310,1,8,0:0:0:0:
211,285,84472,1,8,0:0:0:0:
211,285,84634,1,0,0:0:0:0:
163,304,84715,1,0,0:0:0:0:
205,194,84796,1,0,0:0:0:0:
105,180,84877,1,0,0:0:0:0:
282,268,84958,1,8,0:0:0:0:
283,288,85121,1,4,0:0:0:0:
261,272,85445,1,0,0:0:0:0:
261,272,85526,1,0,0:0:0:0:
217,225,85607,1,8,0:0:0:0:
248,316,85769,1,0,0:0:0:0:
122,130,85850,1,8,0:0:0:0:
122,130,85931,1,8,0:0:0:0:
122,130,86094,1,8,0:0:0:0:
283,122,86175,1,8,0:0:0:0:
122,130,86256,1,8,0:0:0:0:
122,130,86418,1,8,0:0:0:0:
122,130,86580,1,0,0:0:0:0:
114,185,87229,1,8,0:0:0:0:
211,283,87553,1,8,0:0:0:0:
114,185,87715,1,8,0:0:0:0:
160,232,87877,1,0,0:0:0:0:
160,232,88040,1,0,0:0:0:0:
241,155,88202,1,8,0:0:0:0:
241,155,88526,1,0,0:0:0:0:
241,155,88850,1,8,0:0:0:0:
277,226,89013,1,8,0:0:0:0:
329,233,89175,1,0,0:0:0:0:
329,233,89499,1,8,0:0:0:0:
171,290,89661,1,8,0:0:0:0:
329,233,89986,1,0,0:0:0:0:
329,233,90148,1,0,0:0:0:0:
329,233,90310,1,8,0:0:0:0:
183,260,90634,1,8,0:0:0:0:
183,260,90796,1,0,0:0:0:0:
112,157,91121,1,0,0:0:0:0:
183,260,91445,1,8,0:0:0:0:
208,155,91769,1,8,0:0:0:0:
253,169,92256,1,8,0:0:0:0:
200,243,92418,1,0,0:0:0:0:
296,288,92742,1,0,0:0:0:0:
296,288,92904,1,0,0:0:0:0:
296,288,93067,1,8,0:0:0:0:
296,288,93229,1,8,0:0:0:0:
296,288,93391,1,0,0:0:0:0:
193,295,93715,1,8,0:0:0:0:
193,295,94040,1,0,0:0:0:0:
193,295,94202,1,8,0:0:0:0:
193,295,94526,1,8,0:0:0:0:
63,147,94688,1,0,0:0:0:0:
244,216,95013,1,8,0:0:0:0:
223,185,95175,1,0,0:0:0:0:
192,272,95337,1,0,0:0:0:0:
192,272,95499,1,8,0:0:0:0:
192,272,95823,1,8,0:0:0:0:
262,224,95986,1,0,0:0:0:0:
262,224,96148,1,0,0:0:0:0:
164,178,96229,1,0,0:0:0:0:
173,173,96310,1,8,0:0:0:0:
173,173,96472,1,8,0:0:0:0:
258,176,96553,1,8,0:0:0:0:
258,176,96634,1,8,0:0:0:0:
219,170,96715,1,8,0:0:0:0:
258,176,96796,1,8,0:0:0:0:
182,202,96958,1,4,0:0:0:0:
192,128,97283,1,8,0:0:0:0:
256,128,97445,1,0,0:0:0:0:
256,128,97526,1,0,0:0:0:0:
256,128,97607,1,0,0:0:0:0:
256,128,97769,1,0,0:0:0:0:
256,128,97931,1,8,0:0:0:0:
256,160,98094,1,0,0:0:0:0:
224,128,98418,1,0,0:0:0:0:
224,128,98580,1,8,0:0:0:0:
224,128,98742,1,0,0:0:0:0:
224,128,98823,1,8,0:0:0:0:
224,128,98904,1,0,0:0:0:0:
224,128,99067,1,0,0:0:0:0:
224,128,99229,1,8,0:0:0:0:
160,128,99391,1,8,0:0:0:0:
160,128,99553,1,0,0:0:0:0:
224,128,99877,1,8,0:0:0:0:
224,128,100040,1,8,0:0:0:0:
224,128,100121,1,8,0:0:0:0:
224,128,100202,1,8,0:0:0:0:
224,128,100364,1,0,0:0:0:0:
224,128,100526,1,8,0:0:0:0:
224,128,100688,1,0,0:0:0:0:
224,128,101013,1,0,0:0:0:0:
224,128,101175,1,8,0:0:0:0:
192,128,101337,1,8,0:0:0:0:
192,128,101418,1,8,0:0:0:0:
224,128,101499,1,0,0:0:0:0:
192,96,101661,1,0,0:0:0:0:
64,128,101742,1,0,0:0:0:0:
96,128,101823,1,8,0:0:0:0:
96,128,101904,1,8,0:0:0:0:
96,128,101986,1,0,0:0:0:0:
96,128,102148,1,4,0:0:0:0:
192,160,102472,1,8,0:0:0:0:
192,160,102634,1,0,0:0:0:0:
192,160,102715,1,0,0:0:0:0:
192,128,102796,1,0,0:0:0:0:
192,128,102958,1,0,0:0:0:0:
192,160,103121,1,8,0:0:0:0:
192,160,103283,1,0,0:0:0:0:
192,160,103607,1,0,0:0:0:0:
192,96,103769,5,8,0:0:0:0:
192,96,103931,1,0,0:0:0:0:
192,96,104013,1,8,0:0:0:0:
192,96,104094,1,0,0:0:0:0:
192,96,104256,1,0,0:0:0:0:
192,96,104418,1,8,0:0:0:0:
192,96,104580,1,8,0:0:0:0:
224,128,104904,1,0,0:0:0:0:
224,128,105067,1,8,0:0:0:0:
224,128,105229,1,0,0:0:0:0:
224,128,105310,1,0,0:0:0:0:
224,128,105391,1,8,0:0:0:0:
224,128,105553,1,8,0:0:0:0:
224,128,105634,1,0,0:0:0:0:
224,128,105715,1,0,0:0:0:0:
224,128,105796,1,0,0:0:0:0:
224,96,105877,1,8,0:0:0:0:
160,160,106040,1,0,0:0:0:0:
224,160,106202,1,8,0:0:0:0:
192,160,106364,1,0,0:0:0:0:
192,160,106526,1,8,0:0:0:0:
192,160,106688,1,8,0:0:0:0:
266,226,107337,5,12,0:0:0:0:
272,232,107580,1,0,0:0:0:0:
190,172,107661,1,8,0:0:0:0:
251,168,107823,1,4,0:0:0:0:
265,184,108148,1,0,0:0:0:0:
265,184,108310,1,8,0:0:0:0:
265,184,108472,1,8,0:0:0:0:
266,195,108634,1,0,0:0:0:0:
220,231,108796,1,0,0:0:0:0:
198,180,108877,1,0,0:0:0:0:
144,155,108958,1,8,0:0:0:0:
401,298,109121,1,0,0:0:0:0:
107,133,109202,1,8,0:0:0:0:
168,125,109283,1,0,0:0:0:0:
348,262,109445,1,0,0:0:0:0:
246,305,109607,1,8,0:0:0:0:
144,257,109688,1,8,0:0:0:0:
246,305,109769,1,8,0:0:0:0:
154,253,109931,1,4,0:0:0:0:
246,253,110175,1,8,0:0:0:0:
221,227,110256,1,0,0:0:0:0:
291,200,110418,1,12,0:0:0:0:
216,253,110742,1,8,0:0:0:0:
338,324,110904,1,0,0:0:0:0:
338,324,111067,1,0,0:0:0:0:
219,265,111229,1,8,0:0:0:0:
138,302,111391,1,8,0:0:0:0:
158,228,111472,1,8,0:0:0:0:
124,200,111553,1,0,0:0:0:0:
289,149,111715,1,8,0:0:0:0:
164,205,111796,1,0,0:0:0:0:
163,197,111877,1,8,0:0:0:0:
182,253,112040,1,0,0:0:0:0:
220,269,112202,1,8,0:0:0:0:
171,256,112283,1,8,0:0:0:0:
119,242,112364,1,8,0:0:0:0:
159,236,112445,1,8,0:0:0:0:
162,235,112526,1,0,0:0:0:0:
268,263,112688,1,0,0:0:0:0:
220,269,112769,1,0,0:0:0:0:
157,244,112850,1,8,0:0:0:0:
157,244,113013,1,4,0:0:0:0:
242,247,113337,1,0,0:0:0:0:
242,247,113499,1,8,0:0:0:0:
242,247,113661,1,8,0:0:0:0:
227,242,113742,1,8,0:0:0:0:
216,229,113823,1,0,0:0:0:0:
173,270,113986,1,8,0:0:0:0:
140,243,114067,1,8,0:0:0:0:
173,270,114148,1,8,0:0:0:0:
242,269,114310,1,4,0:0:0:0:
264,249,114634,1,0,0:0:0:0:
208,294,114796,1,8,0:0:0:0:
142,210,114877,1,8,0:0:0:0:
208,294,114958,1,8,0:0:0:0:
142,210,115040,1,8,0:0:0:0:
171,194,115121,1,0,0:0:0:0:
211,194,115283,1,0,0:0:0:0:
229,204,115445,1,8,0:0:0:0:
229,204,115607,1,4,0:0:0:0:
313,260,115931,1,8,0:0:0:0:
186,201,116094,1,8,0:0:0:0:
151,254,116256,1,0,0:0:0:0:
179,242,116337,1,0,0:0:0:0:
153,231,116418,1,8,0:0:0:0:
243,282,116580,1,0,0:0:0:0:
243,282,116742,1,0,0:0:0:0:
255,234,116904,1,8,0:0:0:0:
246,220,117067,1,0,0:0:0:0:
246,220,117229,1,0,0:0:0:0:
215,207,117310,1,0,0:0:0:0:
210,204,117391,1,8,0:0:0:0:
133,232,117472,1,8,0:0:0:0:
257,243,117553,1,8,0:0:0:0:
195,132,117715,1,4,0:0:0:0:
195,132,117958,1,8,0:0:0:0:
195,132,118040,1,0,0:0:0:0:
195,132,118202,1,12,0:0:0:0:
265,184,118526,1,8,0:0:0:0:
265,184,118688,1,0,0:0:0:0:
265,184,118850,1,0,0:0:0:0:
266,195,119013,1,8,0:0:0:0:
220,231,119175,1,8,0:0:0:0:
198,180,119256,1,8,0:0:0:0:
144,155,119337,1,0,0:0:0:0:
401,298,119499,1,8,0:0:0:0:
107,133,119580,1,0,0:0:0:0:
168,125,119661,1,8,0:0:0:0:
348,262,119823,1,8,0:0:0:0:
246,305,119986,1,0,0:0:0:0:
144,257,120067,1,0,0:0:0:0:
246,305,120148,1,0,0:0:0:0:
154,253,120310,1,12,0:0:0:0:
246,253,120553,1,0,0:0:0:0:
221,227,120634,1,8,0:0:0:0:
291,200,120796,1,4,0:0:0:0:
216,253,121121,1,0,0:0:0:0:
338,324,121283,1,8,0:0:0:0:
338,324,121445,1,8,0:0:0:0:
219,265,121607,1,0,0:0:0:0:
138,302,121769,1,0,0:0:0:0:
158,228,121850,1,0,0:0:0:0:
124,200,121931,1,8,0:0:0:0:
289,149,122094,1,0,0:0:0:0:
164,205,122175,1,8,0:0:0:0:
163,197,122256,1,0,0:0:0:0:
182,253,122418,1,8,0:0:0:0:
220,269,122580,1,0,0:0:0:0:
171,256,122661,1,0,0:0:0:0:
119,242,122742,1,0,0:0:0:0:
159,236,122823,1,0,0:0:0:0:
162,235,122904,1,8,0:0:0:0:
268,263,123067,1,8,0:0:0:0:
220,269,123148,1,8,0:0:0:0:
157,244,123229,1,0,0:0:0:0:
157,244,123391,1,12,0:0:0:0:
242,247,123715,1,8,0:0:0:0:
242,247,123877,1,0,0:0:0:0:
242,247,124040,1,0,0:0:0:0:
227,242,124121,1,0,0:0:0:0:
216,229,124202,1,8,0:0:0:0:
173,270,124364,1,0,0:0:0:0:
140,243,124445,1,0,0:0:0:0:
173,270,124526,1,0,0:0:0:0:
242,269,124688,1,12,0:0:0:0:
264,249,125013,1,8,0:0:0:0:
208,294,125175,1,0,0:0:0:0:
142,210,125256,1,0,0:0:0:0:
208,294,125337,1,0,0:0:0:0:
142,210,125418,1,0,0:0:0:0:
171,194,125499,1,8,0:0:0:0:
211,194,125661,1,8,0:0:0:0:
229,204,125823,1,0,0:0:0:0:
229,204,125986,1,12,0:0:0:0:
313,260,126310,1,0,0:0:0:0:
186,201,126472,1,0,0:0:0:0:
151,254,126634,1,8,0:0:0:0:
179,242,126715,1,8,0:0:0:0:
153,231,126796,1,0,0:0:0:0:
243,282,126958,1,8,0:0:0:0:
243,282,127121,1,0,0:0:0:0:
255,234,127283,1,0,0:0:0:0:
129,169,127364,1,0,0:0:0:0:
246,220,127445,1,8,0:0:0:0:
0,198,127607,1,8,0:0:0:0:
119,239,127688,1,8,0:0:0:0:
148,250,127769,1,0,0:0:0:0:
148,250,127931,1,0,0:0:0:0:
195,132,128094,1,4,0:0:0:0:
256,192,131661,5,8,0:0:0:0:
256,192,131823,1,8,0:0:0:0:
256,192,131986,1,8,0:0:0:0:
256,192,132472,1,8,0:0:0:0:
256,192,132958,1,8,0:0:0:0:
256,192,133283,1,0,0:0:0:0:
256,192,135715,1,8,0:0:0:0:
256,192,135796,1,8,0:0:0:0:
256,192,135877,1,8,0:0:0:0:
256,192,137013,1,0,0:0:0:0:
256,192,137175,1,8,0:0:0:0:
256,160,137337,1,0,0:0:0:0:
256,160,137661,1,0,0:0:0:0:
256,160,137986,1,8,0:0:0:0:
256,128,138148,1,0,0:0:0:0:
256,128,138256,1,0,0:0:0:0:
256,128,138364,1,0,0:0:0:0:
256,128,138472,1,0,0:0:0:0:
192,192,138958,1,0,0:0:0:0:
192,192,139121,1,8,0:0:0:0:
192,160,139607,1,0,0:0:0:0:
192,160,139769,1,0,0:0:0:0:
192,192,139931,1,8,0:0:0:0:
192,192,140094,1,0,0:0:0:0:
192,192,140256,1,0,0:0:0:0:
192,160,140418,1,8,0:0:0:0:
224,160,140742,1,0,0:0:0:0:
224,160,141067,1,4,0:0:0:0:
160,160,141310,1,0,0:0:0:0:
192,192,141553,1,0,0:0:0:0:
192,192,141715,1,8,0:0:0:0:
160,96,141958,1,8,0:0:0:0:
160,96,142202,1,8,0:0:0:0:
128,160,142364,1,0,0:0:0:0:
224,160,142526,1,8,0:0:0:0:
160,128,142850,1,8,0:0:0:0:
160,128,143013,1,8,0:0:0:0:
192,128,143499,1,0,0:0:0:0:
192,128,143661,1,0,0:0:0:0:
160,160,143986,1,0,0:0:0:0:
160,160,144310,1,8,0:0:0:0:
160,160,144796,1,0,0:0:0:0:
160,160,144958,1,0,0:0:0:0:
160,160,145121,1,8,0:0:0:0:
160,160,145283,1,0,0:0:0:0:
160,160,145445,1,0,0:0:0:0:
96,160,145607,1,8,0:0:0:0:
96,160,145931,1,8,0:0:0:0:
96,160,146094,1,8,0:0:0:0:
96,160,146256,1,0,0:0:0:0:
96,160,146499,1,0,0:0:0:0:
96,160,146742,1,0,0:0:0:0:
96,160,146904,5,8,0:0:0:0:
96,160,147148,1,8,0:0:0:0:
96,160,147391,1,8,0:0:0:0:
96,160,147553,1,0,0:0:0:0:
96,160,147796,1,0,0:0:0:0:
96,160,148040,5,8,0:0:0:0:
96,160,148202,5,8,0:0:0:0:
222,226,148850,5,4,0:0:0:0:
222,226,149013,1,4,0:0:0:0:
240,243,149337,1,8,0:0:0:0:
240,243,149661,1,0,0:0:0:0:
240,243,149823,1,8,0:0:0:0:
240,243,149986,1,8,0:0:0:0:
249,222,150148,1,0,0:0:0:0:
184,194,150472,1,8,0:0:0:0:
167,173,150634,1,8,0:0:0:0:
167,173,150796,1,0,0:0:0:0:
167,173,150958,1,8,0:0:0:0:
241,196,151121,1,4,0:0:0:0:
241,196,151445,1,12,0:0:0:0:
241,196,151607,1,12,0:0:0:0:
279,155,151931,1,0,0:0:0:0:
208,158,152256,1,8,0:0:0:0:
157,267,152418,1,8,0:0:0:0:
137,205,152499,1,8,0:0:0:0:
160,161,152580,1,0,0:0:0:0:
185,225,152742,1,12,0:0:0:0:
185,225,153391,1,4,0:0:0:0:
186,193,153877,1,0,0:0:0:0:
270,177,153958,1,0,0:0:0:0:
147,173,154040,1,8,0:0:0:0:
255,168,154364,1,8,0:0:0:0:
255,168,154526,1,8,0:0:0:0:
255,168,154688,1,0,0:0:0:0:
255,168,154850,1,0,0:0:0:0:
255,168,155013,1,8,0:0:0:0:
132,200,155175,1,8,0:0:0:0:
153,241,155337,1,0,0:0:0:0:
285,216,155661,1,0,0:0:0:0:
207,264,155823,1,8,0:0:0:0:
207,264,155986,1,0,0:0:0:0:
207,264,156148,1,8,0:0:0:0:
207,264,156310,1,0,0:0:0:0:
237,197,156472,1,8,0:0:0:0:
308,221,157769,1,0,0:0:0:0:
308,221,157850,1,0,0:0:0:0:
284,224,157931,1,8,0:0:0:0:
260,227,158094,1,0,0:0:0:0:
260,227,158175,1,0,0:0:0:0:
260,227,158256,1,0,0:0:0:0:
260,227,158337,1,0,0:0:0:0:
260,227,158418,1,8,0:0:0:0:
132,258,158580,1,0,0:0:0:0:
199,263,158742,1,8,0:0:0:0:
171,249,158823,1,8,0:0:0:0:
199,263,158904,1,8,0:0:0:0:
171,249,158986,1,8,0:0:0:0:
148,241,159067,1,8,0:0:0:0:
171,249,159229,1,4,0:0:0:0:
152,181,159391,1,0,0:0:0:0:
143,147,159472,1,0,0:0:0:0:
143,147,159553,1,8,0:0:0:0:
143,147,159715,1,0,0:0:0:0:
143,147,159796,1,8,0:0:0:0:
256,160,160040,1,0,0:0:0:0:
256,160,160202,1,8,0:0:0:0:
256,160,160364,1,0,0:0:0:0:
256,160,160445,1,0,0:0:0:0:
256,160,160526,1,0,0:0:0:0:
256,160,160688,1,0,0:0:0:0:
256,160,160850,1,8,0:0:0:0:
256,160,161013,1,0,0:0:0:0:
256,128,161094,1,8,0:0:0:0:
128,128,161175,1,0,0:0:0:0:
256,128,161337,1,0,0:0:0:0:
256,128,161499,1,8,0:0:0:0:
192,96,161580,1,8,0:0:0:0:
224,128,161661,1,0,0:0:0:0:
224,128,161823,1,8,0:0:0:0:
224,128,161986,1,0,0:0:0:0:
224,128,162067,1,0,0:0:0:0:
224,128,162148,1,8,0:0:0:0:
156,109,162310,1,0,0:0:0:0:
96,160,162391,1,8,0:0:0:0:
192,128,162634,1,0,0:0:0:0:
192,128,162796,1,8,0:0:0:0:
192,128,162877,1,8,0:0:0:0:
192,128,162958,1,0,0:0:0:0:
192,128,163121,1,0,0:0:0:0:
192,128,163283,1,0,0:0:0:0:
128,128,163364,1,0,0:0:0:0:
192,128,163445,1,8,0:0:0:0:
192,128,163607,1,0,0:0:0:0:
192,128,163688,1,8,0:0:0:0:
160,142,163769,1,0,0:0:0:0:
192,128,163931,1,0,0:0:0:0:
192,128,164094,1,8,0:0:0:0:
192,128,164175,1,8,0:0:0:0:
192,128,164256,1,8,0:0:0:0:
192,128,164337,1,8,0:0:0:0:
192,128,164418,1,0,0:0:0:0:
192,128,164580,1,0,0:0:0:0:
192,128,164742,1,8,0:0:0:0:
192,128,164904,1,12,0:0:0:0:
192,96,165229,1,0,0:0:0:0:
192,96,165391,1,8,0:0:0:0:
192,96,165553,1,0,0:0:0:0:
192,96,165634,1,8,0:0:0:0:
192,96,165715,1,0,0:0:0:0:
192,96,165877,1,0,0:0:0:0:
192,96,166040,1,8,0:0:0:0:
192,96,166202,1,12,0:0:0:0:
192,96,166526,1,0,0:0:0:0:
192,96,166688,1,8,0:0:0:0:
192,96,166769,1,8,0:0:0:0:
192,96,166850,1,0,0:0:0:0:
192,96,167013,1,0,0:0:0:0:
128,128,167175,1,0,0:0:0:0:
160,128,167337,1,8,0:0:0:0:
160,128,167499,1,0,0:0:0:0:
160,128,167823,1,0,0:0:0:0:
160,128,167986,1,8,0:0:0:0:
160,128,168148,1,0,0:0:0:0:
160,128,168229,1,0,0:0:0:0:
160,128,168310,1,8,0:0:0:0:
160,96,168472,1,8,0:0:0:0:
160,96,168553,1,8,0:0:0:0:
160,96,168634,1,0,0:0:0:0:
160,96,168715,1,0,0:0:0:0:
160,96,168796,1,0,0:0:0:0:
160,96,168958,1,8,0:0:0:0:
128,96,169121,1,0,0:0:0:0:
128,96,169202,1,0,0:0:0:0:
128,96,169283,1,8,0:0:0:0:
128,96,169445,1,0,0:0:0:0:
128,96,169607,1,4,0:0:0:0:
128,96,169769,1,0,0:0:0:0:
96,128,169850,1,0,0:0:0:0:
128,96,169931,1,8,0:0:0:0:
160,158,170094,1,0,0:0:0:0:
128,128,170175,1,8,0:0:0:0:
160,128,170418,1,0,0:0:0:0:
160,128,170580,1,8,0:0:0:0:
160,128,170742,1,0,0:0:0:0:
160,128,170823,1,0,0:0:0:0:
160,128,170904,1,0,0:0:0:0:
160,128,171067,1,0,0:0:0:0:
160,128,171229,1,8,0:0:0:0:
160,128,171391,1,0,0:0:0:0:
160,128,171472,1,8,0:0:0:0:
160,128,171553,1,0,0:0:0:0:
160,128,171715,1,0,0:0:0:0:
160,128,171877,1,8,0:0:0:0:
160,128,172040,1,0,0:0:0:0:
160,64,172121,1,0,0:0:0:0:
160,128,172202,1,0,0:0:0:0:
160,96,172364,1,0,0:0:0:0:
160,96,172445,1,0,0:0:0:0:
160,96,172526,1,8,0:0:0:0:
104,138,172688,1,0,0:0:0:0:
160,96,172769,1,8,0:0:0:0:
160,96,173013,1,0,0:0:0:0:
160,96,173175,1,8,0:0:0:0:
160,96,173256,1,8,0:0:0:0:
160,96,173337,1,0,0:0:0:0:
160,96,173499,1,0,0:0:0:0:
160,96,173661,1,0,0:0:0:0:
128,111,173742,1,0,0:0:0:0:
160,96,173823,1,8,0:0:0:0:
160,96,173986,1,0,0:0:0:0:
160,96,174067,1,8,0:0:0:0:
161,71,174148,1,0,0:0:0:0:
160,96,174310,1,0,0:0:0:0:
160,96,174472,1,8,0:0:0:0:
160,96,174553,1,8,0:0:0:0:
160,96,174634,1,8,0:0:0:0:
160,96,174715,1,8,0:0:0:0:
160,96,174796,1,0,0:0:0:0:
224,128,174958,1,0,0:0:0:0:
224,128,175121,1,8,0:0:0:0:
224,128,175283,1,12,0:0:0:0:
224,128,175607,1,0,0:0:0:0:
224,128,175769,1,8,0:0:0:0:
224,128,175931,1,0,0:0:0:0:
224,128,176013,1,8,0:0:0:0:
224,128,176094,1,0,0:0:0:0:
224,128,176256,1,0,0:0:0:0:
224,128,176418,1,8,0:0:0:0:
224,128,176580,1,12,0:0:0:0:
224,128,176904,1,0,0:0:0:0:
224,128,177067,1,8,0:0:0:0:
224,128,177148,1,8,0:0:0:0:
224,128,177229,1,0,0:0:0:0:
224,128,177391,1,0,0:0:0:0:
256,128,177553,1,0,0:0:0:0:
256,128,177715,1,8,0:0:0:0:
160,32,177877,1,0,0:0:0:0:
256,128,178202,1,8,0:0:0:0:
224,128,178364,1,8,0:0:0:0:
288,128,178526,1,0,0:0:0:0:
288,128,178607,1,0,0:0:0:0:
288,128,178688,1,8,0:0:0:0:
192,128,178850,1,0,0:0:0:0:
192,128,178931,1,0,0:0:0:0:
192,128,179013,1,8,0:0:0:0:
192,128,179175,1,0,0:0:0:0:
192,0,179256,1,0,0:0:0:0:
192,128,179337,1,8,0:0:0:0:
192,128,179418,1,8,0:0:0:0:
192,128,179499,1,0,0:0:0:0:
192,128,179580,1,0,0:0:0:0:
192,128,179661,1,8,0:0:0:0:
192,128,179823,1,0,0:0:0:0:
278,237,179986,5,4,0:0:0:0:
169,259,180310,1,8,0:0:0:0:
169,259,180472,1,8,0:0:0:0:
159,216,180553,1,8,0:0:0:0:
154,200,180634,1,0,0:0:0:0:
154,199,180796,1,0,0:0:0:0:
154,199,180958,1,8,0:0:0:0:
154,199,181121,1,4,0:0:0:0:
292,210,181445,1,0,0:0:0:0:
292,210,181607,1,8,0:0:0:0:
218,194,181769,1,0,0:0:0:0:
154,217,181850,1,8,0:0:0:0:
122,191,181931,1,0,0:0:0:0:
122,191,182094,1,0,0:0:0:0:
175,252,182256,1,8,0:0:0:0:
316,270,182418,1,4,0:0:0:0:
294,270,182742,1,0,0:0:0:0:
191,260,182904,1,8,0:0:0:0:
191,260,183067,1,8,0:0:0:0:
186,223,183229,1,0,0:0:0:0:
141,229,183310,1,0,0:0:0:0:
186,223,183391,1,0,0:0:0:0:
141,229,183553,1,8,0:0:0:0:
325,202,183715,1,4,0:0:0:0:
247,204,184040,1,0,0:0:0:0:
226,243,184202,1,8,0:0:0:0:
226,243,184364,1,0,0:0:0:0:
159,286,184445,1,0,0:0:0:0:
195,206,184526,1,8,0:0:0:0:
186,182,184607,1,8,0:0:0:0:
161,159,184688,1,0,0:0:0:0:
186,143,184850,1,8,0:0:0:0:
247,101,185013,1,4,0:0:0:0:
308,243,185337,1,0,0:0:0:0:
102,107,185499,1,8,0:0:0:0:
261,270,185661,1,8,0:0:0:0:
168,296,185742,1,8,0:0:0:0:
106,219,185823,1,0,0:0:0:0:
157,234,185986,1,0,0:0:0:0:
276,303,186148,1,8,0:0:0:0:
235,272,186310,1,4,0:0:0:0:
215,263,186634,1,0,0:0:0:0:
215,263,186796,1,8,0:0:0:0:
216,215,186958,1,0,0:0:0:0:
172,178,187040,1,8,0:0:0:0:
131,152,187121,1,0,0:0:0:0:
128,168,187283,1,0,0:0:0:0:
128,168,187445,1,8,0:0:0:0:
217,161,187607,1,4,0:0:0:0:
89,186,187769,1,8,0:0:0:0:
317,219,187931,1,0,0:0:0:0:
310,231,188013,1,0,0:0:0:0:
280,237,188094,1,0,0:0:0:0:
280,237,188175,1,0,0:0:0:0:
280,237,188256,1,8,0:0:0:0:
97,249,188418,1,0,0:0:0:0:
188,278,188499,1,0,0:0:0:0:
97,249,188580,1,0,0:0:0:0:
183,284,188742,1,8,0:0:0:0:
208,279,188823,1,8,0:0:0:0:
183,284,188904,1,8,0:0:0:0:
217,263,188986,1,8,0:0:0:0:
152,203,189067,1,0,0:0:0:0:
273,192,189229,1,12,0:0:0:0:
273,192,189391,1,12,0:0:0:0:
239,106,189553,1,0,0:0:0:0:
239,140,189715,1,8,0:0:0:0:
170,239,189877,1,8,0:0:0:0:
199,202,189958,1,8,0:0:0:0:
174,196,190040,1,0,0:0:0:0:
346,204,190202,1,4,0:0:0:0:
254,297,190526,1,0,0:0:0:0:
179,255,190607,1,0,0:0:0:0:
178,225,190688,1,8,0:0:0:0:
178,225,190850,1,8,0:0:0:0:
261,272,191013,1,0,0:0:0:0:
145,131,191094,1,0,0:0:0:0:
142,120,191175,1,0,0:0:0:0:
132,142,191337,1,8,0:0:0:0:
252,189,191499,1,4,0:0:0:0:
286,183,191823,1,0,0:0:0:0:
286,183,191986,1,8,0:0:0:0:
213,189,192148,1,0,0:0:0:0:
153,192,192229,1,8,0:0:0:0:
135,186,192310,1,0,0:0:0:0:
185,237,192472,1,8,0:0:0:0:
161,228,192553,1,0,0:0:0:0:
154,229,192634,1,8,0:0:0:0:
255,275,192796,1,4,0:0:0:0:
259,259,193121,1,0,0:0:0:0:
259,259,193283,1,8,0:0:0:0:
259,259,193445,1,8,0:0:0:0:
259,259,193607,1,0,0:0:0:0:
216,208,193688,1,0,0:0:0:0:
208,200,193769,1,0,0:0:0:0:
209,203,193850,1,0,0:0:0:0:
179,178,193931,1,8,0:0:0:0:
223,190,194094,1,4,0:0:0:0:
240,287,194418,1,0,0:0:0:0:
226,229,194580,1,8,0:0:0:0:
226,229,194742,1,0,0:0:0:0:
170,231,194823,1,0,0:0:0:0:
161,248,194904,1,8,0:0:0:0:
161,234,194986,1,8,0:0:0:0:
154,227,195067,1,0,0:0:0:0:
152,224,195148,1,0,0:0:0:0:
144,215,195229,1,8,0:0:0:0:
233,248,195391,1,4,0:0:0:0:
256,254,195715,1,0,0:0:0:0:
252,229,195877,1,8,0:0:0:0:
248,196,196040,1,8,0:0:0:0:
216,184,196121,1,8,0:0:0:0:
199,180,196202,1,0,0:0:0:0:
199,181,196364,1,0,0:0:0:0:
187,160,196445,1,0,0:0:0:0:
172,148,196526,1,8,0:0:0:0:
273,203,196688,1,4,0:0:0:0:
255,271,197013,1,0,0:0:0:0:
255,271,197175,1,8,0:0:0:0:
199,253,197337,1,0,0:0:0:0:
111,248,197418,1,8,0:0:0:0:
111,226,197499,1,0,0:0:0:0:
216,222,197661,1,8,0:0:0:0:
112,94,197742,1,0,0:0:0:0:
112,94,197823,1,8,0:0:0:0:
152,194,197986,1,4,0:0:0:0:
235,294,198148,1,8,0:0:0:0:
242,264,198310,1,0,0:0:0:0:
248,217,198391,1,0,0:0:0:0:
195,189,198472,1,8,0:0:0:0:
160,244,198634,1,0,0:0:0:0:
165,236,198715,1,0,0:0:0:0:
162,249,198796,1,8,0:0:0:0:
146,229,198877,1,8,0:0:0:0:
186,236,198958,1,0,0:0:0:0:
197,275,199121,1,8,0:0:0:0:
220,257,199283,1,4,0:0:0:0:
220,257,199607,1,4,0:0:0:0:
160,238,199769,1,8,0:0:0:0:
210,185,199850,1,8,0:0:0:0:
204,172,199931,1,8,0:0:0:0:
246,189,200094,1,0,0:0:0:0:
266,248,200256,1,12,0:0:0:0:
266,248,200418,1,12,0:0:0:0:
266,248,200580,1,12,0:0:0:0:
