osu file format v14

[General]
AudioFilename: audio.mp3
AudioLeadIn: 0
PreviewTime: 48423
Countdown: 0
SampleSet: Normal
StackLeniency: 0.7
Mode: 1
LetterboxInBreaks: 0
WidescreenStoryboard: 0

[Editor]
DistanceSpacing: 1.1
BeatDivisor: 4
GridSize: 4
TimelineZoom: 1.6

[Metadata]
Title:Undead Alice feat. Hatsune Miku
TitleUnicode:アンデッドアリス feat. 初音ミク
Artist:DECO*27
ArtistUnicode:DECO*27
Creator:Saoji
Version:Chromoxx' Inner Oni
Source:
Tags:Chromoxx Yales Vocaloid ボーカロイド Rockwell Kyoya Shiho 83 japanese DECO27 キョウヤ しほ 八三 Hossan Andeddo Arisu 7th seventh album j-rock jrock rock j-pop jpop pop
BeatmapID:3404777
BeatmapSetID:1667476

[Difficulty]
HPDrainRate:6
CircleSize:5
OverallDifficulty:7
ApproachRate:5
SliderMultiplier:1.4
SliderTickRate:1

[Events]
//Background and Video events
0,0,"big guy.jpg",0,30
//Break Periods
2,163424,170206
//Storyboard Layer 0 (Background)
//Storyboard Layer 1 (Fail)
//Storyboard Layer 2 (Pass)
//Storyboard Layer 3 (Foreground)
//Storyboard Layer 4 (Overlay)
//Storyboard Sound Samples

[TimingPoints]
952,340.909090909091,4,1,0,80,1,0
48679,-100,4,1,0,80,0,1
68963,-100,4,1,0,80,0,0
105952,-100,4,1,0,80,0,1
126236,-100,4,1,0,80,0,0
186406,-100,4,1,0,80,0,1
206690,-100,4,1,0,80,0,0

[HitObjects]
272,139,781,5,0,0:0:0:0:
272,139,838,1,0,0:0:0:0:
272,139,895,1,0,0:0:0:0:
272,139,952,1,8,0:0:0:0:
336,261,1122,1,0,0:0:0:0:
231,261,1207,1,0,0:0:0:0:
169,209,1292,1,8,0:0:0:0:
132,184,1378,1,0,0:0:0:0:
125,178,1463,1,8,0:0:0:0:
240,218,1633,1,0,0:0:0:0:
207,131,1719,1,0,0:0:0:0:
207,131,1804,1,8,0:0:0:0:
207,131,1889,1,0,0:0:0:0:
207,131,1974,1,8,0:0:0:0:
207,131,2059,1,8,0:0:0:0:
210,277,2145,1,0,0:0:0:0:
99,202,2230,1,8,0:0:0:0:
90,196,2315,1,0,0:0:0:0:
90,196,2400,1,0,0:0:0:0:
206,224,2486,1,8,0:0:0:0:
186,208,2571,1,0,0:0:0:0:
198,218,2656,1,0,0:0:0:0:
186,208,2741,1,8,0:0:0:0:
207,201,2827,1,0,0:0:0:0:
214,205,2912,1,0,0:0:0:0:
206,201,2997,1,8,0:0:0:0:
202,197,3082,1,8,0:0:0:0:
288,186,3167,1,0,0:0:0:0:
281,184,3253,1,0,0:0:0:0:
172,192,3338,1,8,0:0:0:0:
172,192,3508,1,8,0:0:0:0:
303,212,4531,1,0,0:0:0:0:
303,212,4588,1,0,0:0:0:0:
303,212,4645,1,0,0:0:0:0:
303,212,4702,1,8,0:0:0:0:
400,259,5042,1,4,0:0:0:0:
240,255,5213,1,0,0:0:0:0:
183,199,5383,1,8,0:0:0:0:
183,199,5554,1,8,0:0:0:0:
188,219,5724,1,0,0:0:0:0:
187,219,5895,1,0,0:0:0:0:
141,207,5980,1,8,0:0:0:0:
141,207,6065,1,0,0:0:0:0:
141,207,6236,1,8,0:0:0:0:
234,264,6321,1,0,0:0:0:0:
127,216,6406,1,8,0:0:0:0:
159,285,6577,1,0,0:0:0:0:
170,242,6747,1,8,0:0:0:0:
170,242,6917,1,0,0:0:0:0:
219,236,7003,1,8,0:0:0:0:
283,261,7088,1,0,0:0:0:0:
178,206,7173,1,8,0:0:0:0:
200,219,7258,1,0,0:0:0:0:
170,199,7429,1,8,0:0:0:0:
170,199,7599,1,8,0:0:0:0:
316,162,7684,1,8,0:0:0:0:
313,179,7770,1,0,0:0:0:0:
320,272,7940,1,0,0:0:0:0:
271,260,8111,1,8,0:0:0:0:
166,261,8452,1,0,0:0:0:0:
164,242,8622,1,0,0:0:0:0:
221,254,8792,1,8,0:0:0:0:
221,254,8963,1,0,0:0:0:0:
202,255,9048,1,0,0:0:0:0:
187,248,9133,1,8,0:0:0:0:
303,295,9304,1,0,0:0:0:0:
303,295,9474,1,8,0:0:0:0:
238,305,9645,1,0,0:0:0:0:
85,234,9730,1,0,0:0:0:0:
85,234,9815,1,8,0:0:0:0:
85,234,9986,1,8,0:0:0:0:
107,279,10071,1,8,0:0:0:0:
85,234,10156,1,8,0:0:0:0:
102,270,10241,1,8,0:0:0:0:
102,270,10327,1,8,0:0:0:0:
107,279,10412,1,8,0:0:0:0:
323,249,10497,1,0,0:0:0:0:
194,295,10667,1,0,0:0:0:0:
119,216,10838,1,8,0:0:0:0:
119,216,11008,1,8,0:0:0:0:
251,269,11179,1,0,0:0:0:0:
251,269,11349,1,0,0:0:0:0:
156,194,11434,1,8,0:0:0:0:
125,182,11520,1,0,0:0:0:0:
109,236,11690,1,8,0:0:0:0:
109,236,11775,1,0,0:0:0:0:
109,236,11861,1,8,0:0:0:0:
326,244,12031,1,0,0:0:0:0:
222,247,12202,1,8,0:0:0:0:
139,199,12372,1,0,0:0:0:0:
202,236,12457,1,8,0:0:0:0:
177,220,12542,1,0,0:0:0:0:
170,213,12628,1,8,0:0:0:0:
159,207,12713,1,0,0:0:0:0:
224,220,12883,1,8,0:0:0:0:
224,220,13054,1,8,0:0:0:0:
193,203,13139,1,8,0:0:0:0:
193,203,13224,1,0,0:0:0:0:
240,257,13395,1,0,0:0:0:0:
201,226,13565,1,8,0:0:0:0:
244,270,13736,1,4,0:0:0:0:
287,270,14077,1,0,0:0:0:0:
287,270,14247,1,8,0:0:0:0:
217,247,14417,1,12,0:0:0:0:
351,192,14758,1,0,0:0:0:0:
351,192,14844,1,0,0:0:0:0:
351,192,14929,1,8,0:0:0:0:
351,192,15099,1,0,0:0:0:0:
338,212,15270,1,8,0:0:0:0:
337,213,15355,1,8,0:0:0:0:
338,212,15440,1,0,0:0:0:0:
337,217,15525,1,0,0:0:0:0:
337,217,15611,1,8,0:0:0:0:
336,218,15781,1,8,0:0:0:0:
148,196,15952,1,4,0:0:0:0:
245,265,16292,1,0,0:0:0:0:
245,265,16633,1,0,0:0:0:0:
237,262,16804,1,8,0:0:0:0:
120,248,16974,1,0,0:0:0:0:
116,242,17145,1,8,0:0:0:0:
160,260,17315,1,0,0:0:0:0:
160,260,17656,1,0,0:0:0:0:
160,260,17997,1,0,0:0:0:0:
281,246,18167,1,8,0:0:0:0:
281,246,18338,1,0,0:0:0:0:
281,246,18508,1,0,0:0:0:0:
281,246,18679,1,8,0:0:0:0:
281,246,19020,1,8,0:0:0:0:
281,246,19361,1,8,0:0:0:0:
206,230,19531,1,0,0:0:0:0:
206,230,19702,1,8,0:0:0:0:
206,230,19872,1,0,0:0:0:0:
154,201,20042,1,8,0:0:0:0:
154,201,20383,1,8,0:0:0:0:
154,201,20724,1,8,0:0:0:0:
154,201,20895,1,0,0:0:0:0:
154,201,21065,1,8,0:0:0:0:
154,201,21236,1,8,0:0:0:0:
291,162,21406,1,0,0:0:0:0:
242,262,21662,1,8,0:0:0:0:
161,220,21747,1,0,0:0:0:0:
210,255,21917,1,8,0:0:0:0:
130,107,22088,1,0,0:0:0:0:
317,268,22258,1,8,0:0:0:0:
218,199,22429,1,0,0:0:0:0:
219,203,22599,1,8,0:0:0:0:
220,203,22770,1,0,0:0:0:0:
117,168,23025,1,8,0:0:0:0:
117,168,23111,1,0,0:0:0:0:
117,168,23281,1,8,0:0:0:0:
117,168,23452,1,0,0:0:0:0:
117,168,23622,1,8,0:0:0:0:
117,168,23792,1,0,0:0:0:0:
117,168,23963,1,0,0:0:0:0:
117,168,24133,1,8,0:0:0:0:
117,168,24389,1,0,0:0:0:0:
117,168,24474,1,8,0:0:0:0:
117,168,24645,1,0,0:0:0:0:
117,168,24815,1,8,0:0:0:0:
300,232,24986,1,8,0:0:0:0:
300,232,25071,1,8,0:0:0:0:
211,246,25156,1,0,0:0:0:0:
211,246,25241,1,0,0:0:0:0:
211,246,25327,1,0,0:0:0:0:
172,95,25667,1,0,0:0:0:0:
116,78,25753,1,0,0:0:0:0:
116,78,25838,1,8,0:0:0:0:
84,65,25923,1,0,0:0:0:0:
84,65,26008,1,0,0:0:0:0:
211,149,26179,1,12,0:0:0:0:
211,149,26349,1,12,0:0:0:0:
196,126,26520,1,12,0:0:0:0:
274,233,26861,5,4,0:0:0:0:
207,271,27116,1,0,0:0:0:0:
154,230,27202,1,8,0:0:0:0:
181,221,27372,1,0,0:0:0:0:
344,246,27628,1,0,0:0:0:0:
185,232,27713,1,0,0:0:0:0:
268,283,27883,1,8,0:0:0:0:
268,283,28054,1,8,0:0:0:0:
174,207,28139,1,8,0:0:0:0:
119,187,28224,1,0,0:0:0:0:
153,206,28395,1,0,0:0:0:0:
128,102,28565,1,8,0:0:0:0:
153,206,28736,1,0,0:0:0:0:
191,265,28906,1,0,0:0:0:0:
95,239,28991,1,8,0:0:0:0:
78,254,29077,1,0,0:0:0:0:
74,248,29247,1,8,0:0:0:0:
74,248,29417,1,8,0:0:0:0:
197,253,29588,1,0,0:0:0:0:
203,248,29844,1,0,0:0:0:0:
261,264,29929,1,8,0:0:0:0:
325,265,30099,1,0,0:0:0:0:
227,258,30355,1,0,0:0:0:0:
117,224,30440,1,0,0:0:0:0:
117,224,30611,1,8,0:0:0:0:
261,264,30781,1,8,0:0:0:0:
237,109,30866,1,8,0:0:0:0:
229,112,30952,1,0,0:0:0:0:
336,218,31122,1,0,0:0:0:0:
336,218,31292,1,8,0:0:0:0:
203,212,31463,1,0,0:0:0:0:
178,197,31548,1,0,0:0:0:0:
96,169,31633,1,8,0:0:0:0:
330,194,31804,1,0,0:0:0:0:
294,204,31974,1,8,0:0:0:0:
218,275,32315,1,4,0:0:0:0:
228,266,32571,1,0,0:0:0:0:
161,230,32656,1,8,0:0:0:0:
161,230,32827,1,0,0:0:0:0:
149,183,33082,1,0,0:0:0:0:
138,175,33167,1,0,0:0:0:0:
138,175,33338,1,8,0:0:0:0:
173,244,33508,1,8,0:0:0:0:
230,157,33594,1,8,0:0:0:0:
230,157,33679,1,0,0:0:0:0:
271,239,33849,1,0,0:0:0:0:
259,309,34020,1,8,0:0:0:0:
284,283,34190,1,0,0:0:0:0:
156,162,34361,1,0,0:0:0:0:
118,189,34446,1,8,0:0:0:0:
118,189,34531,1,0,0:0:0:0:
313,244,34702,1,8,0:0:0:0:
259,148,34872,1,8,0:0:0:0:
210,210,34957,1,0,0:0:0:0:
135,181,35042,1,8,0:0:0:0:
156,230,35298,1,8,0:0:0:0:
156,216,35383,1,0,0:0:0:0:
156,216,35554,1,8,0:0:0:0:
194,219,35809,1,0,0:0:0:0:
187,204,35895,1,0,0:0:0:0:
187,204,36065,1,8,0:0:0:0:
187,204,36236,1,8,0:0:0:0:
194,252,36321,1,8,0:0:0:0:
215,223,36406,1,8,0:0:0:0:
376,218,36577,1,0,0:0:0:0:
382,229,36747,1,0,0:0:0:0:
290,201,36917,1,12,0:0:0:0:
273,264,37088,1,0,0:0:0:0:
273,264,37258,1,8,0:0:0:0:
186,283,37344,1,8,0:0:0:0:
186,283,37429,1,8,0:0:0:0:
173,271,37514,1,8,0:0:0:0:
186,283,37599,1,8,0:0:0:0:
173,271,37684,1,8,0:0:0:0:
172,271,37770,1,0,0:0:0:0:
331,326,37940,1,0,0:0:0:0:
178,275,38025,1,0,0:0:0:0:
194,214,38111,1,8,0:0:0:0:
194,214,38196,1,0,0:0:0:0:
179,164,38281,1,0,0:0:0:0:
193,262,38452,1,8,0:0:0:0:
198,249,38622,1,0,0:0:0:0:
226,276,38963,1,8,0:0:0:0:
268,270,39133,1,0,0:0:0:0:
272,282,39304,1,0,0:0:0:0:
245,292,39389,1,0,0:0:0:0:
367,278,39559,1,0,0:0:0:0:
352,260,39645,1,0,0:0:0:0:
188,158,39815,1,8,0:0:0:0:
188,158,39986,1,8,0:0:0:0:
268,270,40327,1,8,0:0:0:0:
164,265,40412,1,8,0:0:0:0:
134,221,40497,1,0,0:0:0:0:
271,143,40667,1,0,0:0:0:0:
297,164,40753,1,0,0:0:0:0:
103,75,40923,1,0,0:0:0:0:
103,75,41008,1,0,0:0:0:0:
237,248,41179,1,8,0:0:0:0:
207,72,41264,1,0,0:0:0:0:
207,72,41349,1,0,0:0:0:0:
203,79,41434,1,0,0:0:0:0:
203,79,41520,1,0,0:0:0:0:
328,210,41690,1,8,0:0:0:0:
155,247,41861,1,0,0:0:0:0:
211,270,42031,1,12,0:0:0:0:
211,270,42202,1,12,0:0:0:0:
219,227,42372,1,0,0:0:0:0:
126,224,42457,1,0,0:0:0:0:
126,224,42542,1,8,0:0:0:0:
183,198,42628,1,0,0:0:0:0:
175,193,42713,1,0,0:0:0:0:
176,193,42798,1,0,0:0:0:0:
201,188,42883,1,8,0:0:0:0:
248,241,43054,1,8,0:0:0:0:
239,214,43139,1,8,0:0:0:0:
230,237,43224,1,0,0:0:0:0:
300,276,43395,1,0,0:0:0:0:
296,267,43480,1,0,0:0:0:0:
236,228,43565,1,8,0:0:0:0:
319,236,43736,1,0,0:0:0:0:
152,205,43821,1,0,0:0:0:0:
206,235,43906,1,8,0:0:0:0:
185,239,43991,1,0,0:0:0:0:
278,270,44077,1,0,0:0:0:0:
152,205,44247,1,8,0:0:0:0:
260,226,44417,1,0,0:0:0:0:
235,208,44503,1,0,0:0:0:0:
179,215,44588,1,8,0:0:0:0:
187,215,44758,1,8,0:0:0:0:
105,196,44844,1,0,0:0:0:0:
179,215,44929,1,8,0:0:0:0:
273,236,45099,1,8,0:0:0:0:
272,236,45184,1,8,0:0:0:0:
179,215,45270,1,8,0:0:0:0:
269,221,45440,1,0,0:0:0:0:
179,215,45611,1,8,0:0:0:0:
224,248,45696,1,0,0:0:0:0:
251,270,45781,1,0,0:0:0:0:
369,230,45952,1,12,0:0:0:0:
382,208,47230,1,0,0:0:0:0:
382,208,47273,1,0,0:0:0:0:
382,208,47315,1,8,0:0:0:0:
263,198,47486,1,0,0:0:0:0:
263,198,47656,1,0,0:0:0:0:
229,233,47827,1,8,0:0:0:0:
229,205,47997,1,0,0:0:0:0:
229,233,48167,1,8,0:0:0:0:
218,225,48253,1,8,0:0:0:0:
229,233,48338,1,0,0:0:0:0:
265,244,48423,1,8,0:0:0:0:
265,244,48508,1,8,0:0:0:0:
265,244,48594,1,8,0:0:0:0:
393,187,48679,1,0,0:0:0:0:
317,310,48849,1,0,0:0:0:0:
224,270,49020,1,8,0:0:0:0:
164,261,49190,1,0,0:0:0:0:
164,261,49531,1,0,0:0:0:0:
225,258,49702,1,8,0:0:0:0:
224,258,49872,1,0,0:0:0:0:
123,179,49957,1,0,0:0:0:0:
181,162,50042,1,8,0:0:0:0:
348,154,50383,1,8,0:0:0:0:
268,211,50554,1,0,0:0:0:0:
268,211,50809,1,8,0:0:0:0:
162,162,50895,1,0,0:0:0:0:
184,145,51065,1,8,0:0:0:0:
76,37,51236,1,0,0:0:0:0:
91,48,51321,1,0,0:0:0:0:
284,248,51406,1,0,0:0:0:0:
79,156,51577,1,0,0:0:0:0:
79,156,51747,1,8,0:0:0:0:
126,195,51917,1,0,0:0:0:0:
268,244,52258,1,0,0:0:0:0:
268,244,52429,1,8,0:0:0:0:
146,215,52599,1,0,0:0:0:0:
136,204,52684,1,0,0:0:0:0:
153,230,52770,1,8,0:0:0:0:
272,188,53025,1,0,0:0:0:0:
259,183,53111,1,8,0:0:0:0:
170,193,53281,1,0,0:0:0:0:
171,170,53622,1,0,0:0:0:0:
222,234,53792,1,8,0:0:0:0:
154,239,53878,1,8,0:0:0:0:
222,234,53963,1,8,0:0:0:0:
222,234,54048,1,8,0:0:0:0:
146,244,54133,1,0,0:0:0:0:
341,273,54304,1,0,0:0:0:0:
144,248,54474,1,8,0:0:0:0:
341,273,54645,1,0,0:0:0:0:
255,215,54986,1,0,0:0:0:0:
210,239,55156,1,8,0:0:0:0:
255,215,55327,1,0,0:0:0:0:
163,102,55412,1,8,0:0:0:0:
163,102,55497,1,0,0:0:0:0:
145,206,55667,1,0,0:0:0:0:
204,196,55838,1,8,0:0:0:0:
204,196,56008,1,0,0:0:0:0:
198,229,56264,1,8,0:0:0:0:
198,229,56349,1,0,0:0:0:0:
303,261,56520,1,8,0:0:0:0:
303,261,56690,1,8,0:0:0:0:
181,190,56775,1,8,0:0:0:0:
141,166,56861,1,0,0:0:0:0:
141,166,57031,1,0,0:0:0:0:
141,166,57202,1,8,0:0:0:0:
215,241,57372,1,4,0:0:0:0:
251,246,57713,1,0,0:0:0:0:
211,214,57883,1,8,0:0:0:0:
211,248,58054,1,12,0:0:0:0:
169,172,58395,1,8,0:0:0:0:
169,172,58480,1,8,0:0:0:0:
164,168,58565,1,0,0:0:0:0:
163,168,58650,1,0,0:0:0:0:
150,149,58736,1,8,0:0:0:0:
127,136,58821,1,0,0:0:0:0:
150,149,58906,1,8,0:0:0:0:
313,128,58991,1,0,0:0:0:0:
198,120,59077,1,0,0:0:0:0:
198,120,59162,1,0,0:0:0:0:
198,120,59247,1,8,0:0:0:0:
198,120,59332,1,8,0:0:0:0:
198,120,59417,1,8,0:0:0:0:
198,120,59503,1,8,0:0:0:0:
233,226,59588,1,0,0:0:0:0:
264,216,59758,1,0,0:0:0:0:
264,216,59929,1,8,0:0:0:0:
178,200,60099,1,0,0:0:0:0:
178,200,60440,1,0,0:0:0:0:
178,200,60611,1,8,0:0:0:0:
178,200,60781,1,0,0:0:0:0:
178,200,60866,1,0,0:0:0:0:
123,172,60952,1,8,0:0:0:0:
309,197,61292,1,8,0:0:0:0:
186,172,61463,1,0,0:0:0:0:
186,172,61719,1,8,0:0:0:0:
179,161,61804,1,0,0:0:0:0:
228,198,61974,1,8,0:0:0:0:
228,198,62145,1,8,0:0:0:0:
195,175,62230,1,8,0:0:0:0:
170,172,62315,1,0,0:0:0:0:
341,179,62486,1,0,0:0:0:0:
341,179,62656,1,8,0:0:0:0:
161,151,62827,1,0,0:0:0:0:
259,145,63167,1,0,0:0:0:0:
259,145,63338,1,8,0:0:0:0:
164,157,63508,1,0,0:0:0:0:
164,159,63594,1,0,0:0:0:0:
164,159,63679,1,8,0:0:0:0:
266,205,63849,1,0,0:0:0:0:
266,205,64020,1,12,0:0:0:0:
266,205,64190,1,12,0:0:0:0:
229,239,64361,1,0,0:0:0:0:
229,239,64531,1,8,0:0:0:0:
196,201,64616,1,0,0:0:0:0:
150,202,64702,1,8,0:0:0:0:
137,193,64787,1,8,0:0:0:0:
150,202,64872,1,8,0:0:0:0:
137,193,64957,1,8,0:0:0:0:
134,191,65042,1,0,0:0:0:0:
222,179,65213,1,0,0:0:0:0:
222,179,65383,1,8,0:0:0:0:
222,179,65554,1,0,0:0:0:0:
243,195,65895,1,0,0:0:0:0:
243,195,66065,1,8,0:0:0:0:
238,229,66236,1,0,0:0:0:0:
166,231,66321,1,8,0:0:0:0:
143,221,66406,1,0,0:0:0:0:
143,221,66577,1,0,0:0:0:0:
143,221,66747,1,8,0:0:0:0:
143,221,66917,1,0,0:0:0:0:
343,156,67003,1,8,0:0:0:0:
298,162,67088,1,0,0:0:0:0:
298,162,67173,1,8,0:0:0:0:
298,162,67258,1,0,0:0:0:0:
298,162,67429,1,8,0:0:0:0:
276,230,67599,1,8,0:0:0:0:
148,176,67684,1,8,0:0:0:0:
188,181,67770,1,0,0:0:0:0:
188,181,67940,1,0,0:0:0:0:
188,181,68111,1,8,0:0:0:0:
173,165,68281,1,0,0:0:0:0:
218,189,68622,1,0,0:0:0:0:
231,211,68707,1,0,0:0:0:0:
218,189,68792,1,0,0:0:0:0:
155,241,68878,1,0,0:0:0:0:
132,211,68963,1,8,0:0:0:0:
296,221,70327,1,0,0:0:0:0:
260,228,70412,1,0,0:0:0:0:
198,196,70497,1,8,0:0:0:0:
18,128,70667,1,0,0:0:0:0:
158,244,70838,1,0,0:0:0:0:
198,84,71008,1,12,0:0:0:0:
198,84,71179,1,0,0:0:0:0:
208,260,71349,1,0,0:0:0:0:
210,267,71520,1,12,0:0:0:0:
210,267,71690,1,12,0:0:0:0:
160,121,71861,1,0,0:0:0:0:
346,168,72031,1,8,0:0:0:0:
288,204,72202,1,0,0:0:0:0:
244,173,72287,1,8,0:0:0:0:
176,149,72372,1,0,0:0:0:0:
173,163,72542,1,8,0:0:0:0:
170,154,72628,1,8,0:0:0:0:
178,125,72713,1,0,0:0:0:0:
183,128,72798,1,0,0:0:0:0:
178,125,72883,1,8,0:0:0:0:
292,124,73054,1,8,0:0:0:0:
269,229,73224,1,0,0:0:0:0:
365,174,73565,1,8,0:0:0:0:
365,174,74077,1,8,0:0:0:0:
150,134,74588,1,0,0:0:0:0:
150,134,74929,1,8,0:0:0:0:
150,134,75440,1,8,0:0:0:0:
241,178,75952,1,0,0:0:0:0:
241,178,76292,1,8,0:0:0:0:
241,178,76804,1,8,0:0:0:0:
279,189,77315,1,0,0:0:0:0:
279,189,77656,1,8,0:0:0:0:
256,154,77997,1,0,0:0:0:0:
256,154,78167,1,8,0:0:0:0:
168,242,78253,1,8,0:0:0:0:
168,242,78338,1,8,0:0:0:0:
140,234,78423,1,8,0:0:0:0:
168,242,78508,1,8,0:0:0:0:
140,234,78594,1,8,0:0:0:0:
141,222,78679,1,0,0:0:0:0:
238,181,78849,1,8,0:0:0:0:
236,191,78934,1,0,0:0:0:0:
236,191,79105,1,0,0:0:0:0:
249,242,79190,1,8,0:0:0:0:
249,242,79361,1,0,0:0:0:0:
242,250,79531,1,8,0:0:0:0:
242,250,79702,1,0,0:0:0:0:
181,255,79787,1,0,0:0:0:0:
168,236,79872,1,8,0:0:0:0:
183,236,80042,1,0,0:0:0:0:
197,217,80213,1,8,0:0:0:0:
300,217,80298,1,0,0:0:0:0:
300,217,80383,1,0,0:0:0:0:
253,228,80469,1,0,0:0:0:0:
253,228,80554,1,8,0:0:0:0:
215,267,80724,1,0,0:0:0:0:
215,267,80895,1,8,0:0:0:0:
170,288,81065,1,0,0:0:0:0:
151,271,81150,1,0,0:0:0:0:
151,271,81236,1,8,0:0:0:0:
151,271,81406,1,0,0:0:0:0:
264,239,81577,1,8,0:0:0:0:
264,239,81662,1,0,0:0:0:0:
264,239,81832,1,0,0:0:0:0:
258,236,81917,1,8,0:0:0:0:
494,248,82088,1,0,0:0:0:0:
230,284,82258,1,8,0:0:0:0:
230,213,82429,1,0,0:0:0:0:
155,101,82514,1,0,0:0:0:0:
138,89,82599,1,8,0:0:0:0:
138,89,82770,1,8,0:0:0:0:
190,193,83792,1,8,0:0:0:0:
166,257,84133,1,4,0:0:0:0:
301,246,84304,1,8,0:0:0:0:
221,211,84389,1,0,0:0:0:0:
301,246,84559,1,0,0:0:0:0:
216,201,84645,1,8,0:0:0:0:
201,151,84986,1,8,0:0:0:0:
266,113,85156,1,0,0:0:0:0:
212,88,85241,1,0,0:0:0:0:
158,95,85327,1,8,0:0:0:0:
170,106,85497,1,0,0:0:0:0:
176,229,85667,1,8,0:0:0:0:
180,238,85753,1,8,0:0:0:0:
158,186,85923,1,0,0:0:0:0:
157,179,86008,1,8,0:0:0:0:
262,248,86349,1,8,0:0:0:0:
262,248,86520,1,0,0:0:0:0:
232,261,86605,1,0,0:0:0:0:
176,216,86690,1,8,0:0:0:0:
176,216,86861,1,8,0:0:0:0:
232,195,87031,1,0,0:0:0:0:
223,178,87116,1,0,0:0:0:0:
223,176,87287,1,0,0:0:0:0:
212,165,87372,1,8,0:0:0:0:
212,165,87713,1,8,0:0:0:0:
201,157,87883,1,0,0:0:0:0:
200,156,87969,1,0,0:0:0:0:
274,170,88054,1,8,0:0:0:0:
274,170,88224,1,0,0:0:0:0:
274,170,88395,1,8,0:0:0:0:
274,170,88480,1,0,0:0:0:0:
246,162,88565,1,0,0:0:0:0:
274,170,88650,1,0,0:0:0:0:
239,158,88736,1,8,0:0:0:0:
239,158,88906,1,0,0:0:0:0:
240,165,89077,1,8,0:0:0:0:
240,165,89247,1,8,0:0:0:0:
234,162,89332,1,8,0:0:0:0:
240,165,89417,1,8,0:0:0:0:
234,162,89503,1,8,0:0:0:0:
234,162,89588,1,0,0:0:0:0:
253,196,89758,1,8,0:0:0:0:
237,193,89844,1,0,0:0:0:0:
253,196,90014,1,0,0:0:0:0:
328,244,90099,1,8,0:0:0:0:
300,249,90440,1,8,0:0:0:0:
196,217,90611,1,0,0:0:0:0:
196,217,90696,1,0,0:0:0:0:
182,209,90781,1,8,0:0:0:0:
237,240,90952,1,0,0:0:0:0:
237,240,91122,1,8,0:0:0:0:
218,227,91207,1,8,0:0:0:0:
218,227,91378,1,0,0:0:0:0:
206,218,91463,1,8,0:0:0:0:
206,218,91804,1,8,0:0:0:0:
184,206,91974,1,0,0:0:0:0:
184,205,92059,1,0,0:0:0:0:
175,199,92145,1,8,0:0:0:0:
204,215,92315,1,8,0:0:0:0:
364,254,92486,1,0,0:0:0:0:
286,239,92656,1,8,0:0:0:0:
286,239,92827,1,0,0:0:0:0:
263,100,92997,1,0,0:0:0:0:
128,105,93082,1,8,0:0:0:0:
122,98,93167,1,0,0:0:0:0:
122,98,93338,1,8,0:0:0:0:
193,176,93508,1,8,0:0:0:0:
193,176,93594,1,0,0:0:0:0:
184,165,93679,1,8,0:0:0:0:
189,162,93849,1,0,0:0:0:0:
188,162,94020,1,8,0:0:0:0:
220,189,94190,1,0,0:0:0:0:
213,182,94275,1,0,0:0:0:0:
213,182,94361,1,8,0:0:0:0:
238,257,94531,1,8,0:0:0:0:
192,251,94616,1,8,0:0:0:0:
271,211,94702,1,8,0:0:0:0:
249,201,94787,1,8,0:0:0:0:
271,211,94872,1,8,0:0:0:0:
249,201,94957,1,8,0:0:0:0:
241,197,95042,1,0,0:0:0:0:
347,264,95213,1,0,0:0:0:0:
240,265,95298,1,0,0:0:0:0:
154,208,95383,1,8,0:0:0:0:
118,178,95469,1,0,0:0:0:0:
130,190,95554,1,0,0:0:0:0:
118,178,95724,1,8,0:0:0:0:
110,169,95895,1,0,0:0:0:0:
242,259,96236,1,8,0:0:0:0:
242,259,96406,1,0,0:0:0:0:
242,259,96577,1,0,0:0:0:0:
128,176,96662,1,0,0:0:0:0:
128,176,96832,1,0,0:0:0:0:
132,165,96917,1,0,0:0:0:0:
132,165,97088,1,8,0:0:0:0:
132,164,97258,1,8,0:0:0:0:
267,165,97599,1,8,0:0:0:0:
101,119,97684,1,8,0:0:0:0:
101,119,97770,1,0,0:0:0:0:
101,119,97940,1,0,0:0:0:0:
292,121,98025,1,0,0:0:0:0:
238,135,98196,1,0,0:0:0:0:
238,135,98281,1,0,0:0:0:0:
211,255,98452,1,8,0:0:0:0:
160,235,98537,1,0,0:0:0:0:
155,232,98622,1,0,0:0:0:0:
160,235,98707,1,0,0:0:0:0:
148,226,98792,1,0,0:0:0:0:
252,221,98963,1,8,0:0:0:0:
252,221,99133,1,0,0:0:0:0:
341,249,99304,1,12,0:0:0:0:
341,249,99474,1,12,0:0:0:0:
320,265,99645,1,0,0:0:0:0:
294,167,99730,1,0,0:0:0:0:
294,167,99815,1,8,0:0:0:0:
294,167,99900,1,0,0:0:0:0:
294,167,99986,1,0,0:0:0:0:
294,167,100071,1,0,0:0:0:0:
294,167,100156,1,8,0:0:0:0:
139,237,100327,1,8,0:0:0:0:
136,241,100497,1,0,0:0:0:0:
134,245,100582,1,0,0:0:0:0:
134,197,100667,1,8,0:0:0:0:
181,277,100838,1,0,0:0:0:0:
167,243,100923,1,0,0:0:0:0:
217,264,101008,1,8,0:0:0:0:
191,238,101094,1,0,0:0:0:0:
191,238,101179,1,0,0:0:0:0:
224,236,101349,1,8,0:0:0:0:
233,230,101520,1,0,0:0:0:0:
202,177,101605,1,0,0:0:0:0:
167,133,101690,1,8,0:0:0:0:
167,133,101775,1,0,0:0:0:0:
309,230,101861,1,8,0:0:0:0:
342,179,102031,1,0,0:0:0:0:
342,179,102116,1,0,0:0:0:0:
342,179,102202,1,8,0:0:0:0:
342,179,102287,1,0,0:0:0:0:
354,232,102372,1,0,0:0:0:0:
354,232,102457,1,0,0:0:0:0:
256,264,102542,1,8,0:0:0:0:
158,200,102628,1,8,0:0:0:0:
158,200,102713,1,0,0:0:0:0:
129,186,102798,1,0,0:0:0:0:
118,180,102883,1,8,0:0:0:0:
129,186,102969,1,8,0:0:0:0:
266,116,103054,1,8,0:0:0:0:
129,186,103139,1,8,0:0:0:0:
262,106,103224,1,0,0:0:0:0:
324,296,103395,1,0,0:0:0:0:
324,296,103565,1,8,0:0:0:0:
236,208,103736,1,0,0:0:0:0:
236,208,103906,1,0,0:0:0:0:
209,231,104077,1,8,0:0:0:0:
186,270,104247,1,0,0:0:0:0:
186,270,104417,1,0,0:0:0:0:
177,245,104588,1,8,0:0:0:0:
304,132,104673,1,0,0:0:0:0:
304,132,104758,1,0,0:0:0:0:
304,132,104844,1,8,0:0:0:0:
304,132,104929,1,0,0:0:0:0:
304,132,105014,1,0,0:0:0:0:
291,159,105099,1,8,0:0:0:0:
291,159,105184,1,0,0:0:0:0:
291,159,105270,1,8,0:0:0:0:
293,170,105355,1,8,0:0:0:0:
295,169,105440,1,0,0:0:0:0:
295,169,105525,1,0,0:0:0:0:
223,162,105611,1,8,0:0:0:0:
147,128,105696,1,8,0:0:0:0:
223,162,105781,1,8,0:0:0:0:
223,162,105866,1,8,0:0:0:0:
147,128,105952,1,0,0:0:0:0:
317,310,106122,1,0,0:0:0:0:
224,270,106292,1,8,0:0:0:0:
164,261,106463,1,0,0:0:0:0:
164,261,106804,1,0,0:0:0:0:
225,258,106974,1,8,0:0:0:0:
224,258,107145,1,0,0:0:0:0:
123,179,107230,1,0,0:0:0:0:
181,162,107315,1,8,0:0:0:0:
348,154,107656,1,8,0:0:0:0:
268,211,107827,1,0,0:0:0:0:
268,211,108082,1,8,0:0:0:0:
162,162,108167,1,0,0:0:0:0:
184,145,108338,1,8,0:0:0:0:
230,312,108508,1,0,0:0:0:0:
101,250,108594,1,0,0:0:0:0:
284,248,108679,1,0,0:0:0:0:
79,156,108849,1,0,0:0:0:0:
79,156,109020,1,8,0:0:0:0:
126,195,109190,1,0,0:0:0:0:
268,244,109531,1,0,0:0:0:0:
268,244,109702,1,8,0:0:0:0:
146,215,109872,1,0,0:0:0:0:
136,204,109957,1,0,0:0:0:0:
153,230,110042,1,8,0:0:0:0:
272,188,110298,1,0,0:0:0:0:
259,183,110383,1,8,0:0:0:0:
170,193,110554,1,0,0:0:0:0:
171,170,110895,1,0,0:0:0:0:
222,234,111065,1,8,0:0:0:0:
154,239,111150,1,8,0:0:0:0:
222,234,111236,1,8,0:0:0:0:
222,234,111321,1,8,0:0:0:0:
146,244,111406,1,0,0:0:0:0:
341,273,111577,1,0,0:0:0:0:
144,248,111747,1,8,0:0:0:0:
341,273,111917,1,0,0:0:0:0:
255,215,112258,1,0,0:0:0:0:
210,239,112429,1,8,0:0:0:0:
255,215,112599,1,0,0:0:0:0:
163,102,112684,1,8,0:0:0:0:
163,102,112770,1,0,0:0:0:0:
145,206,112940,1,0,0:0:0:0:
204,196,113111,1,8,0:0:0:0:
204,196,113281,1,0,0:0:0:0:
198,229,113537,1,8,0:0:0:0:
198,229,113622,1,0,0:0:0:0:
303,261,113792,1,8,0:0:0:0:
303,261,113963,1,8,0:0:0:0:
181,190,114048,1,8,0:0:0:0:
141,166,114133,1,0,0:0:0:0:
141,166,114304,1,0,0:0:0:0:
141,166,114474,1,8,0:0:0:0:
215,241,114645,1,4,0:0:0:0:
251,246,114986,1,0,0:0:0:0:
211,214,115156,1,8,0:0:0:0:
211,248,115327,1,12,0:0:0:0:
169,172,115667,1,8,0:0:0:0:
169,172,115753,1,8,0:0:0:0:
164,168,115838,1,0,0:0:0:0:
163,168,115923,1,0,0:0:0:0:
150,149,116008,1,8,0:0:0:0:
127,136,116094,1,0,0:0:0:0:
150,149,116179,1,8,0:0:0:0:
313,128,116264,1,0,0:0:0:0:
198,120,116349,1,0,0:0:0:0:
198,120,116434,1,0,0:0:0:0:
198,120,116520,1,8,0:0:0:0:
198,120,116605,1,8,0:0:0:0:
198,120,116690,1,8,0:0:0:0:
198,120,116775,1,8,0:0:0:0:
233,226,116861,1,0,0:0:0:0:
264,216,117031,1,0,0:0:0:0:
264,216,117202,1,8,0:0:0:0:
178,200,117372,1,0,0:0:0:0:
178,200,117713,1,0,0:0:0:0:
178,200,117883,1,8,0:0:0:0:
178,200,118054,1,0,0:0:0:0:
178,200,118139,1,0,0:0:0:0:
123,172,118224,1,8,0:0:0:0:
309,197,118565,1,8,0:0:0:0:
186,172,118736,1,0,0:0:0:0:
186,172,118991,1,8,0:0:0:0:
179,161,119077,1,0,0:0:0:0:
228,198,119247,1,8,0:0:0:0:
228,198,119417,1,8,0:0:0:0:
195,175,119503,1,8,0:0:0:0:
170,172,119588,1,0,0:0:0:0:
341,179,119758,1,0,0:0:0:0:
341,179,119929,1,8,0:0:0:0:
161,151,120099,1,0,0:0:0:0:
259,145,120440,1,0,0:0:0:0:
259,145,120611,1,8,0:0:0:0:
164,157,120781,1,0,0:0:0:0:
164,159,120866,1,0,0:0:0:0:
164,159,120952,1,8,0:0:0:0:
266,205,121122,1,0,0:0:0:0:
266,205,121292,1,12,0:0:0:0:
266,205,121463,1,12,0:0:0:0:
229,239,121633,1,0,0:0:0:0:
229,239,121804,1,8,0:0:0:0:
196,201,121889,1,0,0:0:0:0:
150,202,121974,1,8,0:0:0:0:
137,193,122059,1,8,0:0:0:0:
150,202,122145,1,8,0:0:0:0:
137,193,122230,1,8,0:0:0:0:
134,191,122315,1,0,0:0:0:0:
222,179,122486,1,0,0:0:0:0:
222,179,122656,1,8,0:0:0:0:
222,179,122827,1,0,0:0:0:0:
243,195,123167,1,0,0:0:0:0:
243,195,123338,1,8,0:0:0:0:
238,229,123508,1,0,0:0:0:0:
166,231,123594,1,8,0:0:0:0:
143,221,123679,1,0,0:0:0:0:
143,221,123849,1,0,0:0:0:0:
143,221,124020,1,8,0:0:0:0:
143,221,124190,1,0,0:0:0:0:
343,156,124275,1,8,0:0:0:0:
298,162,124361,1,0,0:0:0:0:
298,162,124446,1,8,0:0:0:0:
298,162,124531,1,0,0:0:0:0:
298,162,124702,1,8,0:0:0:0:
276,230,124872,1,8,0:0:0:0:
148,176,124957,1,8,0:0:0:0:
188,181,125042,1,0,0:0:0:0:
188,181,125213,1,0,0:0:0:0:
188,181,125383,1,8,0:0:0:0:
173,165,125554,1,0,0:0:0:0:
218,189,125895,1,0,0:0:0:0:
231,211,125980,1,0,0:0:0:0:
218,189,126065,1,0,0:0:0:0:
155,241,126150,1,0,0:0:0:0:
132,211,126236,1,8,0:0:0:0:
242,107,127003,1,0,0:0:0:0:
249,102,127045,1,0,0:0:0:0:
249,102,127088,1,8,0:0:0:0:
351,256,127258,1,0,0:0:0:0:
351,256,127429,1,0,0:0:0:0:
269,185,127770,1,4,0:0:0:0:
305,219,128452,1,8,0:0:0:0:
261,181,129474,1,0,0:0:0:0:
261,181,129815,1,8,0:0:0:0:
261,181,130497,1,0,0:0:0:0:
261,181,131179,1,8,0:0:0:0:
261,181,132202,1,0,0:0:0:0:
261,181,132542,1,8,0:0:0:0:
261,181,133224,1,0,0:0:0:0:
261,181,133906,1,8,0:0:0:0:
261,181,134929,1,0,0:0:0:0:
261,181,135270,1,8,0:0:0:0:
261,181,135952,1,0,0:0:0:0:
261,181,136633,1,8,0:0:0:0:
233,167,137315,1,0,0:0:0:0:
233,167,137656,1,0,0:0:0:0:
233,167,137997,1,8,0:0:0:0:
290,237,138679,1,4,0:0:0:0:
294,230,139361,1,8,0:0:0:0:
266,213,140383,1,0,0:0:0:0:
266,213,140724,1,8,0:0:0:0:
226,182,141406,1,0,0:0:0:0:
226,182,142088,1,8,0:0:0:0:
226,182,143111,1,0,0:0:0:0:
226,182,143452,1,8,0:0:0:0:
226,182,144133,1,0,0:0:0:0:
226,182,144815,1,8,0:0:0:0:
226,182,145838,1,0,0:0:0:0:
226,182,146179,1,8,0:0:0:0:
226,182,146861,1,0,0:0:0:0:
226,182,147542,1,8,0:0:0:0:
228,160,148224,1,0,0:0:0:0:
228,160,148565,1,0,0:0:0:0:
228,160,148906,1,8,0:0:0:0:
228,160,149588,1,4,0:0:0:0:
269,287,150099,1,0,0:0:0:0:
241,185,150270,1,8,0:0:0:0:
187,213,150952,1,0,0:0:0:0:
187,213,151122,1,8,0:0:0:0:
187,213,151292,1,0,0:0:0:0:
257,216,151633,1,8,0:0:0:0:
264,112,152315,1,0,0:0:0:0:
383,272,152827,1,8,0:0:0:0:
219,172,152997,1,8,0:0:0:0:
193,203,153679,1,0,0:0:0:0:
193,203,153849,1,8,0:0:0:0:
193,203,154020,1,0,0:0:0:0:
307,238,154361,1,8,0:0:0:0:
307,238,154531,1,0,0:0:0:0:
307,238,154702,1,8,0:0:0:0:
307,238,155042,1,0,0:0:0:0:
180,218,155554,1,0,0:0:0:0:
180,218,155724,1,8,0:0:0:0:
303,237,156406,1,0,0:0:0:0:
303,237,156577,1,8,0:0:0:0:
303,237,156747,1,0,0:0:0:0:
303,237,157088,1,8,0:0:0:0:
303,237,157770,1,0,0:0:0:0:
253,219,158281,1,8,0:0:0:0:
250,208,158452,1,8,0:0:0:0:
266,234,159133,1,0,0:0:0:0:
266,234,159304,1,8,0:0:0:0:
266,234,159474,1,0,0:0:0:0:
184,236,159815,1,8,0:0:0:0:
184,236,159986,1,0,0:0:0:0:
184,236,160156,1,8,0:0:0:0:
184,236,160497,1,0,0:0:0:0:
276,193,161179,1,8,0:0:0:0:
275,191,162202,1,0,0:0:0:0:
275,191,162542,1,8,0:0:0:0:
240,202,163224,1,0,0:0:0:0:
277,204,171406,5,0,0:0:0:0:
265,262,171747,1,8,0:0:0:0:
265,262,171917,1,0,0:0:0:0:
265,262,172258,1,0,0:0:0:0:
249,138,172599,1,8,0:0:0:0:
249,138,172656,1,8,0:0:0:0:
210,116,172713,1,0,0:0:0:0:
210,116,172770,1,0,0:0:0:0:
335,217,172940,1,8,0:0:0:0:
335,217,173111,1,8,0:0:0:0:
236,216,173281,1,0,0:0:0:0:
236,216,173452,1,8,0:0:0:0:
236,216,173622,1,0,0:0:0:0:
124,153,173792,1,8,0:0:0:0:
273,240,174133,1,4,0:0:0:0:
232,236,174474,1,0,0:0:0:0:
232,236,174645,1,8,0:0:0:0:
232,236,174815,1,0,0:0:0:0:
151,207,174986,1,8,0:0:0:0:
165,182,175156,1,0,0:0:0:0:
165,182,175327,1,0,0:0:0:0:
165,182,175497,1,8,0:0:0:0:
165,182,175838,1,8,0:0:0:0:
267,238,176008,1,0,0:0:0:0:
267,238,176179,1,8,0:0:0:0:
267,238,176349,1,0,0:0:0:0:
267,238,176520,1,8,0:0:0:0:
267,238,176690,1,8,0:0:0:0:
270,244,176861,1,0,0:0:0:0:
169,168,177202,1,0,0:0:0:0:
169,168,177372,1,8,0:0:0:0:
169,168,177542,1,0,0:0:0:0:
173,165,177713,1,8,0:0:0:0:
174,166,177883,1,0,0:0:0:0:
176,165,178054,1,0,0:0:0:0:
133,126,178224,1,8,0:0:0:0:
133,126,178565,1,8,0:0:0:0:
133,126,178736,1,0,0:0:0:0:
133,126,178906,1,8,0:0:0:0:
133,126,179077,1,0,0:0:0:0:
133,126,179247,1,8,0:0:0:0:
138,125,179417,1,8,0:0:0:0:
138,128,179588,1,0,0:0:0:0:
207,242,179929,1,8,0:0:0:0:
207,242,180099,1,0,0:0:0:0:
179,244,180184,1,8,0:0:0:0:
116,224,180270,1,0,0:0:0:0:
116,224,180440,1,0,0:0:0:0:
116,224,180611,1,8,0:0:0:0:
241,190,180781,1,0,0:0:0:0:
151,135,180866,1,0,0:0:0:0:
139,124,180952,1,8,0:0:0:0:
139,124,181122,1,0,0:0:0:0:
139,123,181292,1,8,0:0:0:0:
264,244,181463,1,8,0:0:0:0:
139,186,181633,1,0,0:0:0:0:
145,236,181719,1,8,0:0:0:0:
208,214,181804,1,0,0:0:0:0:
134,192,181974,1,8,0:0:0:0:
134,192,182145,1,8,0:0:0:0:
256,190,182230,1,8,0:0:0:0:
255,200,182315,1,0,0:0:0:0:
240,220,182486,1,0,0:0:0:0:
241,219,182656,1,8,0:0:0:0:
229,208,182827,1,0,0:0:0:0:
204,193,182912,1,0,0:0:0:0:
160,230,182997,1,8,0:0:0:0:
102,230,183082,1,8,0:0:0:0:
102,230,183167,1,8,0:0:0:0:
94,220,183253,1,8,0:0:0:0:
220,208,183338,1,0,0:0:0:0:
230,220,183508,1,4,0:0:0:0:
260,271,183849,1,0,0:0:0:0:
219,200,183934,1,0,0:0:0:0:
203,192,184020,1,8,0:0:0:0:
203,192,184105,1,8,0:0:0:0:
153,186,184190,1,0,0:0:0:0:
153,186,184275,1,0,0:0:0:0:
214,172,184361,1,8,0:0:0:0:
214,172,184531,1,8,0:0:0:0:
256,176,184702,1,0,0:0:0:0:
256,176,184872,1,8,0:0:0:0:
113,115,186406,1,12,0:0:0:0:
210,244,186577,1,0,0:0:0:0:
328,265,186747,1,8,0:0:0:0:
199,251,186917,1,0,0:0:0:0:
199,251,187003,1,0,0:0:0:0:
328,265,187088,1,8,0:0:0:0:
242,150,187258,1,0,0:0:0:0:
242,150,187344,1,0,0:0:0:0:
328,265,187429,1,8,0:0:0:0:
242,150,187514,1,0,0:0:0:0:
242,150,187599,1,0,0:0:0:0:
328,265,187770,1,8,0:0:0:0:
120,154,187940,1,0,0:0:0:0:
193,211,188025,1,0,0:0:0:0:
328,265,188111,1,8,0:0:0:0:
144,149,188281,1,0,0:0:0:0:
127,133,188366,1,0,0:0:0:0:
328,265,188452,1,8,0:0:0:0:
222,226,188537,1,0,0:0:0:0:
183,216,188622,1,0,0:0:0:0:
222,226,188707,1,0,0:0:0:0:
328,265,188792,1,8,0:0:0:0:
220,269,188963,1,0,0:0:0:0:
165,246,189048,1,0,0:0:0:0:
187,266,189133,1,8,0:0:0:0:
198,248,189304,1,0,0:0:0:0:
328,265,189474,1,8,0:0:0:0:
198,248,189645,1,0,0:0:0:0:
185,237,189730,1,0,0:0:0:0:
328,265,189815,1,8,0:0:0:0:
180,232,189900,1,0,0:0:0:0:
177,231,189986,1,0,0:0:0:0:
328,265,190156,1,8,0:0:0:0:
250,253,190327,1,0,0:0:0:0:
191,110,190412,1,0,0:0:0:0:
143,81,190497,1,8,0:0:0:0:
143,81,190667,1,0,0:0:0:0:
398,195,190753,1,8,0:0:0:0:
358,207,190838,1,0,0:0:0:0:
143,81,190923,1,0,0:0:0:0:
263,283,191008,1,8,0:0:0:0:
143,81,191094,1,0,0:0:0:0:
268,165,191179,1,8,0:0:0:0:
130,144,191264,1,8,0:0:0:0:
139,155,191349,1,0,0:0:0:0:
139,155,191434,1,0,0:0:0:0:
91,113,191520,1,8,0:0:0:0:
280,213,191690,1,0,0:0:0:0:
212,161,191775,1,0,0:0:0:0:
213,238,191861,1,8,0:0:0:0:
279,249,192031,1,0,0:0:0:0:
213,238,192202,1,8,0:0:0:0:
279,249,192372,1,0,0:0:0:0:
229,254,192457,1,0,0:0:0:0:
213,238,192542,1,8,0:0:0:0:
205,235,192713,1,0,0:0:0:0:
187,259,192798,1,0,0:0:0:0:
187,259,192883,1,8,0:0:0:0:
223,235,193054,1,0,0:0:0:0:
355,278,193139,1,0,0:0:0:0:
213,238,193224,1,8,0:0:0:0:
326,286,193395,1,0,0:0:0:0:
213,238,193565,1,8,0:0:0:0:
326,286,193736,1,0,0:0:0:0:
326,286,193821,1,0,0:0:0:0:
213,238,193906,1,8,0:0:0:0:
235,272,194077,1,0,0:0:0:0:
275,295,194162,1,0,0:0:0:0:
213,238,194247,1,8,0:0:0:0:
36,150,194332,1,0,0:0:0:0:
235,272,194417,1,0,0:0:0:0:
36,150,194503,1,0,0:0:0:0:
229,265,194588,1,8,0:0:0:0:
220,180,194758,1,0,0:0:0:0:
220,180,194929,1,8,0:0:0:0:
251,208,195099,1,4,0:0:0:0:
351,191,195440,1,0,0:0:0:0:
351,191,195611,1,8,0:0:0:0:
297,258,195781,1,12,0:0:0:0:
368,266,196122,1,0,0:0:0:0:
368,266,196292,1,8,0:0:0:0:
368,266,196463,1,0,0:0:0:0:
258,176,196633,1,8,0:0:0:0:
258,176,196747,1,8,0:0:0:0:
258,176,196861,1,8,0:0:0:0:
245,190,196974,1,0,0:0:0:0:
245,190,197088,1,0,0:0:0:0:
223,179,197202,1,0,0:0:0:0:
196,257,197315,1,12,0:0:0:0:
289,209,197486,1,0,0:0:0:0:
289,209,197827,1,0,0:0:0:0:
242,225,197997,1,8,0:0:0:0:
242,225,198167,1,8,0:0:0:0:
217,239,198338,1,0,0:0:0:0:
212,246,198508,1,8,0:0:0:0:
174,206,198594,1,8,0:0:0:0:
162,194,198679,1,0,0:0:0:0:
174,206,198849,1,8,0:0:0:0:
278,211,199020,1,0,0:0:0:0:
240,216,199361,1,12,0:0:0:0:
240,216,199531,1,0,0:0:0:0:
240,216,199702,1,12,0:0:0:0:
205,131,199872,1,8,0:0:0:0:
205,131,200042,1,0,0:0:0:0:
205,131,200213,1,0,0:0:0:0:
263,225,200554,1,0,0:0:0:0:
263,225,200724,1,8,0:0:0:0:
263,225,200895,1,8,0:0:0:0:
263,225,201065,1,0,0:0:0:0:
215,194,201236,1,8,0:0:0:0:
203,183,201321,1,8,0:0:0:0:
185,168,201406,1,0,0:0:0:0:
185,168,201577,1,8,0:0:0:0:
247,145,201747,1,0,0:0:0:0:
247,145,202088,1,8,0:0:0:0:
247,145,202258,1,8,0:0:0:0:
208,179,202344,1,8,0:0:0:0:
189,172,202429,1,0,0:0:0:0:
208,179,202514,1,0,0:0:0:0:
189,172,202599,1,0,0:0:0:0:
184,201,202684,1,0,0:0:0:0:
189,172,202770,1,0,0:0:0:0:
184,201,202940,1,0,0:0:0:0:
291,239,203281,1,0,0:0:0:0:
291,239,203452,1,8,0:0:0:0:
291,239,203622,1,8,0:0:0:0:
193,253,203792,1,0,0:0:0:0:
193,253,203963,1,8,0:0:0:0:
118,195,204048,1,8,0:0:0:0:
252,150,204133,1,0,0:0:0:0:
252,150,204304,1,8,0:0:0:0:
187,133,204474,1,0,0:0:0:0:
303,187,204815,1,12,0:0:0:0:
303,187,204986,1,8,0:0:0:0:
292,169,205156,1,0,0:0:0:0:
292,169,205327,1,0,0:0:0:0:
266,198,205497,1,8,0:0:0:0:
228,243,205667,1,0,0:0:0:0:
282,270,206008,1,0,0:0:0:0:
147,205,206094,1,0,0:0:0:0:
282,270,206179,1,8,0:0:0:0:
83,103,206520,1,8,0:0:0:0:
189,99,206690,1,0,0:0:0:0:
356,213,207031,1,8,0:0:0:0:
356,213,207372,1,8,0:0:0:0:
356,213,207542,1,8,0:0:0:0:
356,213,207713,1,0,0:0:0:0:
356,213,207883,1,0,0:0:0:0:
356,213,208054,1,8,0:0:0:0:
