osu file format v14

[General]
AudioFilename: audio.mp3
AudioLeadIn: 0
PreviewTime: 183457
Countdown: 0
SampleSet: Soft
StackLeniency: 0.2
Mode: 0
LetterboxInBreaks: 0
WidescreenStoryboard: 1

[Editor]
Bookmarks: 84115,138490
DistanceSpacing: 1.2
BeatDivisor: 16
GridSize: 4
TimelineZoom: 2.1

[Metadata]
Title:Undead Alice feat. Hatsune Miku
TitleUnicode:アンデッドアリス feat. 初音ミク
Artist:DECO*27
ArtistUnicode:DECO*27
Creator:Kyle Y
Version:Insane
Source:
Tags:andeddo arisu japanese pop jpop vocaloid rock Rockwell キョウヤ Kyoya しほ Shiho deco27 7th seventh album
BeatmapID:2713281
BeatmapSetID:1308800

[Difficulty]
HPDrainRate:5.2
CircleSize:5.2
OverallDifficulty:7.2
ApproachRate:9.2
SliderMultiplier:1.4
SliderTickRate:1

[Events]
//Background and Video events
0,0,"background.jpg",0,0
//Break Periods
2,163373,170785
//Storyboard Layer 0 (Background)
//Storyboard Layer 1 (Fail)
//Storyboard Layer 2 (Pass)
//Storyboard Layer 3 (Foreground)
//Storyboard Layer 4 (Overlay)
//Storyboard Sound Samples

[TimingPoints]
-463,340.909090909091,4,2,12,50,1,0
730,-100,4,2,10,50,0,0
900,-100,4,2,12,70,0,0
3456,-100,4,2,12,70,0,0
4990,-100,4,2,12,70,0,0
15900,-114.942528735632,4,2,12,50,0,0
25275,-142.857142857143,4,2,12,50,0,0
25445,-142.857142857143,4,2,12,50,0,0
25786,-100,4,2,12,50,0,0
26468,-112.359550561798,4,2,12,50,0,0
26809,-100,4,2,12,60,0,0
37888,-100,4,2,12,60,0,0
45900,-100,4,2,12,60,0,0
47093,-100,4,2,10,40,0,0
47263,-100,4,2,12,70,0,0
48627,-88.4955752212389,4,2,12,85,0,1
53570,-88.4955752212389,4,2,12,85,0,1
54081,-88.4955752212389,4,2,12,85,0,1
58343,-88.4955752212389,4,2,12,85,0,1
59536,-88.4955752212389,4,2,12,85,0,1
68059,-166.666666666667,4,2,12,85,0,1
68229,-88.4955752212389,4,2,12,85,0,1
68912,-100,4,2,12,50,0,0
69763,-100,4,2,12,40,0,0
70445,-111.111111111111,4,2,12,60,0,0
71468,-111.111111111111,4,2,10,60,0,0
71638,-111.111111111111,4,2,12,60,0,0
71979,-111.111111111111,4,2,10,60,0,0
72150,-111.111111111111,4,2,12,60,0,0
73172,-185.185185185185,4,2,12,60,0,0
73428,-185.185185185185,4,2,12,45,0,0
78286,-136.986301369863,4,2,12,45,0,0
78627,-136.986301369863,4,2,12,50,0,0
84081,-100,4,2,12,60,0,0
103172,-166.666666666667,4,2,12,60,0,0
104536,-100,4,2,12,60,0,0
105900,-84.7457627118644,4,2,12,85,0,1
125331,-142.857142857143,4,2,12,85,0,1
125502,-84.7457627118644,4,2,12,85,0,1
126184,-133.333333333333,4,2,12,60,0,0
127718,-166.666666666667,4,2,11,45,0,0
127888,-166.666666666667,4,2,11,5,0,0
128400,-166.666666666667,4,2,11,45,0,0
128570,-166.666666666667,4,2,11,5,0,0
129422,-166.666666666667,4,2,11,45,0,0
129593,-166.666666666667,4,2,11,5,0,0
129763,-166.666666666667,4,2,11,45,0,0
129934,-166.666666666667,4,2,11,5,0,0
130445,-166.666666666667,4,2,11,45,0,0
130615,-166.666666666667,4,2,11,5,0,0
131127,-166.666666666667,4,2,11,45,0,0
131297,-166.666666666667,4,2,11,5,0,0
132150,-166.666666666667,4,2,11,45,0,0
132320,-166.666666666667,4,2,11,5,0,0
132490,-166.666666666667,4,2,11,45,0,0
132661,-166.666666666667,4,2,11,5,0,0
133172,-166.666666666667,4,2,11,45,0,0
133343,-166.666666666667,4,2,11,5,0,0
133854,-166.666666666667,4,2,11,45,0,0
134025,-166.666666666667,4,2,11,5,0,0
134877,-166.666666666667,4,2,11,45,0,0
135047,-166.666666666667,4,2,11,5,0,0
135218,-166.666666666667,4,2,11,45,0,0
135388,-166.666666666667,4,2,11,5,0,0
135900,-166.666666666667,4,2,11,45,0,0
136070,-166.666666666667,4,2,11,5,0,0
136581,-166.666666666667,4,2,11,45,0,0
136752,-166.666666666667,4,2,11,5,0,0
137263,-166.666666666667,4,2,11,45,0,0
137434,-166.666666666667,4,2,11,5,0,0
137604,-166.666666666667,4,2,11,45,0,0
137775,-166.666666666667,4,2,11,5,0,0
137945,-166.666666666667,4,2,11,45,0,0
138115,-166.666666666667,4,2,11,5,0,0
138627,-133.333333333333,4,2,12,60,0,0
148257,-133.333333333333,4,2,12,5,0,0
148513,-133.333333333333,4,2,12,60,0,0
148598,-133.333333333333,4,2,12,5,0,0
148854,-133.333333333333,4,2,12,60,0,0
148939,-133.333333333333,4,2,12,5,0,0
149195,-133.333333333333,4,2,12,60,0,0
149280,-133.333333333333,4,2,12,5,0,0
149536,-120.481927710843,4,2,12,70,0,0
161127,-120.481927710843,4,2,12,50,0,0
162150,-120.481927710843,4,2,12,60,0,0
163513,-120.481927710843,4,2,12,40,0,0
171354,-120.481927710843,4,2,12,55,0,0
172718,-120.481927710843,4,2,12,65,0,0
174082,-84.0336134453781,4,2,12,85,0,1
174167,-84.0336134453781,4,2,12,85,0,0
183457,-84.0336134453781,4,2,12,85,0,0
183797,-111.111111111111,4,2,12,85,0,0
184820,-111.111111111111,4,2,12,60,0,0
185162,-111.111111111111,4,2,12,40,0,0
186355,-80.6451612903226,4,2,10,92,0,1
186695,-80.6451612903226,4,2,12,92,0,1
187547,-100,4,2,12,92,0,1
187718,-80.6451612903226,4,2,10,92,0,1
188059,-80.6451612903226,4,2,12,92,0,1
188911,-100,4,2,12,92,0,1
189081,-80.6451612903226,4,2,10,92,0,1
189422,-80.6451612903226,4,2,12,92,0,1
190275,-100,4,2,12,92,0,1
190445,-100,4,2,10,92,0,1
190615,-100,4,2,12,92,0,1
191127,-80.6451612903226,4,2,12,92,0,1
191809,-80.6451612903226,4,2,10,92,0,1
192150,-80.6451612903226,4,2,12,92,0,1
193172,-80.6451612903226,4,2,10,92,0,1
193343,-80.6451612903226,4,2,12,92,0,1
194536,-80.6451612903226,4,2,10,92,0,1
194877,-80.6451612903226,4,2,12,92,0,1
195047,-80.6451612903226,4,2,10,92,0,1
195388,-80.6451612903226,4,2,12,92,0,1
195900,-80.6451612903226,4,2,10,92,0,1
196071,-80.6451612903226,4,2,12,92,0,1
196155,-80.6451612903226,4,2,12,92,0,1
197263,-77.5193798449612,4,2,10,96,0,1
197604,-77.5193798449612,4,2,12,96,0,1
198627,-77.5193798449612,4,2,10,96,0,1
198968,-77.5193798449612,4,2,12,96,0,1
199990,-77.5193798449612,4,2,10,96,0,1
200331,-77.5193798449612,4,2,12,96,0,1
201354,-77.5193798449612,4,2,10,96,0,1
201440,-77.5193798449612,4,2,12,96,0,1
201610,-77.5193798449612,4,2,12,96,0,1
202718,-77.5193798449612,4,2,10,96,0,1
203059,-77.5193798449612,4,2,12,96,0,1
204081,-77.5193798449612,4,2,10,96,0,1
204252,-77.5193798449612,4,2,12,96,0,1
205105,-77.5193798449612,4,2,10,96,0,1
205275,-77.5193798449612,4,2,12,96,0,1
206127,-77.5193798449612,4,2,10,96,0,1
206298,-77.5193798449612,4,2,12,96,0,1
206639,-133.333333333333,4,2,12,60,0,0
206979,-100,4,2,12,50,0,0
207320,-100,4,2,12,40,0,0

[Colours]
Combo1 : 204,249,130
Combo2 : 160,118,248
Combo3 : 254,252,148
Combo4 : 72,124,232

[HitObjects]
215,133,730,5,8,0:0:0:0:
215,133,900,5,14,0:0:0:0:
88,205,1071,2,0,L|54:200,2,35,10|8|10,3:0|3:0|3:0,0:0:0:0:
230,137,1412,5,10,0:0:0:0:
151,220,1582,2,0,L|116:225,2,35,10|8|10,3:0|3:0|0:0,0:0:0:0:
253,147,1923,5,10,0:0:0:0:
253,147,2008,1,0,3:0:0:0:
253,147,2093,2,0,L|260:99,2,35,10|8|10,3:0|3:0|3:0,0:0:0:0:
263,271,2434,6,0,L|368:257,2,105,14|10|10,0:0|3:0|3:0,0:0:0:0:
237,280,3031,1,8,3:0:0:0:
237,280,3116,1,8,3:0:0:0:
346,160,3287,1,10,3:0:0:0:
376,384,3457,1,4,3:0:0:0:
453,365,4991,6,0,P|463:326|457:291,1,70,6|2,1:2|3:2,0:0:0:0:
389,252,5332,2,0,P|350:262|322:285,2,70,10|2|2,0:0|3:2|1:2,0:0:0:0:
465,204,5843,1,2,3:2:0:0:
465,204,5929,1,2,0:0:0:0:
465,204,6014,2,0,L|456:134,1,70,10|2,0:0|3:2,0:0:0:0:
371,21,6355,6,0,L|380:91,1,70,6|2,0:0|0:0,0:0:0:0:
341,186,6696,2,0,P|294:207|244:195,1,105,10|8,0:0|3:2,0:0:0:0:
227,189,7037,2,0,P|215:157|218:119,1,70,2|2,3:2|3:2,0:0:0:0:
292,104,7377,1,10,0:0:0:0:
220,0,7548,1,10,3:2:0:0:
220,0,7633,1,8,3:2:0:0:
220,0,7718,6,0,L|145:11,1,70,6|2,3:2|3:2,0:0:0:0:
7,30,8059,1,10,0:0:0:0:
7,30,8400,6,0,L|27:168,1,140,2|10,3:2|0:0,0:0:0:0:
40,266,8912,1,0,3:0:0:0:
40,266,8997,1,0,3:0:0:0:
40,266,9082,6,0,L|115:255,1,70,14|2,0:0|3:0,0:0:0:0:
245,182,9423,2,0,B|179:172|179:172|179:165|179:165|114:155,1,140,6|6,0:0|0:0,0:0:0:0:
13,146,9934,1,10,0:0:0:0:
13,146,10019,1,8,0:0:0:0:
13,146,10105,2,0,L|18:108,3,35,10|8|10|8,0:0|0:0|0:0|0:0,0:0:0:0:
50,239,10446,6,0,P|89:249|124:243,1,70,14|2,0:0|3:2,0:0:0:0:
173,181,10787,2,0,P|163:142|140:114,2,70,10|2|2,0:0|3:2|1:2,0:0:0:0:
206,281,11298,1,2,3:0:0:0:
206,281,11383,1,2,0:0:0:0:
206,281,11468,2,0,L|277:270,1,70,10|2,0:0|3:2,0:0:0:0:
466,240,11809,6,0,L|455:311,1,70,6|2,0:0|3:2,0:0:0:0:
405,375,12150,2,0,P|350:385|297:353,1,105,10|8,0:0|3:2,0:0:0:0:
286,342,12491,2,0,P|276:312|284:272,1,70,2|2,3:2|3:2,0:0:0:0:
371,278,12832,1,10,0:0:0:0:
268,183,13002,1,10,3:2:0:0:
268,183,13088,1,10,3:2:0:0:
268,183,13173,6,0,L|196:193,1,70,6|2,3:2|3:2,0:0:0:0:
165,122,13514,1,10,0:0:0:0:
64,244,13684,2,0,L|135:254,1,70,6|10,0:0|0:0,0:0:0:0:
141,128,14025,1,2,3:0:0:0:
141,128,14196,1,10,0:0:0:0:
236,276,14366,6,0,L|374:255,1,140,14|2,3:2|3:2,0:0:0:0:
406,252,14792,1,0,3:0:0:0:
406,252,14877,1,10,3:2:0:0:
456,185,15048,1,2,3:2:0:0:
366,131,15218,1,10,3:2:0:0:
417,14,15389,1,10,3:0:0:0:
417,14,15474,1,8,3:0:0:0:
417,14,15559,2,0,L|381:19,1,35,10|0,3:0|0:0,0:0:0:0:
307,63,15730,2,0,L|271:57,1,35,2|0,3:0|0:0,0:0:0:0:
143,40,15900,5,6,3:2:0:0:
128,25,16156,6,0,L|112:128,1,91.3500007666397,2|2,0:0|0:0,0:0:0:0:
40,200,16752,1,2,0:0:0:0:
40,200,16923,2,0,L|29:130,1,60.9000005110931,2|2,3:2|0:0,0:0:0:0:
158,192,17264,5,6,3:2:0:0:
145,207,17519,6,0,L|248:191,1,91.3500007666397,2|2,0:0|0:0,0:0:0:0:
348,169,18116,1,2,0:0:0:0:
348,169,18287,2,0,L|358:238,1,60.9000005110931,2|2,3:2|0:0,0:0:0:0:
381,363,18627,5,6,3:2:0:0:
393,380,18883,6,0,L|302:366,1,91.3500007666397,2|2,0:0|0:0,0:0:0:0:
181,350,19480,1,2,0:0:0:0:
181,350,19650,2,0,L|191:281,1,60.9000005110931,2|2,3:2|0:0,0:0:0:0:
218,145,19991,5,6,3:2:0:0:
231,160,20247,6,0,L|128:144,1,91.3500007666397,2|2,0:0|0:0,0:0:0:0:
42,132,20673,1,0,3:0:0:0:
42,132,21014,1,0,3:2:0:0:
97,75,21184,1,2,0:0:0:0:
152,225,21355,6,0,L|74:212,1,60.9000005110931,6|0,3:2|0:0,0:0:0:0:
68,210,21610,2,0,L|82:300,1,91.3500007666397,2|2,0:0|0:0,0:0:0:0:
192,380,22207,1,2,0:0:0:0:
192,380,22377,2,0,L|182:319,1,60.9000005110931,2|2,3:2|0:0,0:0:0:0:
159,152,22718,6,0,L|219:141,1,60.9000005110931,6|0,3:2|0:0,0:0:0:0:
243,137,22974,2,0,L|228:227,1,91.3500007666397,2|2,0:0|0:0,0:0:0:0:
319,294,23571,1,2,0:0:0:0:
319,294,23741,2,0,L|379:283,1,60.9000005110931,2|2,3:2|0:0,0:0:0:0:
492,148,24082,6,0,L|502:208,1,60.9000005110931,6|0,3:2|0:0,0:0:0:0:
493,224,24338,2,0,L|403:209,1,91.3500007666397,2|2,0:0|0:0,0:0:0:0:
344,166,24764,1,0,3:0:0:0:
253,231,24934,1,10,0:0:0:0:
253,231,25019,1,8,0:0:0:0:
253,231,25105,1,10,3:0:0:0:
190,128,25275,6,2,B|222:123|222:123|225:115|225:115|227:130|227:130|229:122|229:122|262:117,1,97.9999970092774,12|8,3:1|0:0,0:1:0:0:
425,94,25787,5,8,3:2:0:0:
425,94,25872,1,8,3:0:0:0:
425,94,25957,2,0,L|416:142,1,35,8|8,3:2|3:2,0:0:0:0:
398,216,26127,1,8,3:2:0:0:
493,215,26298,1,8,3:0:0:0:
314,244,26468,6,0,L|406:227,1,93.4500000712967,8|0,3:0|0:0,0:0:0:0:
493,215,26809,6,0,L|476:333,1,105,6|2,1:2|3:2,0:0:0:0:
474,343,27150,1,8,3:2:0:0:
323,332,27321,1,2,3:2:0:0:
323,332,27662,5,2,1:2:0:0:
395,375,27832,2,0,L|405:306,1,70,10|2,1:2|3:2,0:0:0:0:
429,132,28173,6,0,L|310:148,1,105,6|2,1:2|0:0,0:0:0:0:
301,151,28514,1,8,3:2:0:0:
200,32,28684,1,2,3:2:0:0:
200,32,29025,5,2,1:2:0:0:
156,105,29196,2,0,L|225:114,1,70,10|2,1:2|3:2,0:0:0:0:
376,178,29537,2,0,L|257:194,1,105,6|2,1:2|3:2,0:0:0:0:
248,197,29877,1,8,3:2:0:0:
100,158,30048,1,2,3:2:0:0:
161,238,30218,1,0,3:0:0:0:
161,238,30304,1,0,3:0:0:0:
161,238,30389,2,0,L|92:248,1,70,2|10,1:2|1:2,0:0:0:0:
30,194,30730,1,2,3:2:0:0:
8,338,30900,6,0,L|112:324,1,105,6|2,1:2|3:0,0:0:0:0:
140,323,31241,1,8,3:2:0:0:
258,380,31412,1,2,3:0:0:0:
258,380,31497,1,0,3:0:0:0:
258,380,31582,2,0,L|327:370,2,70,8|2|14,3:2|1:2|1:2,0:0:0:0:
232,253,32093,1,2,3:2:0:0:
384,300,32264,6,0,L|398:196,1,105,6|2,1:2|3:0,0:0:0:0:
404,161,32605,1,8,3:2:0:0:
314,55,32775,1,2,3:2:0:0:
314,55,33116,6,0,L|324:124,1,70,2|10,1:2|1:2,0:0:0:0:
401,83,33457,1,2,3:2:0:0:
320,203,33627,6,0,L|216:188,1,105,6|2,1:2|3:2,0:0:0:0:
181,183,33968,1,8,3:2:0:0:
76,101,34139,1,2,3:2:0:0:
76,101,34480,6,0,B|61:154|61:154|70:207,1,105,2|0,1:2|0:0,0:0:0:0:
74,230,34821,1,2,3:2:0:0:
215,307,34991,6,0,L|318:292,1,105,6|2,1:2|3:2,0:0:0:0:
354,287,35332,1,8,3:2:0:0:
489,368,35502,1,2,3:2:0:0:
489,368,35843,6,0,L|478:298,1,70,2|10,1:2|1:2,0:0:0:0:
417,228,36184,1,2,3:0:0:0:
417,228,36269,1,0,3:0:0:0:
417,228,36355,6,0,B|423:181|423:181|417:136|417:136|423:90,1,140,6|0,1:2|3:0,0:0:0:0:
307,22,36866,2,0,B|313:68|313:68|307:114|307:114|313:160,1,140,14|8,0:0|3:0,0:0:0:0:
334,289,37377,1,8,0:0:0:0:
334,289,37463,1,8,0:0:0:0:
334,289,37548,2,0,L|299:283,1,35,10|8,3:0|3:0,0:0:0:0:
164,255,37718,5,6,3:2:0:0:
130,380,37889,5,2,3:0:0:0:
155,376,37974,1,2,3:0:0:0:
181,371,38059,1,6,3:2:0:0:
209,368,38144,1,2,3:0:0:0:
236,362,38230,2,0,L|229:320,1,35,2|0,3:0|0:0,0:0:0:0:
188,236,38400,2,0,L|199:166,1,70,14|2,3:2|3:2,0:0:0:0:
198,166,38912,5,10,0:0:0:0:
292,187,39082,2,0,L|281:117,1,70,14|2,1:2|1:2,0:0:0:0:
167,33,39423,5,6,3:2:0:0:
142,37,39508,1,2,3:2:0:0:
116,42,39593,1,2,3:2:0:0:
88,45,39679,1,2,3:2:0:0:
61,51,39764,2,0,L|74:135,1,70,14|10,1:2|1:2,0:0:0:0:
183,225,40275,5,10,3:2:0:0:
183,225,40360,1,8,3:2:0:0:
183,225,40446,2,0,L|172:155,1,70,10|2,3:2|3:0,0:0:0:0:
102,223,40787,1,6,0:0:0:0:
229,293,40957,2,0,L|159:303,1,70,2|8,3:0|3:2,0:0:0:0:
28,332,41298,5,2,3:0:0:0:
28,332,41383,1,0,3:0:0:0:
28,332,41468,1,8,3:0:0:0:
1,152,41639,1,14,0:0:0:0:
1,152,41980,5,14,1:2:0:0:
134,215,42150,2,0,L|142:134,1,70,10|10,1:2|3:0,0:0:0:0:
149,48,42491,1,10,3:2:0:0:
30,64,42662,1,10,3:0:0:0:
30,64,42747,1,8,3:0:0:0:
30,64,42832,2,0,L|37:137,1,70,14|10,3:2|3:2,0:0:0:0:
233,132,43173,5,14,0:0:0:0:
150,47,43343,5,2,3:2:0:0:
150,47,43429,1,2,3:2:0:0:
150,47,43514,1,10,3:2:0:0:
280,13,43684,5,2,3:2:0:0:
280,13,43769,1,2,3:2:0:0:
280,13,43855,1,10,3:2:0:0:
292,159,44025,2,0,L|219:152,1,70,10|10,3:0|3:2,0:0:0:0:
46,139,44366,1,2,3:2:0:0:
46,139,44451,1,2,3:2:0:0:
46,139,44537,6,0,L|53:212,1,70,14|2,3:2|3:2,0:0:0:0:
131,291,44877,2,0,L|137:221,1,70,10|2,0:0|3:2,0:0:0:0:
36,286,45218,1,10,0:0:0:0:
203,303,45389,2,0,L|196:372,1,70,2|8,3:0|0:0,0:0:0:0:
73,370,45730,1,2,3:0:0:0:
54,159,45900,5,12,3:2:0:0:
113,227,47093,1,2,0:0:0:0:
113,227,47179,1,0,0:0:0:0:
113,227,47264,6,0,L|182:220,1,70,14|2,3:2|3:2,0:0:0:0:
203,141,47605,1,2,3:2:0:0:
56,111,47775,2,0,L|125:104,1,70,14|2,0:0|3:2,0:0:0:0:
262,63,48116,1,8,3:2:0:0:
262,63,48201,1,8,3:0:0:0:
262,63,48287,2,0,L|255:21,3,35,8|8|10|8,3:0|3:2|3:2|3:2,0:0:0:0:
203,141,48627,6,0,P|257:166|313:152,1,118.650000362091,6|0,3:2|0:0,0:0:0:0:
334,134,48968,1,10,0:0:0:0:
457,16,49139,2,0,P|456:54|478:88,1,79.100000241394,2|0,3:2|3:0,0:0:0:0:
417,153,49480,2,0,P|443:180|482:189,1,79.100000241394,2|8,3:2|0:0,0:0:0:0:
481,107,49821,1,2,3:2:0:0:
317,53,49991,6,0,L|329:171,1,118.650000362091,6|0,3:2|0:0,0:0:0:0:
331,196,50332,1,10,0:0:0:0:
309,334,50502,2,0,P|353:339|385:318,1,79.100000241394,2|0,3:2|0:0,0:0:0:0:
458,369,50843,2,0,P|476:336|469:286,1,79.100000241394,2|12,3:2|0:0,0:0:0:0:
393,243,51184,1,2,3:2:0:0:
222,377,51355,6,0,L|238:259,1,118.650000362091,6|0,3:2|0:0,0:0:0:0:
247,237,51696,1,10,0:0:0:0:
112,163,51866,2,0,P|74:171|34:155,1,79.100000241394,2|0,3:2|3:0,0:0:0:0:
191,163,52207,2,0,P|183:200|149:235,1,79.100000241394,2|8,3:2|0:0,0:0:0:0:
103,144,52548,1,2,3:2:0:0:
259,18,52718,6,0,L|276:135,1,118.650000362091,6|0,3:2|3:0,0:0:0:0:
280,164,53059,1,10,0:0:0:0:
446,239,53230,2,0,P|460:202|449:159,1,79.100000241394,2|0,3:2|0:0,0:0:0:0:
404,52,53571,1,10,3:0:0:0:
404,52,53656,1,8,3:0:0:0:
404,52,53741,2,0,L|365:47,3,39.550000120697,8|8|10|8,3:2|3:2|3:0|3:0,0:0:0:0:
357,154,54082,6,0,L|215:133,1,118.650000362091,6|0,3:2|0:0,0:0:0:0:
211,131,54423,1,10,0:0:0:0:
141,18,54593,2,0,P|148:65|130:95,1,79.100000241394,2|0,3:2|3:0,0:0:0:0:
26,199,54934,5,2,3:2:0:0:
103,184,55105,1,10,0:0:0:0:
176,214,55275,1,2,3:0:0:0:
26,199,55446,5,6,3:2:0:0:
174,136,55616,1,2,3:2:0:0:
151,296,55787,1,10,0:0:0:0:
5,225,55957,6,0,L|122:207,1,118.650000362091,2|0,3:2|3:0,0:0:0:0:
148,215,56298,1,2,3:2:0:0:
256,318,56468,2,0,L|261:278,1,39.550000120697,10|0,0:0|0:0,0:0:0:0:
336,215,56639,1,2,3:2:0:0:
336,215,56724,1,0,3:0:0:0:
336,215,56809,6,0,L|318:97,1,118.650000362091,6|0,3:2|0:0,0:0:0:0:
314,66,57150,1,10,0:0:0:0:
174,73,57321,2,0,P|169:34|189:0,1,79.100000241394,6|0,3:2|0:0,0:0:0:0:
247,109,57662,1,2,3:2:0:0:
247,109,57832,1,10,0:0:0:0:
87,84,58002,6,0,L|108:227,1,118.650000362091,6|0,3:2|0:0,0:0:0:0:
107,232,58343,2,0,L|146:226,1,39.550000120697,10|8,3:2|3:0,0:0:0:0:
244,207,58514,1,10,3:0:0:0:
391,247,58684,1,10,3:2:0:0:
391,247,58855,1,8,3:2:0:0:
422,115,59025,6,0,L|382:120,1,39.550000120697,10|8,3:0|3:0,0:0:0:0:
252,148,59196,1,10,3:2:0:0:
252,148,59281,1,8,3:2:0:0:
252,148,59366,1,10,3:2:0:0:
252,148,59451,1,8,3:2:0:0:
252,148,59537,6,0,L|272:5,1,118.650000362091,6|0,3:2|0:0,0:0:0:0:
274,4,59877,1,10,0:0:0:0:
353,147,60048,2,0,P|382:121|420:113,1,79.100000241394,2|0,3:2|3:0,0:0:0:0:
420,23,60389,2,0,P|460:25|491:47,1,79.100000241394,2|8,3:2|0:0,0:0:0:0:
432,106,60730,1,2,3:2:0:0:
501,219,60900,6,0,L|358:239,1,118.650000362091,6|0,3:2|0:0,0:0:0:0:
353,240,61241,1,10,0:0:0:0:
273,131,61412,2,0,P|280:169|268:206,1,79.100000241394,2|0,3:2|3:0,0:0:0:0:
189,160,61752,1,2,3:2:0:0:
189,160,61923,1,14,0:0:0:0:
270,311,62093,1,2,1:2:0:0:
270,311,62179,1,0,1:2:0:0:
270,311,62264,6,0,L|127:291,1,118.650000362091,6|0,3:2|0:0,0:0:0:0:
122,290,62605,1,10,0:0:0:0:
8,151,62775,2,0,P|30:121|75:109,1,79.100000241394,2|0,3:2|3:0,0:0:0:0:
47,20,63116,2,0,P|85:15|122:29,1,79.100000241394,2|8,3:2|0:0,0:0:0:0:
155,113,63457,1,2,3:2:0:0:
276,15,63627,6,0,L|256:158,1,118.650000362091,6|0,3:2|0:0,0:0:0:0:
255,163,63968,1,10,0:0:0:0:
400,218,64139,2,0,P|438:222|473:203,1,79.100000241394,14|0,3:2|0:0,0:0:0:0:
359,112,64480,1,10,3:0:0:0:
359,112,64565,1,8,3:0:0:0:
359,112,64650,2,0,L|353:151,3,39.550000120697,8|8|10|8,3:2|3:2|3:2|3:2,0:0:0:0:
318,265,64991,6,0,L|175:245,1,118.650000362091,6|0,3:2|0:0,0:0:0:0:
170,244,65332,1,8,0:0:0:0:
89,110,65502,1,2,3:2:0:0:
89,110,65588,1,0,0:0:0:0:
89,110,65673,2,0,P|105:156|90:197,1,79.100000241394,0|2,3:0|3:2,0:0:0:0:
22,245,66014,1,8,0:0:0:0:
10,156,66184,1,2,3:0:0:0:
152,254,66355,6,0,L|9:274,1,118.650000362091,6|0,3:2|0:0,0:0:0:0:
14,283,66696,1,10,0:0:0:0:
163,351,66866,2,0,L|280:334,1,118.650000362091,14|8,3:2|0:0,0:0:0:0:
307,328,67207,1,8,3:0:0:0:
240,198,67377,6,0,L|318:208,1,79.100000241394,10|8,0:0|3:0,0:0:0:0:
345,219,67633,1,8,3:0:0:0:
345,219,67718,1,6,3:2:0:0:
319,122,67889,1,2,3:2:0:0:
482,249,68059,6,0,L|477:210,1,20.9999993591309,10|0,0:0|0:0,0:0:0:0:
458,215,68230,2,0,L|441:54,1,158.200000482788,6|8,3:2|3:0,0:0:0:0:
439,32,68656,1,8,3:0:0:0:
439,32,68741,1,10,3:0:0:0:
224,67,68912,5,6,3:2:0:0:
80,92,70275,1,10,3:0:0:0:
80,92,70360,1,8,3:0:0:0:
80,92,70446,6,0,L|158:102,1,62.9999980773926,14|2,1:2|3:2,0:0:0:0:
204,36,70787,1,10,3:0:0:0:
150,132,70957,2,0,L|212:123,1,62.9999980773926,14|2,1:2|3:2,0:0:0:0:
284,80,71298,5,2,3:0:0:0:
284,80,71383,1,0,3:0:0:0:
284,80,71468,1,6,3:0:0:0:
279,175,71639,2,0,L|341:166,1,62.9999980773926,2|10,1:2|3:0,0:0:0:0:
397,92,71980,1,14,3:0:0:0:
365,189,72150,2,0,L|427:197,1,62.9999980773926,2|10,3:2|3:0,0:0:0:0:
496,127,72491,5,10,3:2:0:0:
496,127,72576,1,8,3:0:0:0:
496,127,72662,2,0,L|491:95,2,31.4999990386963,10|8|8,3:0|3:0|3:2,0:0:0:0:
504,240,73002,1,2,0:0:0:0:
341,272,73173,6,0,L|357:147,1,113.400002768555,6|2,3:2|0:0,0:0:0:0:
355,159,74025,1,2,1:2:0:0:
273,117,74537,6,0,L|289:-7,1,113.400002768555,6|2,3:2|0:0,0:0:0:0:
287,4,75389,1,2,1:2:0:0:
463,32,75900,6,0,L|447:156,1,113.400002768555,6|2,3:2|0:0,0:0:0:0:
448,144,76752,2,0,L|403:138,2,37.8000009228516,2|2|2,1:2|3:2|3:2,0:0:0:0:
487,258,77264,6,0,L|363:242,1,113.400002768555,6|2,3:2|3:0,0:0:0:0:
314,188,77946,6,0,L|317:159,3,18.9000004614258,0|0|0|8,3:0|0:0|0:0|3:2,0:0:0:0:
257,247,78287,1,8,3:2:0:0:
233,256,78372,1,8,3:2:0:0:
207,257,78457,1,8,3:2:0:0:
183,252,78542,1,8,3:2:0:0:
161,239,78627,6,0,L|167:188,1,51.1000014035035,6|10,3:2|3:2,0:0:0:0:
164,174,78883,2,0,L|175:82,1,76.6500021052552,2|10,3:0|3:2,0:0:0:0:
119,34,79480,2,0,L|68:27,2,51.1000014035035,10|2|10,1:2|3:2|1:2,0:0:0:0:
270,43,79991,6,0,L|276:93,1,51.1000014035035,6|10,3:2|3:2,0:0:0:0:
273,108,80247,2,0,L|284:199,1,76.6500021052552,2|10,3:2|3:2,0:0:0:0:
185,242,80843,2,0,L|134:235,2,51.1000014035035,10|2|10,1:2|3:2|0:0,0:0:0:0:
373,260,81355,6,0,L|379:209,1,51.1000014035035,6|8,3:2|0:0,0:0:0:0:
376,195,81610,2,0,L|387:103,1,76.6500021052552,2|10,3:2|0:0,0:0:0:0:
494,35,82207,2,0,L|443:41,1,51.1000014035035,10|2,1:2|3:2,0:0:0:0:
290,63,82548,1,0,3:0:0:0:
401,176,82718,5,6,3:2:0:0:
401,176,83741,1,8,3:0:0:0:
401,176,84082,6,0,L|411:98,1,70,6|8,1:2|3:2,0:0:0:0:
434,98,84338,1,2,3:0:0:0:
434,98,84423,2,0,L|442:28,1,70,0|10,0:0|3:2,0:0:0:0:
325,3,84934,6,0,L|316:72,1,70,10|2,1:2|1:2,0:0:0:0:
312,106,85190,1,0,3:0:0:0:
312,106,85275,1,10,3:2:0:0:
291,235,85446,6,0,L|368:245,1,70,6|8,1:2|3:2,0:0:0:0:
369,268,85701,1,2,3:2:0:0:
369,268,85787,2,0,L|438:276,1,70,0|10,0:0|3:2,0:0:0:0:
500,130,86298,6,0,L|430:138,1,70,10|2,1:2|1:2,0:0:0:0:
397,143,86554,1,0,3:0:0:0:
397,143,86639,1,10,3:2:0:0:
209,169,86809,6,0,L|198:91,1,70,6|8,1:2|3:2,0:0:0:0:
176,91,87065,1,2,3:0:0:0:
176,91,87150,2,0,L|167:21,1,70,0|10,0:0|3:2,0:0:0:0:
43,125,87662,6,0,L|51:194,1,70,10|2,1:2|1:2,0:0:0:0:
56,228,87917,1,0,3:0:0:0:
56,228,88002,1,10,3:2:0:0:
73,361,88173,6,0,L|151:350,1,70,6|8,1:2|3:2,0:0:0:0:
165,368,88429,1,2,3:0:0:0:
165,368,88514,2,0,L|235:359,1,70,0|10,3:0|3:2,0:0:0:0:
309,298,88855,2,0,L|379:307,1,70,0|10,3:0|1:2,0:0:0:0:
481,372,89196,1,14,1:2:0:0:
469,348,89281,1,8,1:2:0:0:
466,322,89366,1,10,1:2:0:0:
472,297,89451,1,8,1:2:0:0:
487,275,89537,6,0,L|478:205,1,70,6|8,1:2|3:2,0:0:0:0:
474,177,89792,1,2,3:2:0:0:
474,177,89877,1,0,0:0:0:0:
336,197,90048,1,10,3:2:0:0:
336,197,90389,5,10,1:2:0:0:
370,96,90559,2,0,L|408:100,2,35,2|0|10,1:2|3:0|3:2,0:0:0:0:
245,14,90900,6,0,L|236:84,1,70,6|8,1:2|3:2,0:0:0:0:
232,112,91156,1,2,3:0:0:0:
232,112,91241,1,0,0:0:0:0:
94,92,91412,1,10,3:2:0:0:
94,92,91752,5,10,1:2:0:0:
29,206,91923,2,0,L|63:201,2,35,2|0|10,1:2|3:0|3:2,0:0:0:0:
169,263,92264,6,0,L|238:254,1,70,6|0,1:2|3:0,0:0:0:0:
266,250,92519,1,2,0:0:0:0:
266,250,92605,1,8,0:0:0:0:
266,118,92775,2,0,L|196:109,1,70,2|0,3:2|3:0,0:0:0:0:
15,92,93116,1,2,1:2:0:0:
109,57,93287,1,2,1:2:0:0:
130,168,93457,1,2,3:0:0:0:
130,168,93542,1,0,3:0:0:0:
130,168,93627,6,0,L|60:159,1,70,6|0,1:2|3:2,0:0:0:0:
35,171,93883,1,2,0:0:0:0:
35,171,93968,2,0,L|44:241,1,70,8|10,3:2|3:0,0:0:0:0:
127,368,94309,2,0,L|118:298,1,70,8|8,3:2|3:0,0:0:0:0:
205,232,94650,1,14,1:2:0:0:
205,232,94735,1,8,1:2:0:0:
205,232,94821,2,0,L|240:238,1,35,10|8,3:0|3:0,0:0:0:0:
293,307,94991,5,6,3:2:0:0:
373,246,95162,5,2,3:2:0:0:
377,271,95247,1,2,3:2:0:0:
382,297,95332,1,6,3:2:0:0:
385,325,95417,1,2,3:0:0:0:
391,352,95502,2,0,L|433:345,1,35,2|0,3:0|0:0,0:0:0:0:
482,264,95673,2,0,L|471:194,1,70,14|2,3:2|3:2,0:0:0:0:
471,194,96184,5,10,1:2:0:0:
347,136,96355,2,0,L|417:125,1,70,14|2,1:2|1:2,0:0:0:0:
343,252,96696,5,6,3:2:0:0:
318,248,96781,1,2,3:2:0:0:
292,243,96866,1,2,3:2:0:0:
264,240,96951,1,2,3:2:0:0:
237,234,97037,2,0,L|250:150,1,70,14|10,1:2|1:2,0:0:0:0:
310,7,97548,5,10,3:2:0:0:
310,7,97633,1,8,3:2:0:0:
310,7,97718,2,0,L|299:77,1,70,10|10,3:2|3:2,0:0:0:0:
223,44,98059,1,6,0:0:0:0:
166,151,98230,6,0,L|236:141,1,70,10|8,3:2|0:0,0:0:0:0:
394,121,98571,1,2,3:0:0:0:
394,121,98656,1,0,3:0:0:0:
394,121,98741,1,8,3:2:0:0:
268,227,98912,1,14,0:0:0:0:
268,227,99252,5,14,1:2:0:0:
298,66,99423,1,10,1:2:0:0:
298,66,99593,2,0,L|308:136,1,70,10|10,3:0|3:2,0:0:0:0:
399,250,99934,1,10,3:0:0:0:
399,250,100019,1,8,3:0:0:0:
399,250,100105,2,0,L|392:177,1,70,14|10,3:2|3:2,0:0:0:0:
215,179,100446,5,14,0:0:0:0:
215,179,100616,1,2,3:2:0:0:
271,297,100787,5,14,3:2:0:0:
271,297,100872,1,8,3:0:0:0:
271,297,100957,1,2,3:2:0:0:
307,220,101127,1,14,3:2:0:0:
421,330,101298,2,0,L|348:337,1,70,6|10,3:2|3:2,0:0:0:0:
190,350,101639,5,0,3:2:0:0:
190,350,101724,1,8,3:0:0:0:
190,350,101809,2,0,L|183:277,1,70,14|10,3:2|3:0,0:0:0:0:
232,196,102150,2,0,L|225:123,1,70,14|10,0:0|3:2,0:0:0:0:
173,60,102491,1,14,0:0:0:0:
129,163,102662,1,10,3:0:0:0:
129,163,102747,1,8,3:0:0:0:
129,163,102832,2,0,L|92:166,3,35,8|8|10|8,3:2|3:2|3:2|3:2,0:0:0:0:
320,137,103173,6,0,B|315:178|315:178|320:220|320:220|315:261,1,125.999996154785,12|2,3:2|3:0,0:0:0:0:
218,317,104025,2,0,L|213:275,2,41.9999987182618,2|2|2,3:2|3:2|3:2,0:0:0:0:
386,361,104537,6,0,L|462:351,1,70,14|2,3:2|3:0,0:0:0:0:
479,264,104877,1,2,3:2:0:0:
417,165,105048,1,14,0:0:0:0:
417,165,105133,1,0,0:0:0:0:
417,165,105218,6,0,L|412:203,1,35,2|0,3:0|0:0,0:0:0:0:
350,277,105389,2,0,L|314:292,1,35,8|8,3:2|3:0,0:0:0:0:
217,300,105559,2,0,L|179:292,3,35,8|8|10|8,3:0|3:2|3:2|3:2,0:0:0:0:
266,190,105900,6,0,B|270:149|270:149|266:108|266:108|270:67,1,123.899995651703,6|0,3:2|0:0,0:0:0:0:
280,34,106241,1,10,0:0:0:0:
457,119,106412,2,0,P|479:84|479:43,1,82.5999971011354,2|0,3:2|3:0,0:0:0:0:
385,167,106752,2,0,P|413:196|454:205,1,82.5999971011354,2|8,3:2|0:0,0:0:0:0:
381,80,107093,1,2,3:0:0:0:
307,203,107264,6,0,P|252:179|183:196,1,123.899995651703,6|0,3:2|0:0,0:0:0:0:
165,207,107605,1,10,0:0:0:0:
236,342,107775,2,0,P|197:361|155:355,1,82.5999971011354,2|0,3:2|0:0,0:0:0:0:
317,308,108116,2,0,P|322:348|304:384,1,82.5999971011354,2|12,3:2|0:0,0:0:0:0:
256,251,108457,1,2,3:2:0:0:
443,327,108627,6,0,L|426:202,1,123.899995651703,6|0,3:2|0:0,0:0:0:0:
419,172,108968,1,10,0:0:0:0:
222,93,109139,2,0,P|182:105|154:141,1,82.5999971011354,2|0,3:2|3:0,0:0:0:0:
294,51,109480,2,0,P|267:21|217:7,1,82.5999971011354,2|8,3:2|0:0,0:0:0:0:
295,137,109821,1,2,3:0:0:0:
120,32,109991,6,0,L|137:155,1,123.899995651703,6|0,3:2|3:0,0:0:0:0:
142,186,110332,1,10,0:0:0:0:
44,288,110502,2,0,P|83:302|128:291,1,82.5999971011354,2|0,3:2|0:0,0:0:0:0:
237,237,110843,1,10,3:0:0:0:
237,237,110929,1,8,3:0:0:0:
237,237,111014,2,0,L|231:195,3,41.2999985505677,8|8|10|8,3:2|3:2|3:0|3:0,0:0:0:0:
200,361,111355,6,0,L|350:338,1,123.899995651703,6|0,3:2|0:0,0:0:0:0:
351,338,111696,1,10,0:0:0:0:
472,377,111866,2,0,P|488:339|479:300,1,82.5999971011354,2|0,3:2|3:0,0:0:0:0:
314,226,112207,5,2,3:2:0:0:
395,241,112377,1,10,0:0:0:0:
472,210,112548,1,2,3:2:0:0:
314,226,112718,5,6,3:2:0:0:
470,292,112889,1,2,3:2:0:0:
446,123,113059,1,10,0:0:0:0:
295,214,113230,6,0,L|314:337,1,123.899995651703,2|0,3:2|3:0,0:0:0:0:
322,366,113571,1,2,3:2:0:0:
477,353,113741,2,0,L|471:312,1,41.2999985505677,10|0,0:0|0:0,0:0:0:0:
407,247,113912,1,2,3:2:0:0:
407,247,113997,1,0,3:0:0:0:
407,247,114082,6,0,L|387:122,1,123.899995651703,6|0,3:2|0:0,0:0:0:0:
475,180,114423,1,10,0:0:0:0:
308,135,114593,2,0,P|309:93|336:61,1,82.5999971011354,6|0,3:2|0:0,0:0:0:0:
457,83,114934,1,2,3:0:0:0:
457,83,115105,1,10,0:0:0:0:
388,202,115275,6,0,L|265:220,1,123.899995651703,6|0,3:2|0:0,0:0:0:0:
242,225,115616,2,0,L|248:183,1,41.2999985505677,10|8,3:2|3:0,0:0:0:0:
265,81,115787,1,10,3:0:0:0:
104,106,115957,5,10,3:2:0:0:
104,106,116127,1,8,3:2:0:0:
179,190,116298,6,0,L|185:150,1,41.2999985505677,10|8,3:0|3:0,0:0:0:0:
215,11,116468,1,10,3:2:0:0:
215,11,116554,1,8,3:2:0:0:
215,11,116639,1,10,3:2:0:0:
215,11,116724,1,8,3:2:0:0:
215,11,116809,6,0,L|64:33,1,123.899995651703,6|0,3:2|0:0,0:0:0:0:
60,34,117150,1,10,0:0:0:0:
105,194,117321,2,0,P|141:174|162:139,1,82.5999971011354,2|0,3:2|3:0,0:0:0:0:
29,193,117662,2,0,P|38:232|69:260,1,82.5999971011354,2|8,3:2|0:0,0:0:0:0:
76,124,118002,1,2,3:2:0:0:
180,272,118173,6,0,L|331:251,1,123.899995651703,6|0,3:2|0:0,0:0:0:0:
337,250,118514,1,10,0:0:0:0:
465,207,118684,2,0,P|473:247|460:286,1,82.5999971011354,2|0,3:2|3:0,0:0:0:0:
374,355,119025,1,2,3:2:0:0:
359,270,119196,1,14,0:0:0:0:
507,358,119366,1,10,3:2:0:0:
507,358,119451,1,8,0:0:0:0:
507,358,119537,6,0,L|356:380,1,123.899995651703,6|0,3:2|0:0,0:0:0:0:
358,382,119877,1,10,0:0:0:0:
270,250,120048,2,0,P|280:213|318:186,1,82.5999971011354,2|0,3:2|3:0,0:0:0:0:
229,327,120389,2,0,P|196:301|188:261,1,82.5999971011354,2|8,3:2|0:0,0:0:0:0:
324,314,120730,1,2,3:2:0:0:
403,206,120900,6,0,L|381:54,1,123.899995651703,6|0,3:2|0:0,0:0:0:0:
380,49,121241,1,10,0:0:0:0:
276,121,121412,2,0,P|235:125|199:105,1,82.5999971011354,2|0,3:2|0:0,0:0:0:0:
118,48,121752,1,10,3:0:0:0:
118,48,121838,1,8,3:0:0:0:
118,48,121923,2,0,L|124:6,3,41.2999985505677,8|8|10|8,3:2|3:2|3:2|3:2,0:0:0:0:
78,138,122264,6,0,L|99:289,1,123.899995651703,6|0,3:2|0:0,0:0:0:0:
100,294,122605,1,8,0:0:0:0:
262,292,122775,1,2,3:2:0:0:
262,292,122860,1,0,0:0:0:0:
262,292,122946,2,0,P|268:251|250:214,1,82.5999971011354,0|0,3:0|3:2,0:0:0:0:
181,270,123287,1,8,0:0:0:0:
194,365,123457,1,2,3:0:0:0:
328,349,123627,6,0,L|479:327,1,123.899995651703,6|0,3:2|0:0,0:0:0:0:
474,318,123968,1,10,0:0:0:0:
389,200,124139,2,0,L|237:221,1,123.899995651703,14|8,3:2|0:0,0:0:0:0:
238,208,124480,1,8,3:0:0:0:
149,363,124650,6,0,L|232:373,1,82.5999971011354,10|0,0:0|3:0,0:0:0:0:
319,298,124991,1,6,3:2:0:0:
198,276,125162,1,10,3:0:0:0:
57,301,125332,6,0,L|53:325,1,24.4999992523194,10|0,0:0|0:0,0:0:0:0:
50,342,125502,2,0,L|32:171,1,165.199994202271,6|8,3:2|3:0,0:0:0:0:
32,152,125929,1,8,3:0:0:0:
32,152,126014,1,10,3:0:0:0:
245,191,126184,6,0,B|250:142|250:142|242:130|242:130|248:89,2,105.000004005432,6|2|2,3:2|0:0|0:0,0:0:0:0:
180,228,126951,1,0,3:0:0:0:
163,233,127037,2,0,L|111:224,2,52.5000020027161,10|10|10,3:2|3:2|3:0,0:0:0:0:
196,311,127548,1,2,0:0:0:0:
311,240,127718,6,0,B|357:230|357:230|370:249|370:249|425:256,1,125.999996154785,6|0,3:0|0:0,0:0:0:0:
448,172,128400,2,0,P|511:250|461:334,1,209.999993591309,10|0,3:0|0:0,0:0:0:0:
371,358,129423,1,6,3:0:0:0:
371,358,129764,2,0,L|245:344,1,125.999996154785,10|0,3:0|0:0,0:0:0:0:
90,341,130446,6,0,B|100:295|100:295|81:282|81:282|74:227,1,125.999996154785,6|0,3:0|0:0,0:0:0:0:
0,183,131127,2,0,P|86:141|159:216,1,209.999993591309,10|0,3:0|0:0,0:0:0:0:
105,306,132150,1,6,3:0:0:0:
105,306,132491,2,0,L|231:292,1,125.999996154785,10|0,3:0|0:0,0:0:0:0:
313,212,133173,6,0,B|368:219|368:219|381:238|381:238|427:228,1,125.999996154785,6|0,3:0|0:0,0:0:0:0:
471,304,133855,2,0,P|514:215|447:141,1,209.999993591309,10|0,3:0|0:0,0:0:0:0:
315,89,134877,1,6,3:0:0:0:
315,89,135218,2,0,L|328:214,1,125.999996154785,10|0,3:0|0:0,0:0:0:0:
247,336,135900,6,0,B|192:329|192:329|179:310|179:310|133:320,1,125.999996154785,6|0,3:0|0:0,0:0:0:0:
73,384,136582,2,0,P|46:328|62:269,1,125.999996154785,10|0,3:0|0:0,0:0:0:0:
159,224,137264,1,6,3:0:0:0:
239,356,137605,1,6,3:0:0:0:
38,372,137946,2,0,L|52:246,1,125.999996154785,10|0,3:0|0:0,0:0:0:0:
126,119,138627,6,0,P|177:114|218:163,1,105.000004005432,6|0,3:2|0:0,0:0:0:0:
214,148,139309,2,0,P|219:199|170:240,1,105.000004005432,2|0,1:2|0:0,0:0:0:0:
81,218,139821,1,2,0:0:0:0:
81,218,139991,2,0,L|87:280,1,52.5000020027161,2|2,0:0|0:0,0:0:0:0:
161,314,140332,2,0,L|265:302,1,105.000004005432,6|0,3:2|1:2,0:0:0:0:
345,240,140843,2,0,P|348:215|336:187,2,52.5000020027161,2|2|2,0:0|0:0|0:0,0:0:0:0:
336,355,141355,6,0,L|462:341,1,105.000004005432,6|2,3:2|0:0,0:0:0:0:
471,244,141866,2,0,L|345:257,1,105.000004005432,2|2,0:0|0:0,0:0:0:0:
239,288,142377,2,0,L|244:235,1,52.5000020027161,2|2,0:0|0:0,0:0:0:0:
265,94,142718,1,2,0:0:0:0:
86,148,143059,2,0,P|136:136|182:159,2,105.000004005432,6|0|0,3:2|1:2|0:0,0:0:0:0:
142,355,144082,6,0,P|91:360|50:311,1,105.000004005432,6|0,3:2|0:0,0:0:0:0:
55,325,144764,2,0,P|50:274|99:233,1,105.000004005432,2|0,1:2|0:0,0:0:0:0:
223,207,145275,1,2,0:0:0:0:
223,207,145446,2,0,L|217:144,1,52.5000020027161,2|2,3:0|0:0,0:0:0:0:
161,256,145787,2,0,L|174:381,1,105.000004005432,6|0,3:2|1:2,0:0:0:0:
295,325,146298,2,0,P|298:300|286:272,2,52.5000020027161,2|2|2,0:0|0:0|0:0,0:0:0:0:
192,374,146809,6,0,L|87:363,1,105.000004005432,6|2,3:2|0:0,0:0:0:0:
138,250,147321,2,0,L|33:260,1,105.000004005432,2|2,0:0|0:0,0:0:0:0:
14,359,147832,2,0,L|66:353,1,52.5000020027161,2|2,0:0|0:0,0:0:0:0:
180,343,148173,5,6,3:0:0:0:
213,208,148514,5,6,3:0:0:0:
419,162,148855,5,2,1:2:0:0:
386,27,149196,5,2,1:2:0:0:
225,118,149537,6,0,L|349:106,1,116.200001684418,6|0,3:2|0:0,0:0:0:0:
340,106,150048,1,0,3:0:0:0:
463,34,150218,2,0,L|338:22,1,116.200001684418,10|0,1:2|0:0,0:0:0:0:
236,10,150730,1,2,0:0:0:0:
268,84,150900,6,0,L|261:25,1,58.1000008422089,2|10,3:2|0:0,0:0:0:0:
365,130,151241,2,0,L|353:245,1,116.200001684418,2|8,3:2|0:0,0:0:0:0:
287,294,151752,1,2,0:0:0:0:
212,268,151923,2,0,L|269:273,1,58.1000008422089,2|2,3:2|3:2,0:0:0:0:
378,351,152264,6,0,L|436:346,1,58.1000008422089,6|0,0:0|0:0,0:0:0:0:
428,265,152605,1,2,3:2:0:0:
511,289,152775,1,0,1:0:0:0:
511,289,152946,2,0,L|506:231,1,58.1000008422089,8|2,0:0|3:2,0:0:0:0:
441,162,153287,2,0,L|436:104,1,58.1000008422089,2|2,3:2|3:2,0:0:0:0:
428,11,153627,5,6,3:2:0:0:
428,11,153798,1,0,1:0:0:0:
310,78,153968,2,0,L|305:20,1,58.1000008422089,2|0,3:2|0:0,0:0:0:0:
363,140,154309,2,0,P|308:159|257:137,1,116.200001684418,8|8,0:0|0:0,0:0:0:0:
118,12,154991,6,0,L|106:136,1,116.200001684418,6|0,0:0|0:0,0:0:0:0:
106,127,155502,1,0,1:0:0:0:
0,84,155673,2,0,L|12:209,1,116.200001684418,10|0,0:0|3:0,0:0:0:0:
83,252,156184,1,2,3:2:0:0:
12,278,156355,6,0,L|69:274,1,58.1000008422089,6|10,3:2|3:2,0:0:0:0:
189,242,156696,2,0,P|166:294|185:347,1,116.200001684418,2|8,3:2|0:0,0:0:0:0:
263,372,157207,1,2,0:0:0:0:
263,372,157377,2,0,L|321:366,1,58.1000008422089,2|2,3:2|3:2,0:0:0:0:
459,276,157718,6,0,P|402:297|343:268,1,116.200001684418,6|2,0:0|3:2,0:0:0:0:
276,169,158230,1,0,1:0:0:0:
276,169,158400,2,0,L|281:227,1,58.1000008422089,8|2,0:0|3:2,0:0:0:0:
369,155,158741,2,0,L|362:97,1,58.1000008422089,2|2,3:2|3:2,0:0:0:0:
303,25,159082,5,6,3:2:0:0:
303,25,159252,1,0,1:0:0:0:
223,105,159423,2,0,L|216:47,1,58.1000008422089,2|0,3:2|0:0,0:0:0:0:
294,174,159764,2,0,L|178:188,1,116.200001684418,8|8,0:0|3:2,0:0:0:0:
113,65,160275,1,0,3:0:0:0:
113,65,160360,1,0,3:0:0:0:
113,65,160446,6,0,P|39:58|3:151,1,174.300002526627,6|0,0:0|0:0,0:0:0:0:
76,249,161127,1,10,0:0:0:0:
169,187,161809,6,0,L|164:148,2,38.7333338948059,2|2|2,0:0|0:0|0:0,0:0:0:0:
188,202,162150,2,0,L|304:188,1,116.200001684418,2|10,3:2|0:0,0:0:0:0:
303,188,163173,5,6,0:0:0:0:
202,148,171355,5,14,1:2:0:0:
202,148,171696,5,10,0:0:0:0:
370,169,171866,1,4,1:2:0:0:
370,169,172207,5,6,1:2:0:0:
370,169,172548,6,0,L|368:150,3,19.366666947403,10|8|8|8,3:0|3:0|3:0|3:0,0:0:0:0:
442,267,172889,1,14,0:0:0:0:
307,250,173059,1,14,0:0:0:0:
442,267,173230,6,0,L|435:207,2,58.1000008422089,2|8|2,3:2|0:0|3:2,0:0:0:0:
341,355,173741,1,10,0:0:0:0:
329,260,173912,1,2,0:0:0:0:
503,380,174082,6,0,L|378:366,1,124.949997521439,14|0,1:2|0:0,0:0:0:0:
351,364,174423,1,10,0:0:0:0:
190,279,174593,2,0,P|176:324|195:363,1,83.2999983476258,2|0,3:2|3:0,0:0:0:0:
262,234,174934,1,2,3:2:0:0:
129,217,175105,1,8,0:0:0:0:
258,320,175275,1,2,3:2:0:0:
329,149,175446,6,0,L|315:24,1,124.949997521439,6|0,3:2|0:0,0:0:0:0:
313,0,175787,1,10,0:0:0:0:
497,25,175957,2,0,P|513:68|505:109,1,83.2999983476258,2|0,3:2|3:0,0:0:0:0:
403,187,176298,1,2,3:2:0:0:
425,70,176468,1,14,0:0:0:0:
512,230,176639,1,10,3:2:0:0:
512,230,176724,1,8,0:0:0:0:
512,230,176809,6,0,L|387:216,1,124.949997521439,6|0,3:2|0:0,0:0:0:0:
359,213,177150,1,10,0:0:0:0:
229,92,177321,2,0,P|215:47|234:8,1,83.2999983476258,2|0,3:2|3:0,0:0:0:0:
301,137,177662,1,2,3:2:0:0:
167,154,177832,1,8,0:0:0:0:
297,51,178002,1,2,3:2:0:0:
356,233,178173,6,0,L|231:219,1,124.949997521439,6|0,3:2|0:0,0:0:0:0:
206,217,178514,1,10,0:0:0:0:
33,257,178684,2,0,P|19:295|31:340,1,83.2999983476258,14|0,3:2|0:0,0:0:0:0:
156,367,179025,1,10,3:0:0:0:
156,367,179196,1,8,3:2:0:0:
113,216,179366,1,10,3:2:0:0:
261,310,179537,6,0,L|385:296,1,124.949997521439,6|0,3:2|0:0,0:0:0:0:
409,294,179877,1,8,0:0:0:0:
464,188,180048,1,2,3:2:0:0:
464,188,180133,1,0,0:0:0:0:
464,188,180218,2,0,L|451:99,1,83.2999983476258,0|2,3:0|3:2,0:0:0:0:
452,105,180559,1,8,0:0:0:0:
366,144,180730,1,2,3:0:0:0:
507,266,180900,6,0,L|424:277,1,83.2999983476258,6|0,3:2|3:2,0:0:0:0:
393,284,181156,1,0,0:0:0:0:
393,284,181241,1,10,0:0:0:0:
247,356,181412,2,0,L|164:344,1,83.2999983476258,14|0,3:2|3:0,0:0:0:0:
133,338,181667,1,0,0:0:0:0:
133,338,181752,1,0,3:0:0:0:
97,212,181923,2,0,L|108:129,1,83.2999983476258,10|0,0:0|3:0,0:0:0:0:
6,94,182264,5,6,3:2:0:0:
178,69,182434,1,2,3:2:0:0:
81,7,182605,6,0,L|75:48,3,41.6499991738129,10|0|6|0,3:2|3:0|3:2|3:0,0:0:0:0:
128,139,182946,1,8,0:2:0:0:
156,153,183031,1,8,0:2:0:0:
189,155,183116,1,8,3:2:0:0:
220,145,183201,1,8,3:2:0:0:
245,124,183287,2,0,L|239:82,1,41.6499991738129,10|10,3:0|3:0,0:0:0:0:
66,8,183457,6,0,L|48:131,1,124.949997521439,6|0,3:2|0:0,0:0:0:0:
39,160,183798,2,0,L|25:91,1,62.9999980773926,2|8,3:0|3:2,0:0:0:0:
6,94,184054,1,8,3:0:0:0:
6,94,184139,5,10,3:0:0:0:
172,146,184309,1,10,3:2:0:0:
109,237,184480,5,10,3:2:0:0:
255,228,184650,1,10,3:2:0:0:
296,19,184821,1,6,1:3:0:0:
177,15,186355,6,0,L|193:144,1,130.199994834595,6|0,1:3|0:0,0:0:0:0:
194,175,186696,1,14,0:0:0:0:
289,121,186866,1,2,3:2:0:0:
289,121,186951,1,0,3:0:0:0:
289,121,187037,1,12,1:2:0:0:
388,263,187207,2,0,L|377:176,1,86.7999965563966,2|12,3:0|0:0,0:0:0:0:
359,12,187548,2,0,L|402:17,1,35,2|0,3:2|3:0,0:0:0:0:
512,81,187718,6,0,L|382:97,1,130.199994834595,6|0,1:3|0:0,0:0:0:0:
357,100,188059,1,12,0:0:0:0:
255,14,188230,1,2,3:2:0:0:
255,14,188315,1,0,3:0:0:0:
255,14,188400,1,14,0:0:0:0:
187,160,188571,2,0,L|273:170,1,86.7999965563966,2|12,3:2|0:0,0:0:0:0:
440,219,188912,2,0,L|443:184,1,35,2|0,3:2|3:0,0:0:0:0:
510,306,189082,6,0,L|380:322,1,130.199994834595,6|0,1:3|0:0,0:0:0:0:
345,326,189423,1,12,0:0:0:0:
200,259,189593,1,2,3:0:0:0:
200,259,189679,1,0,3:0:0:0:
200,259,189764,1,14,0:0:0:0:
323,238,189934,1,2,3:2:0:0:
323,238,190105,1,12,0:0:0:0:
245,373,190275,6,0,L|250:329,1,35,2|0,3:0|3:0,0:0:0:0:
271,180,190446,1,14,1:3:0:0:
346,57,190616,6,0,L|351:100,1,35,0|0,3:0|3:0,0:0:0:0:
380,182,190787,1,10,3:0:0:0:
412,196,190872,1,8,3:0:0:0:
447,200,190957,1,10,3:0:0:0:
481,194,191042,1,8,3:0:0:0:
512,177,191127,2,0,L|506:133,1,43.3999982781983,12|8,3:2|3:0,0:0:0:0:
458,58,191298,2,0,L|452:14,2,43.3999982781983,10|8|12,3:0|3:0|0:0,0:0:0:0:
281,158,191639,5,2,3:0:0:0:
281,158,191724,1,0,3:0:0:0:
281,158,191809,2,0,L|263:7,1,130.199994834595,14|0,1:3|0:0,0:0:0:0:
256,1,192150,1,14,0:0:0:0:
72,14,192321,2,0,P|57:54|70:95,1,86.7999965563966,2|12,3:2|0:0,0:0:0:0:
202,163,192662,5,2,3:2:0:0:
143,52,192832,1,14,0:0:0:0:
113,179,193002,1,2,3:2:0:0:
202,163,193173,5,6,1:3:0:0:
46,97,193343,1,2,3:2:0:0:
70,266,193514,1,14,0:0:0:0:
202,163,193684,6,0,L|208:121,2,43.3999982781983,2|0|12,3:2|3:0|0:0,0:0:0:0:
164,332,194025,1,2,3:2:0:0:
151,233,194196,1,14,0:0:0:0:
275,322,194366,1,2,3:2:0:0:
275,322,194451,1,0,3:0:0:0:
275,322,194537,6,0,L|293:193,1,130.199994834595,6|0,1:3|0:0,0:0:0:0:
300,163,194877,1,10,0:0:0:0:
161,74,195048,2,0,L|179:203,1,130.199994834595,6|0,0:3|0:0,0:0:0:0:
186,232,195389,1,2,3:2:0:0:
385,209,195559,1,10,0:0:0:0:
422,322,195730,2,0,L|379:316,1,43.3999982781983,6|0,1:3|0:0,0:0:0:0:
272,301,195900,6,0,L|290:172,1,130.199994834595,6|0,1:3|0:0,0:0:0:0:
297,143,196241,1,10,0:0:0:0:
479,109,196412,1,4,3:0:0:0:
395,211,196582,6,0,P|421:221|449:217,2,57.8666643709311,10|10|10,3:2|3:2|3:0,0:0:0:0:
369,127,196923,5,10,3:0:0:0:
372,109,197037,6,0,P|383:79|407:62,1,57.8666643709311,10|10,3:0|3:0,0:0:0:0:
512,184,197264,6,0,L|377:202,1,135.450002066803,6|0,1:3|0:0,0:0:0:0:
347,208,197605,1,10,3:2:0:0:
272,326,197775,1,2,3:2:0:0:
272,326,197946,1,8,0:0:0:0:
233,122,198116,1,2,3:2:0:0:
233,122,198457,2,0,L|226:167,1,45.1500006889343,10|10,0:0|0:0,0:0:0:0:
158,279,198627,6,0,P|91:291|33:254,1,135.450002066803,6|0,1:3|0:0,0:0:0:0:
20,239,198968,1,10,3:2:0:0:
110,192,199139,1,2,3:2:0:0:
110,192,199309,1,8,0:0:0:0:
272,302,199480,5,2,3:2:0:0:
107,306,199650,1,10,3:2:0:0:
192,366,199821,1,2,3:2:0:0:
326,230,199991,6,0,P|361:285|348:350,1,135.450002066803,6|0,1:3|0:0,0:0:0:0:
327,371,200332,1,10,3:2:0:0:
187,272,200502,1,2,3:2:0:0:
187,272,200673,1,8,0:0:0:0:
423,196,200843,1,2,3:2:0:0:
423,196,201184,2,0,L|429:150,1,45.1500006889343,10|8,0:0|0:0,0:0:0:0:
498,17,201355,6,0,P|442:52|377:39,1,135.450002066803,6|0,1:3|0:0,0:0:0:0:
357,18,201696,1,10,3:2:0:0:
317,156,201866,1,2,3:2:0:0:
317,156,202037,1,12,0:0:0:0:
185,48,202207,5,10,0:0:0:0:
185,48,202292,1,8,0:0:0:0:
185,47,202377,2,0,L|192:95,1,45.1500006889343,8|8,3:0|3:0,0:0:0:0:
166,192,202548,1,10,3:0:0:0:
166,192,202633,1,8,3:0:0:0:
166,192,202718,6,0,L|185:328,1,135.450002066803,6|0,1:3|0:0,0:0:0:0:
189,356,203059,1,8,0:0:0:0:
78,278,203230,1,2,3:2:0:0:
78,278,203400,1,8,0:0:0:0:
254,207,203571,2,0,L|266:296,1,90.3000013778687,0|8,3:0|0:0,0:0:0:0:
444,361,203912,1,10,0:0:0:0:
444,361,203997,1,8,0:0:0:0:
444,361,204082,6,0,L|450:316,1,45.1500006889343,6|0,1:3|0:0,0:0:0:0:
468,201,204252,2,0,L|378:213,1,90.3000013778687,0|8,3:0|0:0,0:0:0:0:
268,108,204593,6,0,L|274:152,1,45.1500006889343,2|0,3:2|0:0,0:0:0:0:
291,273,204764,2,0,L|201:260,1,90.3000013778687,12|0,0:0|3:0,0:0:0:0:
0,234,205105,5,6,1:3:0:0:
137,320,205275,1,0,3:0:0:0:
128,188,205446,1,8,1:2:0:0:
39,314,205616,1,0,3:0:0:0:
152,330,205787,1,10,3:2:0:0:
272,205,205957,5,0,3:0:0:0:
272,205,206042,1,0,3:0:0:0:
272,205,206127,2,0,L|292:343,1,135.450002066803,6|0,1:3|0:0,0:0:0:0:
301,361,206468,2,0,L|308:314,1,45.1500006889343,8|0,0:0|0:0,0:0:0:0:
392,222,206639,6,0,P|442:206|490:224,1,105.000004005432,6|2,1:3|0:0,0:0:0:0:
490,224,207321,5,2,0:0:0:0:
468,128,207491,1,2,0:0:0:0:
374,98,207662,1,2,0:0:0:0:
302,165,207832,1,2,0:0:0:0:
324,261,208002,1,2,0:0:0:0:
