osu file format v14

[General]
AudioFilename: audio.mp3
AudioLeadIn: 0
PreviewTime: 183457
Countdown: 0
SampleSet: Soft
StackLeniency: 0.2
Mode: 0
LetterboxInBreaks: 0
WidescreenStoryboard: 1

[Editor]
Bookmarks: 84115,138490,196274,202922
DistanceSpacing: 2.3
BeatDivisor: 4
GridSize: 4
TimelineZoom: 2.1

[Metadata]
Title:Undead Alice feat. Hatsune Miku
TitleUnicode:アンデッドアリス feat. 初音ミク
Artist:DECO*27
ArtistUnicode:DECO*27
Creator:Kyle Y
Version:Athanasia
Source:
Tags:andeddo arisu japanese pop jpop vocaloid rock Rockwell キョウヤ Kyoya しほ Shiho deco27 7th seventh album
BeatmapID:2713278
BeatmapSetID:1308800

[Difficulty]
HPDrainRate:5.6
CircleSize:5.6
OverallDifficulty:8.6
ApproachRate:9.6
SliderMultiplier:1.7
SliderTickRate:1

[Events]
//Background and Video events
0,0,"background.jpg",0,0
//Break Periods
//Storyboard Layer 0 (Background)
//Storyboard Layer 1 (Fail)
//Storyboard Layer 2 (Pass)
//Storyboard Layer 3 (Foreground)
//Storyboard Layer 4 (Overlay)
//Storyboard Sound Samples

[TimingPoints]
-463,340.909090909091,4,2,12,50,1,0
730,-150.001500015,4,2,10,50,0,0
900,-100,4,2,12,70,0,0
3456,-100,4,2,12,70,0,0
4990,-100,4,2,12,70,0,0
15900,-117.647058823529,4,2,12,50,0,0
25275,-181.818181818182,4,2,12,50,0,0
25445,-181.818181818182,4,2,12,50,0,0
25701,-116.279069767442,4,2,12,50,0,0
26468,-147.058823529412,4,2,12,50,0,0
26809,-111.111111111111,4,2,12,60,0,0
37888,-133.333333333333,4,2,12,60,0,0
38570,-76.9230769230769,4,2,12,60,0,0
39763,-133.333333333333,4,2,12,60,0,0
39934,-76.9230769230769,4,2,12,60,0,0
40956,-100,4,2,12,60,0,0
43513,-133.333333333333,4,2,12,60,0,0
44025,-76.9230769230769,4,2,12,60,0,0
44365,-133.333333333333,4,2,12,60,0,0
45900,-133.333333333333,4,2,12,60,0,0
47093,-100,4,2,10,40,0,0
47263,-100,4,2,12,70,0,0
48627,-88.4955752212389,4,2,12,85,0,1
53570,-88.4955752212389,4,2,12,85,0,1
54081,-88.4955752212389,4,2,12,85,0,1
56809,-78.7401574803149,4,2,12,85,0,1
57150,-88.4955752212389,4,2,12,85,0,1
58343,-88.4955752212389,4,2,12,85,0,1
59536,-88.4955752212389,4,2,12,85,0,1
68229,-88.4955752212389,4,2,12,85,0,1
68912,-100,4,2,12,50,0,0
69763,-100,4,2,12,40,0,0
70445,-111.111111111111,4,2,12,60,0,0
71468,-111.111111111111,4,2,10,60,0,0
71638,-111.111111111111,4,2,12,60,0,0
71979,-111.111111111111,4,2,10,60,0,0
72150,-111.111111111111,4,2,12,60,0,0
73172,-185.185185185185,4,2,12,60,0,0
73428,-185.185185185185,4,2,12,45,0,0
78286,-136.986301369863,4,2,12,45,0,0
78627,-136.986301369863,4,2,12,50,0,0
84081,-100,4,2,12,60,0,0
94990,-133.333333333333,4,2,12,60,0,0
95502,-100,4,2,12,60,0,0
95843,-76.9230769230769,4,2,12,60,0,0
96184,-100,4,2,12,60,0,0
97206,-76.9230769230769,4,2,12,60,0,0
97547,-100,4,2,12,60,0,0
101297,-76.9230769230769,4,2,12,60,0,0
101638,-100,4,2,12,60,0,0
103172,-166.666666666667,4,2,12,60,0,0
104536,-100,4,2,12,60,0,0
105900,-84.7457627118644,4,2,12,85,0,1
126184,-166.666666666667,4,2,12,60,0,0
127718,-222.222222222222,4,2,11,45,0,0
127888,-222.222222222222,4,2,11,5,0,0
128400,-384.615384615385,4,2,11,45,0,0
128570,-384.615384615385,4,2,11,5,0,0
129422,-250,4,2,11,45,0,0
129593,-250,4,2,11,5,0,0
129763,-222.222222222222,4,2,11,45,0,0
129934,-222.222222222222,4,2,11,5,0,0
130445,-222.222222222222,4,2,11,45,0,0
130615,-222.222222222222,4,2,11,5,0,0
131127,-384.615384615385,4,2,11,45,0,0
131297,-384.615384615385,4,2,11,5,0,0
132150,-250,4,2,11,45,0,0
132320,-250,4,2,11,5,0,0
132490,-222.222222222222,4,2,11,45,0,0
132661,-222.222222222222,4,2,11,5,0,0
133172,-222.222222222222,4,2,11,45,0,0
133343,-222.222222222222,4,2,11,5,0,0
133854,-384.615384615385,4,2,11,45,0,0
134025,-384.615384615385,4,2,11,5,0,0
134877,-250,4,2,11,45,0,0
135047,-250,4,2,11,5,0,0
135218,-222.222222222222,4,2,11,45,0,0
135388,-222.222222222222,4,2,11,5,0,0
135900,-222.222222222222,4,2,11,45,0,0
136070,-222.222222222222,4,2,11,5,0,0
136581,-384.615384615385,4,2,11,45,0,0
136752,-384.615384615385,4,2,11,5,0,0
137263,-250,4,2,11,45,0,0
137434,-250,4,2,11,5,0,0
137604,-250,4,2,11,45,0,0
137775,-250,4,2,11,5,0,0
137945,-222.222222222222,4,2,11,45,0,0
138115,-222.222222222222,4,2,11,5,0,0
138627,-149.253731343284,4,2,12,60,0,0
148172,-500,4,2,12,60,0,0
148257,-500,4,2,12,5,0,0
148513,-500,4,2,12,60,0,0
148598,-500,4,2,12,5,0,0
148854,-500,4,2,12,60,0,0
148939,-500,4,2,12,5,0,0
149195,-500,4,2,12,60,0,0
149280,-500,4,2,12,5,0,0
149536,-126.582278481013,4,2,12,70,0,0
160445,-250,4,2,12,70,0,0
161127,-120.481927710843,4,2,12,50,0,0
162150,-135.135135135135,4,2,12,60,0,0
163172,-149.253731343284,4,2,12,60,0,0
163513,-149.253731343284,4,2,12,40,0,0
171354,-120.481927710843,4,2,12,55,0,0
172718,-120.481927710843,4,2,12,65,0,0
174082,-81.3008130081301,4,2,12,85,0,1
174167,-81.3008130081301,4,2,12,85,0,0
175275,-133.333333333333,4,2,12,85,0,0
175445,-81.3008130081301,4,2,12,85,0,0
176638,-100,4,2,12,85,0,0
176809,-81.3008130081301,4,2,12,85,0,0
178002,-100,4,2,12,85,0,0
178172,-81.3008130081301,4,2,12,85,0,0
179365,-100,4,2,12,85,0,0
179536,-81.3008130081301,4,2,12,85,0,0
183457,-84.0336134453781,4,2,12,85,0,0
183797,-100,4,2,12,85,0,0
184820,-125,4,2,12,60,0,0
185162,-125,4,2,12,40,0,0
186355,-74.0740740740741,4,2,10,92,0,1
186695,-74.0740740740741,4,2,12,92,0,1
187547,-100,4,2,12,92,0,1
187718,-74.0740740740741,4,2,10,92,0,1
188059,-74.0740740740741,4,2,12,92,0,1
188911,-100,4,2,12,92,0,1
189081,-74.0740740740741,4,2,10,92,0,1
189422,-74.0740740740741,4,2,12,92,0,1
190445,-100,4,2,10,92,0,1
190615,-100,4,2,12,92,0,1
191809,-74.0740740740741,4,2,10,92,0,1
192150,-74.0740740740741,4,2,12,92,0,1
193172,-74.0740740740741,4,2,10,92,0,1
193343,-74.0740740740741,4,2,12,92,0,1
194536,-68.9655172413793,4,2,10,92,0,1
194877,-100,4,2,12,92,0,1
195047,-68.9655172413793,4,2,10,92,0,1
195388,-80,4,2,12,92,0,1
195900,-68.9655172413793,4,2,10,92,0,1
196071,-68.9655172413793,4,2,12,92,0,1
196155,-68.9655172413793,4,2,12,92,0,1
197263,-66.6666666666667,4,2,10,96,0,1
197604,-66.6666666666667,4,2,12,96,0,1
198627,-66.6666666666667,4,2,10,96,0,1
198968,-66.6666666666667,4,2,12,96,0,1
199990,-66.6666666666667,4,2,10,96,0,1
200331,-66.6666666666667,4,2,12,96,0,1
201354,-66.6666666666667,4,2,10,96,0,1
201440,-66.6666666666667,4,2,12,96,0,1
201610,-66.6666666666667,4,2,12,96,0,1
202718,-76.9230769230769,4,2,10,96,0,1
203059,-76.9230769230769,4,2,12,96,0,1
203229,-100,4,2,12,96,0,1
204081,-71.4285714285714,4,2,10,96,0,1
204252,-71.4285714285714,4,2,12,96,0,1
205105,-71.4285714285714,4,2,10,96,0,1
205275,-71.4285714285714,4,2,12,96,0,1
206127,-71.4285714285714,4,2,10,96,0,1
206298,-71.4285714285714,4,2,12,96,0,1
206639,-166.666666666667,4,2,12,60,0,0
206979,-100,4,2,12,50,0,0
207320,-100,4,2,12,40,0,0

[Colours]
Combo1 : 204,249,130
Combo2 : 160,118,248
Combo3 : 254,252,148
Combo4 : 72,124,232

[HitObjects]
78,256,730,6,0,L|60:254,2,18.8887005860063,8|8|8,0:0|0:0|0:0,0:0:0:0:
167,264,900,6,0,L|162:215,1,42.5,14|0,0:0|0:0,0:0:0:0:
108,108,1071,1,10,3:0:0:0:
108,108,1156,1,8,3:0:0:0:
108,108,1241,2,0,L|113:157,1,42.5,10|0,3:0|3:0,0:0:0:0:
249,223,1412,6,0,L|244:174,1,42.5,10|0,0:0|3:0,0:0:0:0:
190,67,1582,1,10,3:0:0:0:
190,67,1667,1,8,3:0:0:0:
190,67,1752,2,0,L|195:116,1,42.5,10|0,0:0|3:0,0:0:0:0:
330,163,1923,6,0,L|372:158,1,42.5,10|0,0:0|3:0,0:0:0:0:
335,40,2093,1,10,3:0:0:0:
335,40,2179,1,8,3:0:0:0:
335,40,2264,2,0,L|292:44,1,42.5,10|0,3:0|3:0,0:0:0:0:
73,90,2434,6,0,P|57:51|73:-1,1,85,14|8,0:0|3:0,0:0:0:0:
174,96,2690,2,0,P|182:137|166:175,1,85,10|8,3:0|3:0,0:0:0:0:
54,241,2946,1,10,3:0:0:0:
54,241,3031,1,8,3:0:0:0:
54,241,3116,2,0,L|12:235,1,42.5,8|8,3:0|3:0,0:0:0:0:
85,164,3287,5,10,3:0:0:0:
152,342,3457,1,4,3:0:0:0:
71,316,4991,6,0,L|83:231,1,85,6|2,1:2|3:2,0:0:0:0:
233,334,5332,1,10,0:0:0:0:
144,375,5502,1,2,3:2:0:0:
192,203,5673,1,2,1:2:0:0:
61,295,5843,1,2,3:2:0:0:
61,295,5929,1,2,0:0:0:0:
61,295,6014,2,0,L|157:282,1,85,10|2,0:0|3:2,0:0:0:0:
378,222,6355,6,0,L|293:210,1,85,6|2,0:0|0:0,0:0:0:0:
177,191,6696,1,10,0:0:0:0:
316,105,6866,1,2,0:0:0:0:
316,105,6951,2,0,L|310:62,1,42.5,8|2,3:2|3:2,0:0:0:0:
255,15,7122,1,8,0:0:0:0:
255,15,7207,2,0,L|149:30,1,85,2|10,3:2|0:0,0:0:0:0:
57,43,7548,1,10,3:2:0:0:
55,28,7633,1,8,3:2:0:0:
53,13,7718,5,6,3:2:0:0:
154,100,7889,1,2,3:2:0:0:
4,128,8059,1,10,0:0:0:0:
4,128,8400,5,2,3:2:0:0:
154,100,8571,1,0,3:2:0:0:
191,228,8741,1,10,0:0:0:0:
72,206,8912,1,0,3:0:0:0:
70,191,8997,1,0,3:0:0:0:
68,176,9082,5,14,0:0:0:0:
112,26,9252,1,2,3:0:0:0:
309,136,9423,1,6,0:0:0:0:
317,148,9764,5,6,0:0:0:0:
171,217,9934,1,10,0:0:0:0:
154,194,10019,1,8,0:0:0:0:
144,167,10105,1,10,0:0:0:0:
142,139,10190,1,8,0:0:0:0:
147,111,10275,1,10,0:0:0:0:
159,86,10360,1,8,0:0:0:0:
178,65,10446,6,0,L|262:77,1,85,14|2,0:0|3:2,0:0:0:0:
395,94,10787,1,10,0:0:0:0:
340,10,10957,1,2,3:2:0:0:
310,158,11127,1,2,1:2:0:0:
476,124,11298,1,2,3:0:0:0:
476,124,11383,1,2,0:0:0:0:
476,124,11468,2,0,L|462:28,1,85,10|2,0:0|3:2,0:0:0:0:
401,198,11809,6,0,L|413:282,1,85,6|2,0:0|3:2,0:0:0:0:
426,380,12150,1,10,0:0:0:0:
258,374,12321,1,2,3:2:0:0:
258,374,12406,2,0,L|264:331,1,42.5,8|2,3:2|3:2,0:0:0:0:
328,289,12576,1,8,3:2:0:0:
328,289,12662,2,0,L|315:204,1,85,2|10,3:2|0:0,0:0:0:0:
308,58,13002,1,10,3:2:0:0:
308,58,13088,1,10,3:2:0:0:
308,58,13173,5,6,3:2:0:0:
245,137,13343,1,2,3:2:0:0:
206,42,13514,1,10,0:0:0:0:
328,130,13684,5,6,0:0:0:0:
176,196,13855,1,10,0:0:0:0:
202,21,14025,1,2,3:0:0:0:
387,58,14196,1,10,0:0:0:0:
192,106,14366,6,0,B|136:115|136:115|81:107|81:107|24:115,1,170,14|2,3:2|3:2,0:0:0:0:
0,130,14792,1,0,3:0:0:0:
0,130,14877,1,10,3:2:0:0:
156,208,15048,1,2,3:2:0:0:
32,250,15218,1,10,3:2:0:0:
10,273,15304,1,8,3:0:0:0:
2,303,15389,1,10,3:0:0:0:
10,333,15474,1,8,3:0:0:0:
28,358,15559,2,0,L|70:351,1,42.5,10|0,3:0|0:0,0:0:0:0:
183,324,15730,2,0,L|224:331,1,42.5,2|0,3:0|0:0,0:0:0:0:
376,347,15900,5,6,3:2:0:0:
332,222,16071,1,0,0:0:0:0:
332,222,16156,2,0,L|439:237,1,108.375002067089,2|2,0:0|0:0,0:0:0:0:
388,334,16752,5,2,0:0:0:0:
311,232,16923,2,0,L|407:246,1,72.2500013780594,2|2,3:2|0:0,0:0:0:0:
403,346,17264,5,6,3:2:0:0:
228,261,17434,1,0,0:0:0:0:
228,261,17519,2,0,L|243:368,1,108.375002067089,2|2,0:0|0:0,0:0:0:0:
423,326,18116,5,2,0:0:0:0:
407,225,18287,2,0,L|392:128,1,72.2500013780594,2|2,3:2|0:0,0:0:0:0:
298,43,18627,5,6,3:2:0:0:
209,114,18798,1,0,0:0:0:0:
209,114,18883,2,0,L|101:98,1,108.375002067089,2|2,0:0|0:0,0:0:0:0:
298,42,19480,5,2,0:0:0:0:
360,146,19650,2,0,L|288:156,1,72.2500013780594,2|2,3:2|0:0,0:0:0:0:
126,176,19991,5,6,3:2:0:0:
203,312,20162,1,0,0:0:0:0:
203,312,20247,2,0,L|218:204,1,108.375002067089,2|2,0:0|0:0,0:0:0:0:
126,176,20673,1,0,3:0:0:0:
66,262,20843,2,0,L|141:252,1,72.2500013780594,0|0,0:0|3:2,0:0:0:0:
174,101,21184,1,2,0:0:0:0:
372,119,21355,5,6,3:2:0:0:
297,230,21525,1,0,0:0:0:0:
297,230,21610,2,0,L|286:158,1,72.2500013780594,2|0,0:0|0:0,0:0:0:0:
298,133,21866,2,0,L|287:61,1,72.2500013780594,2|0,0:0|3:0,0:0:0:0:
159,28,22207,1,2,0:0:0:0:
196,173,22377,2,0,L|206:101,1,72.2500013780594,2|2,3:2|0:0,0:0:0:0:
67,47,22718,5,6,3:2:0:0:
12,160,22889,1,0,0:0:0:0:
12,160,22974,2,0,L|83:149,1,72.2500013780594,2|0,0:0|0:0,0:0:0:0:
110,143,23230,2,0,L|99:214,1,72.2500013780594,2|0,0:0|3:0,0:0:0:0:
35,278,23571,1,2,0:0:0:0:
159,365,23741,2,0,L|148:293,1,72.2500013780594,2|2,3:2|0:0,0:0:0:0:
211,171,24082,5,6,3:2:0:0:
320,278,24252,1,0,0:0:0:0:
320,278,24338,2,0,L|248:267,1,72.2500013780594,2|0,0:0|0:0,0:0:0:0:
222,261,24593,2,0,L|232:332,1,72.2500013780594,2|0,0:0|3:0,0:0:0:0:
385,366,24934,1,10,0:0:0:0:
385,366,25019,1,8,0:0:0:0:
385,366,25105,1,10,3:0:0:0:
399,232,25275,6,2,B|429:226|429:226|432:219|432:219|434:232|434:232|435:225|435:225|469:221,1,93.5000028533936,12|8,3:1|0:0,0:1:0:0:
503,144,25701,1,8,0:0:0:0:
512,115,25787,5,8,3:2:0:0:
509,85,25872,1,8,3:0:0:0:
491,62,25957,1,8,3:2:0:0:
464,49,26042,1,8,3:2:0:0:
435,41,26127,2,0,L|391:47,1,36.5500005577087,8|0,3:2|0:0,0:0:0:0:
309,112,26298,2,0,L|272:116,1,36.5500005577087,8|0,3:0|0:0,0:0:0:0:
142,136,26468,2,0,P|125:96|137:55,1,86.7000005291748,8|0,3:0|0:0,0:0:0:0:
214,2,26809,6,0,L|290:11,1,76.4999976654053,6|0,1:2|0:0,0:0:0:0:
321,19,27065,1,2,3:2:0:0:
321,19,27150,1,8,3:2:0:0:
356,132,27321,2,0,L|431:122,1,76.4999976654053,2|0,3:2|3:0,0:0:0:0:
268,95,27662,1,2,1:2:0:0:
288,176,27832,1,10,1:2:0:0:
366,206,28002,1,2,3:2:0:0:
196,274,28173,6,0,L|120:284,1,76.4999976654053,6|0,1:2|3:0,0:0:0:0:
90,291,28429,1,2,0:0:0:0:
90,291,28514,1,8,3:2:0:0:
13,185,28684,2,0,L|88:195,1,76.4999976654053,2|0,3:2|3:0,0:0:0:0:
165,356,29025,1,2,1:2:0:0:
248,362,29196,1,10,1:2:0:0:
306,301,29366,1,2,3:2:0:0:
334,115,29537,6,0,L|343:190,1,76.4999976654053,6|0,1:2|0:0,0:0:0:0:
346,224,29792,1,2,3:2:0:0:
346,224,29877,1,8,3:2:0:0:
451,314,30048,2,0,L|441:238,1,76.4999976654053,2|0,3:2|3:0,0:0:0:0:
304,326,30389,1,2,1:2:0:0:
237,274,30559,1,10,1:2:0:0:
270,196,30730,1,2,3:2:0:0:
165,105,30900,6,0,L|154:15,1,76.4999976654053,6|0,1:2|3:0,0:0:0:0:
153,11,31156,1,2,3:0:0:0:
153,11,31241,1,8,3:2:0:0:
307,48,31412,1,2,3:0:0:0:
307,48,31497,1,0,3:0:0:0:
307,48,31582,2,0,L|296:140,1,76.4999976654053,8|2,3:2|1:2,0:0:0:0:
274,271,31923,1,14,1:2:0:0:
233,191,32093,1,2,3:2:0:0:
398,221,32264,6,0,L|490:209,1,76.4999976654053,6|0,1:2|0:0,0:0:0:0:
511,209,32519,1,2,3:0:0:0:
511,209,32605,1,8,3:2:0:0:
495,67,32775,2,0,L|419:76,1,76.4999976654053,2|0,3:2|3:0,0:0:0:0:
274,24,33116,1,2,1:2:0:0:
232,97,33287,1,10,1:2:0:0:
295,152,33457,1,2,3:2:0:0:
139,248,33627,6,0,L|63:238,1,76.4999976654053,6|0,1:2|3:0,0:0:0:0:
26,236,33883,1,2,3:2:0:0:
26,236,33968,1,8,3:2:0:0:
94,116,34139,1,2,3:2:0:0:
200,163,34309,1,0,3:0:0:0:
200,163,34394,1,0,3:0:0:0:
200,163,34480,2,0,P|212:132|206:88,1,76.4999976654053,2|10,1:2|1:2,0:0:0:0:
77,124,34821,1,2,3:2:0:0:
148,272,34991,6,0,L|240:260,1,76.4999976654053,6|0,1:2|3:0,0:0:0:0:
261,260,35247,1,2,3:2:0:0:
261,260,35332,1,8,3:2:0:0:
362,150,35502,2,0,L|286:159,1,76.4999976654053,2|0,3:2|3:0,0:0:0:0:
411,226,35843,1,2,1:2:0:0:
372,300,36014,1,10,1:2:0:0:
433,358,36184,1,2,3:0:0:0:
255,371,36355,6,0,B|262:319|262:319|255:270|255:270|262:220,1,152.999995330811,6|0,1:2|3:0,0:0:0:0:
399,92,36866,2,0,B|391:143|391:143|399:192|399:192|391:242,1,152.999995330811,14|8,0:0|3:0,0:0:0:0:
423,356,37377,2,0,L|385:351,1,38.2499988327027,8|8,0:0|0:0,0:0:0:0:
241,343,37548,5,10,3:0:0:0:
243,328,37633,1,8,3:0:0:0:
245,313,37718,2,0,L|241:275,1,38.2499988327027,6|0,3:2|0:0,0:0:0:0:
122,252,37889,5,2,3:0:0:0:
95,256,37974,1,2,3:0:0:0:
68,258,38059,1,6,3:2:0:0:
41,263,38144,1,2,3:0:0:0:
13,267,38230,2,0,L|16:298,1,31.8750012159348,2|0,3:0|0:0,0:0:0:0:
107,384,38400,2,0,L|103:352,1,31.8750012159348,14|0,3:2|0:0,0:0:0:0:
122,252,38571,2,0,L|109:142,1,110.499994941712,2|4,3:2|3:2,0:0:0:0:
100,15,38912,5,10,0:0:0:0:
85,17,39082,5,14,1:2:0:0:
70,19,39252,5,2,1:2:0:0:
180,81,39423,5,6,3:2:0:0:
207,85,39508,1,2,3:2:0:0:
234,87,39593,1,2,3:2:0:0:
261,92,39679,1,2,3:2:0:0:
289,96,39764,2,0,L|285:127,1,31.8750012159348,14|0,1:2|0:0,0:0:0:0:
258,239,39934,2,0,L|270:348,1,110.499994941712,10|4,1:2|3:2,0:0:0:0:
425,366,40275,5,10,3:2:0:0:
423,351,40360,1,8,3:2:0:0:
421,336,40446,5,10,3:2:0:0:
359,220,40616,1,2,3:0:0:0:
482,268,40787,1,6,0:0:0:0:
348,382,40957,2,0,L|338:297,1,85,2|8,3:0|3:2,0:0:0:0:
318,129,41298,5,2,3:0:0:0:
318,129,41383,1,0,3:0:0:0:
318,129,41468,1,8,3:0:0:0:
97,193,41639,1,14,0:0:0:0:
97,193,41980,5,14,1:2:0:0:
225,239,42150,1,10,1:2:0:0:
225,239,42321,6,0,L|220:196,1,42.5,10|8,3:0|3:0,0:0:0:0:
250,112,42491,1,10,3:2:0:0:
231,101,42576,1,8,3:2:0:0:
210,98,42662,1,10,3:0:0:0:
190,103,42747,1,8,3:0:0:0:
172,114,42832,2,0,L|162:29,1,85,14|10,3:2|3:2,0:0:0:0:
356,33,43173,5,14,0:0:0:0:
327,159,43343,5,2,3:2:0:0:
342,161,43429,1,2,3:2:0:0:
357,163,43514,2,0,L|360:131,1,31.8750012159348,10|0,3:2|0:0,0:0:0:0:
483,62,43684,5,2,3:2:0:0:
468,60,43769,1,2,3:2:0:0:
453,58,43855,2,0,L|449:89,1,31.8750012159348,10|0,3:2|0:0,0:0:0:0:
432,253,44025,6,0,B|486:245|486:245|493:191,1,110.499994941712,10|10,3:2|3:2,0:0:0:0:
328,253,44366,5,2,3:2:0:0:
326,268,44451,1,2,3:2:0:0:
324,283,44537,2,0,L|355:286,1,31.8750012159348,14|0,3:2|0:0,0:0:0:0:
433,339,44707,2,0,L|464:335,1,31.8750012159348,2|2,3:2|0:0,0:0:0:0:
316,374,44877,6,0,L|284:370,1,31.8750012159348,10|0,0:0|0:0,0:0:0:0:
182,300,45048,2,0,L|150:303,1,31.8750012159348,2|2,3:2|3:0,0:0:0:0:
12,373,45218,6,0,L|8:341,1,31.8750012159348,10|0,0:0|0:0,0:0:0:0:
79,190,45389,2,0,L|72:254,1,63.7500024318696,2|8,3:0|0:0,0:0:0:0:
79,190,45730,1,2,3:0:0:0:
159,37,45900,6,0,B|166:100|166:100|104:107,1,127.5,12|0,3:2|0:0,0:0:0:0:
32,29,46412,1,2,0:0:0:0:
253,15,46752,5,2,0:0:0:0:
253,15,46923,1,2,0:0:0:0:
267,123,47093,1,2,0:0:0:0:
267,123,47179,1,0,0:0:0:0:
267,123,47264,5,14,3:2:0:0:
367,98,47434,1,2,3:2:0:0:
336,201,47605,1,2,3:2:0:0:
296,53,47775,5,14,0:0:0:0:
444,95,47946,1,2,3:2:0:0:
336,201,48116,5,8,3:2:0:0:
310,218,48201,1,8,3:0:0:0:
280,226,48287,1,8,3:0:0:0:
249,228,48372,1,8,3:2:0:0:
220,219,48457,1,10,3:2:0:0:
194,204,48542,1,8,3:2:0:0:
172,181,48627,6,0,L|187:37,1,144.075000439682,6|0,3:2|0:0,0:0:0:0:
194,9,48968,1,10,0:0:0:0:
384,16,49139,5,2,3:2:0:0:
362,147,49309,1,0,3:0:0:0:
384,16,49480,1,2,3:2:0:0:
362,147,49650,1,8,0:0:0:0:
384,16,49821,1,2,3:2:0:0:
512,172,49991,6,0,L|368:157,1,144.075000439682,6|0,3:2|0:0,0:0:0:0:
337,153,50332,1,10,0:0:0:0:
233,11,50502,5,2,3:2:0:0:
211,142,50673,1,0,0:0:0:0:
233,11,50843,1,2,3:2:0:0:
211,142,51014,1,12,0:0:0:0:
233,11,51184,1,2,3:2:0:0:
366,211,51355,6,0,L|222:225,1,144.075000439682,6|0,3:2|0:0,0:0:0:0:
191,230,51696,1,10,0:0:0:0:
95,33,51866,5,2,3:2:0:0:
73,164,52037,1,0,3:0:0:0:
95,33,52207,1,2,3:2:0:0:
73,164,52377,1,8,0:0:0:0:
95,33,52548,1,2,3:2:0:0:
277,142,52718,6,0,L|133:156,1,144.075000439682,6|0,3:2|3:0,0:0:0:0:
103,161,53059,1,10,0:0:0:0:
32,20,53230,5,2,3:2:0:0:
10,151,53400,1,0,0:0:0:0:
32,20,53571,5,10,3:0:0:0:
51,38,53656,1,8,3:0:0:0:
75,50,53741,1,8,3:2:0:0:
101,58,53826,1,8,3:2:0:0:
128,60,53912,1,10,3:0:0:0:
155,55,53997,1,8,3:0:0:0:
178,44,54082,6,0,P|156:104|173:152,1,96.0500002931213,6|0,3:2|3:0,0:0:0:0:
248,87,54423,1,10,0:0:0:0:
112,200,54593,2,0,P|165:219|208:204,1,96.0500002931213,2|0,3:2|3:0,0:0:0:0:
353,94,54934,5,2,3:2:0:0:
240,73,55105,1,10,0:0:0:0:
279,182,55275,1,2,3:0:0:0:
190,11,55446,5,6,3:2:0:0:
187,182,55616,1,2,3:2:0:0:
339,97,55787,1,10,0:0:0:0:
362,268,55957,6,0,P|415:287|458:272,1,96.0500002931213,2|0,3:2|3:0,0:0:0:0:
484,258,56213,1,0,3:0:0:0:
484,258,56298,1,2,3:2:0:0:
413,178,56468,1,10,0:0:0:0:
294,342,56639,1,2,3:2:0:0:
294,342,56724,1,0,3:0:0:0:
294,342,56809,6,0,B|214:333|214:333|222:252,1,161.92499876461,6|0,3:2|0:0,0:0:0:0:
107,298,57150,6,0,L|59:302,1,48.0250001465607,10|0,0:0|0:0,0:0:0:0:
49,168,57321,2,0,B|56:97|56:97|128:104,1,144.075000439682,6|0,3:2|0:0,0:0:0:0:
286,111,57662,6,0,L|281:63,1,48.0250001465607,2|0,3:2|0:0,0:0:0:0:
202,11,57832,2,0,L|154:15,1,48.0250001465607,10|0,0:0|0:0,0:0:0:0:
164,184,58002,2,0,B|234:191|234:191|306:184,1,144.075000439682,6|0,3:2|0:0,0:0:0:0:
425,174,58343,6,0,L|420:126,1,48.0250001465607,10|8,3:2|3:0,0:0:0:0:
407,9,58514,1,10,3:0:0:0:
407,9,58599,1,8,3:0:0:0:
407,9,58684,6,0,L|359:4,1,48.0250001465607,10|8,3:2|3:0,0:0:0:0:
273,105,58855,2,0,L|320:101,1,48.0250001465607,8|8,3:2|3:0,0:0:0:0:
481,109,59025,1,10,3:0:0:0:
501,131,59110,1,8,3:0:0:0:
512,159,59196,1,10,3:2:0:0:
511,190,59281,1,8,3:2:0:0:
498,218,59366,1,10,3:2:0:0:
475,238,59451,1,8,3:2:0:0:
443,249,59537,6,0,L|299:234,1,144.075000439682,6|0,3:2|0:0,0:0:0:0:
268,234,59877,1,10,0:0:0:0:
371,32,60048,5,2,3:2:0:0:
393,163,60218,1,0,3:0:0:0:
371,32,60389,1,2,3:2:0:0:
393,163,60559,1,8,0:0:0:0:
371,32,60730,1,2,3:2:0:0:
499,232,60900,6,0,L|356:252,1,144.075000439682,6|0,3:2|0:0,0:0:0:0:
323,259,61241,1,10,0:0:0:0:
145,220,61412,1,2,3:2:0:0:
161,364,61582,5,0,3:0:0:0:
161,364,61667,1,0,3:0:0:0:
161,364,61752,1,2,3:2:0:0:
246,199,61923,1,14,0:0:0:0:
373,323,62093,1,2,1:2:0:0:
373,323,62179,1,0,1:2:0:0:
373,323,62264,6,0,L|230:303,1,144.075000439682,6|0,3:2|0:0,0:0:0:0:
201,299,62605,1,10,0:0:0:0:
24,343,62775,5,2,3:2:0:0:
46,212,62946,1,0,3:0:0:0:
24,343,63116,1,2,3:2:0:0:
46,212,63287,1,8,0:0:0:0:
24,343,63457,1,2,3:2:0:0:
0,127,63627,6,0,L|143:147,1,144.075000439682,6|0,3:2|0:0,0:0:0:0:
171,153,63968,1,10,0:0:0:0:
323,195,64139,5,14,3:2:0:0:
301,64,64309,1,0,0:0:0:0:
323,195,64480,5,10,3:0:0:0:
343,176,64565,1,8,3:0:0:0:
368,163,64650,1,8,3:2:0:0:
395,154,64735,1,8,3:2:0:0:
423,152,64821,1,10,3:2:0:0:
452,158,64906,1,8,3:2:0:0:
477,171,64991,6,0,P|492:227|469:275,1,96.0500002931213,6|0,3:2|3:2,0:0:0:0:
330,282,65332,1,8,0:0:0:0:
497,361,65502,2,0,P|449:374|397:347,1,96.0500002931213,2|0,3:2|3:0,0:0:0:0:
392,223,65843,1,2,3:2:0:0:
476,284,66014,1,8,0:0:0:0:
305,308,66184,1,2,3:0:0:0:
369,130,66355,6,0,B|297:122|297:122|289:193,1,144.075000439682,6|0,3:2|0:0,0:0:0:0:
251,262,66696,2,0,L|203:255,1,48.0250001465607,10|0,0:0|0:0,0:0:0:0:
125,153,66866,6,0,B|54:160|54:160|61:232,1,144.075000439682,14|8,3:2|0:0,0:0:0:0:
62,366,67207,2,0,L|109:359,1,48.0250001465607,8|0,3:0|0:0,0:0:0:0:
215,334,67377,6,0,L|262:340,1,48.0250001465607,10|0,0:0|0:0,0:0:0:0:
410,363,67548,1,8,3:0:0:0:
410,363,67633,1,8,3:0:0:0:
410,363,67718,1,6,3:2:0:0:
401,195,67889,5,2,3:2:0:0:
512,314,68059,2,0,L|464:307,1,48.0250001465607,10|0,0:0|0:0,0:0:0:0:
333,264,68230,6,0,B|325:192|325:192|396:184,1,144.075000439682,6|0,3:2|0:0,0:0:0:0:
492,157,68571,1,8,3:0:0:0:
492,157,68656,1,8,3:0:0:0:
492,157,68741,2,0,L|485:109,1,48.0250001465607,10|10,3:0|3:0,0:0:0:0:
359,16,68912,5,6,3:2:0:0:
229,106,70275,1,10,3:0:0:0:
229,106,70360,1,8,3:0:0:0:
229,106,70446,5,14,1:2:0:0:
344,89,70616,1,2,3:2:0:0:
301,198,70787,1,10,3:0:0:0:
317,22,70957,5,14,1:2:0:0:
447,137,71127,1,2,3:2:0:0:
281,210,71298,1,2,3:0:0:0:
281,210,71383,1,0,3:0:0:0:
281,210,71468,5,6,3:0:0:0:
459,151,71639,1,2,1:2:0:0:
317,22,71809,1,10,3:0:0:0:
202,138,71980,5,14,3:0:0:0:
293,210,72150,1,2,3:2:0:0:
310,94,72321,1,10,3:0:0:0:
110,148,72491,5,10,3:2:0:0:
90,124,72576,1,8,3:0:0:0:
83,94,72662,1,10,3:0:0:0:
89,64,72747,1,8,3:0:0:0:
107,39,72832,2,0,L|155:46,1,38.2499988327027,8|0,3:2|0:0,0:0:0:0:
253,99,73002,2,0,L|301:92,1,38.2499988327027,2|0,0:0|0:0,0:0:0:0:
421,38,73173,5,6,3:2:0:0:
401,124,73429,5,2,0:0:0:0:
401,124,73514,1,0,1:0:0:0:
421,38,73684,5,2,0:0:0:0:
421,38,74025,5,2,1:2:0:0:
401,124,74196,1,2,3:2:0:0:
381,210,74366,1,2,0:0:0:0:
361,296,74537,5,6,3:2:0:0:
275,276,74792,5,2,0:0:0:0:
275,276,74877,1,0,1:0:0:0:
361,296,75048,5,2,0:0:0:0:
361,296,75389,5,2,1:2:0:0:
275,276,75559,1,2,3:2:0:0:
189,256,75730,1,2,0:0:0:0:
103,236,75900,5,6,3:2:0:0:
123,322,76156,5,2,0:0:0:0:
123,322,76241,1,0,1:0:0:0:
103,236,76412,5,2,0:0:0:0:
129,329,76752,5,2,1:2:0:0:
129,329,76838,1,2,0:0:0:0:
129,329,76923,1,2,3:2:0:0:
103,236,77093,1,2,3:2:0:0:
83,150,77264,5,6,3:2:0:0:
169,170,77519,5,2,0:0:0:0:
169,170,77605,1,8,3:2:0:0:
83,150,77775,6,0,L|59:146,4,22.9500005603027,2|0|0|0|0,3:0|0:0|3:0|0:0|0:0,0:0:0:0:
132,247,78201,1,8,3:2:0:0:
164,250,78287,1,8,3:2:0:0:
196,245,78372,1,8,3:2:0:0:
224,230,78457,1,8,3:2:0:0:
248,208,78542,1,8,3:2:0:0:
264,181,78627,6,0,L|251:98,1,62.0500017042542,6|10,3:2|3:2,0:0:0:0:
248,91,78883,1,2,3:0:0:0:
163,62,79054,1,2,3:0:0:0:
163,62,79139,2,0,L|171:0,1,62.0500017042542,10|0,3:2|3:0,0:0:0:0:
33,78,79480,6,0,L|24:139,1,62.0500017042542,10|2,1:2|3:2,0:0:0:0:
19,166,79735,1,0,3:0:0:0:
19,166,79821,1,10,1:2:0:0:
78,278,79991,6,0,L|139:269,1,62.0500017042542,6|10,3:2|3:2,0:0:0:0:
171,267,80247,1,2,3:2:0:0:
253,205,80417,1,2,3:2:0:0:
253,205,80502,2,0,L|315:214,1,62.0500017042542,10|0,3:2|3:0,0:0:0:0:
328,319,80843,6,0,L|267:328,1,62.0500017042542,10|2,1:2|3:2,0:0:0:0:
241,333,81099,1,0,3:0:0:0:
241,333,81184,1,10,0:0:0:0:
171,194,81355,6,0,L|184:111,1,62.0500017042542,6|8,3:2|0:0,0:0:0:0:
185,103,81610,1,2,3:2:0:0:
275,66,81781,1,2,3:2:0:0:
275,66,81866,2,0,L|283:4,1,62.0500017042542,10|0,0:0|3:0,0:0:0:0:
444,12,82207,6,0,L|452:73,1,62.0500017042542,10|2,1:2|3:2,0:0:0:0:
455,107,82463,1,0,3:0:0:0:
455,107,82548,1,0,3:0:0:0:
419,216,82718,6,0,P|464:208|507:224,2,93.0750025563813,6|2|2,3:2|0:0|3:2,0:0:0:0:
322,290,83741,1,8,3:0:0:0:
406,312,83912,1,0,3:0:0:0:
320,384,84082,6,0,L|309:299,1,85,6|8,1:2|3:2,0:0:0:0:
261,247,84338,1,2,3:0:0:0:
261,247,84423,2,0,L|218:252,1,42.5,0|0,0:0|3:0,0:0:0:0:
122,270,84593,2,0,L|132:185,1,85,10|0,3:2|0:0,0:0:0:0:
151,58,84934,5,10,1:2:0:0:
69,126,85105,1,2,1:2:0:0:
69,126,85190,1,0,3:0:0:0:
69,126,85275,1,10,3:2:0:0:
228,158,85446,6,0,L|238:73,1,85,6|8,1:2|3:2,0:0:0:0:
301,9,85701,1,2,3:2:0:0:
301,9,85787,2,0,L|306:51,1,42.5,0|0,0:0|3:0,0:0:0:0:
388,107,85957,2,0,L|472:96,1,85,10|0,3:2|0:0,0:0:0:0:
409,23,86298,5,10,1:2:0:0:
318,134,86468,1,2,1:2:0:0:
318,134,86554,1,0,3:0:0:0:
318,134,86639,1,10,3:2:0:0:
455,173,86809,6,0,L|445:258,1,85,6|8,1:2|3:2,0:0:0:0:
378,309,87065,1,2,3:0:0:0:
378,309,87150,2,0,L|336:314,1,42.5,0|0,0:0|3:0,0:0:0:0:
235,327,87321,2,0,L|245:242,1,85,10|0,3:2|3:0,0:0:0:0:
335,222,87662,5,10,1:2:0:0:
228,159,87832,1,2,1:2:0:0:
228,159,87917,1,0,3:0:0:0:
228,159,88002,1,10,3:2:0:0:
354,22,88173,6,0,L|364:107,1,85,6|8,1:2|3:2,0:0:0:0:
386,208,88429,1,2,3:0:0:0:
386,208,88514,2,0,L|344:203,1,42.5,0|0,3:0|3:0,0:0:0:0:
245,159,88684,2,0,L|255:74,1,85,10|0,3:2|3:0,0:0:0:0:
141,7,89025,5,10,1:2:0:0:
83,135,89196,1,14,1:2:0:0:
103,142,89281,1,8,1:2:0:0:
124,142,89366,1,10,1:2:0:0:
144,134,89451,1,8,1:2:0:0:
159,119,89537,6,0,L|149:34,1,85,6|8,1:2|3:2,0:0:0:0:
55,51,89792,1,2,3:2:0:0:
55,51,89877,2,0,L|50:9,1,42.5,0|0,0:0|3:0,0:0:0:0:
7,138,90048,2,0,L|92:128,1,85,10|0,3:2|0:0,0:0:0:0:
259,110,90389,5,10,1:2:0:0:
191,234,90559,1,2,1:2:0:0:
191,234,90644,1,0,3:0:0:0:
191,234,90730,1,10,3:2:0:0:
354,172,90900,6,0,L|439:182,1,85,6|8,1:2|3:2,0:0:0:0:
381,286,91156,1,2,3:0:0:0:
381,286,91241,2,0,L|339:281,1,42.5,0|0,0:0|3:0,0:0:0:0:
475,261,91412,2,0,L|465:346,1,85,10|0,3:2|0:0,0:0:0:0:
341,367,91752,5,10,1:2:0:0:
283,220,91923,1,2,1:2:0:0:
283,220,92008,1,0,3:0:0:0:
283,220,92093,1,10,3:2:0:0:
190,338,92264,6,0,L|105:328,1,85,6|0,1:2|3:0,0:0:0:0:
122,234,92519,1,2,0:0:0:0:
122,234,92605,2,0,L|164:239,1,42.5,8|0,0:0|0:0,0:0:0:0:
36,273,92775,2,0,L|46:188,1,85,2|0,3:2|3:0,0:0:0:0:
51,161,93031,1,0,3:0:0:0:
51,161,93116,1,2,1:2:0:0:
186,102,93287,5,2,1:2:0:0:
80,3,93457,1,2,3:0:0:0:
80,3,93542,1,0,3:0:0:0:
80,3,93627,6,0,L|90:88,1,85,6|0,1:2|3:2,0:0:0:0:
135,178,93883,1,2,0:0:0:0:
135,178,93968,2,0,L|177:173,1,42.5,8|0,3:2|0:0,0:0:0:0:
266,132,94139,2,0,L|308:138,1,42.5,10|8,3:0|3:0,0:0:0:0:
435,163,94309,1,8,3:2:0:0:
435,163,94480,6,0,L|429:121,1,42.5,8|8,3:0|3:0,0:0:0:0:
366,58,94650,2,0,L|372:16,1,42.5,14|8,1:2|1:2,0:0:0:0:
484,14,94821,5,10,3:0:0:0:
482,29,94906,1,8,3:0:0:0:
480,44,94991,2,0,L|486:86,1,31.8750012159348,6|0,3:2|0:0,0:0:0:0:
343,128,95162,5,2,3:2:0:0:
310,122,95247,1,2,3:2:0:0:
279,118,95332,1,6,3:2:0:0:
246,113,95417,1,2,3:0:0:0:
215,109,95502,2,0,L|209:67,1,42.5,2|0,3:0|0:0,0:0:0:0:
124,160,95673,2,0,L|130:202,1,42.5,14|0,3:2|0:0,0:0:0:0:
116,61,95843,2,0,L|6:76,1,110.499994941712,2|4,3:2|3:2,0:0:0:0:
6,259,96184,5,10,1:2:0:0:
21,257,96269,1,2,0:0:0:0:
36,255,96355,2,0,L|78:261,1,42.5,14|0,1:2|0:0,0:0:0:0:
173,308,96525,2,0,L|215:302,1,42.5,2|0,1:2|3:0,0:0:0:0:
330,320,96696,5,6,3:2:0:0:
324,287,96781,1,2,3:2:0:0:
320,256,96866,1,2,3:2:0:0:
315,223,96951,1,2,3:2:0:0:
311,192,97037,2,0,L|269:186,1,42.5,14|0,1:2|0:0,0:0:0:0:
399,261,97207,2,0,L|508:245,1,110.499994941712,10|4,1:2|3:2,0:0:0:0:
428,95,97548,5,10,3:2:0:0:
428,95,97633,1,8,3:2:0:0:
428,95,97718,1,10,3:2:0:0:
378,175,97889,1,10,3:2:0:0:
512,148,98059,1,6,0:0:0:0:
512,148,98144,1,0,3:0:0:0:
512,148,98230,1,10,3:2:0:0:
495,16,98400,5,8,0:0:0:0:
495,16,98485,1,0,3:0:0:0:
495,16,98571,2,0,L|453:22,1,42.5,2|0,3:0|3:0,0:0:0:0:
351,61,98741,2,0,L|309:67,1,42.5,8|0,3:2|3:0,0:0:0:0:
141,13,98912,1,14,0:0:0:0:
141,13,99252,5,14,1:2:0:0:
139,211,99423,1,10,1:2:0:0:
31,83,99593,5,10,3:0:0:0:
29,98,99679,1,8,3:0:0:0:
27,113,99764,2,0,L|72:120,1,42.5,10|0,3:2|3:0,0:0:0:0:
219,184,99934,5,10,3:0:0:0:
217,169,100019,1,8,3:0:0:0:
215,154,100105,2,0,L|325:138,1,85,14|10,3:2|3:2,0:0:0:0:
432,123,100360,1,8,3:2:0:0:
432,123,100446,6,0,L|426:81,1,42.5,14|0,0:0|0:0,0:0:0:0:
376,237,100616,2,0,L|370:195,1,42.5,2|0,3:2|0:0,0:0:0:0:
452,333,100787,5,14,3:2:0:0:
452,333,100872,1,8,3:0:0:0:
452,333,100957,2,0,L|446:291,1,42.5,2|2,3:2|3:2,0:0:0:0:
334,335,101127,2,0,L|340:377,1,42.5,14|8,3:2|3:0,0:0:0:0:
374,251,101298,2,0,L|264:266,1,110.499994941712,6|10,3:2|3:2,0:0:0:0:
148,333,101639,5,0,3:2:0:0:
150,348,101724,1,8,3:0:0:0:
152,363,101809,2,0,L|107:370,1,42.5,14|0,3:2|0:0,0:0:0:0:
8,268,101980,5,10,3:0:0:0:
6,283,102065,1,10,3:0:0:0:
4,298,102150,2,0,L|49:305,1,42.5,14|0,0:0|0:0,0:0:0:0:
151,246,102321,5,10,3:2:0:0:
151,246,102406,1,10,3:0:0:0:
151,246,102491,5,14,0:0:0:0:
168,219,102576,1,8,3:0:0:0:
174,188,102662,1,10,3:0:0:0:
170,157,102747,1,8,3:0:0:0:
154,129,102832,1,8,3:2:0:0:
136,102,102917,1,8,3:2:0:0:
130,71,103002,1,10,3:2:0:0:
134,40,103088,1,8,3:2:0:0:
149,12,103173,6,0,P|197:-3|246:11,1,101.999996887207,12|0,3:2|1:0,0:0:0:0:
330,107,103684,2,0,L|337:56,1,50.9999984436036,2|0,3:0|1:0,0:0:0:0:
227,104,104025,5,2,3:2:0:0:
239,226,104196,1,2,3:2:0:0:
227,104,104366,1,2,3:2:0:0:
345,189,104537,5,14,3:2:0:0:
144,160,104707,1,2,3:0:0:0:
345,189,104877,6,0,L|339:231,1,42.5,2|0,3:2|0:0,0:0:0:0:
377,311,105048,2,0,L|371:353,1,42.5,14|0,0:0|0:0,0:0:0:0:
252,358,105218,5,2,3:0:0:0:
225,341,105304,1,0,0:0:0:0:
194,335,105389,1,8,3:2:0:0:
163,339,105474,1,8,3:0:0:0:
135,355,105559,1,8,3:0:0:0:
108,373,105644,1,8,3:2:0:0:
77,379,105730,1,10,3:2:0:0:
46,375,105815,1,8,3:2:0:0:
18,360,105900,6,0,P|-7:312|42:209,1,150.449994719925,6|0,3:2|0:0,0:0:0:0:
44,211,106241,1,10,0:0:0:0:
247,156,106412,5,2,3:2:0:0:
219,295,106582,1,0,3:0:0:0:
247,156,106752,1,2,3:2:0:0:
219,295,106923,1,8,0:0:0:0:
247,156,107093,2,0,L|297:164,1,50.149998239975,2|0,3:0|3:0,0:0:0:0:
130,219,107264,6,0,P|105:171|154:68,1,150.449994719925,6|0,3:2|0:0,0:0:0:0:
156,71,107605,1,10,0:0:0:0:
336,44,107775,5,2,3:2:0:0:
308,183,107946,1,0,0:0:0:0:
336,44,108116,1,2,3:2:0:0:
308,183,108287,1,12,0:0:0:0:
336,44,108457,2,0,L|388:51,1,50.149998239975,2|0,3:2|0:0,0:0:0:0:
498,169,108627,6,0,P|523:217|474:320,1,150.449994719925,6|0,3:2|0:0,0:0:0:0:
472,318,108968,1,10,0:0:0:0:
298,215,109139,5,2,3:2:0:0:
326,354,109309,1,0,3:0:0:0:
298,215,109480,1,2,3:2:0:0:
326,354,109650,1,8,0:0:0:0:
298,215,109821,2,0,L|248:222,1,50.149998239975,2|0,3:0|3:0,0:0:0:0:
98,314,109991,6,0,P|154:360|227:353,1,150.449994719925,6|0,3:2|3:0,0:0:0:0:
243,332,110332,1,10,0:0:0:0:
399,216,110502,5,2,3:2:0:0:
383,353,110673,1,0,0:0:0:0:
399,216,110843,5,10,3:0:0:0:
390,186,110929,1,8,3:0:0:0:
373,162,111014,1,8,3:2:0:0:
349,144,111099,1,8,3:2:0:0:
319,136,111184,1,10,3:0:0:0:
289,139,111269,1,8,3:0:0:0:
262,153,111355,6,0,L|163:168,1,100.29999647995,6|0,3:2|3:0,0:0:0:0:
122,24,111696,1,10,0:0:0:0:
276,66,111866,1,2,3:2:0:0:
276,66,112037,1,0,3:0:0:0:
480,164,112207,5,2,3:2:0:0:
302,210,112377,1,10,0:0:0:0:
351,32,112548,1,2,3:2:0:0:
407,213,112718,5,6,3:2:0:0:
228,167,112889,1,2,3:2:0:0:
278,345,113059,1,10,0:0:0:0:
423,218,113230,6,0,L|408:317,1,100.29999647995,2|0,3:2|3:0,0:0:0:0:
323,262,113571,1,2,3:2:0:0:
383,144,113741,2,0,L|333:151,1,50.149998239975,10|0,0:0|0:0,0:0:0:0:
184,172,113912,1,2,3:2:0:0:
184,172,113997,1,0,3:0:0:0:
184,172,114082,6,0,B|197:71|197:71|148:79,1,150.449994719925,6|0,3:2|0:0,0:0:0:0:
38,68,114423,6,0,L|45:117,1,50.149998239975,10|0,0:0|0:0,0:0:0:0:
10,252,114593,2,0,B|2:202|2:202|103:216,1,150.449994719925,6|0,3:2|0:0,0:0:0:0:
252,234,114934,6,0,L|244:283,1,50.149998239975,2|0,3:0|0:0,0:0:0:0:
149,362,115105,2,0,L|156:312,1,50.149998239975,10|0,0:0|0:0,0:0:0:0:
117,149,115275,6,0,B|67:141|67:141|81:242,1,150.449994719925,6|0,3:2|0:0,0:0:0:0:
65,361,115616,6,0,L|15:353,1,50.149998239975,10|8,3:2|3:0,0:0:0:0:
151,308,115787,1,10,3:0:0:0:
151,308,115872,1,8,3:0:0:0:
151,308,115957,6,0,L|200:315,1,50.149998239975,10|8,3:2|3:0,0:0:0:0:
296,366,116127,2,0,L|345:358,1,50.149998239975,8|8,3:2|3:0,0:0:0:0:
459,278,116298,1,10,3:0:0:0:
477,254,116383,1,8,3:0:0:0:
487,226,116468,1,10,3:2:0:0:
488,196,116554,1,8,3:2:0:0:
478,167,116639,1,10,3:2:0:0:
460,143,116724,1,8,3:2:0:0:
436,123,116809,6,0,P|365:111|293:166,1,150.449994719925,6|0,3:2|0:0,0:0:0:0:
291,181,117150,1,10,0:0:0:0:
200,292,117321,5,2,3:2:0:0:
349,270,117491,1,0,3:0:0:0:
200,292,117662,1,2,3:2:0:0:
349,270,117832,1,8,0:0:0:0:
200,292,118002,2,0,L|249:285,1,50.149998239975,2|0,3:2|0:0,0:0:0:0:
113,210,118173,6,0,P|78:272|105:359,1,150.449994719925,6|0,3:2|0:0,0:0:0:0:
116,374,118514,1,10,0:0:0:0:
297,355,118684,1,2,3:2:0:0:
312,222,118855,5,0,3:0:0:0:
318,228,118940,1,0,3:0:0:0:
318,228,119025,1,2,3:2:0:0:
195,304,119196,1,14,0:0:0:0:
410,315,119366,1,10,3:2:0:0:
410,315,119451,1,8,0:0:0:0:
410,315,119537,6,0,P|439:248|415:178,1,150.449994719925,6|0,3:2|0:0,0:0:0:0:
388,156,119877,1,10,0:0:0:0:
212,208,120048,5,2,3:2:0:0:
247,72,120218,1,0,3:0:0:0:
212,208,120389,1,2,3:2:0:0:
247,72,120559,1,8,0:0:0:0:
212,208,120730,2,0,L|204:158,1,50.149998239975,2|0,3:2|3:0,0:0:0:0:
292,277,120900,6,0,P|227:311|155:295,1,150.449994719925,6|0,3:2|0:0,0:0:0:0:
127,282,121241,1,10,0:0:0:0:
288,180,121412,1,2,3:2:0:0:
179,129,121582,1,0,0:0:0:0:
335,103,121752,5,10,3:0:0:0:
346,86,121838,1,8,3:0:0:0:
352,67,121923,1,8,3:2:0:0:
351,47,122008,1,8,3:2:0:0:
344,28,122093,1,10,3:2:0:0:
331,13,122179,1,8,3:2:0:0:
315,0,122264,6,0,P|265:-9|215:30,1,100.29999647995,6|2,3:2|3:2,0:0:0:0:
169,152,122605,1,8,0:0:0:0:
58,56,122775,1,2,3:2:0:0:
58,56,122860,1,0,0:0:0:0:
58,56,122946,2,0,P|49:105|88:155,1,100.29999647995,0|0,3:0|3:2,0:0:0:0:
227,198,123287,5,8,0:0:0:0:
224,89,123457,1,2,3:0:0:0:
51,218,123627,6,0,B|151:231|151:231|144:182,1,150.449994719925,6|0,3:2|0:0,0:0:0:0:
129,53,123968,2,0,L|79:60,1,50.149998239975,10|0,0:0|0:0,0:0:0:0:
220,105,124139,6,0,B|320:91|320:91|313:141,1,150.449994719925,14|8,3:2|0:0,0:0:0:0:
255,270,124480,2,0,L|247:220,1,50.149998239975,8|0,3:0|0:0,0:0:0:0:
388,184,124650,6,0,L|381:233,1,50.149998239975,10|0,0:0|0:0,0:0:0:0:
364,372,124821,1,0,3:0:0:0:
364,372,124906,1,0,3:0:0:0:
364,372,124991,1,6,3:2:0:0:
464,259,125162,5,10,3:0:0:0:
464,259,125332,2,0,L|456:308,1,50.149998239975,10|0,0:0|0:0,0:0:0:0:
355,375,125502,6,0,B|362:325|362:325|262:339,1,150.449994719925,6|0,3:2|0:0,0:0:0:0:
123,366,125843,1,8,3:0:0:0:
123,366,125929,1,8,3:0:0:0:
123,366,126014,2,0,L|130:313,1,50.149998239975,10|10,3:0|3:0,0:0:0:0:
157,173,126184,6,0,B|118:178|118:178|98:170|98:170|42:177,2,101.999996887207,6|2|2,3:2|0:0|0:0,0:0:0:0:
224,193,126951,1,0,3:0:0:0:
233,198,127037,1,10,3:2:0:0:
279,133,127207,1,10,3:2:0:0:
233,69,127377,1,10,3:0:0:0:
157,93,127548,1,2,0:0:0:0:
157,173,127718,6,0,B|118:178|118:178|81:173|81:173|44:178,1,114.749996498108,6|0,3:0|0:0,0:0:0:0:
0,256,128400,2,0,B|36:261|36:261|72:256|72:256|108:260,1,110.499999325562,10|0,3:0|0:0,0:0:0:0:
248,277,129423,6,0,L|242:243,1,34,6|0,3:0|0:0,0:0:0:0:
150,353,129764,2,0,B|188:358|188:358|225:353|225:353|262:358,1,114.749996498108,10|0,3:0|0:0,0:0:0:0:
433,279,130446,6,0,B|394:284|394:284|357:279|357:279|320:284,1,114.749996498108,6|0,3:0|0:0,0:0:0:0:
256,200,131127,2,0,B|292:205|292:205|328:200|328:200|364:204,1,110.499999325562,10|0,3:0|0:0,0:0:0:0:
493,210,132150,6,0,L|487:176,1,34,6|0,3:0|0:0,0:0:0:0:
388,97,132491,2,0,B|427:102|427:102|464:97|464:97|501:102,1,114.749996498108,10|0,3:0|0:0,0:0:0:0:
302,147,133173,6,0,B|297:110|297:110|302:73|302:73|297:34,1,114.749996498108,6|0,3:0|0:0,0:0:0:0:
207,8,133855,2,0,B|202:44|202:44|207:80|207:80|203:116,1,110.499999325562,10|0,3:0|0:0,0:0:0:0:
71,156,134877,6,0,L|37:150,1,34,6|0,3:0|0:0,0:0:0:0:
161,212,135218,2,0,B|198:217|198:217|235:212|235:212|274:217,1,114.749996498108,10|0,3:0|0:0,0:0:0:0:
377,120,135900,6,0,B|382:83|382:83|377:46|377:46|382:7,1,114.749996498108,6|0,3:0|0:0,0:0:0:0:
464,55,136582,2,0,B|469:86|469:86|464:119,1,66.2999995953369,10|0,3:0|0:0,0:0:0:0:
388,207,137264,6,0,L|354:201,1,34,6|0,3:0|0:0,0:0:0:0:
260,142,137605,2,0,L|226:148,1,34,6|0,3:0|0:0,0:0:0:0:
87,186,137946,2,0,B|82:223|82:223|87:260|87:260|82:299,1,114.749996498108,10|0,3:0|0:0,0:0:0:0:
208,376,138627,6,0,P|269:381|308:332,1,113.899994612274,6|0,3:2|0:0,0:0:0:0:
303,346,139139,1,0,0:0:0:0:
432,338,139309,2,0,P|405:282|343:273,1,113.899994612274,2|0,1:2|0:0,0:0:0:0:
224,279,139821,5,2,0:0:0:0:
209,197,139991,1,2,0:0:0:0:
286,225,140162,1,2,0:0:0:0:
152,322,140332,2,0,L|39:306,1,113.899994612274,6|0,3:2|1:2,0:0:0:0:
209,197,140843,5,2,0:0:0:0:
224,279,141014,1,2,0:0:0:0:
286,225,141184,1,2,0:0:0:0:
125,156,141355,6,0,L|68:163,1,56.9499973061372,6|0,3:2|0:0,0:0:0:0:
127,235,141696,1,2,0:0:0:0:
216,124,141866,2,0,L|103:139,1,113.899994612274,2|2,0:0|0:0,0:0:0:0:
147,235,142377,1,2,0:0:0:0:
147,235,142548,1,2,0:0:0:0:
355,173,142718,1,2,0:0:0:0:
355,173,143059,6,0,L|347:116,1,56.9499973061372,6|0,3:2|0:0,0:0:0:0:
275,221,143400,2,0,L|290:333,1,113.899994612274,0|0,1:2|0:0,0:0:0:0:
290,333,143912,1,0,0:0:0:0:
129,292,144082,6,0,P|68:287|29:336,1,113.899994612274,6|0,3:2|0:0,0:0:0:0:
34,322,144593,1,0,0:0:0:0:
183,359,144764,2,0,P|217:308|194:250,1,113.899994612274,2|0,1:2|0:0,0:0:0:0:
119,134,145275,5,2,0:0:0:0:
104,216,145446,1,2,3:0:0:0:
181,188,145616,1,2,0:0:0:0:
8,85,145787,2,0,L|23:197,1,113.899994612274,6|0,3:2|1:2,0:0:0:0:
181,188,146298,5,2,0:0:0:0:
119,134,146468,1,2,0:0:0:0:
104,216,146639,1,2,0:0:0:0:
198,85,146809,6,0,L|190:28,1,56.9499973061372,6|0,3:2|0:0,0:0:0:0:
275,54,147150,1,2,0:0:0:0:
199,174,147321,2,0,L|183:61,1,113.899994612274,2|2,0:0|0:0,0:0:0:0:
302,121,147832,1,2,0:0:0:0:
302,121,148002,1,2,0:0:0:0:
452,43,148173,6,0,L|453:57,1,8.5,6|0,3:0|0:0,0:0:0:0:
410,261,148514,6,0,L|411:246,1,8.5,6|0,3:0|0:0,0:0:0:0:
154,61,148855,6,0,L|155:75,1,8.5,2|0,1:2|0:0,0:0:0:0:
91,317,149196,6,0,L|92:308,1,8.5,2|0,1:2|0:0,0:0:0:0:
353,343,149537,6,0,L|433:331,2,67.1500016394043,6|0|0,3:2|0:0|0:0,0:0:0:0:
353,343,150048,1,0,3:0:0:0:
439,250,150218,2,0,L|519:261,2,67.1500016394043,10|0|0,1:2|0:0|0:0,0:0:0:0:
317,236,150730,5,2,0:0:0:0:
406,181,150900,1,2,3:2:0:0:
284,167,151071,1,10,0:0:0:0:
412,68,151241,2,0,L|393:200,1,134.300003278809,2|8,3:2|0:0,0:0:0:0:
226,292,151752,5,2,0:0:0:0:
348,278,151923,1,2,3:2:0:0:
259,223,152093,1,2,3:2:0:0:
331,366,152264,6,0,L|397:356,1,67.1500016394043,6|0,0:0|0:0,0:0:0:0:
508,339,152605,1,2,3:2:0:0:
448,230,152775,1,0,1:0:0:0:
448,230,152946,2,0,L|438:296,1,67.1500016394043,8|2,0:0|3:2,0:0:0:0:
356,236,153287,1,2,3:2:0:0:
374,117,153457,1,2,3:2:0:0:
500,179,153627,5,6,3:2:0:0:
500,179,153798,1,0,1:0:0:0:
311,169,153968,2,0,L|301:102,1,67.1500016394043,2|0,3:2|0:0,0:0:0:0:
467,18,154309,2,0,L|452:117,1,100.725002459107,8|0,0:0|0:0,0:0:0:0:
445,131,154650,2,0,L|454:64,1,67.1500016394043,8|0,0:0|3:0,0:0:0:0:
233,21,154991,6,0,L|152:32,2,67.1500016394043,6|0|0,0:0|0:0|0:0,0:0:0:0:
233,21,155502,1,0,1:0:0:0:
101,89,155673,2,0,L|20:77,2,67.1500016394043,10|0|0,0:0|3:0|3:0,0:0:0:0:
223,103,156184,5,2,3:2:0:0:
290,169,156355,1,6,3:2:0:0:
168,155,156525,1,10,3:2:0:0:
332,107,156696,2,0,L|313:239,1,134.300003278809,2|8,3:2|0:0,0:0:0:0:
175,242,157207,5,2,0:0:0:0:
107,291,157377,1,2,3:2:0:0:
229,305,157548,1,2,3:2:0:0:
81,368,157718,6,0,L|90:301,1,67.1500016394043,6|0,0:0|0:0,0:0:0:0:
167,354,158059,1,2,3:2:0:0:
79,279,158230,1,0,1:0:0:0:
79,279,158400,2,0,L|88:212,1,67.1500016394043,8|2,0:0|3:2,0:0:0:0:
163,104,158741,1,2,3:2:0:0:
181,223,158912,1,2,3:2:0:0:
6,147,159082,5,6,3:2:0:0:
6,147,159252,1,0,1:0:0:0:
63,22,159423,2,0,L|72:88,1,67.1500016394043,2|0,3:2|0:0,0:0:0:0:
217,145,159764,2,0,L|150:154,1,67.1500016394043,8|0,0:0|0:0,0:0:0:0:
13,175,160105,1,8,3:2:0:0:
123,299,160275,1,0,3:0:0:0:
123,299,160360,1,0,3:0:0:0:
123,299,160446,6,0,P|175:280|224:295,1,102,6|0,0:0|0:0,0:0:0:0:
175,368,161127,1,10,0:0:0:0:
325,360,161809,5,2,0:0:0:0:
339,344,161923,6,0,L|345:297,1,47.0333340151215,2|2,0:0|0:0,0:0:0:0:
352,209,162150,6,0,P|294:226|230:190,1,125.800003071289,2|10,3:2|0:0,0:0:0:0:
109,233,163173,6,0,L|116:176,1,56.9499973061372,6|0,0:0|0:0,0:0:0:0:
130,91,163514,1,2,0:0:0:0:
109,233,163684,2,0,L|24:244,1,85.4249959592058,2|0,0:0|0:0,0:0:0:0:
12,252,164025,2,0,L|96:263,1,85.4249959592058,2|0,0:0|0:0,0:0:0:0:
167,263,164366,1,2,0:0:0:0:
289,179,164537,6,0,L|281:235,1,56.9499973061372,2|0,0:0|0:0,0:0:0:0:
269,313,164877,1,2,0:0:0:0:
289,179,165048,2,0,L|373:167,1,85.4249959592058,2|0,0:0|0:0,0:0:0:0:
388,156,165389,2,0,L|303:168,1,85.4249959592058,2|0,0:0|0:0,0:0:0:0:
219,183,165730,1,2,0:0:0:0:
107,74,165900,6,0,L|99:130,1,56.9499973061372,2|0,0:0|0:0,0:0:0:0:
87,208,166241,1,2,0:0:0:0:
107,74,166412,2,0,L|191:62,1,85.4249959592058,2|0,0:0|0:0,0:0:0:0:
216,61,166752,2,0,L|204:146,1,85.4249959592058,2|0,0:0|0:0,0:0:0:0:
193,217,167093,1,2,0:0:0:0:
328,308,167264,6,0,L|320:252,1,56.9499973061372,2|0,0:0|0:0,0:0:0:0:
308,174,167605,1,2,0:0:0:0:
328,308,167775,2,0,L|412:320,1,85.4249959592058,2|0,0:0|0:0,0:0:0:0:
433,324,168116,2,0,L|421:244,1,56.9499973061372,2|8,0:0|0:0,0:0:0:0:
406,149,168457,1,2,0:0:0:0:
292,194,168627,6,0,L|300:138,1,56.9499973061372,6|0,0:0|0:0,0:0:0:0:
314,38,168968,1,10,0:0:0:0:
292,194,169139,2,0,L|208:206,1,85.4249959592058,2|0,0:0|0:0,0:0:0:0:
184,211,169480,1,2,0:0:0:0:
115,127,169650,1,10,0:0:0:0:
91,247,169821,1,2,3:0:0:0:
91,247,169906,1,0,3:0:0:0:
91,247,169991,6,0,L|35:239,1,56.9499973061372,2|2,0:0|0:0,0:0:0:0:
0,160,170332,1,10,0:0:0:0:
24,40,170502,1,2,0:0:0:0:
24,40,170843,5,2,0:0:0:0:
80,81,171014,1,10,0:0:0:0:
91,11,171184,1,2,0:0:0:0:
22,180,171355,6,0,B|56:184|56:184|127:175,1,105.825001534023,14|0,1:2|0:0,0:0:0:0:
197,136,171696,6,0,L|201:101,1,35.2750005113411,10|0,0:0|0:0,0:0:0:0:
276,28,171866,2,0,B|345:37|345:37|350:72,1,105.825001534023,4|0,1:2|0:0,0:0:0:0:
416,40,172207,6,0,B|420:74|420:74|490:84,1,105.825001534023,6|0,1:2|0:0,0:0:0:0:
415,160,172548,6,0,L|391:157,2,23.5166670075607,10|8|8,3:0|3:0|3:0,0:0:0:0:
367,151,172718,5,8,3:0:0:0:
311,307,172889,1,14,0:0:0:0:
473,277,173059,1,14,0:0:0:0:
383,235,173230,5,2,3:2:0:0:
398,316,173400,1,8,0:0:0:0:
383,235,173571,1,2,3:2:0:0:
398,316,173741,1,10,0:0:0:0:
368,154,173912,5,2,0:0:0:0:
403,324,174082,6,0,B|422:332|422:332|426:305|426:305|320:320,1,156.82500239296,14|0,1:2|0:0,0:0:0:0:
289,324,174423,1,10,0:0:0:0:
169,384,174593,5,2,3:2:0:0:
154,279,174764,1,0,3:0:0:0:
286,194,174934,1,2,3:2:0:0:
306,34,175105,1,8,0:0:0:0:
113,29,175275,2,0,L|117:64,1,31.8750012159348,2|0,3:2|3:0,0:0:0:0:
196,151,175446,6,0,B|215:159|215:159|220:132|220:132|114:148,1,156.82500239296,6|0,3:2|0:0,0:0:0:0:
69,157,175787,1,10,0:0:0:0:
107,301,175957,5,2,3:2:0:0:
211,286,176127,1,0,3:0:0:0:
2,315,176298,1,2,3:2:0:0:
211,286,176468,1,14,0:0:0:0:
58,165,176639,2,0,L|62:208,1,42.5,10|8,3:2|0:0,0:0:0:0:
101,362,176809,6,0,B|81:370|81:370|76:343|76:343|182:359,1,156.82500239296,6|0,3:2|0:0,0:0:0:0:
256,374,177150,1,10,0:0:0:0:
403,323,177321,5,2,3:2:0:0:
388,218,177491,1,0,3:0:0:0:
221,195,177662,1,2,3:2:0:0:
241,35,177832,1,8,0:0:0:0:
440,12,178002,2,0,L|435:54,1,42.5,2|0,3:2|3:0,0:0:0:0:
308,128,178173,6,0,B|288:136|288:136|283:109|283:109|389:125,1,156.82500239296,6|0,3:2|0:0,0:0:0:0:
473,141,178514,1,10,0:0:0:0:
372,280,178684,5,14,3:2:0:0:
268,265,178855,1,0,0:0:0:0:
477,294,179025,1,10,3:0:0:0:
268,265,179196,1,8,3:2:0:0:
477,294,179366,2,0,L|472:250,1,42.5,10|8,3:2|3:2,0:0:0:0:
462,142,179537,5,6,3:2:0:0:
462,142,179707,1,0,3:2:0:0:
359,226,179877,1,8,0:0:0:0:
337,82,180048,6,0,L|280:95,1,52.2750007976532,2|0,3:2|0:0,0:0:0:0:
212,149,180218,2,0,L|89:135,1,104.550001595306,0|2,3:0|3:2,0:0:0:0:
73,133,180474,1,0,0:0:0:0:
73,133,180559,1,8,0:0:0:0:
204,22,180730,2,0,L|210:83,1,52.2750007976532,2|0,3:0|3:0,0:0:0:0:
292,179,180900,6,0,B|295:207|295:207|211:217|211:217|206:259,1,156.82500239296,6|0,3:2|0:0,0:0:0:0:
196,349,181241,2,0,L|247:343,1,52.2750007976532,2|0,0:0|0:0,0:0:0:0:
399,338,181412,6,0,B|394:372|394:372|464:365,1,104.550001595306,14|0,3:2|3:0,0:0:0:0:
497,274,181667,1,0,0:0:0:0:
497,274,181752,2,0,L|491:222,1,52.2750007976532,0|0,3:0|0:0,0:0:0:0:
370,167,181923,6,0,L|421:161,1,52.2750007976532,10|0,0:0|0:0,0:0:0:0:
494,93,182093,1,0,3:0:0:0:
499,67,182179,1,0,3:0:0:0:
490,43,182264,2,0,L|438:48,1,52.2750007976532,6|0,3:2|0:0,0:0:0:0:
280,63,182434,1,2,3:2:0:0:
346,169,182605,5,10,3:2:0:0:
319,186,182690,1,0,3:0:0:0:
288,192,182775,1,6,3:2:0:0:
257,188,182860,1,0,3:0:0:0:
229,172,182946,1,8,0:2:0:0:
202,154,183031,1,8,0:2:0:0:
171,148,183116,1,8,3:2:0:0:
140,152,183201,1,8,3:2:0:0:
112,167,183287,2,0,P|99:195|102:226,1,52.2750007976532,10|10,3:0|3:0,0:0:0:0:
145,311,183457,6,0,B|194:305|194:305|245:312|245:312|294:305,1,151.724996990318,6|0,3:2|0:0,0:0:0:0:
432,325,183798,5,2,3:0:0:0:
450,303,183883,1,0,3:0:0:0:
454,274,183968,1,8,3:2:0:0:
450,244,184054,1,8,3:0:0:0:
432,217,184139,6,0,L|380:222,1,42.5,10|8,3:0|3:0,0:0:0:0:
364,136,184309,2,0,L|328:173,1,42.5,10|0,3:2|0:0,0:0:0:0:
259,117,184480,2,0,L|255:169,1,42.5,10|0,3:2|0:0,0:0:0:0:
166,169,184650,2,0,L|197:211,1,42.5,10|0,3:2|0:0,0:0:0:0:
325,283,184821,6,0,P|296:239|257:298,1,136,6|2,1:3|0:0,0:0:0:0:
162,354,186355,6,0,B|128:378|89:358|89:358|78:263,1,172.125000656605,6|0,1:3|0:0,0:0:0:0:
70,159,186696,2,0,L|126:166,1,57.3750002188683,14|0,0:0|0:0,0:0:0:0:
206,232,186866,1,2,3:2:0:0:
209,252,186951,1,0,3:0:0:0:
211,272,187037,2,0,L|267:264,1,57.3750002188683,12|0,1:2|0:0,0:0:0:0:
361,192,187207,6,0,P|378:145|334:83,1,114.750000437737,2|12,3:0|0:0,0:0:0:0:
261,72,187463,1,0,0:0:0:0:
250,156,187548,2,0,L|292:150,1,42.5,2|0,3:2|3:0,0:0:0:0:
392,17,187718,6,0,B|425:-7|464:12|464:12|475:107,1,172.125000656605,6|0,1:3|0:0,0:0:0:0:
492,242,188059,2,0,L|435:234,1,57.3750002188683,12|0,0:0|0:0,0:0:0:0:
348,296,188230,1,2,3:2:0:0:
351,316,188315,1,0,3:0:0:0:
353,336,188400,2,0,L|409:328,1,57.3750002188683,14|0,0:0|0:0,0:0:0:0:
349,210,188571,6,0,L|235:225,1,114.750000437737,2|12,3:2|0:0,0:0:0:0:
157,280,188826,1,0,0:0:0:0:
241,359,188912,2,0,L|235:316,1,42.5,2|0,3:2|3:0,0:0:0:0:
141,191,189082,6,0,B|107:166|68:186|68:186|57:281,1,172.125000656605,6|0,1:3|0:0,0:0:0:0:
103,375,189423,2,0,L|159:367,1,57.3750002188683,12|0,0:0|0:0,0:0:0:0:
260,337,189593,1,2,3:0:0:0:
263,317,189679,1,0,3:0:0:0:
265,297,189764,2,0,L|321:304,1,57.3750002188683,14|0,0:0|0:0,0:0:0:0:
456,356,189934,6,0,P|469:326|463:299,1,57.3750002188683,2|0,3:2|0:0,0:0:0:0:
390,187,190105,2,0,P|377:212|380:240,1,57.3750002188683,12|0,0:0|0:0,0:0:0:0:
506,166,190275,1,2,3:0:0:0:
486,163,190360,1,0,3:0:0:0:
466,160,190446,2,0,L|473:103,1,42.5,14|0,1:3|0:0,0:0:0:0:
451,19,190616,5,0,3:0:0:0:
430,22,190701,1,0,3:0:0:0:
409,25,190787,5,10,3:0:0:0:
370,1,190872,1,8,3:0:0:0:
324,7,190957,1,10,3:0:0:0:
294,40,191042,1,8,3:0:0:0:
290,84,191127,2,0,L|296:129,1,42.5,12|8,3:2|3:0,0:0:0:0:
382,220,191298,5,10,3:0:0:0:
379,199,191383,1,8,3:0:0:0:
376,178,191468,1,12,0:0:0:0:
143,290,191639,5,2,3:0:0:0:
146,311,191724,1,0,3:0:0:0:
149,332,191809,2,0,P|202:352|263:332,1,114.750000437737,14|0,1:3|3:0,0:0:0:0:
304,260,192065,1,0,0:0:0:0:
209,199,192150,2,0,L|217:260,1,57.3750002188683,14|0,0:0|0:0,0:0:0:0:
351,338,192321,6,0,P|407:338|458:299,1,114.750000437737,2|12,3:2|0:0,0:0:0:0:
466,216,192576,1,0,0:0:0:0:
360,155,192662,6,0,L|303:162,1,57.3750002188683,2|0,3:2|0:0,0:0:0:0:
224,99,192832,2,0,L|245:45,1,57.3750002188683,14|0,0:0|0:0,0:0:0:0:
340,9,193002,2,0,L|375:54,1,57.3750002188683,2|0,3:2|3:0,0:0:0:0:
301,186,193173,6,0,L|244:178,1,57.3750002188683,6|0,1:3|0:0,0:0:0:0:
133,96,193343,2,0,L|154:149,1,57.3750002188683,2|0,3:2|0:0,0:0:0:0:
135,287,193514,2,0,L|170:241,1,57.3750002188683,14|0,0:0|0:0,0:0:0:0:
277,294,193684,5,2,3:2:0:0:
279,327,193769,1,0,3:0:0:0:
285,361,193855,1,12,0:0:0:0:
456,249,194025,6,0,L|399:256,1,57.3750002188683,2|0,3:2|3:2,0:0:0:0:
380,125,194196,2,0,L|436:132,1,57.3750002188683,14|0,0:0|0:0,0:0:0:0:
287,210,194366,1,2,3:2:0:0:
282,178,194451,1,0,3:0:0:0:
279,146,194537,6,0,B|269:203|269:203|145:185,1,184.875005641937,6|0,1:3|0:0,0:0:0:0:
51,139,194877,2,0,L|56:96,1,42.5,10|0,0:0|0:0,0:0:0:0:
0,267,195048,6,0,B|9:324|9:324|133:306,1,184.875005641937,6|0,0:3|0:0,0:0:0:0:
247,327,195389,2,0,L|239:379,1,53.125,2|0,3:2|0:0,0:0:0:0:
206,251,195559,2,0,L|213:198,1,53.125,10|0,0:0|0:0,0:0:0:0:
319,268,195730,2,0,L|371:261,1,53.125,6|0,1:3|0:0,0:0:0:0:
486,199,195900,6,0,P|514:142|497:83,1,123.250003761292,6|0,1:3|3:0,0:0:0:0:
418,67,196156,1,0,0:0:0:0:
363,151,196241,6,0,L|425:143,1,61.6250018806458,10|0,0:0|0:0,0:0:0:0:
362,5,196412,2,0,L|300:13,1,61.6250018806458,4|0,3:0|0:0,0:0:0:0:
169,91,196582,5,10,3:2:0:0:
152,79,196696,6,0,P|150:28|187:-12,1,82.1666691741944,10|10,3:2|3:0,0:0:0:0:
274,96,196923,5,10,3:0:0:0:
256,181,197037,5,10,3:0:0:0:
238,266,197150,5,10,3:0:0:0:
75,176,197264,6,0,B|137:166|137:166|155:293,1,191.250007295609,6|0,1:3|0:0,0:0:0:0:
4,357,197605,2,0,L|12:293,1,63.7500024318696,10|0,3:2|0:0,0:0:0:0:
105,367,197775,6,0,P|165:383|219:352,1,127.500004863739,2|8,3:2|0:0,0:0:0:0:
315,293,198031,1,0,0:0:0:0:
221,213,198116,2,0,L|230:277,1,63.7500024318696,2|0,3:2|0:0,0:0:0:0:
339,366,198287,1,8,0:0:0:0:
339,366,198457,6,0,L|330:302,1,63.7500024318696,10|10,0:0|0:0,0:0:0:0:
310,141,198627,6,0,B|300:203|300:203|427:221,1,191.250007295609,6|0,1:3|0:0,0:0:0:0:
445,111,198968,2,0,L|381:119,1,63.7500024318696,10|0,3:2|0:0,0:0:0:0:
497,174,199139,2,0,P|527:119|510:59,1,127.500004863739,2|8,3:2|0:0,0:0:0:0:
419,18,199394,1,0,0:0:0:0:
319,62,199480,6,0,P|288:69|259:57,1,63.7500024318696,2|0,3:2|0:0,0:0:0:0:
147,8,199650,2,0,P|159:36|152:67,1,63.7500024318696,10|0,3:2|0:0,0:0:0:0:
229,153,199821,2,0,P|192:148|165:160,1,63.7500024318696,2|2,3:2|3:0,0:0:0:0:
22,133,199991,6,0,B|86:126|86:126|70:253,1,191.250007295609,6|0,1:3|0:0,0:0:0:0:
16,348,200332,2,0,L|80:339,1,63.7500024318696,10|0,3:2|0:0,0:0:0:0:
241,276,200502,6,0,P|234:245|210:224,1,63.7500024318696,2|0,3:2|0:0,0:0:0:0:
167,323,200673,2,0,P|159:353|169:382,1,63.7500024318696,8|0,0:0|0:0,0:0:0:0:
302,369,200843,6,0,L|430:351,1,127.500004863739,2|8,3:2|0:0,0:0:0:0:
484,284,201099,1,0,0:0:0:0:
395,206,201184,2,0,P|387:236|397:265,1,63.7500024318696,10|8,0:0|0:0,0:0:0:0:
512,112,201355,6,0,L|386:129,1,127.500004863739,6|0,1:3|3:0,0:0:0:0:
300,178,201610,1,0,0:0:0:0:
216,128,201696,2,0,L|207:64,1,63.7500024318696,10|0,3:2|0:0,0:0:0:0:
80,6,201866,2,0,B|72:69|72:69|199:53,1,191.250007295609,2|0,3:2|0:0,0:0:0:0:
305,84,202207,5,10,0:0:0:0:
325,142,202292,1,8,0:0:0:0:
289,192,202377,1,8,3:0:0:0:
260,205,202463,1,8,3:0:0:0:
228,208,202548,1,10,3:0:0:0:
198,200,202633,1,8,3:0:0:0:
171,181,202718,6,0,B|116:174|116:174|130:283,1,165.749992412568,6|0,1:3|0:0,0:0:0:0:
144,384,203059,1,8,0:0:0:0:
144,384,203230,6,0,L|186:378,1,42.5,2|0,3:2|0:0,0:0:0:0:
274,322,203400,2,0,L|316:316,1,42.5,8|0,0:0|0:0,0:0:0:0:
449,375,203571,2,0,B|407:380|407:380|417:296,1,127.5,0|0,3:0|0:0,0:0:0:0:
397,194,203912,1,10,0:0:0:0:
397,194,203997,1,8,0:0:0:0:
397,194,204082,6,0,L|406:126,1,59.4999981842042,6|0,1:3|0:0,0:0:0:0:
497,205,204252,2,0,L|379:221,1,118.999996368408,0|8,3:0|0:0,0:0:0:0:
296,180,204508,1,0,0:0:0:0:
328,53,204593,6,0,L|337:121,1,59.4999981842042,2|0,3:2|0:0,0:0:0:0:
214,157,204764,2,0,L|96:141,1,118.999996368408,12|0,0:0|3:0,0:0:0:0:
14,129,205019,1,0,0:0:0:0:
117,57,205105,6,0,P|117:26|94:-7,1,59.4999981842042,6|0,1:3|0:0,0:0:0:0:
28,51,205275,1,0,3:0:0:0:
108,221,205446,5,8,1:2:0:0:
255,23,205616,5,0,3:0:0:0:
255,23,205787,6,0,L|245:91,1,59.4999981842042,10|0,3:2|0:0,0:0:0:0:
288,204,205957,5,0,3:0:0:0:
329,250,206042,1,0,3:0:0:0:
390,244,206127,6,0,B|448:251|448:251|433:133,1,178.499994552612,6|0,1:3|0:0,0:0:0:0:
418,23,206468,2,0,L|350:32,1,59.4999981842042,8|0,0:0|0:0,0:0:0:0:
233,100,206639,6,0,B|198:104|198:104|192:112|192:112|190:98|190:98|184:106|184:106|152:111,1,101.999996887207,6|2,1:3|0:0,0:0:0:0:
31,277,207321,5,2,0:0:0:0:
99,366,207491,1,2,0:0:0:0:
206,328,207662,1,2,0:0:0:0:
200,216,207832,1,2,0:0:0:0:
91,188,208002,1,2,0:0:0:0:
