osu file format v14

[General]
AudioFilename: audio.mp3
AudioLeadIn: 0
PreviewTime: 55886
Countdown: 0
SampleSet: Soft
StackLeniency: 0.7
Mode: 3
LetterboxInBreaks: 0
SpecialStyle: 0
WidescreenStoryboard: 1

[Editor]
Bookmarks: 12892,24599,36306,48014,68502,83136,88989,100697,112404,124111,127038,150453,165087
DistanceSpacing: 3.2
BeatDivisor: 4
GridSize: 32
TimelineZoom: 1.3

[Metadata]
Title:The Vampire feat. Hatsune Miku
TitleUnicode:ヴァンパイア feat. 初音ミク
Artist:DECO*27
ArtistUnicode:DECO*27
Creator:Harbyter
Version:Easy
Source:
Tags:ボーカロイド vocaloid japanese pop jpop j-pop deco 27 deco27 deko niina デコ・ニーナ 8th Album MANNEQUIN Rockwell female vocals
BeatmapID:4576480
BeatmapSetID:2168317

[Difficulty]
HPDrainRate:6.5
CircleSize:4
OverallDifficulty:6.5
ApproachRate:5
SliderMultiplier:1.4
SliderTickRate:1

[Events]
//Background and Video events
0,0,"vampirebg.jpg",0,0
//Break Periods
//Storyboard Layer 0 (Background)
//Storyboard Layer 1 (Fail)
//Storyboard Layer 2 (Pass)
//Storyboard Layer 3 (Foreground)
//Storyboard Layer 4 (Overlay)
//Storyboard Sound Samples

[TimingPoints]
1191,365.853658536585,4,2,0,50,1,0
56800,-100,4,2,0,50,0,1
80215,-100,4,2,0,50,0,0
139117,-100,4,2,0,50,0,1
162166,-100,4,2,0,50,0,0

[HitObjects]
64,192,1191,5,0,0:0:0:0:
448,192,1556,1,0,0:0:0:0:
192,192,1922,1,0,0:0:0:0:
320,192,2197,1,0,0:0:0:0:
448,192,2471,1,0,0:0:0:0:
64,192,2837,1,0,0:0:0:0:
448,192,3203,1,0,0:0:0:0:
320,192,3386,1,0,0:0:0:0:
64,192,3660,1,0,0:0:0:0:
448,192,3934,128,0,4300:0:0:0:0:
64,192,4300,1,0,0:0:0:0:
320,192,4483,1,0,0:0:0:0:
64,192,4666,1,0,0:0:0:0:
448,192,4849,1,0,0:0:0:0:
192,192,5123,1,0,0:0:0:0:
320,192,5398,128,0,5947:0:0:0:0:
64,192,5947,1,0,0:0:0:0:
192,192,6130,1,0,0:0:0:0:
448,192,6312,1,0,0:0:0:0:
64,192,6495,1,0,0:0:0:0:
64,192,6678,1,0,0:0:0:0:
320,192,6861,1,0,0:0:0:0:
448,192,7044,1,0,0:0:0:0:
64,192,7044,1,0,0:0:0:0:
192,192,7410,1,0,0:0:0:0:
320,192,7776,1,0,0:0:0:0:
64,192,8142,1,0,0:0:0:0:
448,192,8508,1,0,0:0:0:0:
64,192,8873,1,0,0:0:0:0:
192,192,9056,1,0,0:0:0:0:
320,192,9239,1,0,0:0:0:0:
448,192,9605,1,0,0:0:0:0:
320,192,9788,1,0,0:0:0:0:
192,192,9971,1,0,0:0:0:0:
192,192,10154,1,0,0:0:0:0:
448,192,10337,128,0,10703:0:0:0:0:
64,192,10703,1,0,0:0:0:0:
64,192,10886,1,0,0:0:0:0:
320,192,11069,128,0,11343:0:0:0:0:
192,192,11617,1,0,0:0:0:0:
64,192,11617,1,0,0:0:0:0:
192,192,11983,1,0,0:0:0:0:
64,192,11983,1,0,0:0:0:0:
320,192,12166,1,0,0:0:0:0:
448,192,12166,1,0,0:0:0:0:
448,192,12898,1,0,0:0:0:0:
64,192,12898,1,0,0:0:0:0:
320,192,13264,1,0,0:0:0:0:
64,192,13264,1,0,0:0:0:0:
192,192,13630,1,0,0:0:0:0:
64,192,13995,1,0,0:0:0:0:
448,192,13995,1,0,0:0:0:0:
320,192,14361,1,0,0:0:0:0:
64,192,14727,1,0,0:0:0:0:
192,192,14727,1,0,0:0:0:0:
320,192,15093,1,0,0:0:0:0:
448,192,15459,1,0,0:0:0:0:
64,192,15459,1,0,0:0:0:0:
448,192,15825,1,0,0:0:0:0:
192,192,15825,128,0,16190:0:0:0:0:
64,192,16190,128,0,16556:0:0:0:0:
320,192,16190,1,0,0:0:0:0:
448,192,16556,128,0,16922:0:0:0:0:
64,192,16922,1,0,0:0:0:0:
192,192,16922,1,0,0:0:0:0:
320,192,17105,128,0,17654:0:0:0:0:
64,192,17654,1,0,0:0:0:0:
192,192,17837,1,0,0:0:0:0:
320,192,18020,1,0,0:0:0:0:
448,192,18203,1,0,0:0:0:0:
448,192,18386,128,0,18751:0:0:0:0:
64,192,18751,1,0,0:0:0:0:
192,192,18751,1,0,0:0:0:0:
320,192,19117,1,0,0:0:0:0:
448,192,19117,1,0,0:0:0:0:
192,192,19483,1,0,0:0:0:0:
64,192,19849,1,0,0:0:0:0:
448,192,19849,1,0,0:0:0:0:
320,192,20215,1,0,0:0:0:0:
448,192,20581,1,0,0:0:0:0:
64,192,20581,1,0,0:0:0:0:
192,192,20947,1,0,0:0:0:0:
64,192,21312,1,0,0:0:0:0:
320,192,21312,1,0,0:0:0:0:
448,192,21678,128,0,22044:0:0:0:0:
320,192,22044,128,0,22410:0:0:0:0:
192,192,22044,1,0,0:0:0:0:
64,192,22410,128,0,22776:0:0:0:0:
320,192,22776,1,0,0:0:0:0:
448,192,22776,1,0,0:0:0:0:
192,192,22959,128,0,23508:0:0:0:0:
448,192,23508,1,0,0:0:0:0:
64,192,23508,1,0,0:0:0:0:
192,192,23690,1,0,0:0:0:0:
320,192,23873,128,0,24605:0:0:0:0:
64,192,24239,1,0,0:0:0:0:
448,192,24605,1,0,0:0:0:0:
192,192,24605,1,0,0:0:0:0:
448,192,24971,1,0,0:0:0:0:
448,192,25337,1,0,0:0:0:0:
448,192,25703,1,0,0:0:0:0:
192,192,26069,1,0,0:0:0:0:
192,192,26434,1,0,0:0:0:0:
192,192,26800,1,0,0:0:0:0:
192,192,27166,1,0,0:0:0:0:
320,192,27532,1,0,0:0:0:0:
320,192,27898,1,0,0:0:0:0:
320,192,28264,1,0,0:0:0:0:
320,192,28630,1,0,0:0:0:0:
64,192,28995,1,0,0:0:0:0:
64,192,29361,1,0,0:0:0:0:
64,192,29727,1,0,0:0:0:0:
64,192,30093,1,0,0:0:0:0:
448,192,30459,1,0,0:0:0:0:
448,192,30642,1,0,0:0:0:0:
192,192,31008,1,0,0:0:0:0:
320,192,31190,1,0,0:0:0:0:
320,192,31373,1,0,0:0:0:0:
64,192,31739,1,0,0:0:0:0:
192,192,31922,1,0,0:0:0:0:
192,192,32105,1,0,0:0:0:0:
320,192,32471,1,0,0:0:0:0:
64,192,32654,1,0,0:0:0:0:
192,192,32837,1,0,0:0:0:0:
320,192,33020,1,0,0:0:0:0:
64,192,33203,1,0,0:0:0:0:
448,192,33386,1,0,0:0:0:0:
448,192,33569,1,0,0:0:0:0:
192,192,33934,1,0,0:0:0:0:
320,192,34117,1,0,0:0:0:0:
320,192,34300,1,0,0:0:0:0:
64,192,34666,1,0,0:0:0:0:
192,192,34849,1,0,0:0:0:0:
192,192,35032,1,0,0:0:0:0:
192,192,35398,1,0,0:0:0:0:
448,192,35581,1,0,0:0:0:0:
320,192,35581,1,0,0:0:0:0:
448,192,35947,1,0,0:0:0:0:
320,192,35947,1,0,0:0:0:0:
192,192,36312,1,0,0:0:0:0:
64,192,36312,1,0,0:0:0:0:
448,192,36678,1,0,0:0:0:0:
64,192,36678,1,0,0:0:0:0:
192,192,37044,1,0,0:0:0:0:
320,192,37227,1,0,0:0:0:0:
320,192,37410,1,0,0:0:0:0:
64,192,37776,1,0,0:0:0:0:
192,192,38142,1,0,0:0:0:0:
448,192,38142,1,0,0:0:0:0:
320,192,38508,1,0,0:0:0:0:
192,192,38690,1,0,0:0:0:0:
192,192,38873,1,0,0:0:0:0:
64,192,39239,1,0,0:0:0:0:
448,192,39239,1,0,0:0:0:0:
320,192,39605,1,0,0:0:0:0:
192,192,39605,1,0,0:0:0:0:
64,192,39971,1,0,0:0:0:0:
448,192,39971,1,0,0:0:0:0:
192,192,40337,1,0,0:0:0:0:
320,192,40337,1,0,0:0:0:0:
448,192,40703,1,0,0:0:0:0:
320,192,41069,1,0,0:0:0:0:
64,192,41069,1,0,0:0:0:0:
192,192,41434,1,0,0:0:0:0:
320,192,41617,1,0,0:0:0:0:
448,192,41617,1,0,0:0:0:0:
320,192,41800,1,0,0:0:0:0:
448,192,41800,1,0,0:0:0:0:
64,192,42166,1,0,0:0:0:0:
192,192,42166,1,0,0:0:0:0:
448,192,42532,1,0,0:0:0:0:
64,192,42532,1,0,0:0:0:0:
320,192,42898,1,0,0:0:0:0:
192,192,43081,1,0,0:0:0:0:
192,192,43264,1,0,0:0:0:0:
448,192,43630,1,0,0:0:0:0:
64,192,43995,1,0,0:0:0:0:
320,192,43995,1,0,0:0:0:0:
192,192,44361,1,0,0:0:0:0:
320,192,44544,1,0,0:0:0:0:
320,192,44727,1,0,0:0:0:0:
64,192,45093,1,0,0:0:0:0:
192,192,45276,1,0,0:0:0:0:
320,192,45459,1,0,0:0:0:0:
448,192,45642,1,0,0:0:0:0:
64,192,45825,1,0,0:0:0:0:
320,192,46190,1,0,0:0:0:0:
320,192,46373,1,0,0:0:0:0:
192,192,46556,1,0,0:0:0:0:
320,192,46922,1,0,0:0:0:0:
448,192,46922,1,0,0:0:0:0:
64,192,47288,1,0,0:0:0:0:
64,192,47471,1,0,0:0:0:0:
192,192,47654,128,0,48020:0:0:0:0:
448,192,48020,1,0,0:0:0:0:
320,192,48020,1,0,0:0:0:0:
320,192,48294,1,0,0:0:0:0:
320,192,48569,1,0,0:0:0:0:
192,192,48751,128,0,49117:0:0:0:0:
64,192,48751,1,0,0:0:0:0:
320,192,49117,128,0,49483:0:0:0:0:
192,192,49483,1,0,0:0:0:0:
192,192,49758,1,0,0:0:0:0:
192,192,50032,1,0,0:0:0:0:
448,192,50215,1,0,0:0:0:0:
320,192,50215,128,0,50581:0:0:0:0:
64,192,50581,128,0,50947:0:0:0:0:
448,192,50947,1,0,0:0:0:0:
320,192,50947,1,0,0:0:0:0:
320,192,51221,1,0,0:0:0:0:
320,192,51495,1,0,0:0:0:0:
192,192,51678,128,0,52044:0:0:0:0:
64,192,51678,1,0,0:0:0:0:
320,192,52044,128,0,52410:0:0:0:0:
448,192,52410,1,0,0:0:0:0:
64,192,52410,1,0,0:0:0:0:
192,192,52593,1,0,0:0:0:0:
320,192,52776,1,0,0:0:0:0:
64,192,52959,1,0,0:0:0:0:
448,192,53142,128,0,53508:0:0:0:0:
320,192,53508,128,0,53873:0:0:0:0:
64,192,53873,1,0,0:0:0:0:
192,192,53873,1,0,0:0:0:0:
64,192,54239,1,0,0:0:0:0:
192,192,54239,1,0,0:0:0:0:
64,192,54605,1,0,0:0:0:0:
192,192,54605,1,0,0:0:0:0:
320,192,54788,1,0,0:0:0:0:
448,192,54788,1,0,0:0:0:0:
64,192,55154,128,0,55520:0:0:0:0:
192,192,55154,128,0,55520:0:0:0:0:
448,192,55520,1,0,0:0:0:0:
320,192,55703,1,0,0:0:0:0:
192,192,55886,1,0,0:0:0:0:
64,192,56069,1,0,0:0:0:0:
448,192,56434,128,0,56800:0:0:0:0:
64,192,56800,128,0,57166:0:0:0:0:
192,192,56800,128,0,57166:0:0:0:0:
320,192,57166,1,0,0:0:0:0:
448,192,57166,1,0,0:0:0:0:
192,192,57532,1,0,0:0:0:0:
64,192,57898,1,0,0:0:0:0:
448,192,57898,1,0,0:0:0:0:
320,192,58264,1,0,0:0:0:0:
64,192,58630,1,0,0:0:0:0:
192,192,58630,1,0,0:0:0:0:
320,192,58995,1,0,0:0:0:0:
64,192,59361,1,0,0:0:0:0:
448,192,59361,1,0,0:0:0:0:
192,192,59727,1,0,0:0:0:0:
448,192,59727,1,0,0:0:0:0:
320,192,60093,1,0,0:0:0:0:
64,192,60276,1,0,0:0:0:0:
320,192,60459,1,0,0:0:0:0:
64,192,60825,1,0,0:0:0:0:
192,192,60825,1,0,0:0:0:0:
448,192,61008,128,0,61556:0:0:0:0:
192,192,61556,1,0,0:0:0:0:
320,192,61739,1,0,0:0:0:0:
448,192,61922,1,0,0:0:0:0:
64,192,62105,1,0,0:0:0:0:
64,192,62288,1,0,0:0:0:0:
192,192,62471,1,0,0:0:0:0:
448,192,62654,128,0,63020:0:0:0:0:
320,192,62654,128,0,63020:0:0:0:0:
192,192,63020,1,0,0:0:0:0:
64,192,63020,1,0,0:0:0:0:
320,192,63386,1,0,0:0:0:0:
64,192,63751,1,0,0:0:0:0:
448,192,63751,1,0,0:0:0:0:
320,192,64117,1,0,0:0:0:0:
64,192,64483,1,0,0:0:0:0:
192,192,64483,1,0,0:0:0:0:
448,192,64849,128,0,65215:0:0:0:0:
64,192,65215,1,0,0:0:0:0:
320,192,65398,1,0,0:0:0:0:
192,192,65581,1,0,0:0:0:0:
64,192,65947,128,0,66312:0:0:0:0:
448,192,65947,128,0,66312:0:0:0:0:
320,192,66312,1,0,0:0:0:0:
192,192,66495,1,0,0:0:0:0:
64,192,66678,1,0,0:0:0:0:
448,192,66861,128,0,67410:0:0:0:0:
64,192,67410,1,0,0:0:0:0:
192,192,67410,1,0,0:0:0:0:
320,192,67776,1,0,0:0:0:0:
192,192,68142,128,0,68508:0:0:0:0:
320,192,68508,1,0,0:0:0:0:
448,192,68508,1,0,0:0:0:0:
64,192,68690,1,0,0:0:0:0:
320,192,68873,1,0,0:0:0:0:
192,192,69239,1,0,0:0:0:0:
448,192,69422,1,0,0:0:0:0:
320,192,69605,1,0,0:0:0:0:
64,192,69971,1,0,0:0:0:0:
192,192,70154,1,0,0:0:0:0:
320,192,70337,1,0,0:0:0:0:
448,192,70703,1,0,0:0:0:0:
192,192,71069,1,0,0:0:0:0:
64,192,71251,1,0,0:0:0:0:
320,192,71434,1,0,0:0:0:0:
448,192,71434,1,0,0:0:0:0:
192,192,71800,1,0,0:0:0:0:
320,192,71983,1,0,0:0:0:0:
64,192,72349,1,0,0:0:0:0:
192,192,72532,1,0,0:0:0:0:
320,192,72715,1,0,0:0:0:0:
448,192,72898,128,0,73264:0:0:0:0:
192,192,73264,128,0,73630:0:0:0:0:
64,192,73630,128,0,74361:0:0:0:0:
320,192,73630,1,0,0:0:0:0:
320,192,73995,1,0,0:0:0:0:
448,192,74361,128,0,74727:0:0:0:0:
320,192,74361,128,0,74727:0:0:0:0:
192,192,74727,1,0,0:0:0:0:
64,192,74727,1,0,0:0:0:0:
320,192,75093,1,0,0:0:0:0:
64,192,75459,1,0,0:0:0:0:
448,192,75459,1,0,0:0:0:0:
192,192,75825,1,0,0:0:0:0:
320,192,76190,1,0,0:0:0:0:
64,192,76373,1,0,0:0:0:0:
448,192,76556,128,0,76922:0:0:0:0:
64,192,76922,1,0,0:0:0:0:
192,192,77105,1,0,0:0:0:0:
320,192,77288,1,0,0:0:0:0:
448,192,77654,128,0,78020:0:0:0:0:
64,192,77654,128,0,78020:0:0:0:0:
320,192,78020,1,0,0:0:0:0:
192,192,78203,1,0,0:0:0:0:
448,192,78386,1,0,0:0:0:0:
64,192,78569,128,0,79117:0:0:0:0:
448,192,79117,1,0,0:0:0:0:
320,192,79117,1,0,0:0:0:0:
192,192,79483,1,0,0:0:0:0:
320,192,79666,1,0,0:0:0:0:
448,192,79849,1,0,0:0:0:0:
64,192,80215,1,0,0:0:0:0:
192,192,80215,1,0,0:0:0:0:
64,192,80398,1,0,0:0:0:0:
192,192,80398,1,0,0:0:0:0:
448,192,80947,1,0,0:0:0:0:
320,192,80947,1,0,0:0:0:0:
448,192,81130,1,0,0:0:0:0:
320,192,81130,1,0,0:0:0:0:
64,192,81861,1,0,0:0:0:0:
192,192,81861,1,0,0:0:0:0:
64,192,82227,1,0,0:0:0:0:
192,192,82227,1,0,0:0:0:0:
320,192,82410,1,0,0:0:0:0:
448,192,82410,1,0,0:0:0:0:
448,192,83142,1,0,0:0:0:0:
64,192,83142,1,0,0:0:0:0:
320,192,83508,1,0,0:0:0:0:
64,192,83508,1,0,0:0:0:0:
192,192,83873,1,0,0:0:0:0:
64,192,84239,1,0,0:0:0:0:
448,192,84239,1,0,0:0:0:0:
320,192,84605,1,0,0:0:0:0:
64,192,84971,1,0,0:0:0:0:
192,192,84971,1,0,0:0:0:0:
320,192,85337,1,0,0:0:0:0:
448,192,85703,1,0,0:0:0:0:
64,192,85703,1,0,0:0:0:0:
192,192,86069,128,0,86434:0:0:0:0:
64,192,86434,128,0,86800:0:0:0:0:
448,192,86434,1,0,0:0:0:0:
320,192,86800,128,0,87166:0:0:0:0:
64,192,87166,1,0,0:0:0:0:
192,192,87166,1,0,0:0:0:0:
448,192,87349,128,0,87898:0:0:0:0:
320,192,87349,1,0,0:0:0:0:
64,192,87898,1,0,0:0:0:0:
192,192,87898,1,0,0:0:0:0:
320,192,88081,1,0,0:0:0:0:
192,192,88264,128,0,88630:0:0:0:0:
448,192,88630,128,0,88995:0:0:0:0:
64,192,88995,1,0,0:0:0:0:
320,192,89361,1,0,0:0:0:0:
64,192,89727,1,0,0:0:0:0:
320,192,90093,1,0,0:0:0:0:
192,192,90459,1,0,0:0:0:0:
448,192,90825,1,0,0:0:0:0:
192,192,91190,1,0,0:0:0:0:
448,192,91556,1,0,0:0:0:0:
64,192,91922,1,0,0:0:0:0:
448,192,92288,1,0,0:0:0:0:
64,192,92654,1,0,0:0:0:0:
448,192,93020,1,0,0:0:0:0:
192,192,93386,1,0,0:0:0:0:
320,192,93751,1,0,0:0:0:0:
192,192,94117,1,0,0:0:0:0:
320,192,94483,1,0,0:0:0:0:
448,192,94849,1,0,0:0:0:0:
192,192,95215,1,0,0:0:0:0:
448,192,95581,1,0,0:0:0:0:
192,192,95947,1,0,0:0:0:0:
320,192,96312,1,0,0:0:0:0:
64,192,96678,1,0,0:0:0:0:
320,192,97044,1,0,0:0:0:0:
64,192,97410,1,0,0:0:0:0:
448,192,97776,128,0,98508:0:0:0:0:
320,192,98508,1,0,0:0:0:0:
192,192,98690,1,0,0:0:0:0:
64,192,98873,1,0,0:0:0:0:
448,192,99239,1,0,0:0:0:0:
320,192,99239,1,0,0:0:0:0:
448,192,99422,1,0,0:0:0:0:
320,192,99422,1,0,0:0:0:0:
192,192,99971,1,0,0:0:0:0:
64,192,99971,1,0,0:0:0:0:
320,192,100154,1,0,0:0:0:0:
448,192,100337,128,0,100703:0:0:0:0:
192,192,100703,1,0,0:0:0:0:
64,192,100703,1,0,0:0:0:0:
448,192,101069,1,0,0:0:0:0:
64,192,101069,1,0,0:0:0:0:
192,192,101434,1,0,0:0:0:0:
320,192,101617,1,0,0:0:0:0:
320,192,101800,1,0,0:0:0:0:
64,192,102166,1,0,0:0:0:0:
192,192,102532,1,0,0:0:0:0:
448,192,102532,1,0,0:0:0:0:
320,192,102898,1,0,0:0:0:0:
192,192,103081,1,0,0:0:0:0:
192,192,103264,1,0,0:0:0:0:
64,192,103630,1,0,0:0:0:0:
448,192,103630,1,0,0:0:0:0:
320,192,103995,1,0,0:0:0:0:
192,192,103995,1,0,0:0:0:0:
64,192,104361,1,0,0:0:0:0:
448,192,104361,1,0,0:0:0:0:
192,192,104727,1,0,0:0:0:0:
320,192,104727,1,0,0:0:0:0:
448,192,105093,1,0,0:0:0:0:
320,192,105459,1,0,0:0:0:0:
64,192,105459,1,0,0:0:0:0:
192,192,105825,1,0,0:0:0:0:
448,192,106008,1,0,0:0:0:0:
192,192,106190,1,0,0:0:0:0:
448,192,106373,1,0,0:0:0:0:
64,192,106556,1,0,0:0:0:0:
192,192,106556,1,0,0:0:0:0:
448,192,106922,1,0,0:0:0:0:
64,192,106922,1,0,0:0:0:0:
320,192,107288,1,0,0:0:0:0:
192,192,107471,1,0,0:0:0:0:
192,192,107654,1,0,0:0:0:0:
448,192,108020,1,0,0:0:0:0:
64,192,108386,1,0,0:0:0:0:
320,192,108386,1,0,0:0:0:0:
192,192,108751,1,0,0:0:0:0:
320,192,108934,1,0,0:0:0:0:
320,192,109117,1,0,0:0:0:0:
64,192,109483,1,0,0:0:0:0:
192,192,109849,1,0,0:0:0:0:
448,192,109849,1,0,0:0:0:0:
64,192,110215,1,0,0:0:0:0:
320,192,110581,1,0,0:0:0:0:
448,192,110581,1,0,0:0:0:0:
64,192,110947,1,0,0:0:0:0:
192,192,111130,1,0,0:0:0:0:
320,192,111312,1,0,0:0:0:0:
448,192,111495,1,0,0:0:0:0:
64,192,111678,128,0,112044:0:0:0:0:
192,192,112044,128,0,112410:0:0:0:0:
448,192,112410,1,0,0:0:0:0:
320,192,112410,1,0,0:0:0:0:
320,192,112684,1,0,0:0:0:0:
320,192,112959,1,0,0:0:0:0:
192,192,113142,128,0,113508:0:0:0:0:
64,192,113142,1,0,0:0:0:0:
320,192,113508,128,0,113873:0:0:0:0:
192,192,113873,1,0,0:0:0:0:
192,192,114148,1,0,0:0:0:0:
192,192,114422,1,0,0:0:0:0:
448,192,114605,1,0,0:0:0:0:
320,192,114605,128,0,114971:0:0:0:0:
64,192,114971,128,0,115337:0:0:0:0:
448,192,115337,1,0,0:0:0:0:
320,192,115337,1,0,0:0:0:0:
320,192,115611,1,0,0:0:0:0:
320,192,115886,1,0,0:0:0:0:
192,192,116069,128,0,116434:0:0:0:0:
64,192,116069,1,0,0:0:0:0:
320,192,116434,128,0,116800:0:0:0:0:
64,192,116800,1,0,0:0:0:0:
448,192,116800,1,0,0:0:0:0:
192,192,116983,1,0,0:0:0:0:
320,192,117166,1,0,0:0:0:0:
448,192,117349,1,0,0:0:0:0:
192,192,117532,128,0,117898:0:0:0:0:
448,192,117898,128,0,118264:0:0:0:0:
320,192,117898,1,0,0:0:0:0:
64,192,118264,1,0,0:0:0:0:
192,192,118264,1,0,0:0:0:0:
192,192,118538,1,0,0:0:0:0:
192,192,118812,1,0,0:0:0:0:
320,192,118995,128,0,119361:0:0:0:0:
448,192,118995,1,0,0:0:0:0:
192,192,119361,128,0,119727:0:0:0:0:
320,192,119727,1,0,0:0:0:0:
320,192,120001,1,0,0:0:0:0:
320,192,120276,1,0,0:0:0:0:
64,192,120459,1,0,0:0:0:0:
192,192,120459,128,0,120825:0:0:0:0:
448,192,120825,128,0,121190:0:0:0:0:
192,192,121190,1,0,0:0:0:0:
64,192,121190,1,0,0:0:0:0:
192,192,121465,1,0,0:0:0:0:
192,192,121739,1,0,0:0:0:0:
320,192,121922,128,0,122288:0:0:0:0:
448,192,121922,1,0,0:0:0:0:
192,192,122288,128,0,122654:0:0:0:0:
64,192,122654,1,0,0:0:0:0:
448,192,122654,1,0,0:0:0:0:
320,192,122837,1,0,0:0:0:0:
192,192,123020,1,0,0:0:0:0:
64,192,123203,1,0,0:0:0:0:
320,192,123386,128,0,123751:0:0:0:0:
448,192,123751,128,0,124117:0:0:0:0:
64,192,124117,1,0,0:0:0:0:
192,192,124117,1,0,0:0:0:0:
64,192,124483,1,0,0:0:0:0:
192,192,124483,1,0,0:0:0:0:
64,192,124849,1,0,0:0:0:0:
192,192,124849,1,0,0:0:0:0:
448,192,125032,1,0,0:0:0:0:
320,192,125032,1,0,0:0:0:0:
64,192,125398,128,0,125764:0:0:0:0:
192,192,125398,128,0,125764:0:0:0:0:
448,192,125764,1,0,0:0:0:0:
320,192,125947,5,0,0:0:0:0:
192,192,126130,1,0,0:0:0:0:
64,192,126312,1,0,0:0:0:0:
64,192,127044,5,0,0:0:0:0:
320,192,127044,1,0,0:0:0:0:
448,192,127410,1,0,0:0:0:0:
192,192,127776,1,0,0:0:0:0:
320,192,128050,1,0,0:0:0:0:
64,192,128325,1,0,0:0:0:0:
448,192,128690,1,0,0:0:0:0:
192,192,129056,1,0,0:0:0:0:
320,192,129239,1,0,0:0:0:0:
64,192,129514,1,0,0:0:0:0:
448,192,129788,128,0,130154:0:0:0:0:
64,192,130154,1,0,0:0:0:0:
320,192,130337,1,0,0:0:0:0:
64,192,130520,1,0,0:0:0:0:
448,192,130703,1,0,0:0:0:0:
192,192,130977,1,0,0:0:0:0:
320,192,131251,128,0,131800:0:0:0:0:
64,192,131800,1,0,0:0:0:0:
192,192,131983,1,0,0:0:0:0:
448,192,132166,1,0,0:0:0:0:
64,192,132349,1,0,0:0:0:0:
192,192,132532,1,0,0:0:0:0:
320,192,132715,1,0,0:0:0:0:
64,192,132898,128,0,133630:0:0:0:0:
448,192,132898,128,0,133630:0:0:0:0:
192,192,133630,128,0,134361:0:0:0:0:
320,192,133630,128,0,134361:0:0:0:0:
448,192,134361,128,0,135093:0:0:0:0:
64,192,134361,128,0,135093:0:0:0:0:
320,192,135093,128,0,135825:0:0:0:0:
192,192,135093,128,0,135825:0:0:0:0:
448,192,135825,1,0,0:0:0:0:
64,192,135825,128,0,136190:0:0:0:0:
192,192,136190,128,0,136556:0:0:0:0:
448,192,136190,1,0,0:0:0:0:
64,192,136556,1,0,0:0:0:0:
320,192,136556,128,0,136922:0:0:0:0:
448,192,136922,128,0,137288:0:0:0:0:
64,192,136922,1,0,0:0:0:0:
192,192,137288,1,0,0:0:0:0:
192,192,137471,1,0,0:0:0:0:
320,192,137654,1,0,0:0:0:0:
320,192,137837,1,0,0:0:0:0:
64,192,138020,128,0,138386:0:0:0:0:
448,192,138020,128,0,138386:0:0:0:0:
192,192,138386,1,0,0:0:0:0:
320,192,138386,1,0,0:0:0:0:
192,192,138751,128,0,139117:0:0:0:0:
320,192,139117,1,0,0:0:0:0:
448,192,139117,1,0,0:0:0:0:
192,192,139483,1,0,0:0:0:0:
64,192,139849,1,0,0:0:0:0:
448,192,139849,1,0,0:0:0:0:
320,192,140215,1,0,0:0:0:0:
64,192,140581,1,0,0:0:0:0:
192,192,140581,1,0,0:0:0:0:
320,192,140947,1,0,0:0:0:0:
64,192,141312,1,0,0:0:0:0:
448,192,141312,1,0,0:0:0:0:
192,192,141678,1,0,0:0:0:0:
448,192,141678,1,0,0:0:0:0:
320,192,142044,1,0,0:0:0:0:
64,192,142227,1,0,0:0:0:0:
320,192,142410,1,0,0:0:0:0:
64,192,142776,1,0,0:0:0:0:
192,192,142776,1,0,0:0:0:0:
448,192,142959,128,0,143325:0:0:0:0:
64,192,143325,1,0,0:0:0:0:
192,192,143508,1,0,0:0:0:0:
320,192,143690,1,0,0:0:0:0:
448,192,143873,1,0,0:0:0:0:
64,192,144056,1,0,0:0:0:0:
64,192,144239,1,0,0:0:0:0:
192,192,144422,1,0,0:0:0:0:
448,192,144605,128,0,144971:0:0:0:0:
320,192,144605,128,0,144971:0:0:0:0:
192,192,144971,1,0,0:0:0:0:
64,192,144971,1,0,0:0:0:0:
320,192,145337,1,0,0:0:0:0:
64,192,145703,1,0,0:0:0:0:
448,192,145703,1,0,0:0:0:0:
320,192,146069,1,0,0:0:0:0:
64,192,146434,1,0,0:0:0:0:
192,192,146434,1,0,0:0:0:0:
448,192,146800,128,0,147166:0:0:0:0:
64,192,147166,1,0,0:0:0:0:
192,192,147349,1,0,0:0:0:0:
320,192,147532,1,0,0:0:0:0:
64,192,147898,128,0,148264:0:0:0:0:
448,192,147898,128,0,148264:0:0:0:0:
192,192,148264,1,0,0:0:0:0:
320,192,148447,1,0,0:0:0:0:
448,192,148630,1,0,0:0:0:0:
64,192,148812,128,0,149361:0:0:0:0:
448,192,149361,1,0,0:0:0:0:
320,192,149361,1,0,0:0:0:0:
192,192,149727,1,0,0:0:0:0:
448,192,150093,128,0,150459:0:0:0:0:
192,192,150459,1,0,0:0:0:0:
64,192,150459,1,0,0:0:0:0:
320,192,150642,1,0,0:0:0:0:
192,192,150825,1,0,0:0:0:0:
448,192,151190,1,0,0:0:0:0:
192,192,151373,1,0,0:0:0:0:
320,192,151556,1,0,0:0:0:0:
64,192,151922,1,0,0:0:0:0:
192,192,152105,1,0,0:0:0:0:
320,192,152288,1,0,0:0:0:0:
64,192,152654,1,0,0:0:0:0:
320,192,153020,1,0,0:0:0:0:
448,192,153203,1,0,0:0:0:0:
64,192,153386,1,0,0:0:0:0:
192,192,153386,1,0,0:0:0:0:
320,192,153751,1,0,0:0:0:0:
192,192,153934,1,0,0:0:0:0:
64,192,154300,1,0,0:0:0:0:
320,192,154483,1,0,0:0:0:0:
192,192,154666,1,0,0:0:0:0:
448,192,154849,128,0,155215:0:0:0:0:
192,192,155215,128,0,155581:0:0:0:0:
64,192,155581,128,0,156312:0:0:0:0:
448,192,155581,1,0,0:0:0:0:
448,192,155947,1,0,0:0:0:0:
448,192,156312,128,0,156678:0:0:0:0:
320,192,156312,128,0,156678:0:0:0:0:
192,192,156678,1,0,0:0:0:0:
64,192,156678,1,0,0:0:0:0:
320,192,157044,1,0,0:0:0:0:
64,192,157410,1,0,0:0:0:0:
448,192,157410,1,0,0:0:0:0:
192,192,157776,1,0,0:0:0:0:
320,192,158142,1,0,0:0:0:0:
64,192,158325,1,0,0:0:0:0:
448,192,158508,128,0,158873:0:0:0:0:
64,192,158873,1,0,0:0:0:0:
192,192,159056,1,0,0:0:0:0:
320,192,159239,1,0,0:0:0:0:
448,192,159605,128,0,159971:0:0:0:0:
64,192,159605,128,0,159971:0:0:0:0:
320,192,159971,1,0,0:0:0:0:
192,192,160154,1,0,0:0:0:0:
448,192,160337,1,0,0:0:0:0:
64,192,160520,128,0,161069:0:0:0:0:
448,192,161069,1,0,0:0:0:0:
320,192,161069,1,0,0:0:0:0:
192,192,161434,1,0,0:0:0:0:
320,192,161617,1,0,0:0:0:0:
448,192,161800,1,0,0:0:0:0:
64,192,162166,1,0,0:0:0:0:
192,192,162166,1,0,0:0:0:0:
64,192,162349,1,0,0:0:0:0:
192,192,162349,1,0,0:0:0:0:
448,192,162898,1,0,0:0:0:0:
320,192,162898,1,0,0:0:0:0:
448,192,163081,1,0,0:0:0:0:
320,192,163081,1,0,0:0:0:0:
64,192,163812,5,0,0:0:0:0:
192,192,163812,1,0,0:0:0:0:
64,192,164178,1,0,0:0:0:0:
192,192,164178,1,0,0:0:0:0:
320,192,164361,1,0,0:0:0:0:
448,192,164361,1,0,0:0:0:0:
448,192,164727,128,0,165093:0:0:0:0:
64,192,165093,1,0,0:0:0:0:
192,192,165093,1,0,0:0:0:0:
320,192,165459,1,0,0:0:0:0:
192,192,165459,1,0,0:0:0:0:
448,192,165825,1,0,0:0:0:0:
64,192,166008,1,0,0:0:0:0:
448,192,166373,1,0,0:0:0:0:
64,192,166739,1,0,0:0:0:0:
448,192,166922,1,0,0:0:0:0:
64,192,167105,1,0,0:0:0:0:
448,192,167288,128,0,167654:0:0:0:0:
64,192,167654,1,0,0:0:0:0:
448,192,168020,1,0,0:0:0:0:
320,192,168020,1,0,0:0:0:0:
192,192,168386,1,0,0:0:0:0:
320,192,168386,1,0,0:0:0:0:
64,192,168751,1,0,0:0:0:0:
448,192,168934,1,0,0:0:0:0:
64,192,169300,1,0,0:0:0:0:
320,192,169666,1,0,0:0:0:0:
192,192,169849,1,0,0:0:0:0:
320,192,170032,1,0,0:0:0:0:
192,192,170215,128,0,170581:0:0:0:0:
448,192,170581,1,0,0:0:0:0:
320,192,170764,1,0,0:0:0:0:
64,192,170947,1,0,0:0:0:0:
192,192,170947,1,0,0:0:0:0:
192,192,171312,1,0,0:0:0:0:
320,192,171312,1,0,0:0:0:0:
448,192,171678,1,0,0:0:0:0:
64,192,171861,1,0,0:0:0:0:
448,192,172227,1,0,0:0:0:0:
64,192,172593,1,0,0:0:0:0:
448,192,172776,1,0,0:0:0:0:
64,192,172959,1,0,0:0:0:0:
448,192,173142,128,0,173508:0:0:0:0:
64,192,173508,1,0,0:0:0:0:
320,192,173873,1,0,0:0:0:0:
64,192,174239,128,0,174605:0:0:0:0:
448,192,174239,128,0,174605:0:0:0:0:
320,192,174605,1,0,0:0:0:0:
192,192,174788,1,0,0:0:0:0:
448,192,174971,1,0,0:0:0:0:
64,192,175154,128,0,176434:0:0:0:0:
320,192,175703,1,0,0:0:0:0:
320,192,176069,1,0,0:0:0:0:
448,192,176434,128,0,176937:0:0:0:0:
