osu file format v14

[General]
AudioFilename: audio.mp3
AudioLeadIn: 0
PreviewTime: 55886
Countdown: 0
SampleSet: Soft
StackLeniency: 0.7
Mode: 3
LetterboxInBreaks: 0
SpecialStyle: 0
WidescreenStoryboard: 0

[Editor]
Bookmarks: 12892,24599,36306,48014,68502,83136,88989,100697,112404,124111,127038,150453,165087
DistanceSpacing: 3.2
BeatDivisor: 6
GridSize: 32
TimelineZoom: 1.5

[Metadata]
Title:The Vampire feat. Hatsune Miku
TitleUnicode:ヴァンパイア feat. 初音ミク
Artist:DECO*27
ArtistUnicode:DECO*27
Creator:Harbyter
Version:ChuChu
Source:
Tags:ボーカロイド vocaloid japanese pop jpop j-pop deco 27 deco27 deko niina デコ・ニーナ 8th Album MANNEQUIN Rockwell female vocals
BeatmapID:4574905
BeatmapSetID:2168317

[Difficulty]
HPDrainRate:8
CircleSize:4
OverallDifficulty:8
ApproachRate:5
SliderMultiplier:1.4
SliderTickRate:1

[Events]
//Background and Video events
0,0,"vampirebg.jpg",0,0
//Break Periods
//Storyboard Layer 0 (Background)
//Storyboard Layer 1 (Fail)
//Storyboard Layer 2 (Pass)
//Storyboard Layer 3 (Foreground)
//Storyboard Layer 4 (Overlay)
//Storyboard Sound Samples

[TimingPoints]
1191,365.853658536585,4,2,0,50,1,0
56800,-100,4,2,0,50,0,1
80215,-100,4,2,0,50,0,0
139117,-100,4,2,0,50,0,1
162166,-100,4,2,0,50,0,0

[HitObjects]
64,192,276,5,0,0:0:0:0:
320,192,459,1,0,0:0:0:0:
192,192,642,1,0,0:0:0:0:
448,192,825,1,0,0:0:0:0:
64,192,1191,1,0,0:0:0:0:
192,192,1191,1,0,0:0:0:0:
320,192,1373,1,0,0:0:0:0:
64,192,1556,1,0,0:0:0:0:
448,192,1556,1,0,0:0:0:0:
192,192,1739,1,0,0:0:0:0:
320,192,1922,1,0,0:0:0:0:
448,192,1922,1,0,0:0:0:0:
192,192,2105,1,0,0:0:0:0:
64,192,2197,1,0,0:0:0:0:
320,192,2288,1,0,0:0:0:0:
64,192,2471,1,0,0:0:0:0:
320,192,2471,1,0,0:0:0:0:
192,192,2654,1,0,0:0:0:0:
448,192,2837,1,0,0:0:0:0:
64,192,2837,1,0,0:0:0:0:
320,192,2928,1,0,0:0:0:0:
192,192,3020,1,0,0:0:0:0:
64,192,3203,1,0,0:0:0:0:
320,192,3203,1,0,0:0:0:0:
448,192,3386,1,0,0:0:0:0:
192,192,3386,1,0,0:0:0:0:
320,192,3569,1,0,0:0:0:0:
448,192,3660,1,0,0:0:0:0:
192,192,3751,1,0,0:0:0:0:
64,192,3934,1,0,0:0:0:0:
448,192,3934,1,0,0:0:0:0:
320,192,4026,1,0,0:0:0:0:
64,192,4117,1,0,0:0:0:0:
192,192,4209,1,0,0:0:0:0:
448,192,4300,1,0,0:0:0:0:
320,192,4300,1,0,0:0:0:0:
64,192,4392,1,0,0:0:0:0:
320,192,4483,1,0,0:0:0:0:
448,192,4483,1,0,0:0:0:0:
320,192,4666,1,0,0:0:0:0:
448,192,4666,1,0,0:0:0:0:
192,192,4758,1,0,0:0:0:0:
64,192,4849,1,0,0:0:0:0:
448,192,4849,1,0,0:0:0:0:
320,192,5032,1,0,0:0:0:0:
192,192,5123,1,0,0:0:0:0:
320,192,5215,1,0,0:0:0:0:
448,192,5215,1,0,0:0:0:0:
64,192,5306,1,0,0:0:0:0:
192,192,5398,1,0,0:0:0:0:
448,192,5398,1,0,0:0:0:0:
320,192,5489,1,0,0:0:0:0:
64,192,5581,1,0,0:0:0:0:
448,192,5581,1,0,0:0:0:0:
192,192,5672,1,0,0:0:0:0:
320,192,5764,1,0,0:0:0:0:
448,192,5764,1,0,0:0:0:0:
192,192,5947,1,0,0:0:0:0:
320,192,5947,1,0,0:0:0:0:
64,192,6130,1,0,0:0:0:0:
320,192,6130,1,0,0:0:0:0:
192,192,6312,1,0,0:0:0:0:
448,192,6312,1,0,0:0:0:0:
64,192,6495,1,0,0:0:0:0:
192,192,6495,1,0,0:0:0:0:
448,192,6495,1,0,0:0:0:0:
64,192,6678,1,0,0:0:0:0:
320,192,6678,1,0,0:0:0:0:
448,192,6678,1,0,0:0:0:0:
192,192,6861,1,0,0:0:0:0:
320,192,6861,1,0,0:0:0:0:
64,192,7044,1,0,0:0:0:0:
192,192,7044,1,0,0:0:0:0:
320,192,7044,1,0,0:0:0:0:
448,192,7044,1,0,0:0:0:0:
448,192,7227,1,0,0:0:0:0:
64,192,7410,1,0,0:0:0:0:
192,192,7410,1,0,0:0:0:0:
320,192,7410,1,0,0:0:0:0:
448,192,7593,1,0,0:0:0:0:
320,192,7776,1,0,0:0:0:0:
64,192,7776,1,0,0:0:0:0:
64,192,7959,1,0,0:0:0:0:
448,192,7959,1,0,0:0:0:0:
192,192,8050,1,0,0:0:0:0:
320,192,8142,1,0,0:0:0:0:
448,192,8142,1,0,0:0:0:0:
64,192,8325,1,0,0:0:0:0:
192,192,8325,1,0,0:0:0:0:
448,192,8416,1,0,0:0:0:0:
320,192,8508,1,0,0:0:0:0:
192,192,8508,1,0,0:0:0:0:
64,192,8599,1,0,0:0:0:0:
448,192,8690,1,0,0:0:0:0:
320,192,8690,1,0,0:0:0:0:
192,192,8782,1,0,0:0:0:0:
64,192,8873,1,0,0:0:0:0:
448,192,8873,1,0,0:0:0:0:
192,192,9056,1,0,0:0:0:0:
320,192,9056,1,0,0:0:0:0:
64,192,9239,1,0,0:0:0:0:
448,192,9239,1,0,0:0:0:0:
192,192,9331,1,0,0:0:0:0:
320,192,9422,1,0,0:0:0:0:
448,192,9422,1,0,0:0:0:0:
64,192,9514,1,0,0:0:0:0:
192,192,9605,1,0,0:0:0:0:
320,192,9605,1,0,0:0:0:0:
448,192,9605,1,0,0:0:0:0:
192,192,9788,1,0,0:0:0:0:
320,192,9788,1,0,0:0:0:0:
64,192,9971,1,0,0:0:0:0:
448,192,9971,1,0,0:0:0:0:
192,192,9971,1,0,0:0:0:0:
64,192,10154,1,0,0:0:0:0:
448,192,10154,1,0,0:0:0:0:
320,192,10154,1,0,0:0:0:0:
192,192,10245,1,0,0:0:0:0:
448,192,10337,1,0,0:0:0:0:
320,192,10337,1,0,0:0:0:0:
192,192,10428,1,0,0:0:0:0:
320,192,10520,1,0,0:0:0:0:
192,192,10611,1,0,0:0:0:0:
448,192,10703,1,0,0:0:0:0:
64,192,10703,1,0,0:0:0:0:
320,192,10703,1,0,0:0:0:0:
64,192,10886,1,0,0:0:0:0:
448,192,10886,1,0,0:0:0:0:
192,192,10886,1,0,0:0:0:0:
320,192,10977,1,0,0:0:0:0:
192,192,11069,1,0,0:0:0:0:
64,192,11069,1,0,0:0:0:0:
320,192,11160,1,0,0:0:0:0:
448,192,11251,1,0,0:0:0:0:
64,192,11251,1,0,0:0:0:0:
192,192,11343,1,0,0:0:0:0:
64,192,11617,1,0,0:0:0:0:
320,192,11617,1,0,0:0:0:0:
448,192,11617,1,0,0:0:0:0:
64,192,11983,1,0,0:0:0:0:
320,192,11983,1,0,0:0:0:0:
448,192,11983,1,0,0:0:0:0:
64,192,12166,1,0,0:0:0:0:
192,192,12166,1,0,0:0:0:0:
320,192,12166,1,0,0:0:0:0:
64,192,12898,128,0,13081:0:0:0:0:
192,192,12898,128,0,13081:0:0:0:0:
448,192,12898,128,0,13081:0:0:0:0:
320,192,13081,128,0,13264:0:0:0:0:
64,192,13264,128,0,13447:0:0:0:0:
192,192,13264,128,0,13447:0:0:0:0:
320,192,13447,128,0,13630:0:0:0:0:
448,192,13630,128,0,13812:0:0:0:0:
64,192,13630,128,0,13721:0:0:0:0:
320,192,13812,128,0,13995:0:0:0:0:
192,192,13812,128,0,13904:0:0:0:0:
64,192,13995,128,0,14178:0:0:0:0:
448,192,13995,128,0,14087:0:0:0:0:
320,192,14178,128,0,14361:0:0:0:0:
448,192,14178,128,0,14361:0:0:0:0:
64,192,14361,128,0,14544:0:0:0:0:
192,192,14361,128,0,14544:0:0:0:0:
320,192,14544,128,0,14727:0:0:0:0:
64,192,14727,128,0,14910:0:0:0:0:
448,192,14727,128,0,14910:0:0:0:0:
192,192,14910,128,0,15093:0:0:0:0:
320,192,14910,128,0,15093:0:0:0:0:
448,192,15093,128,0,15276:0:0:0:0:
64,192,15093,128,0,15184:0:0:0:0:
192,192,15276,128,0,15459:0:0:0:0:
320,192,15276,128,0,15367:0:0:0:0:
448,192,15459,128,0,15642:0:0:0:0:
64,192,15459,128,0,15550:0:0:0:0:
320,192,15642,128,0,15825:0:0:0:0:
192,192,15642,128,0,15733:0:0:0:0:
64,192,15825,128,0,16008:0:0:0:0:
192,192,15825,128,0,16008:0:0:0:0:
448,192,15825,128,0,16008:0:0:0:0:
320,192,16008,128,0,16190:0:0:0:0:
64,192,16190,128,0,16373:0:0:0:0:
448,192,16190,128,0,16373:0:0:0:0:
320,192,16373,128,0,16556:0:0:0:0:
64,192,16556,128,0,16739:0:0:0:0:
192,192,16556,128,0,16739:0:0:0:0:
448,192,16739,128,0,16922:0:0:0:0:
64,192,16922,128,0,17105:0:0:0:0:
320,192,16922,128,0,17105:0:0:0:0:
192,192,17105,1,0,0:0:0:0:
448,192,17166,1,0,0:0:0:0:
320,192,17227,1,0,0:0:0:0:
64,192,17288,1,0,0:0:0:0:
192,192,17349,1,0,0:0:0:0:
448,192,17410,1,0,0:0:0:0:
320,192,17471,1,0,0:0:0:0:
64,192,17532,1,0,0:0:0:0:
192,192,17593,1,0,0:0:0:0:
448,192,17654,128,0,17837:0:0:0:0:
320,192,17654,128,0,17745:0:0:0:0:
320,192,17837,128,0,18020:0:0:0:0:
192,192,17837,128,0,17928:0:0:0:0:
64,192,18020,1,0,0:0:0:0:
192,192,18020,1,0,0:0:0:0:
64,192,18203,1,0,0:0:0:0:
320,192,18203,1,0,0:0:0:0:
448,192,18203,1,0,0:0:0:0:
64,192,18386,1,0,0:0:0:0:
320,192,18386,1,0,0:0:0:0:
448,192,18386,1,0,0:0:0:0:
192,192,18477,1,0,0:0:0:0:
320,192,18569,1,0,0:0:0:0:
448,192,18660,1,0,0:0:0:0:
64,192,18751,128,0,18934:0:0:0:0:
192,192,18751,128,0,18934:0:0:0:0:
320,192,18751,128,0,18934:0:0:0:0:
448,192,18934,128,0,19117:0:0:0:0:
64,192,19117,128,0,19300:0:0:0:0:
192,192,19117,128,0,19300:0:0:0:0:
320,192,19300,128,0,19483:0:0:0:0:
64,192,19483,128,0,19666:0:0:0:0:
448,192,19483,128,0,19575:0:0:0:0:
192,192,19666,128,0,19849:0:0:0:0:
320,192,19666,128,0,19758:0:0:0:0:
320,192,19849,128,0,20032:0:0:0:0:
64,192,19849,128,0,19940:0:0:0:0:
448,192,20032,128,0,20215:0:0:0:0:
192,192,20032,128,0,20215:0:0:0:0:
64,192,20215,128,0,20398:0:0:0:0:
320,192,20215,128,0,20398:0:0:0:0:
192,192,20398,128,0,20581:0:0:0:0:
320,192,20581,128,0,20764:0:0:0:0:
448,192,20581,128,0,20764:0:0:0:0:
64,192,20764,128,0,20947:0:0:0:0:
192,192,20764,128,0,20947:0:0:0:0:
320,192,20947,128,0,21038:0:0:0:0:
448,192,20947,128,0,21130:0:0:0:0:
64,192,21130,128,0,21312:0:0:0:0:
320,192,21130,128,0,21221:0:0:0:0:
192,192,21312,128,0,21495:0:0:0:0:
448,192,21312,128,0,21404:0:0:0:0:
320,192,21495,128,0,21678:0:0:0:0:
64,192,21495,128,0,21587:0:0:0:0:
448,192,21678,128,0,21861:0:0:0:0:
64,192,21678,128,0,21861:0:0:0:0:
320,192,21861,128,0,22044:0:0:0:0:
448,192,22044,128,0,22227:0:0:0:0:
64,192,22044,128,0,22227:0:0:0:0:
320,192,22227,128,0,22410:0:0:0:0:
192,192,22410,128,0,22593:0:0:0:0:
448,192,22410,128,0,22593:0:0:0:0:
64,192,22593,128,0,22776:0:0:0:0:
448,192,22776,128,0,22959:0:0:0:0:
192,192,22776,128,0,22867:0:0:0:0:
64,192,22959,1,0,0:0:0:0:
192,192,22959,1,0,0:0:0:0:
320,192,23020,1,0,0:0:0:0:
448,192,23081,1,0,0:0:0:0:
64,192,23142,128,0,23325:0:0:0:0:
192,192,23142,128,0,23325:0:0:0:0:
320,192,23325,128,0,23508:0:0:0:0:
64,192,23508,128,0,23690:0:0:0:0:
192,192,23508,128,0,23690:0:0:0:0:
448,192,23508,128,0,23690:0:0:0:0:
320,192,23690,128,0,23873:0:0:0:0:
64,192,23873,1,0,0:0:0:0:
192,192,23873,1,0,0:0:0:0:
448,192,23934,1,0,0:0:0:0:
320,192,23995,1,0,0:0:0:0:
64,192,24056,1,0,0:0:0:0:
192,192,24117,1,0,0:0:0:0:
448,192,24178,1,0,0:0:0:0:
64,192,24239,1,0,0:0:0:0:
320,192,24239,1,0,0:0:0:0:
192,192,24300,1,0,0:0:0:0:
448,192,24361,1,0,0:0:0:0:
320,192,24422,1,0,0:0:0:0:
64,192,24483,1,0,0:0:0:0:
320,192,24605,1,0,0:0:0:0:
192,192,24605,1,0,0:0:0:0:
448,192,24605,1,0,0:0:0:0:
64,192,24971,1,0,0:0:0:0:
192,192,24971,1,0,0:0:0:0:
448,192,25337,1,0,0:0:0:0:
320,192,25337,1,0,0:0:0:0:
320,192,25703,1,0,0:0:0:0:
448,192,25703,1,0,0:0:0:0:
64,192,26069,1,0,0:0:0:0:
192,192,26069,1,0,0:0:0:0:
64,192,26434,1,0,0:0:0:0:
192,192,26434,1,0,0:0:0:0:
320,192,26800,1,0,0:0:0:0:
448,192,26800,1,0,0:0:0:0:
320,192,27166,1,0,0:0:0:0:
448,192,27166,1,0,0:0:0:0:
64,192,27532,1,0,0:0:0:0:
320,192,27532,1,0,0:0:0:0:
64,192,27898,1,0,0:0:0:0:
320,192,27898,1,0,0:0:0:0:
448,192,28264,1,0,0:0:0:0:
192,192,28264,1,0,0:0:0:0:
192,192,28630,1,0,0:0:0:0:
448,192,28630,1,0,0:0:0:0:
320,192,28995,1,0,0:0:0:0:
64,192,28995,1,0,0:0:0:0:
192,192,29178,1,0,0:0:0:0:
320,192,29178,1,0,0:0:0:0:
64,192,29270,1,0,0:0:0:0:
320,192,29361,1,0,0:0:0:0:
448,192,29361,1,0,0:0:0:0:
320,192,29544,1,0,0:0:0:0:
448,192,29544,1,0,0:0:0:0:
192,192,29727,1,0,0:0:0:0:
320,192,29727,1,0,0:0:0:0:
192,192,29910,1,0,0:0:0:0:
320,192,29910,1,0,0:0:0:0:
64,192,30093,1,0,0:0:0:0:
192,192,30093,1,0,0:0:0:0:
64,192,30276,1,0,0:0:0:0:
192,192,30276,1,0,0:0:0:0:
448,192,30459,1,0,0:0:0:0:
64,192,30459,1,0,0:0:0:0:
448,192,30642,1,0,0:0:0:0:
64,192,30642,1,0,0:0:0:0:
192,192,30825,1,0,0:0:0:0:
448,192,31008,1,0,0:0:0:0:
320,192,31008,1,0,0:0:0:0:
320,192,31190,1,0,0:0:0:0:
64,192,31190,1,0,0:0:0:0:
320,192,31373,1,0,0:0:0:0:
64,192,31373,1,0,0:0:0:0:
448,192,31556,1,0,0:0:0:0:
320,192,31739,1,0,0:0:0:0:
64,192,31739,1,0,0:0:0:0:
192,192,31922,1,0,0:0:0:0:
64,192,31922,1,0,0:0:0:0:
192,192,32105,1,0,0:0:0:0:
64,192,32105,1,0,0:0:0:0:
320,192,32288,1,0,0:0:0:0:
64,192,32471,1,0,0:0:0:0:
192,192,32471,1,0,0:0:0:0:
320,192,32654,1,0,0:0:0:0:
64,192,32654,1,0,0:0:0:0:
192,192,32837,1,0,0:0:0:0:
448,192,32837,1,0,0:0:0:0:
64,192,33020,1,0,0:0:0:0:
448,192,33020,1,0,0:0:0:0:
320,192,33203,1,0,0:0:0:0:
64,192,33203,1,0,0:0:0:0:
448,192,33386,1,0,0:0:0:0:
320,192,33386,1,0,0:0:0:0:
448,192,33569,1,0,0:0:0:0:
320,192,33569,1,0,0:0:0:0:
192,192,33751,1,0,0:0:0:0:
448,192,33934,1,0,0:0:0:0:
320,192,33934,1,0,0:0:0:0:
320,192,34117,1,0,0:0:0:0:
192,192,34117,1,0,0:0:0:0:
320,192,34300,1,0,0:0:0:0:
192,192,34300,1,0,0:0:0:0:
448,192,34483,1,0,0:0:0:0:
320,192,34666,1,0,0:0:0:0:
192,192,34666,1,0,0:0:0:0:
192,192,34849,1,0,0:0:0:0:
64,192,34849,1,0,0:0:0:0:
192,192,35032,1,0,0:0:0:0:
64,192,35032,1,0,0:0:0:0:
320,192,35215,1,0,0:0:0:0:
192,192,35398,1,0,0:0:0:0:
64,192,35398,1,0,0:0:0:0:
64,192,35581,5,0,0:0:0:0:
320,192,35581,1,0,0:0:0:0:
448,192,35581,1,0,0:0:0:0:
64,192,35947,1,0,0:0:0:0:
320,192,35947,1,0,0:0:0:0:
448,192,35947,1,0,0:0:0:0:
320,192,36130,1,0,0:0:0:0:
192,192,36130,1,0,0:0:0:0:
448,192,36312,1,0,0:0:0:0:
320,192,36312,1,0,0:0:0:0:
192,192,36312,1,0,0:0:0:0:
64,192,36312,1,0,0:0:0:0:
320,192,36495,1,0,0:0:0:0:
448,192,36495,1,0,0:0:0:0:
192,192,36678,1,0,0:0:0:0:
320,192,36678,1,0,0:0:0:0:
64,192,36861,1,0,0:0:0:0:
192,192,36861,1,0,0:0:0:0:
320,192,37044,1,0,0:0:0:0:
448,192,37044,1,0,0:0:0:0:
192,192,37227,1,0,0:0:0:0:
64,192,37227,1,0,0:0:0:0:
320,192,37227,1,0,0:0:0:0:
320,192,37410,1,0,0:0:0:0:
448,192,37410,1,0,0:0:0:0:
192,192,37410,1,0,0:0:0:0:
64,192,37593,1,0,0:0:0:0:
448,192,37593,1,0,0:0:0:0:
64,192,37776,1,0,0:0:0:0:
320,192,37776,1,0,0:0:0:0:
320,192,37959,1,0,0:0:0:0:
192,192,37959,1,0,0:0:0:0:
64,192,38142,1,0,0:0:0:0:
320,192,38142,1,0,0:0:0:0:
192,192,38325,1,0,0:0:0:0:
448,192,38325,1,0,0:0:0:0:
448,192,38508,1,0,0:0:0:0:
320,192,38508,1,0,0:0:0:0:
64,192,38690,1,0,0:0:0:0:
192,192,38690,1,0,0:0:0:0:
320,192,38690,1,0,0:0:0:0:
320,192,38873,1,0,0:0:0:0:
448,192,38873,1,0,0:0:0:0:
192,192,38873,1,0,0:0:0:0:
64,192,39056,1,0,0:0:0:0:
192,192,39056,1,0,0:0:0:0:
320,192,39148,1,0,0:0:0:0:
64,192,39239,1,0,0:0:0:0:
448,192,39239,1,0,0:0:0:0:
192,192,39239,1,0,0:0:0:0:
192,192,39422,1,0,0:0:0:0:
448,192,39422,1,0,0:0:0:0:
64,192,39605,1,0,0:0:0:0:
448,192,39605,1,0,0:0:0:0:
192,192,39788,1,0,0:0:0:0:
448,192,39788,1,0,0:0:0:0:
320,192,39971,1,0,0:0:0:0:
64,192,39971,1,0,0:0:0:0:
64,192,40154,1,0,0:0:0:0:
448,192,40154,1,0,0:0:0:0:
64,192,40337,1,0,0:0:0:0:
320,192,40337,1,0,0:0:0:0:
64,192,40520,1,0,0:0:0:0:
448,192,40520,1,0,0:0:0:0:
192,192,40703,1,0,0:0:0:0:
448,192,40703,1,0,0:0:0:0:
192,192,40886,1,0,0:0:0:0:
320,192,40886,1,0,0:0:0:0:
320,192,41069,1,0,0:0:0:0:
64,192,41069,1,0,0:0:0:0:
192,192,41251,1,0,0:0:0:0:
448,192,41251,1,0,0:0:0:0:
448,192,41434,1,0,0:0:0:0:
320,192,41434,1,0,0:0:0:0:
192,192,41617,1,0,0:0:0:0:
64,192,41617,1,0,0:0:0:0:
320,192,41617,1,0,0:0:0:0:
64,192,41800,1,0,0:0:0:0:
192,192,41800,1,0,0:0:0:0:
320,192,41800,1,0,0:0:0:0:
448,192,41892,1,0,0:0:0:0:
320,192,41983,1,0,0:0:0:0:
64,192,41983,1,0,0:0:0:0:
192,192,42075,1,0,0:0:0:0:
320,192,42166,1,0,0:0:0:0:
448,192,42166,1,0,0:0:0:0:
64,192,42166,1,0,0:0:0:0:
64,192,42349,1,0,0:0:0:0:
192,192,42349,1,0,0:0:0:0:
64,192,42532,1,0,0:0:0:0:
320,192,42532,1,0,0:0:0:0:
192,192,42715,1,0,0:0:0:0:
448,192,42715,1,0,0:0:0:0:
320,192,42898,1,0,0:0:0:0:
448,192,42898,1,0,0:0:0:0:
64,192,43081,1,0,0:0:0:0:
192,192,43081,1,0,0:0:0:0:
320,192,43081,1,0,0:0:0:0:
320,192,43264,1,0,0:0:0:0:
448,192,43264,1,0,0:0:0:0:
192,192,43264,1,0,0:0:0:0:
192,192,43447,1,0,0:0:0:0:
64,192,43447,1,0,0:0:0:0:
448,192,43630,1,0,0:0:0:0:
320,192,43630,1,0,0:0:0:0:
192,192,43812,1,0,0:0:0:0:
448,192,43812,1,0,0:0:0:0:
192,192,43995,1,0,0:0:0:0:
320,192,43995,1,0,0:0:0:0:
64,192,44178,1,0,0:0:0:0:
320,192,44178,1,0,0:0:0:0:
192,192,44361,1,0,0:0:0:0:
320,192,44361,1,0,0:0:0:0:
320,192,44544,1,0,0:0:0:0:
64,192,44544,1,0,0:0:0:0:
192,192,44544,1,0,0:0:0:0:
192,192,44727,1,0,0:0:0:0:
320,192,44727,1,0,0:0:0:0:
448,192,44727,1,0,0:0:0:0:
192,192,44910,1,0,0:0:0:0:
448,192,44910,1,0,0:0:0:0:
320,192,45001,1,0,0:0:0:0:
64,192,45093,1,0,0:0:0:0:
448,192,45093,1,0,0:0:0:0:
64,192,45276,1,0,0:0:0:0:
320,192,45276,1,0,0:0:0:0:
64,192,45459,1,0,0:0:0:0:
448,192,45459,1,0,0:0:0:0:
64,192,45642,1,0,0:0:0:0:
320,192,45642,1,0,0:0:0:0:
448,192,45825,1,0,0:0:0:0:
192,192,45825,1,0,0:0:0:0:
64,192,46008,1,0,0:0:0:0:
448,192,46008,1,0,0:0:0:0:
192,192,46190,1,0,0:0:0:0:
448,192,46190,1,0,0:0:0:0:
320,192,46190,1,0,0:0:0:0:
64,192,46373,1,0,0:0:0:0:
192,192,46373,1,0,0:0:0:0:
320,192,46373,1,0,0:0:0:0:
64,192,46556,1,0,0:0:0:0:
192,192,46556,1,0,0:0:0:0:
448,192,46556,1,0,0:0:0:0:
192,192,46739,1,0,0:0:0:0:
320,192,46739,1,0,0:0:0:0:
64,192,46922,1,0,0:0:0:0:
320,192,46922,1,0,0:0:0:0:
448,192,46922,1,0,0:0:0:0:
192,192,47105,1,0,0:0:0:0:
320,192,47105,1,0,0:0:0:0:
64,192,47288,1,0,0:0:0:0:
192,192,47288,1,0,0:0:0:0:
448,192,47288,1,0,0:0:0:0:
320,192,47471,1,0,0:0:0:0:
64,192,47471,1,0,0:0:0:0:
448,192,47471,1,0,0:0:0:0:
192,192,47654,1,0,0:0:0:0:
64,192,47654,1,0,0:0:0:0:
320,192,47745,1,0,0:0:0:0:
192,192,47837,1,0,0:0:0:0:
320,192,47928,1,0,0:0:0:0:
64,192,48020,1,0,0:0:0:0:
192,192,48020,1,0,0:0:0:0:
448,192,48020,1,0,0:0:0:0:
448,192,48294,1,0,0:0:0:0:
320,192,48294,1,0,0:0:0:0:
192,192,48294,1,0,0:0:0:0:
64,192,48386,1,0,0:0:0:0:
448,192,48477,1,0,0:0:0:0:
320,192,48569,1,0,0:0:0:0:
192,192,48569,1,0,0:0:0:0:
64,192,48569,1,0,0:0:0:0:
320,192,48751,1,0,0:0:0:0:
448,192,48751,1,0,0:0:0:0:
64,192,48812,1,0,0:0:0:0:
192,192,48873,1,0,0:0:0:0:
320,192,48934,1,0,0:0:0:0:
448,192,48995,1,0,0:0:0:0:
320,192,49117,1,0,0:0:0:0:
192,192,49178,1,0,0:0:0:0:
64,192,49239,1,0,0:0:0:0:
448,192,49300,1,0,0:0:0:0:
320,192,49300,1,0,0:0:0:0:
192,192,49392,1,0,0:0:0:0:
64,192,49483,1,0,0:0:0:0:
448,192,49483,1,0,0:0:0:0:
320,192,49483,1,0,0:0:0:0:
64,192,49758,1,0,0:0:0:0:
192,192,49758,1,0,0:0:0:0:
448,192,49758,1,0,0:0:0:0:
320,192,49849,1,0,0:0:0:0:
192,192,49940,1,0,0:0:0:0:
64,192,50032,1,0,0:0:0:0:
320,192,50032,1,0,0:0:0:0:
448,192,50032,1,0,0:0:0:0:
192,192,50123,1,0,0:0:0:0:
64,192,50215,128,0,50306:0:0:0:0:
448,192,50215,128,0,50306:0:0:0:0:
320,192,50306,128,0,50398:0:0:0:0:
64,192,50398,128,0,50489:0:0:0:0:
192,192,50398,128,0,50489:0:0:0:0:
448,192,50398,128,0,50489:0:0:0:0:
320,192,50489,128,0,50581:0:0:0:0:
64,192,50581,128,0,50672:0:0:0:0:
448,192,50581,128,0,50672:0:0:0:0:
192,192,50672,128,0,50764:0:0:0:0:
320,192,50764,128,0,50855:0:0:0:0:
192,192,50855,128,0,50947:0:0:0:0:
64,192,50947,1,0,0:0:0:0:
320,192,50947,1,0,0:0:0:0:
448,192,50947,1,0,0:0:0:0:
192,192,51221,1,0,0:0:0:0:
320,192,51221,1,0,0:0:0:0:
448,192,51221,1,0,0:0:0:0:
64,192,51312,1,0,0:0:0:0:
448,192,51404,1,0,0:0:0:0:
64,192,51495,1,0,0:0:0:0:
192,192,51495,1,0,0:0:0:0:
320,192,51495,1,0,0:0:0:0:
320,192,51678,1,0,0:0:0:0:
448,192,51678,1,0,0:0:0:0:
64,192,51739,1,0,0:0:0:0:
192,192,51800,1,0,0:0:0:0:
320,192,51861,1,0,0:0:0:0:
448,192,51922,1,0,0:0:0:0:
64,192,52044,1,0,0:0:0:0:
192,192,52044,1,0,0:0:0:0:
448,192,52105,1,0,0:0:0:0:
320,192,52166,1,0,0:0:0:0:
64,192,52227,1,0,0:0:0:0:
192,192,52227,1,0,0:0:0:0:
448,192,52288,1,0,0:0:0:0:
320,192,52349,1,0,0:0:0:0:
192,192,52410,1,0,0:0:0:0:
64,192,52410,1,0,0:0:0:0:
64,192,52593,1,0,0:0:0:0:
320,192,52593,1,0,0:0:0:0:
448,192,52593,1,0,0:0:0:0:
192,192,52776,1,0,0:0:0:0:
320,192,52776,1,0,0:0:0:0:
64,192,52959,1,0,0:0:0:0:
192,192,52959,1,0,0:0:0:0:
448,192,52959,1,0,0:0:0:0:
320,192,53050,1,0,0:0:0:0:
64,192,53142,1,0,0:0:0:0:
448,192,53142,1,0,0:0:0:0:
192,192,53325,1,0,0:0:0:0:
320,192,53325,1,0,0:0:0:0:
448,192,53325,1,0,0:0:0:0:
64,192,53416,1,0,0:0:0:0:
192,192,53508,1,0,0:0:0:0:
320,192,53508,1,0,0:0:0:0:
64,192,53690,1,0,0:0:0:0:
192,192,53690,1,0,0:0:0:0:
448,192,53690,1,0,0:0:0:0:
64,192,53873,1,0,0:0:0:0:
320,192,53873,1,0,0:0:0:0:
448,192,53873,1,0,0:0:0:0:
64,192,54239,1,0,0:0:0:0:
320,192,54239,1,0,0:0:0:0:
448,192,54239,1,0,0:0:0:0:
64,192,54605,1,0,0:0:0:0:
320,192,54605,1,0,0:0:0:0:
448,192,54605,1,0,0:0:0:0:
64,192,54788,1,0,0:0:0:0:
192,192,54788,1,0,0:0:0:0:
448,192,54788,1,0,0:0:0:0:
320,192,54880,1,0,0:0:0:0:
192,192,54971,1,0,0:0:0:0:
64,192,55062,1,0,0:0:0:0:
320,192,55154,1,0,0:0:0:0:
448,192,55154,1,0,0:0:0:0:
64,192,55200,1,0,0:0:0:0:
192,192,55245,1,0,0:0:0:0:
320,192,55291,1,0,0:0:0:0:
448,192,55337,128,0,55520:0:0:0:0:
64,192,55520,128,0,55611:0:0:0:0:
192,192,55520,128,0,55611:0:0:0:0:
320,192,55520,128,0,55611:0:0:0:0:
448,192,55703,128,0,55794:0:0:0:0:
64,192,55703,128,0,55794:0:0:0:0:
192,192,55703,128,0,55794:0:0:0:0:
320,192,55886,128,0,55977:0:0:0:0:
448,192,55886,128,0,55977:0:0:0:0:
64,192,55886,128,0,55977:0:0:0:0:
448,192,56069,128,0,56251:0:0:0:0:
64,192,56069,128,0,56251:0:0:0:0:
192,192,56069,128,0,56251:0:0:0:0:
64,192,56434,1,0,0:0:0:0:
192,192,56480,1,0,0:0:0:0:
448,192,56526,1,0,0:0:0:0:
320,192,56572,1,0,0:0:0:0:
64,192,56617,1,0,0:0:0:0:
192,192,56663,1,0,0:0:0:0:
448,192,56709,1,0,0:0:0:0:
64,192,56800,128,0,57075:0:0:0:0:
192,192,56800,128,0,57075:0:0:0:0:
320,192,56800,128,0,57075:0:0:0:0:
64,192,57166,1,0,0:0:0:0:
192,192,57166,1,0,0:0:0:0:
320,192,57166,1,0,0:0:0:0:
448,192,57166,1,0,0:0:0:0:
320,192,57349,1,0,0:0:0:0:
64,192,57532,1,0,0:0:0:0:
192,192,57532,1,0,0:0:0:0:
320,192,57715,1,0,0:0:0:0:
192,192,57806,1,0,0:0:0:0:
64,192,57898,1,0,0:0:0:0:
448,192,57898,1,0,0:0:0:0:
320,192,57898,1,0,0:0:0:0:
192,192,58081,1,0,0:0:0:0:
320,192,58081,1,0,0:0:0:0:
64,192,58264,1,0,0:0:0:0:
448,192,58264,1,0,0:0:0:0:
192,192,58447,1,0,0:0:0:0:
448,192,58447,1,0,0:0:0:0:
64,192,58630,1,0,0:0:0:0:
192,192,58630,1,0,0:0:0:0:
320,192,58630,1,0,0:0:0:0:
320,192,58812,1,0,0:0:0:0:
448,192,58812,1,0,0:0:0:0:
64,192,58995,1,0,0:0:0:0:
192,192,58995,1,0,0:0:0:0:
448,192,59178,1,0,0:0:0:0:
320,192,59270,1,0,0:0:0:0:
64,192,59361,1,0,0:0:0:0:
192,192,59361,1,0,0:0:0:0:
448,192,59361,1,0,0:0:0:0:
192,192,59544,1,0,0:0:0:0:
320,192,59544,1,0,0:0:0:0:
64,192,59727,1,0,0:0:0:0:
192,192,59727,1,0,0:0:0:0:
320,192,59727,1,0,0:0:0:0:
448,192,59727,1,0,0:0:0:0:
64,192,59910,1,0,0:0:0:0:
320,192,59910,1,0,0:0:0:0:
192,192,60001,1,0,0:0:0:0:
64,192,60093,1,0,0:0:0:0:
448,192,60093,1,0,0:0:0:0:
320,192,60093,1,0,0:0:0:0:
448,192,60276,1,0,0:0:0:0:
192,192,60276,1,0,0:0:0:0:
320,192,60367,1,0,0:0:0:0:
64,192,60459,1,0,0:0:0:0:
448,192,60459,1,0,0:0:0:0:
320,192,60642,1,0,0:0:0:0:
192,192,60733,1,0,0:0:0:0:
320,192,60825,1,0,0:0:0:0:
448,192,60825,1,0,0:0:0:0:
64,192,60825,1,0,0:0:0:0:
192,192,61008,1,0,0:0:0:0:
64,192,61008,1,0,0:0:0:0:
320,192,61099,1,0,0:0:0:0:
448,192,61190,1,0,0:0:0:0:
64,192,61190,1,0,0:0:0:0:
192,192,61282,1,0,0:0:0:0:
448,192,61373,1,0,0:0:0:0:
320,192,61465,1,0,0:0:0:0:
448,192,61556,1,0,0:0:0:0:
64,192,61556,1,0,0:0:0:0:
192,192,61556,1,0,0:0:0:0:
320,192,61739,1,0,0:0:0:0:
192,192,61739,1,0,0:0:0:0:
64,192,61922,1,0,0:0:0:0:
448,192,61922,1,0,0:0:0:0:
320,192,61922,1,0,0:0:0:0:
320,192,62105,1,0,0:0:0:0:
192,192,62105,1,0,0:0:0:0:
64,192,62105,1,0,0:0:0:0:
64,192,62288,1,0,0:0:0:0:
320,192,62288,1,0,0:0:0:0:
448,192,62288,1,0,0:0:0:0:
192,192,62380,1,0,0:0:0:0:
64,192,62471,1,0,0:0:0:0:
448,192,62471,1,0,0:0:0:0:
320,192,62562,1,0,0:0:0:0:
64,192,62654,128,0,62928:0:0:0:0:
192,192,62654,128,0,62928:0:0:0:0:
448,192,62654,128,0,62928:0:0:0:0:
64,192,63020,1,0,0:0:0:0:
192,192,63020,1,0,0:0:0:0:
320,192,63020,1,0,0:0:0:0:
448,192,63020,1,0,0:0:0:0:
320,192,63203,1,0,0:0:0:0:
64,192,63386,1,0,0:0:0:0:
192,192,63386,1,0,0:0:0:0:
192,192,63569,1,0,0:0:0:0:
320,192,63569,1,0,0:0:0:0:
64,192,63751,1,0,0:0:0:0:
320,192,63751,1,0,0:0:0:0:
448,192,63751,1,0,0:0:0:0:
320,192,63934,1,0,0:0:0:0:
448,192,63934,1,0,0:0:0:0:
192,192,64026,1,0,0:0:0:0:
64,192,64117,1,0,0:0:0:0:
448,192,64117,1,0,0:0:0:0:
320,192,64209,1,0,0:0:0:0:
192,192,64300,1,0,0:0:0:0:
64,192,64300,1,0,0:0:0:0:
320,192,64483,1,0,0:0:0:0:
448,192,64483,1,0,0:0:0:0:
64,192,64483,1,0,0:0:0:0:
192,192,64666,1,0,0:0:0:0:
320,192,64666,1,0,0:0:0:0:
64,192,64849,1,0,0:0:0:0:
192,192,64849,1,0,0:0:0:0:
320,192,64940,1,0,0:0:0:0:
64,192,65032,1,0,0:0:0:0:
448,192,65032,1,0,0:0:0:0:
192,192,65123,1,0,0:0:0:0:
320,192,65215,1,0,0:0:0:0:
448,192,65215,1,0,0:0:0:0:
64,192,65215,1,0,0:0:0:0:
192,192,65398,1,0,0:0:0:0:
448,192,65398,1,0,0:0:0:0:
64,192,65581,1,0,0:0:0:0:
320,192,65581,1,0,0:0:0:0:
192,192,65764,1,0,0:0:0:0:
64,192,65947,1,0,0:0:0:0:
448,192,65947,1,0,0:0:0:0:
320,192,65947,1,0,0:0:0:0:
192,192,66038,1,0,0:0:0:0:
64,192,66130,1,0,0:0:0:0:
448,192,66130,1,0,0:0:0:0:
320,192,66221,1,0,0:0:0:0:
192,192,66312,1,0,0:0:0:0:
64,192,66312,1,0,0:0:0:0:
192,192,66495,1,0,0:0:0:0:
320,192,66495,1,0,0:0:0:0:
64,192,66678,1,0,0:0:0:0:
448,192,66678,1,0,0:0:0:0:
320,192,66678,1,0,0:0:0:0:
192,192,66861,1,0,0:0:0:0:
320,192,66861,1,0,0:0:0:0:
448,192,66953,1,0,0:0:0:0:
192,192,67044,1,0,0:0:0:0:
64,192,67044,1,0,0:0:0:0:
320,192,67136,1,0,0:0:0:0:
448,192,67227,1,0,0:0:0:0:
64,192,67227,1,0,0:0:0:0:
192,192,67319,1,0,0:0:0:0:
320,192,67410,1,0,0:0:0:0:
448,192,67410,1,0,0:0:0:0:
64,192,67410,1,0,0:0:0:0:
192,192,67593,128,0,67684:0:0:0:0:
448,192,67593,128,0,67684:0:0:0:0:
320,192,67776,128,0,67867:0:0:0:0:
64,192,67776,128,0,67867:0:0:0:0:
192,192,67959,128,0,68050:0:0:0:0:
448,192,67959,128,0,68050:0:0:0:0:
192,192,68142,1,0,0:0:0:0:
64,192,68142,1,0,0:0:0:0:
448,192,68233,1,0,0:0:0:0:
320,192,68233,1,0,0:0:0:0:
192,192,68325,1,0,0:0:0:0:
64,192,68325,1,0,0:0:0:0:
320,192,68416,1,0,0:0:0:0:
192,192,68508,1,0,0:0:0:0:
64,192,68508,1,0,0:0:0:0:
448,192,68508,1,0,0:0:0:0:
320,192,68599,1,0,0:0:0:0:
64,192,68690,1,0,0:0:0:0:
448,192,68690,1,0,0:0:0:0:
192,192,68782,1,0,0:0:0:0:
320,192,68873,1,0,0:0:0:0:
64,192,68873,1,0,0:0:0:0:
192,192,68965,1,0,0:0:0:0:
320,192,69056,1,0,0:0:0:0:
448,192,69056,1,0,0:0:0:0:
64,192,69148,1,0,0:0:0:0:
448,192,69239,1,0,0:0:0:0:
192,192,69239,1,0,0:0:0:0:
320,192,69331,1,0,0:0:0:0:
448,192,69422,1,0,0:0:0:0:
64,192,69422,1,0,0:0:0:0:
192,192,69514,1,0,0:0:0:0:
320,192,69514,1,0,0:0:0:0:
192,192,69697,1,0,0:0:0:0:
320,192,69697,1,0,0:0:0:0:
64,192,69788,1,0,0:0:0:0:
448,192,69788,1,0,0:0:0:0:
192,192,69880,1,0,0:0:0:0:
320,192,69971,1,0,0:0:0:0:
448,192,69971,1,0,0:0:0:0:
192,192,70154,1,0,0:0:0:0:
320,192,70154,1,0,0:0:0:0:
320,192,70337,1,0,0:0:0:0:
448,192,70337,1,0,0:0:0:0:
64,192,70337,1,0,0:0:0:0:
320,192,70520,1,0,0:0:0:0:
192,192,70520,1,0,0:0:0:0:
64,192,70703,1,0,0:0:0:0:
192,192,70703,1,0,0:0:0:0:
320,192,70886,1,0,0:0:0:0:
64,192,71069,1,0,0:0:0:0:
192,192,71069,1,0,0:0:0:0:
448,192,71069,1,0,0:0:0:0:
320,192,71251,1,0,0:0:0:0:
64,192,71251,1,0,0:0:0:0:
64,192,71434,1,0,0:0:0:0:
192,192,71434,1,0,0:0:0:0:
320,192,71434,1,0,0:0:0:0:
448,192,71434,1,0,0:0:0:0:
192,192,71617,1,0,0:0:0:0:
448,192,71617,1,0,0:0:0:0:
64,192,71800,1,0,0:0:0:0:
192,192,71800,1,0,0:0:0:0:
320,192,71800,1,0,0:0:0:0:
320,192,71983,1,0,0:0:0:0:
448,192,71983,1,0,0:0:0:0:
192,192,72075,1,0,0:0:0:0:
64,192,72166,1,0,0:0:0:0:
448,192,72166,1,0,0:0:0:0:
320,192,72258,1,0,0:0:0:0:
192,192,72349,1,0,0:0:0:0:
64,192,72349,1,0,0:0:0:0:
448,192,72532,1,0,0:0:0:0:
64,192,72532,1,0,0:0:0:0:
320,192,72532,1,0,0:0:0:0:
64,192,72715,1,0,0:0:0:0:
320,192,72715,1,0,0:0:0:0:
192,192,72898,1,0,0:0:0:0:
320,192,72898,1,0,0:0:0:0:
448,192,72898,1,0,0:0:0:0:
64,192,73081,1,0,0:0:0:0:
448,192,73081,1,0,0:0:0:0:
64,192,73264,1,0,0:0:0:0:
192,192,73264,1,0,0:0:0:0:
320,192,73264,1,0,0:0:0:0:
192,192,73447,128,0,73538:0:0:0:0:
448,192,73447,128,0,73538:0:0:0:0:
64,192,73630,128,0,73721:0:0:0:0:
320,192,73630,128,0,73721:0:0:0:0:
192,192,73721,128,0,73812:0:0:0:0:
320,192,73812,128,0,73904:0:0:0:0:
448,192,73812,128,0,73904:0:0:0:0:
64,192,73904,128,0,73995:0:0:0:0:
192,192,73995,128,0,74087:0:0:0:0:
320,192,73995,128,0,74087:0:0:0:0:
448,192,73995,128,0,74087:0:0:0:0:
64,192,74087,128,0,74178:0:0:0:0:
320,192,74178,128,0,74270:0:0:0:0:
448,192,74178,128,0,74270:0:0:0:0:
192,192,74270,128,0,74361:0:0:0:0:
64,192,74361,128,0,74636:0:0:0:0:
320,192,74361,128,0,74636:0:0:0:0:
448,192,74361,128,0,74636:0:0:0:0:
64,192,74727,1,0,0:0:0:0:
192,192,74727,1,0,0:0:0:0:
448,192,74727,1,0,0:0:0:0:
320,192,74727,1,0,0:0:0:0:
192,192,74910,1,0,0:0:0:0:
64,192,75093,1,0,0:0:0:0:
320,192,75093,1,0,0:0:0:0:
192,192,75276,1,0,0:0:0:0:
320,192,75276,1,0,0:0:0:0:
448,192,75367,1,0,0:0:0:0:
64,192,75459,1,0,0:0:0:0:
192,192,75459,1,0,0:0:0:0:
64,192,75642,1,0,0:0:0:0:
320,192,75642,1,0,0:0:0:0:
192,192,75733,1,0,0:0:0:0:
64,192,75825,1,0,0:0:0:0:
448,192,75825,1,0,0:0:0:0:
320,192,75916,1,0,0:0:0:0:
192,192,76008,1,0,0:0:0:0:
448,192,76008,1,0,0:0:0:0:
64,192,76099,1,0,0:0:0:0:
192,192,76190,1,0,0:0:0:0:
320,192,76190,1,0,0:0:0:0:
448,192,76190,1,0,0:0:0:0:
64,192,76373,1,0,0:0:0:0:
320,192,76373,1,0,0:0:0:0:
192,192,76556,1,0,0:0:0:0:
448,192,76556,1,0,0:0:0:0:
320,192,76648,1,0,0:0:0:0:
448,192,76739,1,0,0:0:0:0:
64,192,76739,1,0,0:0:0:0:
192,192,76831,1,0,0:0:0:0:
64,192,76922,1,0,0:0:0:0:
320,192,76922,1,0,0:0:0:0:
448,192,76922,1,0,0:0:0:0:
192,192,77105,1,0,0:0:0:0:
320,192,77105,1,0,0:0:0:0:
64,192,77288,1,0,0:0:0:0:
320,192,77288,1,0,0:0:0:0:
192,192,77471,1,0,0:0:0:0:
64,192,77654,1,0,0:0:0:0:
320,192,77654,1,0,0:0:0:0:
448,192,77654,1,0,0:0:0:0:
192,192,77745,1,0,0:0:0:0:
320,192,77837,1,0,0:0:0:0:
448,192,77837,1,0,0:0:0:0:
64,192,77928,1,0,0:0:0:0:
192,192,78020,1,0,0:0:0:0:
320,192,78020,1,0,0:0:0:0:
192,192,78203,1,0,0:0:0:0:
448,192,78203,1,0,0:0:0:0:
448,192,78386,1,0,0:0:0:0:
320,192,78386,1,0,0:0:0:0:
64,192,78386,1,0,0:0:0:0:
64,192,78569,1,0,0:0:0:0:
192,192,78569,1,0,0:0:0:0:
448,192,78569,1,0,0:0:0:0:
320,192,78660,1,0,0:0:0:0:
192,192,78751,1,0,0:0:0:0:
64,192,78751,1,0,0:0:0:0:
448,192,78843,1,0,0:0:0:0:
320,192,78934,1,0,0:0:0:0:
192,192,79026,1,0,0:0:0:0:
64,192,79117,1,0,0:0:0:0:
320,192,79117,1,0,0:0:0:0:
448,192,79117,1,0,0:0:0:0:
192,192,79300,1,0,0:0:0:0:
448,192,79300,1,0,0:0:0:0:
64,192,79483,1,0,0:0:0:0:
192,192,79483,1,0,0:0:0:0:
320,192,79483,1,0,0:0:0:0:
448,192,79666,1,0,0:0:0:0:
64,192,79666,1,0,0:0:0:0:
320,192,79666,1,0,0:0:0:0:
192,192,79849,1,0,0:0:0:0:
320,192,79849,1,0,0:0:0:0:
448,192,79849,1,0,0:0:0:0:
64,192,80032,1,0,0:0:0:0:
192,192,80215,1,0,0:0:0:0:
448,192,80215,1,0,0:0:0:0:
320,192,80215,1,0,0:0:0:0:
192,192,80398,1,0,0:0:0:0:
320,192,80398,1,0,0:0:0:0:
448,192,80398,1,0,0:0:0:0:
320,192,80581,1,0,0:0:0:0:
448,192,80672,1,0,0:0:0:0:
192,192,80764,1,0,0:0:0:0:
64,192,80855,1,0,0:0:0:0:
320,192,80947,1,0,0:0:0:0:
448,192,80947,1,0,0:0:0:0:
192,192,80947,1,0,0:0:0:0:
192,192,81130,1,0,0:0:0:0:
320,192,81130,1,0,0:0:0:0:
448,192,81130,1,0,0:0:0:0:
64,192,81312,1,0,0:0:0:0:
192,192,81404,1,0,0:0:0:0:
320,192,81495,1,0,0:0:0:0:
448,192,81587,1,0,0:0:0:0:
64,192,81861,1,0,0:0:0:0:
192,192,81861,1,0,0:0:0:0:
320,192,81861,1,0,0:0:0:0:
448,192,82044,1,0,0:0:0:0:
64,192,82227,1,0,0:0:0:0:
192,192,82227,1,0,0:0:0:0:
320,192,82227,1,0,0:0:0:0:
64,192,82410,1,0,0:0:0:0:
192,192,82410,1,0,0:0:0:0:
448,192,82410,1,0,0:0:0:0:
64,192,83142,128,0,83325:0:0:0:0:
320,192,83142,128,0,83325:0:0:0:0:
448,192,83142,128,0,83325:0:0:0:0:
192,192,83325,128,0,83508:0:0:0:0:
64,192,83508,128,0,83690:0:0:0:0:
448,192,83508,128,0,83690:0:0:0:0:
320,192,83690,128,0,83873:0:0:0:0:
448,192,83873,128,0,84056:0:0:0:0:
64,192,83873,128,0,83965:0:0:0:0:
192,192,84056,128,0,84239:0:0:0:0:
320,192,84056,128,0,84148:0:0:0:0:
64,192,84239,128,0,84422:0:0:0:0:
448,192,84239,128,0,84331:0:0:0:0:
320,192,84422,128,0,84605:0:0:0:0:
448,192,84422,128,0,84605:0:0:0:0:
64,192,84605,128,0,84788:0:0:0:0:
192,192,84605,128,0,84788:0:0:0:0:
320,192,84788,128,0,84971:0:0:0:0:
64,192,84971,128,0,85154:0:0:0:0:
448,192,84971,128,0,85154:0:0:0:0:
192,192,85154,128,0,85337:0:0:0:0:
320,192,85154,128,0,85337:0:0:0:0:
448,192,85337,128,0,85520:0:0:0:0:
64,192,85337,128,0,85428:0:0:0:0:
192,192,85520,128,0,85703:0:0:0:0:
320,192,85520,128,0,85611:0:0:0:0:
448,192,85703,128,0,85886:0:0:0:0:
64,192,85703,128,0,85794:0:0:0:0:
320,192,85886,128,0,86069:0:0:0:0:
192,192,85886,128,0,85977:0:0:0:0:
64,192,86069,128,0,86251:0:0:0:0:
192,192,86069,128,0,86251:0:0:0:0:
320,192,86251,128,0,86434:0:0:0:0:
64,192,86434,128,0,86617:0:0:0:0:
192,192,86434,128,0,86617:0:0:0:0:
320,192,86617,128,0,86800:0:0:0:0:
448,192,86800,128,0,86983:0:0:0:0:
192,192,86800,128,0,86983:0:0:0:0:
64,192,86983,128,0,87166:0:0:0:0:
192,192,87166,1,0,0:0:0:0:
448,192,87166,1,0,0:0:0:0:
320,192,87349,1,0,0:0:0:0:
448,192,87349,1,0,0:0:0:0:
64,192,87410,1,0,0:0:0:0:
192,192,87471,1,0,0:0:0:0:
320,192,87532,1,0,0:0:0:0:
64,192,87593,1,0,0:0:0:0:
448,192,87654,1,0,0:0:0:0:
320,192,87715,1,0,0:0:0:0:
192,192,87776,1,0,0:0:0:0:
64,192,87898,128,0,88081:0:0:0:0:
320,192,87898,128,0,88081:0:0:0:0:
448,192,87898,128,0,88081:0:0:0:0:
192,192,88081,1,0,0:0:0:0:
320,192,88142,1,0,0:0:0:0:
448,192,88203,1,0,0:0:0:0:
64,192,88264,1,0,0:0:0:0:
192,192,88264,1,0,0:0:0:0:
64,192,88386,1,0,0:0:0:0:
192,192,88386,1,0,0:0:0:0:
320,192,88386,1,0,0:0:0:0:
448,192,88508,1,0,0:0:0:0:
64,192,88630,1,0,0:0:0:0:
192,192,88690,1,0,0:0:0:0:
320,192,88751,1,0,0:0:0:0:
448,192,88812,128,0,88995:0:0:0:0:
64,192,88873,1,0,0:0:0:0:
192,192,88873,1,0,0:0:0:0:
64,192,88995,1,0,0:0:0:0:
192,192,88995,1,0,0:0:0:0:
320,192,89224,128,0,89407:0:0:0:0:
448,192,89407,128,0,89590:0:0:0:0:
64,192,89407,128,0,89590:0:0:0:0:
192,192,89590,128,0,89773:0:0:0:0:
320,192,89773,128,0,89956:0:0:0:0:
448,192,89773,128,0,89956:0:0:0:0:
192,192,89956,128,0,90139:0:0:0:0:
64,192,90139,128,0,90322:0:0:0:0:
448,192,90139,128,0,90322:0:0:0:0:
320,192,90322,128,0,90413:0:0:0:0:
192,192,90413,128,0,90505:0:0:0:0:
64,192,90505,128,0,90687:0:0:0:0:
448,192,90505,128,0,90687:0:0:0:0:
64,192,90779,128,0,90962:0:0:0:0:
320,192,90779,128,0,90962:0:0:0:0:
64,192,91053,128,0,91236:0:0:0:0:
192,192,91053,128,0,91236:0:0:0:0:
320,192,91236,128,0,91419:0:0:0:0:
448,192,91236,128,0,91419:0:0:0:0:
320,192,91511,128,0,91694:0:0:0:0:
192,192,91511,128,0,91694:0:0:0:0:
64,192,91785,128,0,91968:0:0:0:0:
192,192,91785,128,0,91968:0:0:0:0:
448,192,92151,128,0,92334:0:0:0:0:
192,192,92334,128,0,92517:0:0:0:0:
320,192,92334,128,0,92517:0:0:0:0:
448,192,92517,128,0,92700:0:0:0:0:
64,192,92700,128,0,92883:0:0:0:0:
192,192,92700,128,0,92883:0:0:0:0:
320,192,92883,128,0,93065:0:0:0:0:
64,192,93065,128,0,93248:0:0:0:0:
448,192,93065,128,0,93248:0:0:0:0:
320,192,93248,128,0,93340:0:0:0:0:
192,192,93340,128,0,93431:0:0:0:0:
64,192,93431,128,0,93614:0:0:0:0:
448,192,93431,128,0,93614:0:0:0:0:
448,192,93706,128,0,93889:0:0:0:0:
192,192,93706,128,0,93889:0:0:0:0:
448,192,93980,128,0,94163:0:0:0:0:
320,192,93980,128,0,94163:0:0:0:0:
64,192,94163,128,0,94346:0:0:0:0:
192,192,94163,128,0,94346:0:0:0:0:
192,192,94437,128,0,94620:0:0:0:0:
320,192,94437,128,0,94620:0:0:0:0:
320,192,94712,128,0,94895:0:0:0:0:
448,192,94712,128,0,94895:0:0:0:0:
64,192,95078,128,0,95169:0:0:0:0:
320,192,95078,128,0,95169:0:0:0:0:
192,192,95169,128,0,95261:0:0:0:0:
64,192,95261,128,0,95444:0:0:0:0:
448,192,95261,128,0,95444:0:0:0:0:
320,192,95444,128,0,95626:0:0:0:0:
192,192,95626,128,0,95809:0:0:0:0:
448,192,95626,128,0,95809:0:0:0:0:
64,192,95809,128,0,95992:0:0:0:0:
320,192,95992,128,0,96175:0:0:0:0:
448,192,95992,128,0,96175:0:0:0:0:
64,192,96175,128,0,96267:0:0:0:0:
192,192,96267,128,0,96358:0:0:0:0:
320,192,96358,128,0,96541:0:0:0:0:
448,192,96358,128,0,96541:0:0:0:0:
192,192,96633,128,0,96815:0:0:0:0:
320,192,96633,128,0,96815:0:0:0:0:
64,192,96907,128,0,97090:0:0:0:0:
192,192,96907,128,0,97090:0:0:0:0:
320,192,97090,128,0,97273:0:0:0:0:
448,192,97090,128,0,97273:0:0:0:0:
192,192,97364,128,0,97547:0:0:0:0:
448,192,97364,128,0,97547:0:0:0:0:
64,192,97639,128,0,97776:0:0:0:0:
448,192,97639,128,0,97776:0:0:0:0:
320,192,97776,1,0,0:0:0:0:
192,192,97867,1,0,0:0:0:0:
64,192,97959,1,0,0:0:0:0:
448,192,98050,1,0,0:0:0:0:
320,192,98142,1,0,0:0:0:0:
192,192,98325,1,0,0:0:0:0:
64,192,98508,1,0,0:0:0:0:
320,192,98508,1,0,0:0:0:0:
448,192,98690,1,0,0:0:0:0:
192,192,98690,1,0,0:0:0:0:
320,192,98873,1,0,0:0:0:0:
64,192,98873,1,0,0:0:0:0:
192,192,99056,1,0,0:0:0:0:
448,192,99056,1,0,0:0:0:0:
64,192,99239,1,0,0:0:0:0:
192,192,99239,1,0,0:0:0:0:
320,192,99239,1,0,0:0:0:0:
448,192,99239,1,0,0:0:0:0:
64,192,99422,1,0,0:0:0:0:
320,192,99422,1,0,0:0:0:0:
448,192,99422,1,0,0:0:0:0:
64,192,99605,1,0,0:0:0:0:
192,192,99605,1,0,0:0:0:0:
320,192,99788,1,0,0:0:0:0:
448,192,99788,1,0,0:0:0:0:
64,192,99971,1,0,0:0:0:0:
192,192,99971,1,0,0:0:0:0:
448,192,99971,1,0,0:0:0:0:
64,192,100154,1,0,0:0:0:0:
192,192,100154,1,0,0:0:0:0:
448,192,100154,1,0,0:0:0:0:
320,192,100337,1,0,0:0:0:0:
448,192,100337,1,0,0:0:0:0:
192,192,100428,1,0,0:0:0:0:
64,192,100428,1,0,0:0:0:0:
320,192,100520,1,0,0:0:0:0:
448,192,100520,1,0,0:0:0:0:
192,192,100611,1,0,0:0:0:0:
64,192,100703,5,0,0:0:0:0:
320,192,100703,1,0,0:0:0:0:
448,192,100703,1,0,0:0:0:0:
192,192,100886,1,0,0:0:0:0:
64,192,100886,1,0,0:0:0:0:
320,192,101069,1,0,0:0:0:0:
192,192,101069,1,0,0:0:0:0:
448,192,101251,1,0,0:0:0:0:
320,192,101251,1,0,0:0:0:0:
192,192,101434,1,0,0:0:0:0:
64,192,101434,1,0,0:0:0:0:
320,192,101617,1,0,0:0:0:0:
448,192,101617,1,0,0:0:0:0:
192,192,101617,1,0,0:0:0:0:
192,192,101800,1,0,0:0:0:0:
64,192,101800,1,0,0:0:0:0:
320,192,101800,1,0,0:0:0:0:
320,192,101983,1,0,0:0:0:0:
448,192,101983,1,0,0:0:0:0:
448,192,102166,1,0,0:0:0:0:
192,192,102166,1,0,0:0:0:0:
320,192,102349,1,0,0:0:0:0:
192,192,102349,1,0,0:0:0:0:
320,192,102532,1,0,0:0:0:0:
64,192,102532,1,0,0:0:0:0:
320,192,102715,1,0,0:0:0:0:
192,192,102715,1,0,0:0:0:0:
448,192,102898,1,0,0:0:0:0:
64,192,102898,1,0,0:0:0:0:
320,192,103081,1,0,0:0:0:0:
64,192,103081,1,0,0:0:0:0:
192,192,103081,1,0,0:0:0:0:
448,192,103264,1,0,0:0:0:0:
192,192,103264,1,0,0:0:0:0:
320,192,103264,1,0,0:0:0:0:
448,192,103447,1,0,0:0:0:0:
192,192,103447,1,0,0:0:0:0:
320,192,103538,1,0,0:0:0:0:
448,192,103630,1,0,0:0:0:0:
64,192,103630,1,0,0:0:0:0:
192,192,103630,1,0,0:0:0:0:
320,192,103812,1,0,0:0:0:0:
64,192,103812,1,0,0:0:0:0:
448,192,103995,1,0,0:0:0:0:
64,192,103995,1,0,0:0:0:0:
320,192,104178,1,0,0:0:0:0:
64,192,104178,1,0,0:0:0:0:
192,192,104361,1,0,0:0:0:0:
448,192,104361,1,0,0:0:0:0:
448,192,104544,1,0,0:0:0:0:
64,192,104544,1,0,0:0:0:0:
448,192,104727,1,0,0:0:0:0:
192,192,104727,1,0,0:0:0:0:
448,192,104910,1,0,0:0:0:0:
64,192,104910,1,0,0:0:0:0:
320,192,105093,1,0,0:0:0:0:
64,192,105093,1,0,0:0:0:0:
320,192,105276,1,0,0:0:0:0:
192,192,105276,1,0,0:0:0:0:
192,192,105459,1,0,0:0:0:0:
448,192,105459,1,0,0:0:0:0:
320,192,105642,1,0,0:0:0:0:
64,192,105642,1,0,0:0:0:0:
64,192,105825,1,0,0:0:0:0:
192,192,105825,1,0,0:0:0:0:
320,192,106008,1,0,0:0:0:0:
448,192,106008,1,0,0:0:0:0:
192,192,106008,1,0,0:0:0:0:
64,192,106190,1,0,0:0:0:0:
320,192,106190,1,0,0:0:0:0:
192,192,106190,1,0,0:0:0:0:
448,192,106282,1,0,0:0:0:0:
320,192,106373,1,0,0:0:0:0:
64,192,106373,1,0,0:0:0:0:
192,192,106465,1,0,0:0:0:0:
320,192,106556,1,0,0:0:0:0:
64,192,106556,1,0,0:0:0:0:
448,192,106556,1,0,0:0:0:0:
192,192,106739,1,0,0:0:0:0:
64,192,106739,1,0,0:0:0:0:
192,192,106922,1,0,0:0:0:0:
320,192,106922,1,0,0:0:0:0:
448,192,107105,1,0,0:0:0:0:
320,192,107105,1,0,0:0:0:0:
192,192,107288,1,0,0:0:0:0:
64,192,107288,1,0,0:0:0:0:
192,192,107471,1,0,0:0:0:0:
320,192,107471,1,0,0:0:0:0:
448,192,107471,1,0,0:0:0:0:
192,192,107654,1,0,0:0:0:0:
64,192,107654,1,0,0:0:0:0:
320,192,107654,1,0,0:0:0:0:
64,192,107837,1,0,0:0:0:0:
448,192,107837,1,0,0:0:0:0:
192,192,108020,1,0,0:0:0:0:
448,192,108020,1,0,0:0:0:0:
320,192,108203,1,0,0:0:0:0:
192,192,108203,1,0,0:0:0:0:
64,192,108386,1,0,0:0:0:0:
320,192,108386,1,0,0:0:0:0:
320,192,108569,1,0,0:0:0:0:
192,192,108569,1,0,0:0:0:0:
448,192,108751,1,0,0:0:0:0:
64,192,108751,1,0,0:0:0:0:
192,192,108934,1,0,0:0:0:0:
64,192,108934,1,0,0:0:0:0:
320,192,108934,1,0,0:0:0:0:
320,192,109117,1,0,0:0:0:0:
192,192,109117,1,0,0:0:0:0:
448,192,109117,1,0,0:0:0:0:
320,192,109300,1,0,0:0:0:0:
64,192,109300,1,0,0:0:0:0:
192,192,109392,1,0,0:0:0:0:
448,192,109483,1,0,0:0:0:0:
64,192,109483,1,0,0:0:0:0:
448,192,109666,1,0,0:0:0:0:
192,192,109666,1,0,0:0:0:0:
448,192,109849,1,0,0:0:0:0:
64,192,109849,1,0,0:0:0:0:
448,192,110032,1,0,0:0:0:0:
192,192,110032,1,0,0:0:0:0:
64,192,110215,1,0,0:0:0:0:
320,192,110215,1,0,0:0:0:0:
448,192,110398,1,0,0:0:0:0:
64,192,110398,1,0,0:0:0:0:
320,192,110581,1,0,0:0:0:0:
64,192,110581,1,0,0:0:0:0:
192,192,110581,1,0,0:0:0:0:
448,192,110764,1,0,0:0:0:0:
192,192,110764,1,0,0:0:0:0:
448,192,110947,1,0,0:0:0:0:
320,192,110947,1,0,0:0:0:0:
64,192,111038,1,0,0:0:0:0:
192,192,111038,1,0,0:0:0:0:
320,192,111130,1,0,0:0:0:0:
64,192,111221,1,0,0:0:0:0:
448,192,111221,1,0,0:0:0:0:
192,192,111312,1,0,0:0:0:0:
320,192,111312,1,0,0:0:0:0:
320,192,111495,1,0,0:0:0:0:
192,192,111495,1,0,0:0:0:0:
448,192,111587,1,0,0:0:0:0:
64,192,111587,1,0,0:0:0:0:
320,192,111678,1,0,0:0:0:0:
192,192,111678,1,0,0:0:0:0:
448,192,111770,1,0,0:0:0:0:
64,192,111861,1,0,0:0:0:0:
192,192,111953,1,0,0:0:0:0:
448,192,112044,1,0,0:0:0:0:
320,192,112044,1,0,0:0:0:0:
64,192,112044,1,0,0:0:0:0:
192,192,112136,1,0,0:0:0:0:
320,192,112227,1,0,0:0:0:0:
192,192,112319,1,0,0:0:0:0:
448,192,112410,1,0,0:0:0:0:
64,192,112410,1,0,0:0:0:0:
320,192,112410,1,0,0:0:0:0:
448,192,112684,1,0,0:0:0:0:
320,192,112684,1,0,0:0:0:0:
192,192,112684,1,0,0:0:0:0:
64,192,112776,1,0,0:0:0:0:
448,192,112867,1,0,0:0:0:0:
320,192,112959,1,0,0:0:0:0:
192,192,112959,1,0,0:0:0:0:
64,192,112959,1,0,0:0:0:0:
448,192,113142,1,0,0:0:0:0:
320,192,113142,1,0,0:0:0:0:
64,192,113203,1,0,0:0:0:0:
192,192,113264,1,0,0:0:0:0:
320,192,113325,1,0,0:0:0:0:
448,192,113386,1,0,0:0:0:0:
320,192,113508,1,0,0:0:0:0:
192,192,113569,1,0,0:0:0:0:
64,192,113630,1,0,0:0:0:0:
320,192,113690,1,0,0:0:0:0:
448,192,113690,1,0,0:0:0:0:
192,192,113782,1,0,0:0:0:0:
448,192,113873,1,0,0:0:0:0:
320,192,113873,1,0,0:0:0:0:
64,192,113873,1,0,0:0:0:0:
448,192,114148,1,0,0:0:0:0:
320,192,114148,1,0,0:0:0:0:
64,192,114148,1,0,0:0:0:0:
192,192,114239,1,0,0:0:0:0:
320,192,114331,1,0,0:0:0:0:
448,192,114422,1,0,0:0:0:0:
192,192,114422,1,0,0:0:0:0:
64,192,114422,1,0,0:0:0:0:
320,192,114514,1,0,0:0:0:0:
64,192,114605,128,0,114697:0:0:0:0:
448,192,114605,128,0,114697:0:0:0:0:
192,192,114697,128,0,114788:0:0:0:0:
448,192,114788,128,0,114880:0:0:0:0:
320,192,114788,128,0,114880:0:0:0:0:
64,192,114788,128,0,114880:0:0:0:0:
192,192,114880,128,0,114971:0:0:0:0:
448,192,114971,128,0,115062:0:0:0:0:
320,192,114971,128,0,115062:0:0:0:0:
64,192,115062,128,0,115154:0:0:0:0:
320,192,115154,128,0,115245:0:0:0:0:
192,192,115245,128,0,115337:0:0:0:0:
448,192,115337,1,0,0:0:0:0:
320,192,115337,1,0,0:0:0:0:
64,192,115337,1,0,0:0:0:0:
320,192,115611,1,0,0:0:0:0:
192,192,115611,1,0,0:0:0:0:
64,192,115611,1,0,0:0:0:0:
448,192,115703,1,0,0:0:0:0:
64,192,115794,1,0,0:0:0:0:
448,192,115886,1,0,0:0:0:0:
320,192,115886,1,0,0:0:0:0:
192,192,115886,1,0,0:0:0:0:
64,192,116069,1,0,0:0:0:0:
192,192,116069,1,0,0:0:0:0:
448,192,116130,1,0,0:0:0:0:
320,192,116190,1,0,0:0:0:0:
192,192,116251,1,0,0:0:0:0:
64,192,116312,1,0,0:0:0:0:
320,192,116434,1,0,0:0:0:0:
448,192,116434,1,0,0:0:0:0:
64,192,116495,1,0,0:0:0:0:
192,192,116556,1,0,0:0:0:0:
320,192,116617,1,0,0:0:0:0:
448,192,116617,1,0,0:0:0:0:
64,192,116678,1,0,0:0:0:0:
192,192,116739,1,0,0:0:0:0:
320,192,116800,1,0,0:0:0:0:
448,192,116800,1,0,0:0:0:0:
448,192,116983,1,0,0:0:0:0:
192,192,116983,1,0,0:0:0:0:
64,192,116983,1,0,0:0:0:0:
320,192,117166,1,0,0:0:0:0:
192,192,117166,1,0,0:0:0:0:
448,192,117349,1,0,0:0:0:0:
320,192,117349,1,0,0:0:0:0:
64,192,117349,1,0,0:0:0:0:
192,192,117440,1,0,0:0:0:0:
448,192,117532,1,0,0:0:0:0:
64,192,117532,1,0,0:0:0:0:
320,192,117715,1,0,0:0:0:0:
192,192,117715,1,0,0:0:0:0:
64,192,117715,1,0,0:0:0:0:
448,192,117806,1,0,0:0:0:0:
320,192,117898,1,0,0:0:0:0:
192,192,117898,1,0,0:0:0:0:
448,192,118081,1,0,0:0:0:0:
320,192,118081,1,0,0:0:0:0:
64,192,118081,1,0,0:0:0:0:
448,192,118264,1,0,0:0:0:0:
192,192,118264,1,0,0:0:0:0:
64,192,118264,1,0,0:0:0:0:
320,192,118264,1,0,0:0:0:0:
448,192,118538,1,0,0:0:0:0:
320,192,118538,1,0,0:0:0:0:
192,192,118538,1,0,0:0:0:0:
64,192,118630,1,0,0:0:0:0:
448,192,118721,1,0,0:0:0:0:
320,192,118812,1,0,0:0:0:0:
192,192,118812,1,0,0:0:0:0:
64,192,118812,1,0,0:0:0:0:
320,192,118995,1,0,0:0:0:0:
448,192,118995,1,0,0:0:0:0:
64,192,119056,1,0,0:0:0:0:
192,192,119117,1,0,0:0:0:0:
320,192,119178,1,0,0:0:0:0:
448,192,119239,1,0,0:0:0:0:
320,192,119361,1,0,0:0:0:0:
192,192,119422,1,0,0:0:0:0:
64,192,119483,1,0,0:0:0:0:
448,192,119544,1,0,0:0:0:0:
320,192,119544,1,0,0:0:0:0:
192,192,119636,1,0,0:0:0:0:
448,192,119727,1,0,0:0:0:0:
320,192,119727,1,0,0:0:0:0:
64,192,119727,1,0,0:0:0:0:
448,192,120001,1,0,0:0:0:0:
320,192,120001,1,0,0:0:0:0:
64,192,120001,1,0,0:0:0:0:
192,192,120093,1,0,0:0:0:0:
320,192,120184,1,0,0:0:0:0:
448,192,120276,1,0,0:0:0:0:
192,192,120276,1,0,0:0:0:0:
64,192,120276,1,0,0:0:0:0:
320,192,120367,1,0,0:0:0:0:
64,192,120459,128,0,120550:0:0:0:0:
448,192,120459,128,0,120550:0:0:0:0:
192,192,120550,128,0,120642:0:0:0:0:
448,192,120642,128,0,120733:0:0:0:0:
320,192,120642,128,0,120733:0:0:0:0:
64,192,120642,128,0,120733:0:0:0:0:
192,192,120733,128,0,120825:0:0:0:0:
64,192,120825,128,0,120916:0:0:0:0:
448,192,120825,128,0,120916:0:0:0:0:
320,192,120916,128,0,121008:0:0:0:0:
192,192,121008,128,0,121099:0:0:0:0:
320,192,121099,128,0,121190:0:0:0:0:
448,192,121190,1,0,0:0:0:0:
192,192,121190,1,0,0:0:0:0:
64,192,121190,1,0,0:0:0:0:
320,192,121465,1,0,0:0:0:0:
192,192,121465,1,0,0:0:0:0:
64,192,121465,1,0,0:0:0:0:
448,192,121556,1,0,0:0:0:0:
64,192,121648,1,0,0:0:0:0:
448,192,121739,1,0,0:0:0:0:
320,192,121739,1,0,0:0:0:0:
192,192,121739,1,0,0:0:0:0:
64,192,121922,1,0,0:0:0:0:
192,192,121922,1,0,0:0:0:0:
448,192,121983,1,0,0:0:0:0:
320,192,122044,1,0,0:0:0:0:
192,192,122105,1,0,0:0:0:0:
64,192,122166,1,0,0:0:0:0:
320,192,122288,1,0,0:0:0:0:
448,192,122288,1,0,0:0:0:0:
64,192,122349,1,0,0:0:0:0:
192,192,122410,1,0,0:0:0:0:
320,192,122471,1,0,0:0:0:0:
448,192,122471,1,0,0:0:0:0:
64,192,122532,1,0,0:0:0:0:
192,192,122593,1,0,0:0:0:0:
320,192,122654,1,0,0:0:0:0:
448,192,122654,1,0,0:0:0:0:
448,192,122837,1,0,0:0:0:0:
192,192,122837,1,0,0:0:0:0:
64,192,122837,1,0,0:0:0:0:
320,192,123020,1,0,0:0:0:0:
192,192,123020,1,0,0:0:0:0:
448,192,123203,1,0,0:0:0:0:
320,192,123203,1,0,0:0:0:0:
64,192,123203,1,0,0:0:0:0:
192,192,123294,1,0,0:0:0:0:
448,192,123386,1,0,0:0:0:0:
64,192,123386,1,0,0:0:0:0:
320,192,123569,1,0,0:0:0:0:
192,192,123569,1,0,0:0:0:0:
64,192,123569,1,0,0:0:0:0:
448,192,123660,1,0,0:0:0:0:
320,192,123751,1,0,0:0:0:0:
192,192,123751,1,0,0:0:0:0:
448,192,123934,1,0,0:0:0:0:
320,192,123934,1,0,0:0:0:0:
64,192,123934,1,0,0:0:0:0:
192,192,124117,1,0,0:0:0:0:
64,192,124117,1,0,0:0:0:0:
320,192,124117,1,0,0:0:0:0:
64,192,124483,1,0,0:0:0:0:
192,192,124483,1,0,0:0:0:0:
320,192,124483,1,0,0:0:0:0:
64,192,124849,1,0,0:0:0:0:
192,192,124849,1,0,0:0:0:0:
320,192,124849,1,0,0:0:0:0:
64,192,125032,1,0,0:0:0:0:
192,192,125032,1,0,0:0:0:0:
448,192,125032,1,0,0:0:0:0:
320,192,125123,1,0,0:0:0:0:
192,192,125215,1,0,0:0:0:0:
64,192,125306,1,0,0:0:0:0:
448,192,125398,1,0,0:0:0:0:
320,192,125398,1,0,0:0:0:0:
64,192,125444,1,0,0:0:0:0:
192,192,125489,1,0,0:0:0:0:
320,192,125535,1,0,0:0:0:0:
448,192,125581,128,0,125764:0:0:0:0:
64,192,125764,128,0,125855:0:0:0:0:
192,192,125764,128,0,125855:0:0:0:0:
320,192,125764,128,0,125855:0:0:0:0:
448,192,125947,128,0,126038:0:0:0:0:
64,192,125947,128,0,126038:0:0:0:0:
320,192,125947,128,0,126038:0:0:0:0:
448,192,126130,128,0,126221:0:0:0:0:
320,192,126130,128,0,126221:0:0:0:0:
192,192,126130,128,0,126221:0:0:0:0:
192,192,126312,128,0,126495:0:0:0:0:
64,192,126312,128,0,126495:0:0:0:0:
320,192,126312,128,0,126495:0:0:0:0:
64,192,127044,1,0,0:0:0:0:
192,192,127044,1,0,0:0:0:0:
448,192,127044,1,0,0:0:0:0:
320,192,127227,1,0,0:0:0:0:
192,192,127410,1,0,0:0:0:0:
448,192,127593,1,0,0:0:0:0:
64,192,127776,1,0,0:0:0:0:
320,192,127959,1,0,0:0:0:0:
192,192,128142,1,0,0:0:0:0:
448,192,128325,1,0,0:0:0:0:
320,192,128416,1,0,0:0:0:0:
64,192,128508,1,0,0:0:0:0:
192,192,128690,1,0,0:0:0:0:
192,192,128873,1,0,0:0:0:0:
320,192,129056,1,0,0:0:0:0:
320,192,129239,1,0,0:0:0:0:
448,192,129422,1,0,0:0:0:0:
64,192,129605,1,0,0:0:0:0:
192,192,129651,1,0,0:0:0:0:
448,192,129697,1,0,0:0:0:0:
320,192,129742,1,0,0:0:0:0:
64,192,129788,1,0,0:0:0:0:
192,192,129834,1,0,0:0:0:0:
448,192,129880,1,0,0:0:0:0:
320,192,129925,1,0,0:0:0:0:
64,192,129971,1,0,0:0:0:0:
448,192,130154,1,0,0:0:0:0:
64,192,130337,1,0,0:0:0:0:
320,192,130520,1,0,0:0:0:0:
64,192,130703,1,0,0:0:0:0:
448,192,130703,1,0,0:0:0:0:
192,192,130886,1,0,0:0:0:0:
320,192,131069,1,0,0:0:0:0:
64,192,131069,1,0,0:0:0:0:
448,192,131251,1,0,0:0:0:0:
64,192,131343,1,0,0:0:0:0:
320,192,131434,1,0,0:0:0:0:
448,192,131434,1,0,0:0:0:0:
192,192,131617,1,0,0:0:0:0:
64,192,131800,1,0,0:0:0:0:
448,192,131800,1,0,0:0:0:0:
320,192,131983,1,0,0:0:0:0:
192,192,131983,1,0,0:0:0:0:
64,192,132166,1,0,0:0:0:0:
448,192,132166,1,0,0:0:0:0:
64,192,132349,1,0,0:0:0:0:
320,192,132349,1,0,0:0:0:0:
192,192,132532,1,0,0:0:0:0:
448,192,132532,1,0,0:0:0:0:
64,192,132715,1,0,0:0:0:0:
448,192,132715,1,0,0:0:0:0:
192,192,132761,1,0,0:0:0:0:
320,192,132806,1,0,0:0:0:0:
448,192,132852,1,0,0:0:0:0:
64,192,132898,1,0,0:0:0:0:
192,192,132898,1,0,0:0:0:0:
64,192,133081,1,0,0:0:0:0:
192,192,133264,1,0,0:0:0:0:
192,192,133447,1,0,0:0:0:0:
64,192,133630,1,0,0:0:0:0:
320,192,133630,1,0,0:0:0:0:
192,192,133630,1,0,0:0:0:0:
448,192,133630,1,0,0:0:0:0:
320,192,133812,1,0,0:0:0:0:
448,192,133995,1,0,0:0:0:0:
448,192,134178,1,0,0:0:0:0:
64,192,134361,1,0,0:0:0:0:
192,192,134361,1,0,0:0:0:0:
320,192,134361,1,0,0:0:0:0:
448,192,134361,1,0,0:0:0:0:
64,192,134544,1,0,0:0:0:0:
320,192,134727,1,0,0:0:0:0:
320,192,134910,1,0,0:0:0:0:
192,192,135093,1,0,0:0:0:0:
64,192,135093,1,0,0:0:0:0:
320,192,135093,1,0,0:0:0:0:
448,192,135093,1,0,0:0:0:0:
192,192,135276,1,0,0:0:0:0:
448,192,135459,1,0,0:0:0:0:
448,192,135642,1,0,0:0:0:0:
64,192,135825,1,0,0:0:0:0:
192,192,135825,1,0,0:0:0:0:
320,192,135825,1,0,0:0:0:0:
448,192,135916,1,0,0:0:0:0:
192,192,136008,1,0,0:0:0:0:
320,192,136099,1,0,0:0:0:0:
64,192,136190,1,0,0:0:0:0:
448,192,136190,1,0,0:0:0:0:
192,192,136282,1,0,0:0:0:0:
320,192,136373,1,0,0:0:0:0:
64,192,136465,1,0,0:0:0:0:
448,192,136556,1,0,0:0:0:0:
320,192,136556,1,0,0:0:0:0:
192,192,136648,1,0,0:0:0:0:
448,192,136739,1,0,0:0:0:0:
64,192,136739,1,0,0:0:0:0:
320,192,136831,1,0,0:0:0:0:
192,192,136922,1,0,0:0:0:0:
64,192,136922,1,0,0:0:0:0:
320,192,137014,1,0,0:0:0:0:
448,192,137105,1,0,0:0:0:0:
64,192,137105,1,0,0:0:0:0:
192,192,137197,1,0,0:0:0:0:
320,192,137288,1,0,0:0:0:0:
448,192,137288,1,0,0:0:0:0:
64,192,137288,1,0,0:0:0:0:
64,192,137471,1,0,0:0:0:0:
320,192,137471,1,0,0:0:0:0:
448,192,137471,1,0,0:0:0:0:
64,192,137654,1,0,0:0:0:0:
192,192,137654,1,0,0:0:0:0:
448,192,137654,1,0,0:0:0:0:
64,192,137837,1,0,0:0:0:0:
192,192,137837,1,0,0:0:0:0:
448,192,137837,1,0,0:0:0:0:
320,192,137837,1,0,0:0:0:0:
64,192,138020,128,0,138294:0:0:0:0:
192,192,138020,128,0,138294:0:0:0:0:
320,192,138020,128,0,138294:0:0:0:0:
448,192,138020,128,0,138294:0:0:0:0:
64,192,138386,1,0,0:0:0:0:
192,192,138386,1,0,0:0:0:0:
320,192,138386,1,0,0:0:0:0:
448,192,138386,1,0,0:0:0:0:
64,192,138751,1,0,0:0:0:0:
192,192,138843,1,0,0:0:0:0:
320,192,138934,1,0,0:0:0:0:
448,192,139026,1,0,0:0:0:0:
64,192,139117,1,0,0:0:0:0:
192,192,139117,1,0,0:0:0:0:
320,192,139117,1,0,0:0:0:0:
64,192,139300,1,0,0:0:0:0:
192,192,139483,1,0,0:0:0:0:
448,192,139483,1,0,0:0:0:0:
320,192,139666,1,0,0:0:0:0:
192,192,139758,1,0,0:0:0:0:
64,192,139849,1,0,0:0:0:0:
448,192,139849,1,0,0:0:0:0:
320,192,139849,1,0,0:0:0:0:
192,192,140032,1,0,0:0:0:0:
320,192,140032,1,0,0:0:0:0:
64,192,140215,1,0,0:0:0:0:
448,192,140215,1,0,0:0:0:0:
192,192,140398,1,0,0:0:0:0:
448,192,140398,1,0,0:0:0:0:
64,192,140581,1,0,0:0:0:0:
192,192,140581,1,0,0:0:0:0:
320,192,140581,1,0,0:0:0:0:
320,192,140764,1,0,0:0:0:0:
448,192,140764,1,0,0:0:0:0:
64,192,140947,1,0,0:0:0:0:
192,192,140947,1,0,0:0:0:0:
448,192,141130,1,0,0:0:0:0:
320,192,141221,1,0,0:0:0:0:
64,192,141312,1,0,0:0:0:0:
192,192,141312,1,0,0:0:0:0:
448,192,141312,1,0,0:0:0:0:
192,192,141495,1,0,0:0:0:0:
320,192,141495,1,0,0:0:0:0:
64,192,141678,1,0,0:0:0:0:
192,192,141678,1,0,0:0:0:0:
320,192,141678,1,0,0:0:0:0:
448,192,141678,1,0,0:0:0:0:
64,192,141861,1,0,0:0:0:0:
320,192,141861,1,0,0:0:0:0:
192,192,141953,1,0,0:0:0:0:
64,192,142044,1,0,0:0:0:0:
448,192,142044,1,0,0:0:0:0:
320,192,142044,1,0,0:0:0:0:
448,192,142227,1,0,0:0:0:0:
192,192,142227,1,0,0:0:0:0:
320,192,142319,1,0,0:0:0:0:
64,192,142410,1,0,0:0:0:0:
448,192,142410,1,0,0:0:0:0:
320,192,142593,1,0,0:0:0:0:
192,192,142684,1,0,0:0:0:0:
320,192,142776,1,0,0:0:0:0:
448,192,142776,1,0,0:0:0:0:
64,192,142776,1,0,0:0:0:0:
192,192,142959,1,0,0:0:0:0:
64,192,142959,1,0,0:0:0:0:
320,192,143050,1,0,0:0:0:0:
448,192,143142,1,0,0:0:0:0:
64,192,143142,1,0,0:0:0:0:
448,192,143325,1,0,0:0:0:0:
192,192,143325,1,0,0:0:0:0:
64,192,143325,1,0,0:0:0:0:
448,192,143508,1,0,0:0:0:0:
64,192,143508,1,0,0:0:0:0:
320,192,143508,1,0,0:0:0:0:
192,192,143690,1,0,0:0:0:0:
64,192,143690,1,0,0:0:0:0:
448,192,143690,1,0,0:0:0:0:
448,192,143873,1,0,0:0:0:0:
320,192,143873,1,0,0:0:0:0:
192,192,143873,1,0,0:0:0:0:
320,192,144056,1,0,0:0:0:0:
192,192,144056,1,0,0:0:0:0:
64,192,144056,1,0,0:0:0:0:
64,192,144239,1,0,0:0:0:0:
320,192,144239,1,0,0:0:0:0:
448,192,144239,1,0,0:0:0:0:
192,192,144239,1,0,0:0:0:0:
64,192,144422,1,0,0:0:0:0:
448,192,144422,1,0,0:0:0:0:
192,192,144422,1,0,0:0:0:0:
320,192,144514,1,0,0:0:0:0:
64,192,144605,128,0,144880:0:0:0:0:
192,192,144605,128,0,144880:0:0:0:0:
448,192,144605,128,0,144880:0:0:0:0:
64,192,144971,1,0,0:0:0:0:
192,192,144971,1,0,0:0:0:0:
320,192,144971,1,0,0:0:0:0:
448,192,144971,1,0,0:0:0:0:
320,192,145154,1,0,0:0:0:0:
448,192,145154,1,0,0:0:0:0:
64,192,145337,1,0,0:0:0:0:
192,192,145337,1,0,0:0:0:0:
192,192,145520,1,0,0:0:0:0:
320,192,145520,1,0,0:0:0:0:
64,192,145703,1,0,0:0:0:0:
320,192,145703,1,0,0:0:0:0:
448,192,145703,1,0,0:0:0:0:
320,192,145886,1,0,0:0:0:0:
448,192,145886,1,0,0:0:0:0:
192,192,145977,1,0,0:0:0:0:
64,192,146069,1,0,0:0:0:0:
448,192,146069,1,0,0:0:0:0:
320,192,146160,1,0,0:0:0:0:
192,192,146251,1,0,0:0:0:0:
64,192,146251,1,0,0:0:0:0:
320,192,146343,1,0,0:0:0:0:
448,192,146343,1,0,0:0:0:0:
64,192,146434,1,0,0:0:0:0:
192,192,146434,1,0,0:0:0:0:
192,192,146617,1,0,0:0:0:0:
320,192,146617,1,0,0:0:0:0:
448,192,146800,1,0,0:0:0:0:
320,192,146800,1,0,0:0:0:0:
64,192,146892,1,0,0:0:0:0:
448,192,146983,1,0,0:0:0:0:
192,192,146983,1,0,0:0:0:0:
320,192,147075,1,0,0:0:0:0:
448,192,147166,1,0,0:0:0:0:
64,192,147166,1,0,0:0:0:0:
192,192,147166,1,0,0:0:0:0:
192,192,147349,1,0,0:0:0:0:
320,192,147349,1,0,0:0:0:0:
64,192,147532,1,0,0:0:0:0:
192,192,147532,1,0,0:0:0:0:
320,192,147715,1,0,0:0:0:0:
64,192,147898,1,0,0:0:0:0:
448,192,147898,1,0,0:0:0:0:
320,192,147898,1,0,0:0:0:0:
192,192,147989,1,0,0:0:0:0:
64,192,148081,1,0,0:0:0:0:
448,192,148081,1,0,0:0:0:0:
320,192,148172,1,0,0:0:0:0:
192,192,148264,1,0,0:0:0:0:
64,192,148264,1,0,0:0:0:0:
192,192,148447,1,0,0:0:0:0:
320,192,148447,1,0,0:0:0:0:
64,192,148630,1,0,0:0:0:0:
448,192,148630,1,0,0:0:0:0:
320,192,148630,1,0,0:0:0:0:
192,192,148812,1,0,0:0:0:0:
320,192,148812,1,0,0:0:0:0:
448,192,148904,1,0,0:0:0:0:
192,192,148995,1,0,0:0:0:0:
64,192,148995,1,0,0:0:0:0:
320,192,149087,1,0,0:0:0:0:
448,192,149178,1,0,0:0:0:0:
64,192,149178,1,0,0:0:0:0:
192,192,149270,1,0,0:0:0:0:
320,192,149361,1,0,0:0:0:0:
448,192,149361,1,0,0:0:0:0:
64,192,149361,1,0,0:0:0:0:
192,192,149453,1,0,0:0:0:0:
448,192,149544,128,0,149636:0:0:0:0:
64,192,149544,128,0,149636:0:0:0:0:
320,192,149727,128,0,149819:0:0:0:0:
192,192,149727,128,0,149819:0:0:0:0:
448,192,149910,128,0,150001:0:0:0:0:
64,192,149910,128,0,150001:0:0:0:0:
320,192,150093,1,0,0:0:0:0:
448,192,150093,1,0,0:0:0:0:
64,192,150184,1,0,0:0:0:0:
192,192,150184,1,0,0:0:0:0:
320,192,150276,1,0,0:0:0:0:
448,192,150276,1,0,0:0:0:0:
192,192,150367,1,0,0:0:0:0:
320,192,150459,1,0,0:0:0:0:
448,192,150459,1,0,0:0:0:0:
64,192,150459,1,0,0:0:0:0:
192,192,150550,1,0,0:0:0:0:
320,192,150642,1,0,0:0:0:0:
64,192,150642,1,0,0:0:0:0:
192,192,150733,1,0,0:0:0:0:
448,192,150825,1,0,0:0:0:0:
64,192,150825,1,0,0:0:0:0:
320,192,150916,1,0,0:0:0:0:
192,192,151008,1,0,0:0:0:0:
448,192,151008,1,0,0:0:0:0:
320,192,151099,1,0,0:0:0:0:
448,192,151190,1,0,0:0:0:0:
64,192,151190,1,0,0:0:0:0:
192,192,151282,1,0,0:0:0:0:
448,192,151373,1,0,0:0:0:0:
320,192,151373,1,0,0:0:0:0:
192,192,151465,1,0,0:0:0:0:
64,192,151465,1,0,0:0:0:0:
64,192,151648,1,0,0:0:0:0:
192,192,151648,1,0,0:0:0:0:
320,192,151739,1,0,0:0:0:0:
448,192,151739,1,0,0:0:0:0:
64,192,151831,1,0,0:0:0:0:
192,192,151922,1,0,0:0:0:0:
320,192,151922,1,0,0:0:0:0:
64,192,152105,1,0,0:0:0:0:
320,192,152105,1,0,0:0:0:0:
320,192,152288,1,0,0:0:0:0:
448,192,152288,1,0,0:0:0:0:
192,192,152288,1,0,0:0:0:0:
448,192,152471,1,0,0:0:0:0:
64,192,152471,1,0,0:0:0:0:
64,192,152654,1,0,0:0:0:0:
320,192,152654,1,0,0:0:0:0:
192,192,152837,1,0,0:0:0:0:
64,192,153020,1,0,0:0:0:0:
320,192,153020,1,0,0:0:0:0:
448,192,153020,1,0,0:0:0:0:
64,192,153203,1,0,0:0:0:0:
192,192,153203,1,0,0:0:0:0:
64,192,153386,1,0,0:0:0:0:
192,192,153386,1,0,0:0:0:0:
320,192,153386,1,0,0:0:0:0:
448,192,153386,1,0,0:0:0:0:
320,192,153569,1,0,0:0:0:0:
448,192,153569,1,0,0:0:0:0:
64,192,153751,1,0,0:0:0:0:
192,192,153751,1,0,0:0:0:0:
320,192,153751,1,0,0:0:0:0:
192,192,153934,1,0,0:0:0:0:
448,192,153934,1,0,0:0:0:0:
320,192,154026,1,0,0:0:0:0:
64,192,154117,1,0,0:0:0:0:
448,192,154117,1,0,0:0:0:0:
192,192,154209,1,0,0:0:0:0:
320,192,154300,1,0,0:0:0:0:
64,192,154300,1,0,0:0:0:0:
448,192,154483,1,0,0:0:0:0:
192,192,154483,1,0,0:0:0:0:
320,192,154483,1,0,0:0:0:0:
64,192,154575,1,0,0:0:0:0:
320,192,154666,1,0,0:0:0:0:
192,192,154666,1,0,0:0:0:0:
448,192,154758,1,0,0:0:0:0:
192,192,154849,1,0,0:0:0:0:
320,192,154849,1,0,0:0:0:0:
64,192,154849,1,0,0:0:0:0:
448,192,155032,1,0,0:0:0:0:
64,192,155032,1,0,0:0:0:0:
320,192,155215,1,0,0:0:0:0:
448,192,155215,1,0,0:0:0:0:
192,192,155215,1,0,0:0:0:0:
320,192,155398,128,0,155489:0:0:0:0:
64,192,155398,128,0,155489:0:0:0:0:
320,192,155581,128,0,155672:0:0:0:0:
192,192,155581,128,0,155672:0:0:0:0:
448,192,155672,128,0,155764:0:0:0:0:
64,192,155764,128,0,155855:0:0:0:0:
192,192,155764,128,0,155855:0:0:0:0:
320,192,155855,128,0,155947:0:0:0:0:
192,192,155947,128,0,156038:0:0:0:0:
448,192,155947,128,0,156038:0:0:0:0:
64,192,155947,128,0,156038:0:0:0:0:
320,192,156038,128,0,156130:0:0:0:0:
64,192,156130,128,0,156221:0:0:0:0:
448,192,156130,128,0,156221:0:0:0:0:
192,192,156221,128,0,156312:0:0:0:0:
64,192,156312,128,0,156587:0:0:0:0:
320,192,156312,128,0,156587:0:0:0:0:
448,192,156312,128,0,156587:0:0:0:0:
64,192,156678,1,0,0:0:0:0:
192,192,156678,1,0,0:0:0:0:
448,192,156678,1,0,0:0:0:0:
320,192,156678,1,0,0:0:0:0:
192,192,156861,1,0,0:0:0:0:
64,192,157044,1,0,0:0:0:0:
320,192,157044,1,0,0:0:0:0:
192,192,157227,1,0,0:0:0:0:
320,192,157227,1,0,0:0:0:0:
448,192,157319,1,0,0:0:0:0:
64,192,157410,1,0,0:0:0:0:
192,192,157410,1,0,0:0:0:0:
64,192,157593,1,0,0:0:0:0:
320,192,157593,1,0,0:0:0:0:
192,192,157684,1,0,0:0:0:0:
64,192,157776,1,0,0:0:0:0:
448,192,157776,1,0,0:0:0:0:
320,192,157867,1,0,0:0:0:0:
192,192,157959,1,0,0:0:0:0:
448,192,157959,1,0,0:0:0:0:
64,192,158050,1,0,0:0:0:0:
192,192,158142,1,0,0:0:0:0:
320,192,158142,1,0,0:0:0:0:
448,192,158142,1,0,0:0:0:0:
64,192,158325,1,0,0:0:0:0:
320,192,158325,1,0,0:0:0:0:
192,192,158508,1,0,0:0:0:0:
448,192,158508,1,0,0:0:0:0:
320,192,158599,1,0,0:0:0:0:
448,192,158690,1,0,0:0:0:0:
64,192,158690,1,0,0:0:0:0:
192,192,158782,1,0,0:0:0:0:
64,192,158873,1,0,0:0:0:0:
320,192,158873,1,0,0:0:0:0:
448,192,158873,1,0,0:0:0:0:
192,192,159056,1,0,0:0:0:0:
320,192,159056,1,0,0:0:0:0:
64,192,159239,1,0,0:0:0:0:
320,192,159239,1,0,0:0:0:0:
192,192,159422,1,0,0:0:0:0:
64,192,159605,1,0,0:0:0:0:
320,192,159605,1,0,0:0:0:0:
448,192,159605,1,0,0:0:0:0:
192,192,159697,1,0,0:0:0:0:
320,192,159788,1,0,0:0:0:0:
448,192,159788,1,0,0:0:0:0:
64,192,159880,1,0,0:0:0:0:
192,192,159971,1,0,0:0:0:0:
320,192,159971,1,0,0:0:0:0:
192,192,160154,1,0,0:0:0:0:
448,192,160154,1,0,0:0:0:0:
448,192,160337,1,0,0:0:0:0:
320,192,160337,1,0,0:0:0:0:
64,192,160337,1,0,0:0:0:0:
64,192,160520,1,0,0:0:0:0:
192,192,160520,1,0,0:0:0:0:
448,192,160520,1,0,0:0:0:0:
320,192,160611,1,0,0:0:0:0:
192,192,160703,1,0,0:0:0:0:
64,192,160703,1,0,0:0:0:0:
448,192,160794,1,0,0:0:0:0:
320,192,160886,1,0,0:0:0:0:
192,192,160977,1,0,0:0:0:0:
64,192,161069,1,0,0:0:0:0:
320,192,161069,1,0,0:0:0:0:
448,192,161069,1,0,0:0:0:0:
192,192,161251,1,0,0:0:0:0:
448,192,161251,1,0,0:0:0:0:
64,192,161434,1,0,0:0:0:0:
192,192,161434,1,0,0:0:0:0:
320,192,161434,1,0,0:0:0:0:
448,192,161617,1,0,0:0:0:0:
64,192,161617,1,0,0:0:0:0:
320,192,161617,1,0,0:0:0:0:
192,192,161800,1,0,0:0:0:0:
320,192,161800,1,0,0:0:0:0:
448,192,161800,1,0,0:0:0:0:
64,192,161983,1,0,0:0:0:0:
192,192,162166,1,0,0:0:0:0:
448,192,162166,1,0,0:0:0:0:
320,192,162166,1,0,0:0:0:0:
192,192,162349,1,0,0:0:0:0:
320,192,162349,1,0,0:0:0:0:
448,192,162349,1,0,0:0:0:0:
320,192,162532,1,0,0:0:0:0:
448,192,162623,1,0,0:0:0:0:
192,192,162715,1,0,0:0:0:0:
64,192,162806,1,0,0:0:0:0:
320,192,162898,1,0,0:0:0:0:
448,192,162898,1,0,0:0:0:0:
192,192,162898,1,0,0:0:0:0:
192,192,163081,1,0,0:0:0:0:
320,192,163081,1,0,0:0:0:0:
448,192,163081,1,0,0:0:0:0:
64,192,163264,1,0,0:0:0:0:
192,192,163355,1,0,0:0:0:0:
320,192,163447,1,0,0:0:0:0:
448,192,163538,1,0,0:0:0:0:
320,192,163812,1,0,0:0:0:0:
192,192,163812,1,0,0:0:0:0:
64,192,163812,1,0,0:0:0:0:
448,192,163995,1,0,0:0:0:0:
64,192,164178,1,0,0:0:0:0:
192,192,164178,1,0,0:0:0:0:
320,192,164178,1,0,0:0:0:0:
64,192,164361,1,0,0:0:0:0:
192,192,164361,1,0,0:0:0:0:
448,192,164361,1,0,0:0:0:0:
64,192,164727,1,0,0:0:0:0:
192,192,164773,1,0,0:0:0:0:
448,192,164819,1,0,0:0:0:0:
320,192,164864,1,0,0:0:0:0:
64,192,164910,1,0,0:0:0:0:
192,192,164956,1,0,0:0:0:0:
448,192,165001,1,0,0:0:0:0:
64,192,165093,128,0,165367:0:0:0:0:
192,192,165093,128,0,165367:0:0:0:0:
320,192,165093,128,0,165367:0:0:0:0:
192,192,165459,128,0,165642:0:0:0:0:
320,192,165459,128,0,165642:0:0:0:0:
448,192,165459,128,0,165642:0:0:0:0:
64,192,165459,128,0,165642:0:0:0:0:
192,192,165825,128,0,165916:0:0:0:0:
320,192,165825,128,0,165916:0:0:0:0:
64,192,165825,128,0,165916:0:0:0:0:
192,192,166008,128,0,166099:0:0:0:0:
320,192,166008,128,0,166099:0:0:0:0:
448,192,166008,128,0,166099:0:0:0:0:
64,192,166190,1,0,0:0:0:0:
448,192,166190,1,0,0:0:0:0:
192,192,166373,128,0,166465:0:0:0:0:
320,192,166373,128,0,166465:0:0:0:0:
64,192,166373,128,0,166465:0:0:0:0:
320,192,166556,1,0,0:0:0:0:
448,192,166556,1,0,0:0:0:0:
192,192,166739,128,0,166831:0:0:0:0:
320,192,166739,128,0,166831:0:0:0:0:
448,192,166739,128,0,166831:0:0:0:0:
192,192,166922,128,0,167014:0:0:0:0:
320,192,166922,128,0,167014:0:0:0:0:
64,192,166922,128,0,167014:0:0:0:0:
192,192,167105,128,0,167197:0:0:0:0:
320,192,167105,128,0,167197:0:0:0:0:
448,192,167105,128,0,167197:0:0:0:0:
320,192,167288,128,0,167471:0:0:0:0:
192,192,167288,128,0,167654:0:0:0:0:
64,192,167288,128,0,167654:0:0:0:0:
448,192,167471,1,0,0:0:0:0:
320,192,167654,1,0,0:0:0:0:
448,192,167654,1,0,0:0:0:0:
192,192,167837,1,0,0:0:0:0:
448,192,168020,128,0,168294:0:0:0:0:
64,192,168020,128,0,168294:0:0:0:0:
320,192,168020,128,0,168294:0:0:0:0:
192,192,168386,128,0,168569:0:0:0:0:
320,192,168386,128,0,168569:0:0:0:0:
64,192,168386,128,0,168569:0:0:0:0:
448,192,168386,128,0,168569:0:0:0:0:
320,192,168751,128,0,168843:0:0:0:0:
192,192,168751,128,0,168843:0:0:0:0:
448,192,168751,128,0,168843:0:0:0:0:
320,192,168934,128,0,169026:0:0:0:0:
192,192,168934,128,0,169026:0:0:0:0:
64,192,168934,128,0,169026:0:0:0:0:
448,192,169117,1,0,0:0:0:0:
320,192,169117,1,0,0:0:0:0:
320,192,169300,128,0,169392:0:0:0:0:
192,192,169300,128,0,169392:0:0:0:0:
448,192,169300,128,0,169392:0:0:0:0:
192,192,169483,1,0,0:0:0:0:
64,192,169483,1,0,0:0:0:0:
320,192,169666,128,0,169758:0:0:0:0:
192,192,169666,128,0,169758:0:0:0:0:
64,192,169666,128,0,169758:0:0:0:0:
320,192,169849,128,0,169940:0:0:0:0:
448,192,169849,128,0,169940:0:0:0:0:
192,192,169849,128,0,169940:0:0:0:0:
64,192,170032,128,0,170123:0:0:0:0:
448,192,170032,128,0,170123:0:0:0:0:
320,192,170032,128,0,170123:0:0:0:0:
64,192,170215,128,0,170398:0:0:0:0:
448,192,170215,128,0,170398:0:0:0:0:
192,192,170215,128,0,170306:0:0:0:0:
192,192,170398,1,0,0:0:0:0:
320,192,170398,1,0,0:0:0:0:
64,192,170581,1,0,0:0:0:0:
448,192,170581,1,0,0:0:0:0:
320,192,170642,1,0,0:0:0:0:
192,192,170703,1,0,0:0:0:0:
64,192,170764,1,0,0:0:0:0:
448,192,170764,1,0,0:0:0:0:
320,192,170855,1,0,0:0:0:0:
64,192,170947,128,0,171221:0:0:0:0:
192,192,170947,128,0,171221:0:0:0:0:
448,192,170947,128,0,171221:0:0:0:0:
192,192,171312,128,0,171495:0:0:0:0:
320,192,171312,128,0,171495:0:0:0:0:
448,192,171312,128,0,171495:0:0:0:0:
64,192,171312,128,0,171495:0:0:0:0:
192,192,171678,128,0,171770:0:0:0:0:
320,192,171678,128,0,171770:0:0:0:0:
64,192,171678,128,0,171770:0:0:0:0:
192,192,171861,128,0,171953:0:0:0:0:
320,192,171861,128,0,171953:0:0:0:0:
448,192,171861,128,0,171953:0:0:0:0:
64,192,172044,1,0,0:0:0:0:
192,192,172044,1,0,0:0:0:0:
320,192,172227,128,0,172319:0:0:0:0:
192,192,172227,128,0,172319:0:0:0:0:
64,192,172227,128,0,172319:0:0:0:0:
320,192,172410,1,0,0:0:0:0:
448,192,172410,1,0,0:0:0:0:
192,192,172593,128,0,172684:0:0:0:0:
320,192,172593,128,0,172684:0:0:0:0:
448,192,172593,128,0,172684:0:0:0:0:
192,192,172776,128,0,172867:0:0:0:0:
320,192,172776,128,0,172867:0:0:0:0:
64,192,172776,128,0,172867:0:0:0:0:
192,192,172959,128,0,173050:0:0:0:0:
320,192,172959,128,0,173050:0:0:0:0:
448,192,172959,128,0,173050:0:0:0:0:
320,192,173142,128,0,173325:0:0:0:0:
64,192,173142,128,0,173508:0:0:0:0:
192,192,173142,128,0,173508:0:0:0:0:
448,192,173325,1,0,0:0:0:0:
320,192,173508,1,0,0:0:0:0:
448,192,173508,1,0,0:0:0:0:
192,192,173690,1,0,0:0:0:0:
64,192,173873,1,0,0:0:0:0:
320,192,173873,1,0,0:0:0:0:
448,192,173873,1,0,0:0:0:0:
192,192,174056,1,0,0:0:0:0:
448,192,174239,1,0,0:0:0:0:
192,192,174239,1,0,0:0:0:0:
64,192,174239,1,0,0:0:0:0:
320,192,174331,1,0,0:0:0:0:
448,192,174422,1,0,0:0:0:0:
64,192,174422,1,0,0:0:0:0:
192,192,174514,1,0,0:0:0:0:
320,192,174605,1,0,0:0:0:0:
448,192,174605,1,0,0:0:0:0:
320,192,174788,1,0,0:0:0:0:
192,192,174788,1,0,0:0:0:0:
320,192,174971,1,0,0:0:0:0:
448,192,174971,1,0,0:0:0:0:
64,192,174971,1,0,0:0:0:0:
64,192,175154,1,0,0:0:0:0:
192,192,175154,1,0,0:0:0:0:
448,192,175154,1,0,0:0:0:0:
320,192,175245,1,0,0:0:0:0:
448,192,175337,1,0,0:0:0:0:
64,192,175337,1,0,0:0:0:0:
192,192,175428,1,0,0:0:0:0:
320,192,175520,1,0,0:0:0:0:
448,192,175520,1,0,0:0:0:0:
64,192,175611,1,0,0:0:0:0:
192,192,175703,1,0,0:0:0:0:
320,192,175703,1,0,0:0:0:0:
448,192,175703,1,0,0:0:0:0:
64,192,175794,1,0,0:0:0:0:
448,192,175886,1,0,0:0:0:0:
320,192,175886,1,0,0:0:0:0:
192,192,175977,1,0,0:0:0:0:
64,192,176069,1,0,0:0:0:0:
448,192,176069,1,0,0:0:0:0:
320,192,176069,1,0,0:0:0:0:
192,192,176160,1,0,0:0:0:0:
64,192,176251,1,0,0:0:0:0:
448,192,176251,1,0,0:0:0:0:
320,192,176343,1,0,0:0:0:0:
192,192,176434,1,0,0:0:0:0:
64,192,176434,1,0,0:0:0:0:
448,192,176434,1,0,0:0:0:0:
320,192,176526,1,0,0:0:0:0:
64,192,176617,1,0,0:0:0:0:
192,192,176663,1,0,0:0:0:0:
320,192,176709,1,0,0:0:0:0:
448,192,176755,128,0,176937:0:0:0:0:
