osu file format v14

[General]
AudioFilename: audio.mp3
AudioLeadIn: 0
PreviewTime: 55886
Countdown: 0
SampleSet: Soft
StackLeniency: 0.7
Mode: 3
LetterboxInBreaks: 0
SpecialStyle: 0
WidescreenStoryboard: 1

[Editor]
Bookmarks: 12892,24599,36306,48014,68502,83136,88989,100697,112404,124111,127038,150453,165087
DistanceSpacing: 3.2
BeatDivisor: 2
GridSize: 32
TimelineZoom: 0.9999999

[Metadata]
Title:The Vampire feat. Hatsune Miku
TitleUnicode:ヴァンパイア feat. 初音ミク
Artist:DECO*27
ArtistUnicode:DECO*27
Creator:Harbyter
Version:Beginner
Source:
Tags:ボーカロイド vocaloid japanese pop jpop j-pop deco 27 deco27 deko niina デコ・ニーナ 8th Album MANNEQUIN Rockwell female vocals
BeatmapID:4579395
BeatmapSetID:2168317

[Difficulty]
HPDrainRate:6
CircleSize:4
OverallDifficulty:6
ApproachRate:5
SliderMultiplier:1.4
SliderTickRate:1

[Events]
//Background and Video events
0,0,"vampirebg.jpg",0,0
//Break Periods
//Storyboard Layer 0 (Background)
//Storyboard Layer 1 (Fail)
//Storyboard Layer 2 (Pass)
//Storyboard Layer 3 (Foreground)
//Storyboard Layer 4 (Overlay)
//Storyboard Sound Samples

[TimingPoints]
1191,365.853658536585,4,2,0,50,1,0
56800,-100,4,2,0,50,0,1
80215,-100,4,2,0,50,0,0
139117,-100,4,2,0,50,0,1
162166,-100,4,2,0,50,0,0

[HitObjects]
64,192,1191,5,0,0:0:0:0:
320,192,1556,1,0,0:0:0:0:
192,192,1922,1,0,0:0:0:0:
448,192,2288,1,0,0:0:0:0:
64,192,2654,1,0,0:0:0:0:
192,192,3020,1,0,0:0:0:0:
320,192,3386,1,0,0:0:0:0:
448,192,3751,1,0,0:0:0:0:
64,192,4117,128,0,4483:0:0:0:0:
192,192,4483,128,0,4849:0:0:0:0:
320,192,4849,128,0,5215:0:0:0:0:
448,192,5215,128,0,5581:0:0:0:0:
64,192,5581,1,0,0:0:0:0:
192,192,5947,1,0,0:0:0:0:
448,192,6312,1,0,0:0:0:0:
320,192,6678,1,0,0:0:0:0:
64,192,7044,1,0,0:0:0:0:
192,192,7044,1,0,0:0:0:0:
448,192,7410,1,0,0:0:0:0:
64,192,7776,1,0,0:0:0:0:
320,192,8142,1,0,0:0:0:0:
192,192,8508,1,0,0:0:0:0:
448,192,8873,1,0,0:0:0:0:
64,192,9239,128,0,9605:0:0:0:0:
448,192,9605,1,0,0:0:0:0:
192,192,9971,128,0,10703:0:0:0:0:
320,192,10703,128,0,11343:0:0:0:0:
64,192,11617,1,0,0:0:0:0:
64,192,11983,1,0,0:0:0:0:
448,192,12166,1,0,0:0:0:0:
448,192,12898,1,0,0:0:0:0:
64,192,12898,1,0,0:0:0:0:
320,192,13264,1,0,0:0:0:0:
192,192,13630,1,0,0:0:0:0:
64,192,13995,1,0,0:0:0:0:
448,192,14361,1,0,0:0:0:0:
192,192,14727,1,0,0:0:0:0:
320,192,15093,1,0,0:0:0:0:
64,192,15459,1,0,0:0:0:0:
448,192,15825,1,0,0:0:0:0:
320,192,15825,128,0,16190:0:0:0:0:
192,192,16190,128,0,16556:0:0:0:0:
64,192,16556,128,0,17105:0:0:0:0:
448,192,17105,128,0,17654:0:0:0:0:
64,192,17654,1,0,0:0:0:0:
320,192,18020,1,0,0:0:0:0:
192,192,18203,1,0,0:0:0:0:
320,192,18386,128,0,18751:0:0:0:0:
64,192,18751,1,0,0:0:0:0:
448,192,18751,1,0,0:0:0:0:
192,192,19117,1,0,0:0:0:0:
320,192,19483,1,0,0:0:0:0:
448,192,19849,1,0,0:0:0:0:
64,192,20215,1,0,0:0:0:0:
320,192,20581,1,0,0:0:0:0:
192,192,20947,1,0,0:0:0:0:
448,192,21312,1,0,0:0:0:0:
64,192,21678,128,0,22044:0:0:0:0:
192,192,22044,128,0,22410:0:0:0:0:
320,192,22410,128,0,22959:0:0:0:0:
192,192,22959,128,0,23508:0:0:0:0:
448,192,23508,1,0,0:0:0:0:
64,192,23873,128,0,24605:0:0:0:0:
448,192,24605,1,0,0:0:0:0:
320,192,24605,1,0,0:0:0:0:
192,192,24971,1,0,0:0:0:0:
320,192,25337,1,0,0:0:0:0:
64,192,25703,1,0,0:0:0:0:
448,192,26069,1,0,0:0:0:0:
320,192,26434,1,0,0:0:0:0:
192,192,26800,1,0,0:0:0:0:
64,192,27166,1,0,0:0:0:0:
448,192,27532,1,0,0:0:0:0:
192,192,27898,1,0,0:0:0:0:
320,192,28264,1,0,0:0:0:0:
64,192,28630,1,0,0:0:0:0:
192,192,28995,1,0,0:0:0:0:
320,192,29361,1,0,0:0:0:0:
448,192,29727,1,0,0:0:0:0:
64,192,30093,1,0,0:0:0:0:
320,192,30459,1,0,0:0:0:0:
320,192,31008,1,0,0:0:0:0:
192,192,31190,1,0,0:0:0:0:
192,192,31739,1,0,0:0:0:0:
64,192,31922,1,0,0:0:0:0:
448,192,32471,1,0,0:0:0:0:
64,192,32654,1,0,0:0:0:0:
320,192,33020,1,0,0:0:0:0:
192,192,33386,1,0,0:0:0:0:
192,192,33934,1,0,0:0:0:0:
320,192,34117,1,0,0:0:0:0:
320,192,34666,1,0,0:0:0:0:
448,192,34849,1,0,0:0:0:0:
64,192,35398,1,0,0:0:0:0:
448,192,35581,1,0,0:0:0:0:
320,192,35581,1,0,0:0:0:0:
448,192,35947,1,0,0:0:0:0:
320,192,35947,1,0,0:0:0:0:
192,192,36312,1,0,0:0:0:0:
64,192,36312,1,0,0:0:0:0:
448,192,36678,1,0,0:0:0:0:
64,192,37044,1,0,0:0:0:0:
192,192,37227,1,0,0:0:0:0:
320,192,37410,1,0,0:0:0:0:
64,192,37776,1,0,0:0:0:0:
448,192,38142,1,0,0:0:0:0:
64,192,38508,1,0,0:0:0:0:
192,192,38690,1,0,0:0:0:0:
320,192,38873,1,0,0:0:0:0:
64,192,39239,1,0,0:0:0:0:
448,192,39239,1,0,0:0:0:0:
448,192,39605,1,0,0:0:0:0:
64,192,39971,1,0,0:0:0:0:
64,192,40337,1,0,0:0:0:0:
320,192,40703,1,0,0:0:0:0:
192,192,41069,1,0,0:0:0:0:
64,192,41434,1,0,0:0:0:0:
448,192,41617,1,0,0:0:0:0:
64,192,41800,1,0,0:0:0:0:
320,192,42166,1,0,0:0:0:0:
448,192,42166,1,0,0:0:0:0:
64,192,42532,1,0,0:0:0:0:
448,192,42898,1,0,0:0:0:0:
320,192,43081,1,0,0:0:0:0:
192,192,43264,1,0,0:0:0:0:
448,192,43630,1,0,0:0:0:0:
64,192,43995,1,0,0:0:0:0:
448,192,44361,1,0,0:0:0:0:
320,192,44544,1,0,0:0:0:0:
192,192,44727,1,0,0:0:0:0:
64,192,45093,1,0,0:0:0:0:
64,192,45459,1,0,0:0:0:0:
448,192,45825,1,0,0:0:0:0:
448,192,46190,1,0,0:0:0:0:
192,192,46556,1,0,0:0:0:0:
320,192,46922,1,0,0:0:0:0:
64,192,47288,128,0,47654:0:0:0:0:
448,192,47654,128,0,48020:0:0:0:0:
64,192,48020,1,0,0:0:0:0:
192,192,48020,1,0,0:0:0:0:
320,192,48294,1,0,0:0:0:0:
448,192,48569,128,0,49117:0:0:0:0:
64,192,49117,128,0,49483:0:0:0:0:
320,192,49483,1,0,0:0:0:0:
192,192,49758,1,0,0:0:0:0:
64,192,50032,128,0,50581:0:0:0:0:
448,192,50581,128,0,50947:0:0:0:0:
64,192,50947,1,0,0:0:0:0:
192,192,50947,1,0,0:0:0:0:
320,192,51221,1,0,0:0:0:0:
448,192,51495,128,0,52044:0:0:0:0:
64,192,52044,128,0,52410:0:0:0:0:
448,192,52410,1,0,0:0:0:0:
192,192,52776,1,0,0:0:0:0:
320,192,53142,1,0,0:0:0:0:
64,192,53508,1,0,0:0:0:0:
448,192,53873,1,0,0:0:0:0:
448,192,54239,1,0,0:0:0:0:
192,192,54605,1,0,0:0:0:0:
448,192,54788,1,0,0:0:0:0:
64,192,55154,128,0,55520:0:0:0:0:
448,192,55520,1,0,0:0:0:0:
320,192,55703,1,0,0:0:0:0:
192,192,55886,1,0,0:0:0:0:
64,192,56069,1,0,0:0:0:0:
64,192,56800,1,0,0:0:0:0:
192,192,56800,1,0,0:0:0:0:
320,192,57166,1,0,0:0:0:0:
448,192,57166,1,0,0:0:0:0:
64,192,57532,1,0,0:0:0:0:
192,192,57898,1,0,0:0:0:0:
448,192,58264,1,0,0:0:0:0:
320,192,58630,1,0,0:0:0:0:
192,192,58995,1,0,0:0:0:0:
64,192,59361,1,0,0:0:0:0:
448,192,59727,1,0,0:0:0:0:
320,192,59727,1,0,0:0:0:0:
64,192,60093,1,0,0:0:0:0:
448,192,60459,1,0,0:0:0:0:
192,192,60825,1,0,0:0:0:0:
320,192,61190,1,0,0:0:0:0:
448,192,61556,1,0,0:0:0:0:
64,192,61922,1,0,0:0:0:0:
192,192,62288,1,0,0:0:0:0:
448,192,62654,1,0,0:0:0:0:
320,192,62654,1,0,0:0:0:0:
192,192,63020,1,0,0:0:0:0:
64,192,63020,1,0,0:0:0:0:
448,192,63386,1,0,0:0:0:0:
192,192,63751,1,0,0:0:0:0:
320,192,64117,1,0,0:0:0:0:
64,192,64483,1,0,0:0:0:0:
192,192,64849,128,0,65215:0:0:0:0:
448,192,65215,1,0,0:0:0:0:
320,192,65581,1,0,0:0:0:0:
64,192,65947,128,0,66312:0:0:0:0:
448,192,66312,1,0,0:0:0:0:
192,192,66678,1,0,0:0:0:0:
320,192,67044,1,0,0:0:0:0:
64,192,67410,1,0,0:0:0:0:
192,192,67410,1,0,0:0:0:0:
448,192,67776,1,0,0:0:0:0:
192,192,68142,128,0,68508:0:0:0:0:
320,192,68508,1,0,0:0:0:0:
448,192,68508,1,0,0:0:0:0:
320,192,68873,1,0,0:0:0:0:
192,192,69239,1,0,0:0:0:0:
192,192,69605,1,0,0:0:0:0:
448,192,69971,1,0,0:0:0:0:
448,192,70337,1,0,0:0:0:0:
64,192,70703,1,0,0:0:0:0:
192,192,71069,1,0,0:0:0:0:
320,192,71434,1,0,0:0:0:0:
448,192,71434,1,0,0:0:0:0:
64,192,71800,1,0,0:0:0:0:
320,192,72166,1,0,0:0:0:0:
192,192,72532,1,0,0:0:0:0:
448,192,72898,128,0,73264:0:0:0:0:
320,192,73264,128,0,73630:0:0:0:0:
192,192,73630,128,0,73995:0:0:0:0:
64,192,73995,128,0,74361:0:0:0:0:
320,192,74361,1,0,0:0:0:0:
448,192,74361,1,0,0:0:0:0:
192,192,74727,1,0,0:0:0:0:
64,192,74727,1,0,0:0:0:0:
320,192,75093,1,0,0:0:0:0:
448,192,75459,1,0,0:0:0:0:
192,192,75825,1,0,0:0:0:0:
320,192,76190,1,0,0:0:0:0:
64,192,76556,128,0,76922:0:0:0:0:
320,192,76922,1,0,0:0:0:0:
192,192,77288,1,0,0:0:0:0:
448,192,77654,128,0,78020:0:0:0:0:
64,192,78020,1,0,0:0:0:0:
192,192,78386,1,0,0:0:0:0:
320,192,78751,128,0,79117:0:0:0:0:
64,192,79117,1,0,0:0:0:0:
192,192,79117,1,0,0:0:0:0:
448,192,79483,1,0,0:0:0:0:
320,192,79666,1,0,0:0:0:0:
192,192,79849,1,0,0:0:0:0:
448,192,80215,1,0,0:0:0:0:
448,192,80398,1,0,0:0:0:0:
64,192,80947,1,0,0:0:0:0:
64,192,81130,1,0,0:0:0:0:
448,192,81861,1,0,0:0:0:0:
448,192,82227,1,0,0:0:0:0:
192,192,82410,1,0,0:0:0:0:
448,192,83142,1,0,0:0:0:0:
64,192,83142,1,0,0:0:0:0:
320,192,83508,1,0,0:0:0:0:
192,192,83873,1,0,0:0:0:0:
64,192,84239,1,0,0:0:0:0:
448,192,84605,1,0,0:0:0:0:
192,192,84971,1,0,0:0:0:0:
320,192,85337,1,0,0:0:0:0:
64,192,85703,1,0,0:0:0:0:
448,192,86069,1,0,0:0:0:0:
320,192,86434,1,0,0:0:0:0:
64,192,86800,1,0,0:0:0:0:
192,192,87166,1,0,0:0:0:0:
320,192,87349,128,0,87898:0:0:0:0:
64,192,87898,1,0,0:0:0:0:
192,192,87898,1,0,0:0:0:0:
448,192,88264,128,0,88630:0:0:0:0:
192,192,88630,128,0,88995:0:0:0:0:
320,192,88995,128,0,90276:0:0:0:0:
192,192,90276,128,0,91190:0:0:0:0:
448,192,91190,1,0,0:0:0:0:
64,192,91556,1,0,0:0:0:0:
320,192,91922,128,0,93203:0:0:0:0:
64,192,93203,128,0,94117:0:0:0:0:
320,192,94117,1,0,0:0:0:0:
192,192,94483,1,0,0:0:0:0:
448,192,94849,128,0,96130:0:0:0:0:
192,192,96130,128,0,97044:0:0:0:0:
320,192,97044,1,0,0:0:0:0:
64,192,97410,1,0,0:0:0:0:
448,192,97776,128,0,98508:0:0:0:0:
320,192,98508,1,0,0:0:0:0:
192,192,98873,1,0,0:0:0:0:
64,192,99239,1,0,0:0:0:0:
448,192,99422,1,0,0:0:0:0:
192,192,99971,1,0,0:0:0:0:
320,192,100154,1,0,0:0:0:0:
64,192,100337,128,0,100703:0:0:0:0:
320,192,100703,1,0,0:0:0:0:
448,192,100703,1,0,0:0:0:0:
64,192,101069,1,0,0:0:0:0:
448,192,101434,1,0,0:0:0:0:
320,192,101617,1,0,0:0:0:0:
192,192,101800,1,0,0:0:0:0:
448,192,102166,1,0,0:0:0:0:
64,192,102532,1,0,0:0:0:0:
448,192,102898,1,0,0:0:0:0:
320,192,103081,1,0,0:0:0:0:
192,192,103264,1,0,0:0:0:0:
448,192,103630,1,0,0:0:0:0:
64,192,103630,1,0,0:0:0:0:
64,192,103995,1,0,0:0:0:0:
448,192,104361,1,0,0:0:0:0:
448,192,104727,1,0,0:0:0:0:
192,192,105093,1,0,0:0:0:0:
320,192,105459,1,0,0:0:0:0:
448,192,105825,1,0,0:0:0:0:
64,192,106008,1,0,0:0:0:0:
448,192,106190,1,0,0:0:0:0:
192,192,106556,1,0,0:0:0:0:
64,192,106556,1,0,0:0:0:0:
448,192,106922,1,0,0:0:0:0:
64,192,107288,1,0,0:0:0:0:
192,192,107471,1,0,0:0:0:0:
320,192,107654,1,0,0:0:0:0:
64,192,108020,1,0,0:0:0:0:
448,192,108386,1,0,0:0:0:0:
64,192,108751,1,0,0:0:0:0:
192,192,108934,1,0,0:0:0:0:
320,192,109117,1,0,0:0:0:0:
448,192,109483,1,0,0:0:0:0:
448,192,109849,1,0,0:0:0:0:
64,192,110215,1,0,0:0:0:0:
64,192,110581,1,0,0:0:0:0:
320,192,110947,1,0,0:0:0:0:
192,192,111312,1,0,0:0:0:0:
448,192,111678,1,0,0:0:0:0:
64,192,112044,128,0,112410:0:0:0:0:
448,192,112410,1,0,0:0:0:0:
320,192,112410,1,0,0:0:0:0:
192,192,112684,1,0,0:0:0:0:
64,192,112959,128,0,113508:0:0:0:0:
448,192,113508,128,0,113873:0:0:0:0:
192,192,113873,1,0,0:0:0:0:
320,192,114148,1,0,0:0:0:0:
448,192,114422,128,0,114971:0:0:0:0:
64,192,114971,128,0,115337:0:0:0:0:
448,192,115337,1,0,0:0:0:0:
320,192,115337,1,0,0:0:0:0:
192,192,115611,1,0,0:0:0:0:
64,192,115886,128,0,116434:0:0:0:0:
448,192,116434,128,0,116800:0:0:0:0:
64,192,116800,1,0,0:0:0:0:
320,192,117166,1,0,0:0:0:0:
192,192,117532,1,0,0:0:0:0:
448,192,117898,1,0,0:0:0:0:
448,192,118264,1,0,0:0:0:0:
320,192,118264,1,0,0:0:0:0:
192,192,118538,1,0,0:0:0:0:
64,192,118812,128,0,119361:0:0:0:0:
448,192,119361,128,0,119727:0:0:0:0:
192,192,119727,1,0,0:0:0:0:
320,192,120001,1,0,0:0:0:0:
448,192,120276,128,0,120825:0:0:0:0:
64,192,120825,128,0,121190:0:0:0:0:
448,192,121190,1,0,0:0:0:0:
320,192,121190,1,0,0:0:0:0:
192,192,121465,1,0,0:0:0:0:
64,192,121739,128,0,122288:0:0:0:0:
448,192,122288,128,0,122654:0:0:0:0:
64,192,122654,1,0,0:0:0:0:
320,192,123020,1,0,0:0:0:0:
192,192,123386,1,0,0:0:0:0:
448,192,123751,1,0,0:0:0:0:
64,192,124117,1,0,0:0:0:0:
64,192,124483,1,0,0:0:0:0:
320,192,124849,1,0,0:0:0:0:
64,192,125032,1,0,0:0:0:0:
448,192,125398,128,0,125764:0:0:0:0:
64,192,125764,1,0,0:0:0:0:
192,192,125947,1,0,0:0:0:0:
320,192,126130,1,0,0:0:0:0:
448,192,126312,1,0,0:0:0:0:
64,192,127044,1,0,0:0:0:0:
192,192,127044,1,0,0:0:0:0:
320,192,127410,1,0,0:0:0:0:
448,192,127776,1,0,0:0:0:0:
64,192,128142,1,0,0:0:0:0:
192,192,128508,1,0,0:0:0:0:
448,192,128873,1,0,0:0:0:0:
320,192,129239,1,0,0:0:0:0:
192,192,129605,128,0,129971:0:0:0:0:
448,192,129971,1,0,0:0:0:0:
320,192,130337,1,0,0:0:0:0:
64,192,130703,1,0,0:0:0:0:
192,192,131069,1,0,0:0:0:0:
320,192,131434,1,0,0:0:0:0:
448,192,131800,1,0,0:0:0:0:
192,192,132166,1,0,0:0:0:0:
320,192,132532,128,0,132898:0:0:0:0:
192,192,132898,1,0,0:0:0:0:
64,192,132898,1,0,0:0:0:0:
192,192,133630,1,0,0:0:0:0:
64,192,133630,1,0,0:0:0:0:
320,192,134361,1,0,0:0:0:0:
448,192,134361,1,0,0:0:0:0:
320,192,135093,1,0,0:0:0:0:
448,192,135093,1,0,0:0:0:0:
64,192,135825,1,0,0:0:0:0:
320,192,136190,1,0,0:0:0:0:
192,192,136556,1,0,0:0:0:0:
448,192,136922,1,0,0:0:0:0:
64,192,137288,1,0,0:0:0:0:
192,192,137471,1,0,0:0:0:0:
320,192,137654,1,0,0:0:0:0:
448,192,137837,1,0,0:0:0:0:
64,192,138020,1,0,0:0:0:0:
320,192,138386,1,0,0:0:0:0:
192,192,138751,128,0,139117:0:0:0:0:
320,192,139117,1,0,0:0:0:0:
448,192,139117,1,0,0:0:0:0:
64,192,139483,1,0,0:0:0:0:
192,192,139849,1,0,0:0:0:0:
448,192,140215,1,0,0:0:0:0:
320,192,140581,1,0,0:0:0:0:
192,192,140947,1,0,0:0:0:0:
64,192,141312,1,0,0:0:0:0:
448,192,141678,1,0,0:0:0:0:
320,192,141678,1,0,0:0:0:0:
64,192,142044,1,0,0:0:0:0:
448,192,142410,1,0,0:0:0:0:
192,192,142776,1,0,0:0:0:0:
320,192,143142,1,0,0:0:0:0:
448,192,143508,1,0,0:0:0:0:
64,192,143873,1,0,0:0:0:0:
192,192,144239,1,0,0:0:0:0:
448,192,144605,1,0,0:0:0:0:
320,192,144605,1,0,0:0:0:0:
192,192,144971,1,0,0:0:0:0:
64,192,144971,1,0,0:0:0:0:
448,192,145337,1,0,0:0:0:0:
192,192,145703,1,0,0:0:0:0:
320,192,146069,1,0,0:0:0:0:
64,192,146434,1,0,0:0:0:0:
192,192,146800,128,0,147166:0:0:0:0:
448,192,147166,1,0,0:0:0:0:
320,192,147532,1,0,0:0:0:0:
64,192,147898,128,0,148264:0:0:0:0:
448,192,148264,1,0,0:0:0:0:
192,192,148630,1,0,0:0:0:0:
320,192,148995,1,0,0:0:0:0:
64,192,149361,1,0,0:0:0:0:
192,192,149361,1,0,0:0:0:0:
448,192,149727,1,0,0:0:0:0:
192,192,150093,128,0,150459:0:0:0:0:
320,192,150459,1,0,0:0:0:0:
448,192,150459,1,0,0:0:0:0:
320,192,150825,1,0,0:0:0:0:
192,192,151190,1,0,0:0:0:0:
192,192,151556,1,0,0:0:0:0:
448,192,151922,1,0,0:0:0:0:
448,192,152288,1,0,0:0:0:0:
64,192,152654,1,0,0:0:0:0:
192,192,153020,1,0,0:0:0:0:
320,192,153386,1,0,0:0:0:0:
448,192,153386,1,0,0:0:0:0:
64,192,153751,1,0,0:0:0:0:
320,192,154117,1,0,0:0:0:0:
192,192,154483,1,0,0:0:0:0:
448,192,154849,128,0,155215:0:0:0:0:
320,192,155215,128,0,155581:0:0:0:0:
192,192,155581,128,0,155947:0:0:0:0:
64,192,155947,128,0,156312:0:0:0:0:
320,192,156312,1,0,0:0:0:0:
448,192,156312,1,0,0:0:0:0:
192,192,156678,1,0,0:0:0:0:
64,192,156678,1,0,0:0:0:0:
320,192,157044,1,0,0:0:0:0:
448,192,157410,1,0,0:0:0:0:
192,192,157776,1,0,0:0:0:0:
320,192,158142,1,0,0:0:0:0:
64,192,158508,128,0,158873:0:0:0:0:
320,192,158873,1,0,0:0:0:0:
192,192,159239,1,0,0:0:0:0:
448,192,159605,128,0,159971:0:0:0:0:
64,192,159971,1,0,0:0:0:0:
192,192,160337,1,0,0:0:0:0:
320,192,160703,128,0,161069:0:0:0:0:
64,192,161069,1,0,0:0:0:0:
192,192,161069,1,0,0:0:0:0:
448,192,161434,1,0,0:0:0:0:
320,192,161617,1,0,0:0:0:0:
192,192,161800,1,0,0:0:0:0:
448,192,162166,1,0,0:0:0:0:
448,192,162349,1,0,0:0:0:0:
64,192,162898,1,0,0:0:0:0:
64,192,163081,1,0,0:0:0:0:
192,192,163812,1,0,0:0:0:0:
192,192,164178,1,0,0:0:0:0:
448,192,164361,1,0,0:0:0:0:
64,192,164727,128,0,165093:0:0:0:0:
320,192,165093,1,0,0:0:0:0:
448,192,165093,1,0,0:0:0:0:
192,192,165459,1,0,0:0:0:0:
64,192,165459,1,0,0:0:0:0:
448,192,165825,1,0,0:0:0:0:
192,192,166008,1,0,0:0:0:0:
192,192,166373,1,0,0:0:0:0:
448,192,166739,1,0,0:0:0:0:
320,192,166922,1,0,0:0:0:0:
192,192,167105,1,0,0:0:0:0:
64,192,167288,1,0,0:0:0:0:
320,192,167654,1,0,0:0:0:0:
64,192,168020,1,0,0:0:0:0:
192,192,168020,1,0,0:0:0:0:
448,192,168386,1,0,0:0:0:0:
320,192,168386,1,0,0:0:0:0:
64,192,168751,1,0,0:0:0:0:
320,192,168934,1,0,0:0:0:0:
320,192,169300,1,0,0:0:0:0:
64,192,169666,1,0,0:0:0:0:
192,192,169849,1,0,0:0:0:0:
320,192,170032,1,0,0:0:0:0:
448,192,170215,1,0,0:0:0:0:
64,192,170581,128,0,170947:0:0:0:0:
448,192,170947,1,0,0:0:0:0:
320,192,170947,1,0,0:0:0:0:
192,192,171312,1,0,0:0:0:0:
64,192,171312,1,0,0:0:0:0:
448,192,171678,1,0,0:0:0:0:
192,192,171861,1,0,0:0:0:0:
192,192,172227,1,0,0:0:0:0:
448,192,172593,1,0,0:0:0:0:
320,192,172776,1,0,0:0:0:0:
192,192,172959,1,0,0:0:0:0:
64,192,173142,1,0,0:0:0:0:
320,192,173508,1,0,0:0:0:0:
64,192,173873,1,0,0:0:0:0:
448,192,174239,128,0,174605:0:0:0:0:
192,192,174605,1,0,0:0:0:0:
320,192,174971,1,0,0:0:0:0:
64,192,175337,128,0,176434:0:0:0:0:
320,192,175703,1,0,0:0:0:0:
320,192,176069,1,0,0:0:0:0:
448,192,176434,128,0,176937:0:0:0:0:
