osu file format v14

[General]
AudioFilename: audio.mp3
AudioLeadIn: 0
PreviewTime: 57280
Countdown: 0
SampleSet: Normal
StackLeniency: 0.7
Mode: 1
LetterboxInBreaks: 0
WidescreenStoryboard: 1

[Editor]
DistanceSpacing: 0.5
BeatDivisor: 4
GridSize: 8
TimelineZoom: 2.1

[Metadata]
Title:Streaming Heart feat. Hatsune Miku
TitleUnicode:ストリーミングハート feat. 初音ミク
Artist:DECO*27
ArtistUnicode:DECO*27
Creator:Chromoxx
Version:Oni
Source:
Tags:tasuke912 electronic j-rock jrock rock japanese vocaloid deco27 ががめ gagame yuma saito kous
BeatmapID:3598712
BeatmapSetID:1758476

[Difficulty]
HPDrainRate:5.5
CircleSize:5
OverallDifficulty:5.5
ApproachRate:6
SliderMultiplier:1.4
SliderTickRate:1

[Events]
//Background and Video events
0,0,"bg.jpg",0,0
Video,-125,"output.mp4"
//Break Periods
2,75765,83658
//Storyboard Layer 0 (Background)
//Storyboard Layer 1 (Fail)
//Storyboard Layer 2 (Pass)
//Storyboard Layer 3 (Foreground)
//Storyboard Layer 4 (Overlay)
//Storyboard Sound Samples

[TimingPoints]
1280,285.714285714286,4,1,0,80,1,0
10422,-100,4,1,0,100,0,0
29922,-100,4,1,0,70,0,0
38994,-100,4,1,0,100,0,0
48280,-100,4,1,0,60,0,0
57280,-100,4,1,0,100,0,1
75565,-100,4,1,0,100,0,0
75851,-100,4,1,0,70,0,0
84851,-100,4,1,0,50,0,0
92565,-100,4,1,0,65,0,0
93708,-100,4,1,0,100,0,0
103137,-100,4,1,0,75,0,0
112137,-100,4,1,0,100,0,0
121208,-100,4,1,0,50,0,0
129137,-100,4,1,0,65,0,0
131137,-100,4,1,0,85,0,0
131565,-100,4,1,0,100,0,1
139422,-100,4,1,0,100,0,0
140708,-100,4,1,0,100,0,1
168137,-100,4,1,0,100,0,0
168280,-100,4,1,0,50,0,0

[HitObjects]
332,278,1280,5,0,0:0:0:0:
286,269,1565,1,8,0:0:0:0:
286,269,1708,1,8,0:0:0:0:
286,269,1851,1,0,0:0:0:0:
286,269,2137,1,0,0:0:0:0:
286,269,2280,1,8,0:0:0:0:
286,269,2565,1,0,0:0:0:0:
286,269,2851,1,8,0:0:0:0:
286,269,3137,1,8,0:0:0:0:
286,269,3280,1,0,0:0:0:0:
286,269,3422,1,0,0:0:0:0:
244,254,3565,1,8,0:0:0:0:
218,173,3851,1,0,0:0:0:0:
218,173,3994,1,0,0:0:0:0:
209,151,4137,1,8,0:0:0:0:
234,148,4422,1,8,0:0:0:0:
234,148,4565,1,0,0:0:0:0:
272,187,4851,1,8,0:0:0:0:
272,187,5137,1,0,0:0:0:0:
272,187,5422,1,0,0:0:0:0:
264,169,5565,1,8,0:0:0:0:
264,169,5708,1,8,0:0:0:0:
275,168,5851,1,0,0:0:0:0:
220,212,6137,1,8,0:0:0:0:
249,203,6280,1,0,0:0:0:0:
249,203,6422,1,8,0:0:0:0:
289,211,6708,1,0,0:0:0:0:
289,211,6851,1,0,0:0:0:0:
262,205,7137,1,8,0:0:0:0:
386,209,7422,1,0,0:0:0:0:
227,201,7708,1,8,0:0:0:0:
205,189,7851,1,8,0:0:0:0:
227,201,7994,1,0,0:0:0:0:
205,189,8137,1,8,0:0:0:0:
261,181,9280,1,0,0:0:0:0:
248,179,9351,1,0,0:0:0:0:
256,180,9422,1,0,0:0:0:0:
265,175,9565,1,8,0:0:0:0:
293,169,9708,1,0,0:0:0:0:
293,210,9851,1,8,0:0:0:0:
275,219,9922,1,8,0:0:0:0:
265,231,9994,1,0,0:0:0:0:
258,243,10137,1,8,0:0:0:0:
255,235,10280,1,8,0:0:0:0:
110,164,10422,1,4,0:0:0:0:
338,234,10851,1,0,0:0:0:0:
218,234,10994,1,8,0:0:0:0:
255,267,11137,1,0,0:0:0:0:
255,267,11280,1,0,0:0:0:0:
214,222,11565,1,8,0:0:0:0:
279,245,11780,1,8,0:0:0:0:
194,126,11994,1,8,0:0:0:0:
194,126,12137,1,0,0:0:0:0:
194,126,12208,1,0,0:0:0:0:
194,126,12280,1,8,0:0:0:0:
194,126,12422,1,0,0:0:0:0:
309,162,12708,1,12,0:0:0:0:
346,185,13137,1,8,0:0:0:0:
317,182,13280,1,0,0:0:0:0:
241,180,13422,1,8,0:0:0:0:
241,180,13565,1,8,0:0:0:0:
357,220,13851,1,0,0:0:0:0:
357,220,14065,1,0,0:0:0:0:
357,220,14280,1,0,0:0:0:0:
287,192,14422,1,8,0:0:0:0:
238,188,14494,1,8,0:0:0:0:
183,164,14565,1,0,0:0:0:0:
112,136,14708,1,8,0:0:0:0:
110,164,14994,1,4,0:0:0:0:
338,234,15422,1,0,0:0:0:0:
218,234,15565,1,8,0:0:0:0:
255,267,15708,1,8,0:0:0:0:
255,267,15851,1,0,0:0:0:0:
214,222,16137,1,8,0:0:0:0:
279,245,16351,1,0,0:0:0:0:
194,126,16565,1,8,0:0:0:0:
194,126,16708,1,0,0:0:0:0:
194,126,16780,1,0,0:0:0:0:
194,126,16851,1,8,0:0:0:0:
194,126,16994,1,0,0:0:0:0:
309,162,17280,1,12,0:0:0:0:
346,185,17708,1,8,0:0:0:0:
317,182,17851,1,0,0:0:0:0:
241,180,17994,1,0,0:0:0:0:
241,180,18137,1,8,0:0:0:0:
357,220,18422,1,0,0:0:0:0:
357,220,18637,1,8,0:0:0:0:
357,220,18851,1,0,0:0:0:0:
287,192,18994,1,8,0:0:0:0:
238,188,19065,1,8,0:0:0:0:
183,164,19137,1,0,0:0:0:0:
112,136,19280,1,8,0:0:0:0:
110,164,19565,1,4,0:0:0:0:
338,234,19994,1,0,0:0:0:0:
218,234,20137,1,8,0:0:0:0:
255,267,20280,1,0,0:0:0:0:
255,267,20422,1,0,0:0:0:0:
214,222,20708,1,8,0:0:0:0:
279,245,20922,1,8,0:0:0:0:
194,126,21137,1,8,0:0:0:0:
194,126,21280,1,0,0:0:0:0:
194,126,21351,1,0,0:0:0:0:
194,126,21422,1,8,0:0:0:0:
194,126,21565,1,0,0:0:0:0:
309,162,21851,1,12,0:0:0:0:
346,185,22280,1,8,0:0:0:0:
317,182,22422,1,0,0:0:0:0:
241,180,22565,1,8,0:0:0:0:
241,180,22708,1,8,0:0:0:0:
357,220,22994,1,0,0:0:0:0:
357,220,23208,1,0,0:0:0:0:
357,220,23422,1,0,0:0:0:0:
287,192,23565,1,8,0:0:0:0:
238,188,23637,1,8,0:0:0:0:
183,164,23708,1,0,0:0:0:0:
112,136,23851,1,8,0:0:0:0:
110,164,24137,1,4,0:0:0:0:
338,234,24565,1,0,0:0:0:0:
218,234,24708,1,8,0:0:0:0:
255,267,24851,1,8,0:0:0:0:
255,267,24994,1,0,0:0:0:0:
214,222,25280,1,8,0:0:0:0:
279,245,25494,1,0,0:0:0:0:
194,126,25708,1,8,0:0:0:0:
194,126,25851,1,0,0:0:0:0:
194,126,25922,1,0,0:0:0:0:
194,126,25994,1,8,0:0:0:0:
194,126,26137,1,0,0:0:0:0:
309,162,26422,1,12,0:0:0:0:
346,185,26851,1,8,0:0:0:0:
317,182,26994,1,0,0:0:0:0:
241,180,27137,1,0,0:0:0:0:
241,180,27280,1,8,0:0:0:0:
357,220,27565,1,0,0:0:0:0:
357,220,27780,1,8,0:0:0:0:
357,220,27994,1,0,0:0:0:0:
287,192,28137,1,8,0:0:0:0:
238,188,28208,1,8,0:0:0:0:
183,164,28280,1,0,0:0:0:0:
112,136,28422,1,8,0:0:0:0:
151,197,28708,1,0,0:0:0:0:
265,194,29851,1,0,0:0:0:0:
308,228,30137,1,8,0:0:0:0:
165,217,30280,1,0,0:0:0:0:
226,186,30422,1,8,0:0:0:0:
291,219,30708,1,8,0:0:0:0:
340,230,30994,1,0,0:0:0:0:
259,163,31137,1,8,0:0:0:0:
259,163,31280,1,0,0:0:0:0:
259,163,31565,1,8,0:0:0:0:
259,163,31708,1,0,0:0:0:0:
259,163,31851,1,8,0:0:0:0:
253,269,31994,1,8,0:0:0:0:
253,269,32137,1,0,0:0:0:0:
309,231,32422,1,8,0:0:0:0:
309,231,32565,1,8,0:0:0:0:
229,159,32708,1,0,0:0:0:0:
229,159,32994,1,8,0:0:0:0:
272,169,33280,1,0,0:0:0:0:
214,120,33422,1,0,0:0:0:0:
214,120,33565,1,8,0:0:0:0:
318,275,33851,1,0,0:0:0:0:
341,258,33994,1,0,0:0:0:0:
289,211,34137,1,8,0:0:0:0:
202,151,34280,1,0,0:0:0:0:
202,151,34422,1,8,0:0:0:0:
214,248,34708,1,0,0:0:0:0:
214,248,34851,1,8,0:0:0:0:
194,228,34994,1,0,0:0:0:0:
218,233,35280,1,0,0:0:0:0:
218,233,35565,1,8,0:0:0:0:
213,215,35708,1,0,0:0:0:0:
213,215,35851,1,8,0:0:0:0:
235,258,36137,1,0,0:0:0:0:
235,258,36280,1,8,0:0:0:0:
235,258,36422,1,0,0:0:0:0:
205,241,36565,1,0,0:0:0:0:
205,241,36708,1,8,0:0:0:0:
195,269,36994,1,0,0:0:0:0:
195,269,37137,1,0,0:0:0:0:
154,231,37280,1,8,0:0:0:0:
235,219,37565,1,0,0:0:0:0:
235,219,37851,1,8,0:0:0:0:
181,257,37994,1,8,0:0:0:0:
213,157,38065,1,8,0:0:0:0:
162,260,38137,1,8,0:0:0:0:
213,196,38280,1,8,0:0:0:0:
265,172,38422,1,0,0:0:0:0:
282,164,38565,1,8,0:0:0:0:
282,164,38708,1,8,0:0:0:0:
137,120,38851,1,8,0:0:0:0:
137,120,38922,1,8,0:0:0:0:
137,120,38994,1,0,0:0:0:0:
379,272,39280,1,8,0:0:0:0:
379,272,39422,1,0,0:0:0:0:
379,272,39494,1,0,0:0:0:0:
379,272,39565,1,8,0:0:0:0:
379,272,39708,1,8,0:0:0:0:
379,272,39851,1,0,0:0:0:0:
379,272,39922,1,0,0:0:0:0:
379,272,39994,1,8,0:0:0:0:
379,272,40137,1,0,0:0:0:0:
159,186,40422,1,8,0:0:0:0:
203,217,40565,1,0,0:0:0:0:
231,273,40851,1,0,0:0:0:0:
225,260,41137,1,0,0:0:0:0:
225,260,41280,1,8,0:0:0:0:
232,251,41565,1,0,0:0:0:0:
238,265,41708,1,8,0:0:0:0:
210,243,41780,1,8,0:0:0:0:
197,234,41851,1,0,0:0:0:0:
197,234,41994,1,0,0:0:0:0:
194,225,42137,1,8,0:0:0:0:
192,221,42208,1,8,0:0:0:0:
188,218,42280,1,0,0:0:0:0:
201,210,42422,1,8,0:0:0:0:
287,219,42708,1,0,0:0:0:0:
287,219,42851,1,8,0:0:0:0:
287,219,43137,1,8,0:0:0:0:
287,219,43422,1,8,0:0:0:0:
159,180,43565,1,0,0:0:0:0:
276,275,43851,1,8,0:0:0:0:
280,273,43994,1,0,0:0:0:0:
276,269,44065,1,8,0:0:0:0:
268,259,44137,1,0,0:0:0:0:
71,178,44280,1,8,0:0:0:0:
76,182,44422,1,0,0:0:0:0:
81,183,44494,1,8,0:0:0:0:
81,183,44565,1,0,0:0:0:0:
81,183,44708,1,8,0:0:0:0:
281,254,44994,1,8,0:0:0:0:
277,256,45137,1,8,0:0:0:0:
286,256,45422,1,0,0:0:0:0:
288,224,45708,1,8,0:0:0:0:
288,224,45851,1,8,0:0:0:0:
200,200,46137,1,0,0:0:0:0:
264,192,46280,1,8,0:0:0:0:
192,176,46351,1,0,0:0:0:0:
176,160,46422,1,8,0:0:0:0:
192,192,46565,1,0,0:0:0:0:
192,192,46708,1,8,0:0:0:0:
176,168,46780,1,0,0:0:0:0:
160,160,46851,1,8,0:0:0:0:
256,160,46994,1,0,0:0:0:0:
288,200,47280,1,8,0:0:0:0:
288,200,47422,1,8,0:0:0:0:
288,200,47565,1,0,0:0:0:0:
280,192,47708,1,0,0:0:0:0:
280,192,47851,1,8,0:0:0:0:
280,192,47994,1,8,0:0:0:0:
272,184,48137,1,0,0:0:0:0:
272,256,48565,1,0,0:0:0:0:
272,256,48994,1,0,0:0:0:0:
272,256,49280,1,8,0:0:0:0:
232,136,49565,1,0,0:0:0:0:
232,136,49851,1,8,0:0:0:0:
232,136,50137,1,8,0:0:0:0:
232,136,50422,1,0,0:0:0:0:
232,136,50851,1,0,0:0:0:0:
200,192,51280,1,0,0:0:0:0:
200,192,51565,1,8,0:0:0:0:
240,168,51851,1,8,0:0:0:0:
240,168,52137,1,0,0:0:0:0:
240,168,52422,1,0,0:0:0:0:
240,168,52708,1,8,0:0:0:0:
240,168,53137,1,8,0:0:0:0:
288,176,53565,1,8,0:0:0:0:
288,176,53851,1,0,0:0:0:0:
280,176,54137,1,8,0:0:0:0:
280,176,54422,1,0,0:0:0:0:
280,176,54708,1,0,0:0:0:0:
280,176,54994,1,8,0:0:0:0:
296,168,55280,1,8,0:0:0:0:
296,168,55565,1,8,0:0:0:0:
296,168,55851,1,8,0:0:0:0:
256,192,56137,1,0,0:0:0:0:
272,176,56208,1,0,0:0:0:0:
288,176,56280,1,0,0:0:0:0:
272,176,56351,1,0,0:0:0:0:
256,160,56422,1,0,0:0:0:0:
200,160,56565,1,0,0:0:0:0:
256,160,56637,1,0,0:0:0:0:
176,152,56708,1,8,0:0:0:0:
280,168,57280,1,4,0:0:0:0:
312,224,57565,1,8,0:0:0:0:
280,208,57708,1,0,0:0:0:0:
264,192,57994,1,0,0:0:0:0:
272,192,58137,1,8,0:0:0:0:
264,192,58280,1,8,0:0:0:0:
216,176,58422,1,0,0:0:0:0:
176,160,58494,1,0,0:0:0:0:
192,168,58565,1,0,0:0:0:0:
184,176,58708,1,8,0:0:0:0:
245,250,58851,1,0,0:0:0:0:
352,290,59137,1,0,0:0:0:0:
344,291,59280,1,8,0:0:0:0:
261,268,59422,1,8,0:0:0:0:
243,220,59565,1,0,0:0:0:0:
197,300,59708,1,0,0:0:0:0:
224,253,59780,1,0,0:0:0:0:
212,192,59851,1,8,0:0:0:0:
290,196,59994,1,0,0:0:0:0:
190,112,60137,1,8,0:0:0:0:
175,125,60208,1,8,0:0:0:0:
136,104,60280,1,0,0:0:0:0:
266,110,60422,1,8,0:0:0:0:
265,136,60565,1,0,0:0:0:0:
342,102,60851,1,0,0:0:0:0:
327,98,60994,1,8,0:0:0:0:
254,108,61137,1,0,0:0:0:0:
216,105,61280,1,8,0:0:0:0:
120,103,61351,1,8,0:0:0:0:
120,103,61422,1,8,0:0:0:0:
120,103,61494,1,8,0:0:0:0:
120,103,61565,1,0,0:0:0:0:
208,280,61851,1,12,0:0:0:0:
224,232,62137,1,0,0:0:0:0:
224,232,62280,1,8,0:0:0:0:
352,184,62565,1,8,0:0:0:0:
352,184,62708,1,0,0:0:0:0:
352,184,62851,1,0,0:0:0:0:
240,232,62994,1,8,0:0:0:0:
208,192,63065,1,8,0:0:0:0:
200,176,63137,1,8,0:0:0:0:
200,184,63280,1,0,0:0:0:0:
200,184,63422,1,8,0:0:0:0:
248,176,63708,1,8,0:0:0:0:
248,176,63851,1,0,0:0:0:0:
248,176,63994,1,0,0:0:0:0:
264,192,64137,1,8,0:0:0:0:
264,184,64280,1,0,0:0:0:0:
264,176,64351,1,0,0:0:0:0:
168,144,64422,1,8,0:0:0:0:
168,144,64565,1,8,0:0:0:0:
168,144,64637,1,8,0:0:0:0:
168,136,64708,1,0,0:0:0:0:
312,240,64851,1,0,0:0:0:0:
224,224,64922,1,0,0:0:0:0:
200,248,64994,1,8,0:0:0:0:
200,248,65137,1,8,0:0:0:0:
304,192,65280,1,0,0:0:0:0:
376,272,65851,1,8,0:0:0:0:
376,272,65922,1,8,0:0:0:0:
376,272,65994,1,8,0:0:0:0:
376,272,66065,1,8,0:0:0:0:
376,272,66137,1,8,0:0:0:0:
168,240,66208,1,8,0:0:0:0:
176,192,66280,1,8,0:0:0:0:
184,208,66422,1,4,0:0:0:0:
264,280,66708,1,8,0:0:0:0:
248,264,66851,1,0,0:0:0:0:
264,272,67137,1,0,0:0:0:0:
264,272,67280,1,8,0:0:0:0:
232,280,67422,1,8,0:0:0:0:
216,272,67565,1,0,0:0:0:0:
352,280,67708,1,8,0:0:0:0:
216,304,67780,1,8,0:0:0:0:
328,264,67851,1,0,0:0:0:0:
232,240,67994,1,8,0:0:0:0:
208,296,68065,1,8,0:0:0:0:
232,240,68137,1,0,0:0:0:0:
232,240,68280,1,8,0:0:0:0:
208,296,68351,1,8,0:0:0:0:
232,240,68422,1,0,0:0:0:0:
216,264,68708,1,12,0:0:0:0:
304,192,68994,1,0,0:0:0:0:
296,208,69137,1,8,0:0:0:0:
168,152,69422,1,8,0:0:0:0:
168,152,69565,1,0,0:0:0:0:
168,152,69708,1,0,0:0:0:0:
168,152,69851,1,8,0:0:0:0:
168,152,69994,1,0,0:0:0:0:
168,152,70065,1,0,0:0:0:0:
168,152,70137,1,8,0:0:0:0:
168,152,70280,1,0,0:0:0:0:
168,152,70351,1,0,0:0:0:0:
168,152,70422,1,8,0:0:0:0:
168,152,70565,1,0,0:0:0:0:
168,152,70637,1,0,0:0:0:0:
168,152,70708,1,8,0:0:0:0:
168,152,70994,1,4,0:0:0:0:
264,280,71280,1,8,0:0:0:0:
248,264,71422,1,0,0:0:0:0:
264,272,71708,1,0,0:0:0:0:
264,272,71851,1,8,0:0:0:0:
232,280,71994,1,8,0:0:0:0:
216,272,72137,1,0,0:0:0:0:
352,280,72280,1,8,0:0:0:0:
216,304,72351,1,8,0:0:0:0:
328,264,72422,1,0,0:0:0:0:
232,240,72565,1,8,0:0:0:0:
208,296,72637,1,8,0:0:0:0:
232,240,72708,1,0,0:0:0:0:
232,240,72851,1,8,0:0:0:0:
208,296,72922,1,8,0:0:0:0:
232,240,72994,1,0,0:0:0:0:
216,264,73280,1,12,0:0:0:0:
304,192,73565,1,0,0:0:0:0:
296,208,73708,1,8,0:0:0:0:
168,152,73994,1,8,0:0:0:0:
168,152,74137,1,0,0:0:0:0:
168,152,74280,1,0,0:0:0:0:
168,152,74422,1,8,0:0:0:0:
168,152,74565,1,0,0:0:0:0:
168,152,74637,1,0,0:0:0:0:
168,152,74708,1,8,0:0:0:0:
168,152,74851,1,0,0:0:0:0:
168,152,74922,1,0,0:0:0:0:
168,152,74994,1,8,0:0:0:0:
88,112,75137,1,8,0:0:0:0:
120,112,75280,1,8,0:0:0:0:
176,104,75422,1,8,0:0:0:0:
168,152,75565,1,4,0:0:0:0:
256,192,84708,5,0,0:0:0:0:
208,256,84994,1,8,0:0:0:0:
176,136,85137,1,0,0:0:0:0:
248,192,85851,1,0,0:0:0:0:
64,144,86137,1,8,0:0:0:0:
112,152,86280,1,0,0:0:0:0:
200,192,86994,1,0,0:0:0:0:
112,216,87280,1,8,0:0:0:0:
176,232,87422,1,0,0:0:0:0:
240,192,88137,1,0,0:0:0:0:
240,192,88422,1,8,0:0:0:0:
240,192,88565,1,0,0:0:0:0:
232,224,89280,1,8,0:0:0:0:
232,224,89565,1,0,0:0:0:0:
200,208,89708,1,8,0:0:0:0:
200,208,90422,1,8,0:0:0:0:
200,208,90708,1,0,0:0:0:0:
200,208,90851,1,8,0:0:0:0:
200,208,91565,1,8,0:0:0:0:
200,208,91851,1,0,0:0:0:0:
200,208,91994,1,8,0:0:0:0:
200,224,92708,1,0,0:0:0:0:
240,200,92994,1,8,0:0:0:0:
168,176,93065,1,8,0:0:0:0:
152,200,93137,1,8,0:0:0:0:
168,168,93208,1,8,0:0:0:0:
160,168,93280,1,8,0:0:0:0:
160,168,93351,1,8,0:0:0:0:
168,168,93422,1,0,0:0:0:0:
256,176,93851,1,12,0:0:0:0:
232,251,94137,1,0,0:0:0:0:
238,265,94280,1,8,0:0:0:0:
210,243,94351,1,8,0:0:0:0:
197,234,94422,1,0,0:0:0:0:
197,234,94565,1,0,0:0:0:0:
194,225,94708,1,8,0:0:0:0:
192,221,94780,1,8,0:0:0:0:
188,218,94851,1,0,0:0:0:0:
201,210,94994,1,8,0:0:0:0:
287,219,95280,1,0,0:0:0:0:
287,219,95422,1,8,0:0:0:0:
287,219,95708,1,8,0:0:0:0:
287,219,95994,1,8,0:0:0:0:
159,180,96137,1,0,0:0:0:0:
379,272,96422,1,8,0:0:0:0:
379,272,96565,1,0,0:0:0:0:
379,272,96637,1,0,0:0:0:0:
379,272,96708,1,8,0:0:0:0:
379,272,96851,1,8,0:0:0:0:
379,272,96994,1,0,0:0:0:0:
379,272,97065,1,0,0:0:0:0:
379,272,97137,1,8,0:0:0:0:
379,272,97280,1,0,0:0:0:0:
159,186,97565,1,8,0:0:0:0:
203,217,97708,1,0,0:0:0:0:
231,273,97994,1,0,0:0:0:0:
225,260,98280,1,0,0:0:0:0:
225,260,98422,1,8,0:0:0:0:
200,200,98708,1,0,0:0:0:0:
264,192,98851,1,8,0:0:0:0:
192,176,98922,1,0,0:0:0:0:
176,160,98994,1,8,0:0:0:0:
192,192,99137,1,0,0:0:0:0:
192,192,99280,1,8,0:0:0:0:
176,168,99351,1,0,0:0:0:0:
160,160,99422,1,8,0:0:0:0:
256,160,99565,1,0,0:0:0:0:
288,200,99851,1,0,0:0:0:0:
288,200,99994,1,0,0:0:0:0:
280,192,100280,1,8,0:0:0:0:
280,192,100565,1,0,0:0:0:0:
280,192,100708,1,0,0:0:0:0:
276,275,100994,1,8,0:0:0:0:
280,273,101137,1,0,0:0:0:0:
276,269,101208,1,8,0:0:0:0:
268,259,101280,1,0,0:0:0:0:
71,178,101422,1,8,0:0:0:0:
76,182,101565,1,0,0:0:0:0:
81,183,101637,1,8,0:0:0:0:
81,183,101708,1,0,0:0:0:0:
81,183,101851,1,8,0:0:0:0:
281,254,102137,1,8,0:0:0:0:
277,256,102280,1,8,0:0:0:0:
264,88,102422,1,0,0:0:0:0:
286,256,102565,1,0,0:0:0:0:
176,80,102708,1,8,0:0:0:0:
288,224,102851,1,8,0:0:0:0:
288,224,102994,1,0,0:0:0:0:
144,256,103280,1,8,0:0:0:0:
144,256,103565,1,0,0:0:0:0:
144,256,103851,1,8,0:0:0:0:
144,256,104137,1,0,0:0:0:0:
208,280,104280,1,0,0:0:0:0:
192,256,104422,1,8,0:0:0:0:
192,256,104565,1,8,0:0:0:0:
192,256,104708,1,0,0:0:0:0:
248,248,104994,1,8,0:0:0:0:
152,280,105280,1,0,0:0:0:0:
152,280,105565,1,8,0:0:0:0:
152,280,105851,1,0,0:0:0:0:
152,280,106137,1,8,0:0:0:0:
224,272,106422,1,0,0:0:0:0:
208,256,106565,1,8,0:0:0:0:
200,240,106708,1,0,0:0:0:0:
200,240,106851,1,8,0:0:0:0:
184,224,106994,1,0,0:0:0:0:
184,224,107280,1,8,0:0:0:0:
208,232,107565,1,0,0:0:0:0:
208,232,107851,1,8,0:0:0:0:
208,232,108137,1,0,0:0:0:0:
208,232,108422,1,8,0:0:0:0:
256,240,108708,1,0,0:0:0:0:
224,232,108851,1,0,0:0:0:0:
120,232,108994,1,8,0:0:0:0:
120,232,109137,1,8,0:0:0:0:
120,232,109280,1,0,0:0:0:0:
216,248,109565,1,8,0:0:0:0:
216,248,109851,1,0,0:0:0:0:
224,280,110137,1,8,0:0:0:0:
240,280,110422,1,0,0:0:0:0:
240,280,110708,1,8,0:0:0:0:
176,256,112137,1,4,0:0:0:0:
272,208,112422,1,8,0:0:0:0:
328,248,112565,1,0,0:0:0:0:
344,248,112637,1,0,0:0:0:0:
250,262,112708,1,8,0:0:0:0:
197,247,112851,1,8,0:0:0:0:
279,286,112994,1,0,0:0:0:0:
303,274,113280,1,8,0:0:0:0:
144,154,113422,1,8,0:0:0:0:
144,154,113565,1,0,0:0:0:0:
144,154,113708,1,0,0:0:0:0:
144,154,113851,1,8,0:0:0:0:
188,189,113922,1,8,0:0:0:0:
188,189,113994,1,0,0:0:0:0:
188,189,114065,1,0,0:0:0:0:
188,189,114137,1,8,0:0:0:0:
298,224,114280,1,0,0:0:0:0:
167,252,114422,1,8,0:0:0:0:
288,181,114708,1,0,0:0:0:0:
281,179,114851,1,8,0:0:0:0:
277,179,114922,1,8,0:0:0:0:
277,179,114994,1,0,0:0:0:0:
274,178,115137,1,0,0:0:0:0:
271,181,115280,1,8,0:0:0:0:
298,173,115565,1,0,0:0:0:0:
298,173,115708,1,0,0:0:0:0:
284,172,115851,1,8,0:0:0:0:
284,172,115994,1,8,0:0:0:0:
281,172,116137,1,0,0:0:0:0:
281,172,116208,1,0,0:0:0:0:
281,172,116280,1,8,0:0:0:0:
281,172,116351,1,8,0:0:0:0:
281,172,116422,1,0,0:0:0:0:
283,265,116565,1,8,0:0:0:0:
265,264,116708,1,0,0:0:0:0:
266,258,116994,1,8,0:0:0:0:
247,267,117137,1,0,0:0:0:0:
229,255,117208,1,0,0:0:0:0:
186,242,117280,1,8,0:0:0:0:
186,242,117422,1,8,0:0:0:0:
186,242,117565,1,0,0:0:0:0:
186,242,117851,1,8,0:0:0:0:
186,242,117994,1,0,0:0:0:0:
200,237,118137,1,0,0:0:0:0:
199,238,118280,1,0,0:0:0:0:
226,238,118422,1,8,0:0:0:0:
227,228,118494,1,8,0:0:0:0:
209,210,118565,1,0,0:0:0:0:
209,210,118637,1,0,0:0:0:0:
197,205,118708,1,8,0:0:0:0:
230,191,118851,1,0,0:0:0:0:
240,190,118994,1,8,0:0:0:0:
240,190,119280,1,0,0:0:0:0:
237,193,119422,1,8,0:0:0:0:
239,193,119494,1,8,0:0:0:0:
230,191,119565,1,0,0:0:0:0:
253,189,119708,1,0,0:0:0:0:
298,189,119851,1,8,0:0:0:0:
250,234,119994,1,8,0:0:0:0:
298,224,120137,1,0,0:0:0:0:
270,214,120208,1,0,0:0:0:0:
270,214,120280,1,8,0:0:0:0:
270,214,120351,1,8,0:0:0:0:
270,214,120422,1,0,0:0:0:0:
205,111,120565,1,0,0:0:0:0:
205,111,120708,1,8,0:0:0:0:
188,130,121280,1,0,0:0:0:0:
272,256,121708,1,0,0:0:0:0:
272,256,122137,1,0,0:0:0:0:
272,256,122422,1,8,0:0:0:0:
232,136,122708,1,0,0:0:0:0:
232,136,122994,1,8,0:0:0:0:
232,136,123280,1,8,0:0:0:0:
232,136,123565,1,0,0:0:0:0:
232,136,123994,1,0,0:0:0:0:
200,192,124422,1,0,0:0:0:0:
200,192,124708,1,8,0:0:0:0:
240,168,124994,1,8,0:0:0:0:
240,168,125280,1,0,0:0:0:0:
240,168,125565,1,0,0:0:0:0:
240,168,125851,1,8,0:0:0:0:
240,168,126280,1,8,0:0:0:0:
288,176,126708,1,8,0:0:0:0:
288,176,126994,1,0,0:0:0:0:
280,176,127280,1,8,0:0:0:0:
280,176,127565,1,0,0:0:0:0:
280,176,127851,1,0,0:0:0:0:
280,176,128137,1,8,0:0:0:0:
296,168,128422,1,8,0:0:0:0:
296,168,128708,1,8,0:0:0:0:
296,168,128994,1,8,0:0:0:0:
256,192,129280,1,0,0:0:0:0:
272,176,129351,1,0,0:0:0:0:
288,176,129422,1,0,0:0:0:0:
272,176,129494,1,0,0:0:0:0:
256,160,129565,1,0,0:0:0:0:
200,160,129708,1,0,0:0:0:0:
256,160,129780,1,0,0:0:0:0:
176,152,129851,1,8,0:0:0:0:
190,179,131280,1,8,0:0:0:0:
280,168,131565,1,4,0:0:0:0:
312,224,131851,1,8,0:0:0:0:
280,208,131994,1,0,0:0:0:0:
264,192,132280,1,0,0:0:0:0:
272,192,132422,1,8,0:0:0:0:
264,192,132565,1,8,0:0:0:0:
216,176,132708,1,0,0:0:0:0:
176,160,132780,1,0,0:0:0:0:
192,168,132851,1,0,0:0:0:0:
184,176,132994,1,8,0:0:0:0:
245,250,133137,1,0,0:0:0:0:
352,290,133422,1,0,0:0:0:0:
344,291,133565,1,8,0:0:0:0:
261,268,133708,1,8,0:0:0:0:
243,220,133851,1,0,0:0:0:0:
197,300,133994,1,0,0:0:0:0:
224,253,134065,1,0,0:0:0:0:
212,192,134137,1,8,0:0:0:0:
290,196,134280,1,0,0:0:0:0:
190,112,134422,1,8,0:0:0:0:
175,125,134494,1,8,0:0:0:0:
136,104,134565,1,0,0:0:0:0:
266,110,134708,1,8,0:0:0:0:
265,136,134851,1,0,0:0:0:0:
342,102,135137,1,0,0:0:0:0:
327,98,135280,1,8,0:0:0:0:
254,108,135422,1,0,0:0:0:0:
216,105,135565,1,8,0:0:0:0:
120,103,135637,1,8,0:0:0:0:
120,103,135708,1,8,0:0:0:0:
120,103,135780,1,8,0:0:0:0:
120,103,135851,1,0,0:0:0:0:
208,280,136137,1,12,0:0:0:0:
224,232,136422,1,0,0:0:0:0:
224,232,136565,1,8,0:0:0:0:
352,184,136851,1,8,0:0:0:0:
352,184,136994,1,0,0:0:0:0:
352,184,137137,1,0,0:0:0:0:
240,232,137280,1,8,0:0:0:0:
208,192,137351,1,8,0:0:0:0:
200,176,137422,1,8,0:0:0:0:
200,184,137565,1,0,0:0:0:0:
200,184,137708,1,8,0:0:0:0:
248,176,137994,1,8,0:0:0:0:
248,176,138137,1,0,0:0:0:0:
248,176,138280,1,0,0:0:0:0:
264,192,138422,1,8,0:0:0:0:
264,184,138565,1,0,0:0:0:0:
264,176,138637,1,0,0:0:0:0:
168,144,138708,1,8,0:0:0:0:
168,144,138851,1,8,0:0:0:0:
168,144,138922,1,8,0:0:0:0:
168,136,138994,1,0,0:0:0:0:
312,240,139137,1,0,0:0:0:0:
224,224,139208,1,0,0:0:0:0:
200,248,139280,1,8,0:0:0:0:
200,248,139422,1,8,0:0:0:0:
280,168,140708,1,4,0:0:0:0:
312,224,140994,1,8,0:0:0:0:
384,272,141137,1,8,0:0:0:0:
368,296,141280,1,0,0:0:0:0:
264,192,141422,1,0,0:0:0:0:
272,192,141565,1,8,0:0:0:0:
264,192,141708,1,8,0:0:0:0:
216,176,141851,1,0,0:0:0:0:
176,160,141922,1,0,0:0:0:0:
192,168,141994,1,0,0:0:0:0:
184,176,142137,1,8,0:0:0:0:
245,250,142280,1,0,0:0:0:0:
352,290,142565,1,0,0:0:0:0:
344,291,142708,1,8,0:0:0:0:
261,268,142851,1,8,0:0:0:0:
243,220,142994,1,0,0:0:0:0:
197,300,143137,1,0,0:0:0:0:
224,253,143208,1,0,0:0:0:0:
212,192,143280,1,8,0:0:0:0:
290,196,143422,1,0,0:0:0:0:
190,112,143565,1,8,0:0:0:0:
175,125,143637,1,8,0:0:0:0:
136,104,143708,1,0,0:0:0:0:
266,110,143851,1,8,0:0:0:0:
265,136,143994,1,8,0:0:0:0:
224,272,144137,1,0,0:0:0:0:
342,102,144280,1,0,0:0:0:0:
327,98,144422,1,8,0:0:0:0:
254,108,144565,1,0,0:0:0:0:
216,105,144708,1,8,0:0:0:0:
120,103,144780,1,8,0:0:0:0:
120,103,144851,1,8,0:0:0:0:
120,103,144922,1,8,0:0:0:0:
120,103,144994,1,0,0:0:0:0:
208,280,145280,1,12,0:0:0:0:
224,232,145565,1,0,0:0:0:0:
344,288,145708,1,0,0:0:0:0:
296,296,145851,1,8,0:0:0:0:
352,184,145994,1,8,0:0:0:0:
352,184,146137,1,0,0:0:0:0:
352,184,146280,1,0,0:0:0:0:
240,232,146422,1,8,0:0:0:0:
208,192,146494,1,8,0:0:0:0:
200,176,146565,1,8,0:0:0:0:
200,184,146708,1,0,0:0:0:0:
200,184,146851,1,8,0:0:0:0:
248,176,147137,1,8,0:0:0:0:
248,176,147280,1,0,0:0:0:0:
248,176,147422,1,0,0:0:0:0:
264,176,147494,1,0,0:0:0:0:
264,192,147565,1,8,0:0:0:0:
264,184,147708,1,8,0:0:0:0:
168,144,147851,1,0,0:0:0:0:
168,144,147994,1,0,0:0:0:0:
168,144,148065,1,0,0:0:0:0:
168,136,148137,1,8,0:0:0:0:
312,240,148280,1,8,0:0:0:0:
200,248,148422,1,0,0:0:0:0:
200,248,148565,1,0,0:0:0:0:
224,224,148637,1,0,0:0:0:0:
304,192,148708,1,8,0:0:0:0:
360,264,148851,1,8,0:0:0:0:
288,256,148994,1,0,0:0:0:0:
272,256,149137,1,8,0:0:0:0:
248,256,149280,1,0,0:0:0:0:
240,256,149351,1,0,0:0:0:0:
240,256,149422,1,0,0:0:0:0:
240,256,149494,1,0,0:0:0:0:
240,256,149565,1,8,0:0:0:0:
240,248,150137,1,12,0:0:0:0:
272,272,150422,1,0,0:0:0:0:
224,224,150565,1,0,0:0:0:0:
184,216,150708,1,8,0:0:0:0:
184,216,150851,1,8,0:0:0:0:
192,128,150994,1,0,0:0:0:0:
352,280,151137,1,8,0:0:0:0:
216,304,151208,1,8,0:0:0:0:
328,264,151280,1,0,0:0:0:0:
232,240,151422,1,8,0:0:0:0:
208,296,151494,1,8,0:0:0:0:
232,240,151565,1,0,0:0:0:0:
232,240,151708,1,8,0:0:0:0:
208,296,151780,1,8,0:0:0:0:
232,240,151851,1,0,0:0:0:0:
216,264,152137,1,12,0:0:0:0:
304,192,152422,1,0,0:0:0:0:
416,288,152565,1,0,0:0:0:0:
321,262,152708,1,8,0:0:0:0:
168,152,152851,1,8,0:0:0:0:
168,152,152994,1,0,0:0:0:0:
168,152,153137,1,0,0:0:0:0:
168,152,153280,1,8,0:0:0:0:
168,152,153422,1,0,0:0:0:0:
168,152,153494,1,0,0:0:0:0:
168,152,153565,1,8,0:0:0:0:
168,152,153708,1,0,0:0:0:0:
168,152,153780,1,0,0:0:0:0:
168,152,153851,1,8,0:0:0:0:
168,152,153994,1,0,0:0:0:0:
168,152,154065,1,0,0:0:0:0:
168,152,154137,1,8,0:0:0:0:
168,152,154422,1,4,0:0:0:0:
264,280,154708,1,8,0:0:0:0:
248,264,154851,1,8,0:0:0:0:
298,271,154994,1,0,0:0:0:0:
264,272,155137,1,0,0:0:0:0:
264,272,155280,1,8,0:0:0:0:
232,280,155422,1,8,0:0:0:0:
216,272,155565,1,0,0:0:0:0:
352,280,155708,1,8,0:0:0:0:
216,304,155780,1,8,0:0:0:0:
328,264,155851,1,0,0:0:0:0:
232,240,155994,1,8,0:0:0:0:
208,296,156065,1,8,0:0:0:0:
232,240,156137,1,0,0:0:0:0:
232,240,156280,1,8,0:0:0:0:
208,296,156351,1,8,0:0:0:0:
232,240,156422,1,0,0:0:0:0:
216,264,156708,1,12,0:0:0:0:
304,192,156994,1,0,0:0:0:0:
46,194,157137,1,0,0:0:0:0:
188,216,157280,1,8,0:0:0:0:
168,152,157422,1,8,0:0:0:0:
168,152,157565,1,0,0:0:0:0:
168,152,157708,1,0,0:0:0:0:
168,152,157851,1,8,0:0:0:0:
168,152,157994,1,0,0:0:0:0:
168,152,158065,1,0,0:0:0:0:
168,152,158137,1,8,0:0:0:0:
168,152,158280,1,8,0:0:0:0:
168,152,158351,1,8,0:0:0:0:
135,120,158422,1,0,0:0:0:0:
168,152,158565,1,0,0:0:0:0:
135,120,158708,1,8,0:0:0:0:
309,248,158994,1,4,0:0:0:0:
316,138,159280,1,8,0:0:0:0:
316,138,159422,1,0,0:0:0:0:
272,272,159565,1,8,0:0:0:0:
224,224,159708,1,8,0:0:0:0:
184,216,159851,1,0,0:0:0:0:
184,216,159994,1,8,0:0:0:0:
192,128,160137,1,0,0:0:0:0:
352,280,160280,1,8,0:0:0:0:
216,304,160351,1,8,0:0:0:0:
328,264,160422,1,0,0:0:0:0:
232,240,160565,1,8,0:0:0:0:
208,296,160637,1,8,0:0:0:0:
232,240,160708,1,0,0:0:0:0:
232,240,160851,1,8,0:0:0:0:
208,296,160922,1,8,0:0:0:0:
232,240,160994,1,0,0:0:0:0:
216,264,161280,1,12,0:0:0:0:
304,192,161565,1,0,0:0:0:0:
416,288,161708,1,8,0:0:0:0:
321,262,161851,1,0,0:0:0:0:
168,152,161994,1,0,0:0:0:0:
168,152,162137,1,8,0:0:0:0:
168,152,162280,1,0,0:0:0:0:
168,152,162422,1,8,0:0:0:0:
168,152,162565,1,0,0:0:0:0:
168,152,162637,1,0,0:0:0:0:
168,152,162708,1,8,0:0:0:0:
168,152,162851,1,0,0:0:0:0:
168,152,162922,1,0,0:0:0:0:
168,152,162994,1,8,0:0:0:0:
168,152,163137,1,0,0:0:0:0:
168,152,163208,1,0,0:0:0:0:
168,152,163280,1,8,0:0:0:0:
168,152,163565,1,4,0:0:0:0:
264,280,163851,1,8,0:0:0:0:
248,264,163994,1,0,0:0:0:0:
298,271,164137,1,8,0:0:0:0:
264,272,164280,1,8,0:0:0:0:
264,272,164422,1,0,0:0:0:0:
232,280,164565,1,8,0:0:0:0:
216,272,164708,1,0,0:0:0:0:
352,280,164851,1,8,0:0:0:0:
216,304,164922,1,8,0:0:0:0:
328,264,164994,1,0,0:0:0:0:
232,240,165137,1,8,0:0:0:0:
208,296,165208,1,8,0:0:0:0:
232,240,165280,1,0,0:0:0:0:
232,240,165422,1,8,0:0:0:0:
208,296,165494,1,8,0:0:0:0:
232,240,165565,1,0,0:0:0:0:
216,264,165851,1,12,0:0:0:0:
304,192,166137,1,0,0:0:0:0:
46,194,166280,1,8,0:0:0:0:
188,216,166422,1,0,0:0:0:0:
168,152,166565,1,0,0:0:0:0:
168,152,166708,1,8,0:0:0:0:
168,152,166851,1,0,0:0:0:0:
168,152,166994,1,8,0:0:0:0:
168,152,167137,1,0,0:0:0:0:
168,152,167208,1,0,0:0:0:0:
168,152,167280,1,8,0:0:0:0:
168,152,167422,1,0,0:0:0:0:
168,152,167494,1,0,0:0:0:0:
168,152,167565,1,8,0:0:0:0:
135,120,167708,1,8,0:0:0:0:
135,120,167851,1,8,0:0:0:0:
196,195,167994,1,8,0:0:0:0:
309,248,168137,1,0,0:0:0:0:
266,216,168422,1,8,0:0:0:0:
266,216,168565,1,8,0:0:0:0:
150,134,168708,1,0,0:0:0:0:
262,200,169137,1,8,0:0:0:0:
262,200,169422,1,0,0:0:0:0:
263,199,169708,1,8,0:0:0:0:
263,199,169994,1,8,0:0:0:0:
262,200,170137,1,0,0:0:0:0:
262,200,170422,1,8,0:0:0:0:
232,251,170708,1,0,0:0:0:0:
232,251,170851,1,0,0:0:0:0:
144,191,170994,1,8,0:0:0:0:
209,230,171422,1,0,0:0:0:0:
253,226,171708,1,8,0:0:0:0:
217,147,171994,1,0,0:0:0:0:
229,230,172280,1,0,0:0:0:0:
229,230,172422,1,8,0:0:0:0:
216,257,172708,1,0,0:0:0:0:
216,257,172994,1,8,0:0:0:0:
216,257,173137,1,0,0:0:0:0:
216,257,173280,1,8,0:0:0:0:
236,266,173708,1,0,0:0:0:0:
309,299,173994,1,8,0:0:0:0:
309,299,174280,1,0,0:0:0:0:
234,244,174565,1,0,0:0:0:0:
190,296,174708,1,0,0:0:0:0:
153,253,174994,1,8,0:0:0:0:
172,243,175280,1,0,0:0:0:0:
172,243,175422,1,8,0:0:0:0:
172,243,175565,1,0,0:0:0:0:
276,219,175994,1,8,0:0:0:0:
265,243,176280,1,0,0:0:0:0:
159,219,176565,1,8,0:0:0:0:
159,219,176851,1,0,0:0:0:0:
159,219,177137,1,8,0:0:0:0:
