osu file format v14

[General]
AudioFilename: audio.mp3
AudioLeadIn: 0
PreviewTime: 57280
Countdown: 0
SampleSet: Normal
StackLeniency: 0.7
Mode: 1
LetterboxInBreaks: 0
WidescreenStoryboard: 1

[Editor]
DistanceSpacing: 0.5
BeatDivisor: 4
GridSize: 8
TimelineZoom: 2.1

[Metadata]
Title:Streaming Heart feat. Hatsune Miku
TitleUnicode:ストリーミングハート feat. 初音ミク
Artist:DECO*27
ArtistUnicode:DECO*27
Creator:Chromoxx
Version:Muzukashii
Source:
Tags:tasuke912 electronic j-rock jrock rock japanese vocaloid deco27 ががめ gagame yuma saito kous
BeatmapID:3598711
BeatmapSetID:1758476

[Difficulty]
HPDrainRate:6
CircleSize:5
OverallDifficulty:5
ApproachRate:6
SliderMultiplier:1.4
SliderTickRate:1

[Events]
//Background and Video events
0,0,"bg.jpg",0,0
Video,-125,"output.mp4"
//Break Periods
2,75765,83658
//Storyboard Layer 0 (Background)
//Storyboard Layer 1 (Fail)
//Storyboard Layer 2 (Pass)
//Storyboard Layer 3 (Foreground)
//Storyboard Layer 4 (Overlay)
//Storyboard Sound Samples

[TimingPoints]
1280,285.714285714286,4,1,0,80,1,0
10422,-100,4,1,0,100,0,0
29922,-100,4,1,0,70,0,0
38994,-100,4,1,0,100,0,0
48280,-100,4,1,0,60,0,0
57280,-100,4,1,0,100,0,1
75565,-100,4,1,0,100,0,0
75851,-100,4,1,0,70,0,0
84851,-100,4,1,0,50,0,0
92565,-100,4,1,0,65,0,0
93708,-100,4,1,0,100,0,0
103137,-100,4,1,0,75,0,0
112137,-100,4,1,0,100,0,0
121208,-100,4,1,0,50,0,0
129137,-100,4,1,0,65,0,0
131137,-100,4,1,0,85,0,0
131565,-100,4,1,0,100,0,1
139422,-100,4,1,0,100,0,0
140708,-100,4,1,0,100,0,1
168137,-100,4,1,0,100,0,0
168280,-100,4,1,0,50,0,0

[HitObjects]
352,285,1280,5,0,0:0:0:0:
213,225,1565,1,0,0:0:0:0:
213,225,1851,1,8,0:0:0:0:
155,237,2137,1,0,0:0:0:0:
155,237,2280,1,0,0:0:0:0:
177,225,2565,1,0,0:0:0:0:
177,225,2851,1,8,0:0:0:0:
201,261,3137,1,0,0:0:0:0:
201,261,3280,1,0,0:0:0:0:
201,261,3565,1,8,0:0:0:0:
198,241,3851,1,8,0:0:0:0:
198,241,4137,1,0,0:0:0:0:
194,241,4422,1,8,0:0:0:0:
194,241,4565,1,8,0:0:0:0:
174,226,4851,1,8,0:0:0:0:
174,226,5137,1,0,0:0:0:0:
143,223,5422,1,8,0:0:0:0:
174,226,5565,1,8,0:0:0:0:
171,217,5851,1,0,0:0:0:0:
171,217,6137,1,0,0:0:0:0:
171,217,6422,1,8,0:0:0:0:
171,217,6708,1,0,0:0:0:0:
171,217,6851,1,0,0:0:0:0:
168,210,7137,1,0,0:0:0:0:
168,212,7422,1,8,0:0:0:0:
168,212,7708,1,0,0:0:0:0:
168,212,7851,1,0,0:0:0:0:
168,212,8137,1,8,0:0:0:0:
335,240,9280,1,0,0:0:0:0:
335,240,9351,1,0,0:0:0:0:
298,232,9422,1,0,0:0:0:0:
269,219,9565,1,8,0:0:0:0:
230,166,9851,1,8,0:0:0:0:
240,154,10137,1,8,0:0:0:0:
240,154,10280,1,8,0:0:0:0:
243,145,10422,1,4,0:0:0:0:
211,141,10851,1,0,0:0:0:0:
211,141,10994,1,8,0:0:0:0:
228,188,11280,1,0,0:0:0:0:
231,166,11565,1,8,0:0:0:0:
231,166,11780,1,8,0:0:0:0:
231,166,11994,1,8,0:0:0:0:
230,166,12137,1,0,0:0:0:0:
144,226,12422,1,0,0:0:0:0:
216,213,12708,1,8,0:0:0:0:
192,192,13137,1,8,0:0:0:0:
192,192,13280,1,0,0:0:0:0:
177,162,13565,1,8,0:0:0:0:
248,224,13851,1,0,0:0:0:0:
248,224,14065,1,0,0:0:0:0:
248,224,14280,1,0,0:0:0:0:
239,223,14422,1,8,0:0:0:0:
243,241,14708,1,8,0:0:0:0:
243,241,14994,1,0,0:0:0:0:
210,210,15422,1,0,0:0:0:0:
210,210,15565,1,8,0:0:0:0:
210,210,15851,1,0,0:0:0:0:
210,210,16137,1,8,0:0:0:0:
210,210,16351,1,0,0:0:0:0:
210,210,16565,1,8,0:0:0:0:
210,210,16708,1,0,0:0:0:0:
177,194,16994,1,0,0:0:0:0:
177,194,17280,1,8,0:0:0:0:
163,178,17708,1,8,0:0:0:0:
156,175,17851,1,0,0:0:0:0:
149,170,18137,1,8,0:0:0:0:
184,194,18422,1,0,0:0:0:0:
184,194,18637,1,8,0:0:0:0:
184,194,18851,1,0,0:0:0:0:
212,158,18994,1,8,0:0:0:0:
130,174,19280,1,8,0:0:0:0:
199,257,19565,1,0,0:0:0:0:
211,141,19994,1,0,0:0:0:0:
211,141,20137,1,8,0:0:0:0:
228,188,20422,1,0,0:0:0:0:
231,166,20708,1,8,0:0:0:0:
231,166,20922,1,8,0:0:0:0:
231,166,21137,1,8,0:0:0:0:
230,166,21280,1,0,0:0:0:0:
144,226,21565,1,0,0:0:0:0:
216,213,21851,1,8,0:0:0:0:
192,192,22280,1,8,0:0:0:0:
192,192,22422,1,0,0:0:0:0:
177,162,22708,1,8,0:0:0:0:
248,224,22994,1,0,0:0:0:0:
248,224,23208,1,0,0:0:0:0:
248,224,23422,1,0,0:0:0:0:
239,223,23565,1,8,0:0:0:0:
243,241,23851,1,8,0:0:0:0:
243,241,24137,1,0,0:0:0:0:
210,210,24565,1,0,0:0:0:0:
210,210,24708,1,8,0:0:0:0:
210,210,24994,1,0,0:0:0:0:
210,210,25280,1,8,0:0:0:0:
210,210,25494,1,0,0:0:0:0:
210,210,25708,1,8,0:0:0:0:
210,210,25851,1,0,0:0:0:0:
177,194,26137,1,0,0:0:0:0:
177,194,26422,1,8,0:0:0:0:
163,178,26851,1,8,0:0:0:0:
156,175,26994,1,0,0:0:0:0:
149,170,27280,1,8,0:0:0:0:
184,194,27565,1,0,0:0:0:0:
184,194,27780,1,8,0:0:0:0:
184,194,27994,1,0,0:0:0:0:
212,158,28137,1,8,0:0:0:0:
130,174,28422,1,8,0:0:0:0:
199,257,28708,1,0,0:0:0:0:
324,136,29851,1,0,0:0:0:0:
291,198,30280,1,0,0:0:0:0:
250,162,30422,1,8,0:0:0:0:
228,265,30708,1,8,0:0:0:0:
251,244,30994,1,0,0:0:0:0:
239,258,31137,1,8,0:0:0:0:
152,138,31280,1,0,0:0:0:0:
152,138,31565,1,8,0:0:0:0:
152,138,31708,1,8,0:0:0:0:
152,138,31851,1,0,0:0:0:0:
152,138,32137,1,8,0:0:0:0:
256,253,32565,1,8,0:0:0:0:
150,239,32708,1,0,0:0:0:0:
137,253,32994,1,0,0:0:0:0:
138,255,33280,1,8,0:0:0:0:
180,249,33422,1,0,0:0:0:0:
173,243,33565,1,8,0:0:0:0:
181,243,33851,1,0,0:0:0:0:
181,243,33994,1,0,0:0:0:0:
179,239,34137,1,8,0:0:0:0:
245,265,34422,1,0,0:0:0:0:
245,265,34851,1,0,0:0:0:0:
245,265,34994,1,8,0:0:0:0:
308,264,35280,1,8,0:0:0:0:
272,276,35565,1,0,0:0:0:0:
259,269,35708,1,8,0:0:0:0:
179,218,35851,1,0,0:0:0:0:
202,216,36137,1,8,0:0:0:0:
202,216,36280,1,8,0:0:0:0:
178,205,36422,1,0,0:0:0:0:
178,205,36708,1,8,0:0:0:0:
203,158,37137,1,8,0:0:0:0:
203,158,37280,1,0,0:0:0:0:
187,170,37565,1,8,0:0:0:0:
194,198,37851,1,0,0:0:0:0:
199,195,37994,1,8,0:0:0:0:
199,195,38065,1,8,0:0:0:0:
193,194,38137,1,8,0:0:0:0:
193,194,38280,1,8,0:0:0:0:
194,191,38422,1,0,0:0:0:0:
194,191,38708,1,8,0:0:0:0:
232,212,38851,1,0,0:0:0:0:
224,238,38922,1,0,0:0:0:0:
221,228,38994,1,0,0:0:0:0:
317,275,39280,1,8,0:0:0:0:
317,275,39565,1,0,0:0:0:0:
317,275,39708,1,0,0:0:0:0:
246,273,39851,1,8,0:0:0:0:
246,273,40137,1,0,0:0:0:0:
223,241,40422,1,8,0:0:0:0:
209,237,40565,1,0,0:0:0:0:
220,222,40851,1,0,0:0:0:0:
237,213,41137,1,8,0:0:0:0:
274,221,41422,1,0,0:0:0:0:
274,221,41565,1,0,0:0:0:0:
233,181,41851,1,8,0:0:0:0:
203,197,41994,1,8,0:0:0:0:
198,192,42137,1,0,0:0:0:0:
320,248,42280,1,0,0:0:0:0:
237,253,42422,1,8,0:0:0:0:
213,223,42708,1,0,0:0:0:0:
213,223,42851,1,8,0:0:0:0:
280,120,43137,1,8,0:0:0:0:
280,120,43422,1,0,0:0:0:0:
256,128,43851,1,8,0:0:0:0:
232,160,44137,1,0,0:0:0:0:
232,160,44280,1,0,0:0:0:0:
240,152,44422,1,8,0:0:0:0:
232,160,44708,1,0,0:0:0:0:
296,200,44994,1,8,0:0:0:0:
296,200,45137,1,0,0:0:0:0:
264,168,45422,1,8,0:0:0:0:
264,168,45708,1,0,0:0:0:0:
280,168,45994,1,8,0:0:0:0:
280,168,46137,1,8,0:0:0:0:
256,200,46422,1,0,0:0:0:0:
176,192,46565,1,8,0:0:0:0:
256,200,46708,1,0,0:0:0:0:
176,184,46994,1,8,0:0:0:0:
160,216,47137,1,0,0:0:0:0:
168,200,47280,1,8,0:0:0:0:
208,104,47422,1,8,0:0:0:0:
208,104,47565,1,0,0:0:0:0:
312,184,47708,1,0,0:0:0:0:
224,144,47851,1,8,0:0:0:0:
224,144,48137,1,0,0:0:0:0:
288,240,48994,1,0,0:0:0:0:
288,240,49280,1,8,0:0:0:0:
192,240,49565,1,0,0:0:0:0:
192,240,49851,1,8,0:0:0:0:
192,240,50137,1,8,0:0:0:0:
288,240,50422,1,0,0:0:0:0:
288,240,51280,1,0,0:0:0:0:
288,240,51565,1,8,0:0:0:0:
128,112,51851,1,8,0:0:0:0:
136,120,52137,1,0,0:0:0:0:
288,240,52422,1,0,0:0:0:0:
288,240,52708,1,8,0:0:0:0:
256,208,53565,1,8,0:0:0:0:
288,232,53851,1,0,0:0:0:0:
288,232,54137,1,0,0:0:0:0:
288,232,54422,1,8,0:0:0:0:
288,232,54708,1,0,0:0:0:0:
288,232,54994,1,8,0:0:0:0:
256,224,55851,1,8,0:0:0:0:
352,208,56137,1,0,0:0:0:0:
352,208,56280,1,0,0:0:0:0:
352,208,56351,1,0,0:0:0:0:
352,208,56422,1,0,0:0:0:0:
352,208,56565,1,8,0:0:0:0:
352,208,56637,1,8,0:0:0:0:
344,208,56708,1,8,0:0:0:0:
400,264,57280,1,4,0:0:0:0:
264,272,57565,1,8,0:0:0:0:
248,232,57708,1,0,0:0:0:0:
208,208,57994,1,0,0:0:0:0:
208,208,58137,1,8,0:0:0:0:
104,144,58280,1,8,0:0:0:0:
104,144,58422,1,0,0:0:0:0:
272,208,58708,1,8,0:0:0:0:
272,208,58851,1,8,0:0:0:0:
272,280,59137,1,0,0:0:0:0:
272,280,59280,1,0,0:0:0:0:
256,272,59422,1,8,0:0:0:0:
216,208,59708,1,0,0:0:0:0:
216,208,59851,1,8,0:0:0:0:
224,232,60137,1,0,0:0:0:0:
224,232,60422,1,8,0:0:0:0:
224,232,60565,1,0,0:0:0:0:
224,264,60851,1,0,0:0:0:0:
224,264,60994,1,8,0:0:0:0:
224,264,61137,1,8,0:0:0:0:
184,248,61280,1,0,0:0:0:0:
216,248,61565,1,0,0:0:0:0:
264,240,61851,1,8,0:0:0:0:
144,288,62137,1,0,0:0:0:0:
152,256,62280,1,8,0:0:0:0:
248,248,62565,1,8,0:0:0:0:
264,272,62708,1,0,0:0:0:0:
264,272,62851,1,0,0:0:0:0:
256,256,62994,1,8,0:0:0:0:
336,224,63280,1,0,0:0:0:0:
336,224,63422,1,0,0:0:0:0:
216,248,63708,1,8,0:0:0:0:
216,248,63851,1,8,0:0:0:0:
216,200,63994,1,0,0:0:0:0:
216,200,64137,1,8,0:0:0:0:
344,256,64422,1,0,0:0:0:0:
344,256,64565,1,8,0:0:0:0:
344,256,64708,1,0,0:0:0:0:
344,248,64851,1,0,0:0:0:0:
344,248,64994,1,8,0:0:0:0:
344,248,65137,1,0,0:0:0:0:
344,248,65280,1,8,0:0:0:0:
432,296,65851,1,8,0:0:0:0:
432,296,65994,1,8,0:0:0:0:
432,296,66065,1,8,0:0:0:0:
432,296,66137,1,8,0:0:0:0:
320,104,66280,1,0,0:0:0:0:
336,120,66351,1,0,0:0:0:0:
272,280,66422,1,0,0:0:0:0:
248,288,66708,1,8,0:0:0:0:
264,280,66851,1,0,0:0:0:0:
264,280,67137,1,0,0:0:0:0:
264,280,67280,1,8,0:0:0:0:
264,288,67422,1,8,0:0:0:0:
280,280,67708,1,4,0:0:0:0:
280,280,67994,1,4,0:0:0:0:
280,280,68280,1,12,0:0:0:0:
288,272,68708,1,0,0:0:0:0:
208,304,68994,1,8,0:0:0:0:
224,256,69137,1,0,0:0:0:0:
232,264,69422,1,0,0:0:0:0:
232,264,69565,1,8,0:0:0:0:
224,248,69708,1,0,0:0:0:0:
272,240,69994,1,12,0:0:0:0:
272,240,70280,1,12,0:0:0:0:
272,240,70565,1,4,0:0:0:0:
272,256,70994,1,8,0:0:0:0:
336,272,71280,1,0,0:0:0:0:
336,272,71422,1,8,0:0:0:0:
264,312,71708,1,8,0:0:0:0:
200,256,71851,1,0,0:0:0:0:
200,256,71994,1,8,0:0:0:0:
216,248,72280,1,4,0:0:0:0:
216,248,72565,1,4,0:0:0:0:
216,248,72851,1,12,0:0:0:0:
256,248,73280,1,8,0:0:0:0:
264,296,73565,1,8,0:0:0:0:
272,304,73708,1,0,0:0:0:0:
272,296,73851,1,8,0:0:0:0:
272,296,73994,1,8,0:0:0:0:
272,288,74137,1,0,0:0:0:0:
272,288,74422,1,8,0:0:0:0:
248,264,74565,1,0,0:0:0:0:
240,216,74708,1,8,0:0:0:0:
192,216,74851,1,0,0:0:0:0:
184,216,74922,1,0,0:0:0:0:
200,224,74994,1,0,0:0:0:0:
192,216,75137,1,8,0:0:0:0:
192,240,75280,1,8,0:0:0:0:
280,288,75565,1,4,0:0:0:0:
200,232,84708,5,0,0:0:0:0:
200,232,85137,1,0,0:0:0:0:
216,304,85851,1,0,0:0:0:0:
216,304,86280,1,0,0:0:0:0:
216,304,86994,1,0,0:0:0:0:
216,304,87422,1,0,0:0:0:0:
216,304,88137,1,0,0:0:0:0:
256,304,88565,1,0,0:0:0:0:
256,304,89280,1,8,0:0:0:0:
256,304,89708,1,8,0:0:0:0:
256,304,90422,1,8,0:0:0:0:
256,304,90851,1,8,0:0:0:0:
256,304,91565,1,8,0:0:0:0:
256,304,91994,1,8,0:0:0:0:
272,296,92708,1,8,0:0:0:0:
272,296,92994,1,8,0:0:0:0:
272,280,93137,1,8,0:0:0:0:
272,272,93208,1,8,0:0:0:0:
264,272,93280,1,8,0:0:0:0:
288,264,93422,1,0,0:0:0:0:
160,296,93851,1,12,0:0:0:0:
317,275,94137,1,0,0:0:0:0:
317,275,94422,1,8,0:0:0:0:
317,275,94565,1,8,0:0:0:0:
246,273,94708,1,0,0:0:0:0:
246,273,94994,1,8,0:0:0:0:
223,241,95280,1,0,0:0:0:0:
209,237,95422,1,8,0:0:0:0:
220,222,95708,1,8,0:0:0:0:
237,213,95994,1,0,0:0:0:0:
274,221,96280,1,8,0:0:0:0:
274,221,96422,1,8,0:0:0:0:
233,181,96708,1,0,0:0:0:0:
203,197,96851,1,0,0:0:0:0:
198,192,96994,1,8,0:0:0:0:
316,210,97137,1,8,0:0:0:0:
237,253,97280,1,0,0:0:0:0:
213,223,97565,1,8,0:0:0:0:
213,223,97708,1,0,0:0:0:0:
280,120,97994,1,0,0:0:0:0:
280,120,98280,1,8,0:0:0:0:
256,128,98708,1,0,0:0:0:0:
232,160,98994,1,8,0:0:0:0:
232,160,99137,1,8,0:0:0:0:
240,152,99280,1,0,0:0:0:0:
232,160,99565,1,8,0:0:0:0:
296,200,99851,1,0,0:0:0:0:
296,200,99994,1,8,0:0:0:0:
264,168,100280,1,0,0:0:0:0:
264,168,100565,1,8,0:0:0:0:
280,168,100851,1,0,0:0:0:0:
280,168,100994,1,0,0:0:0:0:
256,200,101280,1,8,0:0:0:0:
176,192,101422,1,0,0:0:0:0:
256,200,101565,1,8,0:0:0:0:
196,182,101708,1,8,0:0:0:0:
176,184,101851,1,0,0:0:0:0:
168,200,102137,1,8,0:0:0:0:
208,104,102280,1,0,0:0:0:0:
208,104,102422,1,8,0:0:0:0:
160,216,102565,1,8,0:0:0:0:
224,144,102708,1,0,0:0:0:0:
336,240,102851,1,8,0:0:0:0:
224,144,102994,1,0,0:0:0:0:
344,304,103280,1,0,0:0:0:0:
328,256,103422,1,0,0:0:0:0:
288,248,104137,1,0,0:0:0:0:
288,248,104280,1,0,0:0:0:0:
288,248,104565,1,0,0:0:0:0:
288,248,104851,1,0,0:0:0:0:
336,304,105280,1,0,0:0:0:0:
336,304,105565,1,0,0:0:0:0:
336,304,105708,1,0,0:0:0:0:
328,280,106422,1,0,0:0:0:0:
328,280,106565,1,0,0:0:0:0:
328,280,106708,1,0,0:0:0:0:
328,280,106851,1,0,0:0:0:0:
320,272,107565,1,0,0:0:0:0:
320,272,107851,1,0,0:0:0:0:
320,272,107994,1,0,0:0:0:0:
312,248,108708,1,0,0:0:0:0:
224,240,108851,1,0,0:0:0:0:
224,240,109137,1,0,0:0:0:0:
336,240,109851,1,0,0:0:0:0:
336,240,110137,1,0,0:0:0:0:
336,240,110280,1,0,0:0:0:0:
336,240,111137,1,0,0:0:0:0:
336,240,111422,1,0,0:0:0:0:
336,240,111708,1,0,0:0:0:0:
352,248,112137,1,4,0:0:0:0:
320,264,112422,1,8,0:0:0:0:
264,264,112565,1,8,0:0:0:0:
256,256,112708,1,0,0:0:0:0:
208,240,112780,1,0,0:0:0:0:
256,256,112851,1,0,0:0:0:0:
208,240,112994,1,8,0:0:0:0:
232,224,113280,1,0,0:0:0:0:
272,272,113422,1,0,0:0:0:0:
272,272,113565,1,0,0:0:0:0:
272,272,113708,1,0,0:0:0:0:
112,144,113851,1,8,0:0:0:0:
272,256,114137,1,8,0:0:0:0:
304,224,114422,1,0,0:0:0:0:
272,136,114708,1,8,0:0:0:0:
296,128,114851,1,0,0:0:0:0:
280,128,114994,1,8,0:0:0:0:
272,128,115137,1,8,0:0:0:0:
328,240,115280,1,0,0:0:0:0:
272,224,115565,1,8,0:0:0:0:
248,248,115708,1,8,0:0:0:0:
248,248,115851,1,8,0:0:0:0:
248,248,115994,1,8,0:0:0:0:
120,176,116137,1,0,0:0:0:0:
304,240,116708,1,0,0:0:0:0:
240,240,116994,1,8,0:0:0:0:
240,216,117137,1,8,0:0:0:0:
120,144,117280,1,0,0:0:0:0:
120,144,117351,1,0,0:0:0:0:
120,144,117422,1,0,0:0:0:0:
120,144,117565,1,8,0:0:0:0:
360,288,117708,1,0,0:0:0:0:
168,200,117994,1,0,0:0:0:0:
240,296,118137,1,0,0:0:0:0:
240,296,118280,1,0,0:0:0:0:
168,208,118422,1,8,0:0:0:0:
240,184,118708,1,8,0:0:0:0:
272,224,118994,1,0,0:0:0:0:
272,224,119280,1,8,0:0:0:0:
216,184,119422,1,0,0:0:0:0:
224,176,119565,1,8,0:0:0:0:
224,176,119708,1,8,0:0:0:0:
224,168,119851,1,0,0:0:0:0:
280,152,120137,1,8,0:0:0:0:
280,152,120280,1,8,0:0:0:0:
272,192,120422,1,0,0:0:0:0:
272,192,120565,1,0,0:0:0:0:
264,184,120708,1,8,0:0:0:0:
224,144,121280,1,0,0:0:0:0:
288,240,122137,1,0,0:0:0:0:
288,240,122422,1,8,0:0:0:0:
192,240,122708,1,0,0:0:0:0:
192,240,122994,1,8,0:0:0:0:
192,240,123280,1,8,0:0:0:0:
288,240,123565,1,0,0:0:0:0:
288,240,124422,1,0,0:0:0:0:
288,240,124708,1,8,0:0:0:0:
128,112,124994,1,8,0:0:0:0:
136,120,125280,1,0,0:0:0:0:
288,240,125565,1,0,0:0:0:0:
288,240,125851,1,8,0:0:0:0:
256,208,126708,1,8,0:0:0:0:
288,232,126994,1,0,0:0:0:0:
288,232,127280,1,0,0:0:0:0:
288,232,127565,1,8,0:0:0:0:
288,232,127851,1,0,0:0:0:0:
288,232,128137,1,8,0:0:0:0:
256,224,128994,1,8,0:0:0:0:
352,208,129280,1,0,0:0:0:0:
352,208,129422,1,0,0:0:0:0:
352,208,129494,1,0,0:0:0:0:
352,208,129565,1,0,0:0:0:0:
352,208,129708,1,8,0:0:0:0:
352,208,129780,1,8,0:0:0:0:
344,208,129851,1,8,0:0:0:0:
247,163,131280,1,8,0:0:0:0:
400,264,131565,1,4,0:0:0:0:
264,272,131851,1,8,0:0:0:0:
248,232,131994,1,0,0:0:0:0:
208,208,132280,1,0,0:0:0:0:
208,208,132422,1,8,0:0:0:0:
104,144,132565,1,8,0:0:0:0:
104,144,132708,1,0,0:0:0:0:
272,208,132994,1,8,0:0:0:0:
272,208,133137,1,8,0:0:0:0:
272,280,133422,1,0,0:0:0:0:
272,280,133565,1,0,0:0:0:0:
256,272,133708,1,8,0:0:0:0:
216,208,133994,1,0,0:0:0:0:
216,208,134137,1,8,0:0:0:0:
224,232,134422,1,0,0:0:0:0:
224,232,134708,1,8,0:0:0:0:
224,232,134851,1,0,0:0:0:0:
224,264,135137,1,0,0:0:0:0:
224,264,135280,1,8,0:0:0:0:
224,264,135422,1,8,0:0:0:0:
184,248,135565,1,0,0:0:0:0:
216,248,135851,1,0,0:0:0:0:
264,240,136137,1,8,0:0:0:0:
144,288,136422,1,0,0:0:0:0:
152,256,136565,1,8,0:0:0:0:
248,248,136851,1,8,0:0:0:0:
264,272,136994,1,0,0:0:0:0:
264,272,137137,1,0,0:0:0:0:
256,256,137280,1,8,0:0:0:0:
336,224,137565,1,0,0:0:0:0:
336,224,137708,1,0,0:0:0:0:
216,248,137994,1,8,0:0:0:0:
216,248,138137,1,8,0:0:0:0:
216,200,138280,1,0,0:0:0:0:
216,200,138422,1,8,0:0:0:0:
340,252,138708,1,8,0:0:0:0:
340,252,138851,1,0,0:0:0:0:
340,252,138994,1,8,0:0:0:0:
340,252,139280,1,8,0:0:0:0:
340,252,139422,1,8,0:0:0:0:
372,274,140708,1,4,0:0:0:0:
324,289,140994,1,8,0:0:0:0:
202,203,141137,1,0,0:0:0:0:
202,203,141280,1,8,0:0:0:0:
216,197,141422,1,8,0:0:0:0:
208,189,141565,1,0,0:0:0:0:
209,185,141708,1,8,0:0:0:0:
209,185,141851,1,0,0:0:0:0:
237,182,142137,1,8,0:0:0:0:
272,236,142422,1,0,0:0:0:0:
272,236,142565,1,0,0:0:0:0:
70,140,142708,1,8,0:0:0:0:
70,140,142851,1,8,0:0:0:0:
76,143,142994,1,0,0:0:0:0:
227,221,143280,1,8,0:0:0:0:
256,153,143565,1,0,0:0:0:0:
247,199,143851,1,8,0:0:0:0:
269,189,143994,1,8,0:0:0:0:
269,189,144137,1,0,0:0:0:0:
220,232,144280,1,0,0:0:0:0:
302,193,144422,1,8,0:0:0:0:
302,193,144565,1,0,0:0:0:0:
302,193,144708,1,8,0:0:0:0:
302,193,144851,1,8,0:0:0:0:
297,242,144994,1,0,0:0:0:0:
262,246,145280,1,8,0:0:0:0:
241,235,145565,1,0,0:0:0:0:
241,235,145708,1,8,0:0:0:0:
228,204,145851,1,0,0:0:0:0:
228,204,145994,1,0,0:0:0:0:
192,179,146137,1,8,0:0:0:0:
207,109,146280,1,0,0:0:0:0:
207,109,146422,1,8,0:0:0:0:
324,292,146708,1,0,0:0:0:0:
245,205,146994,1,8,0:0:0:0:
245,205,147137,1,8,0:0:0:0:
95,172,147280,1,0,0:0:0:0:
95,172,147422,1,8,0:0:0:0:
95,172,147565,1,0,0:0:0:0:
297,297,147851,1,0,0:0:0:0:
297,297,147994,1,8,0:0:0:0:
139,228,148137,1,0,0:0:0:0:
315,178,148280,1,0,0:0:0:0:
304,144,148422,1,8,0:0:0:0:
122,234,148565,1,8,0:0:0:0:
146,232,148708,1,0,0:0:0:0:
246,256,148994,1,8,0:0:0:0:
296,160,149137,1,8,0:0:0:0:
244,278,149280,1,0,0:0:0:0:
244,278,149422,1,0,0:0:0:0:
218,237,149565,1,8,0:0:0:0:
255,204,150137,1,12,0:0:0:0:
361,307,150422,1,0,0:0:0:0:
361,307,150565,1,0,0:0:0:0:
236,143,150708,1,8,0:0:0:0:
236,143,150851,1,8,0:0:0:0:
382,169,151137,1,4,0:0:0:0:
346,167,151422,1,4,0:0:0:0:
339,171,151708,1,12,0:0:0:0:
262,221,152137,1,0,0:0:0:0:
248,242,152422,1,8,0:0:0:0:
268,275,152565,1,8,0:0:0:0:
277,289,152708,1,0,0:0:0:0:
263,247,152851,1,0,0:0:0:0:
263,237,152994,1,8,0:0:0:0:
263,237,153137,1,0,0:0:0:0:
217,248,153422,1,12,0:0:0:0:
217,248,153708,1,12,0:0:0:0:
217,248,153994,1,4,0:0:0:0:
202,192,154422,1,8,0:0:0:0:
255,168,154708,1,0,0:0:0:0:
255,168,154851,1,0,0:0:0:0:
352,190,154994,1,8,0:0:0:0:
352,190,155137,1,8,0:0:0:0:
295,168,155280,1,0,0:0:0:0:
214,146,155422,1,8,0:0:0:0:
226,157,155708,1,4,0:0:0:0:
226,157,155994,1,4,0:0:0:0:
226,157,156280,1,12,0:0:0:0:
239,138,156708,1,8,0:0:0:0:
276,134,156994,1,0,0:0:0:0:
276,134,157137,1,0,0:0:0:0:
276,134,157280,1,8,0:0:0:0:
276,134,157422,1,8,0:0:0:0:
272,127,157565,1,0,0:0:0:0:
272,127,157708,1,0,0:0:0:0:
260,182,157994,1,12,0:0:0:0:
271,162,158280,1,4,0:0:0:0:
256,189,158994,1,0,0:0:0:0:
288,258,159280,1,8,0:0:0:0:
226,197,159422,1,8,0:0:0:0:
194,215,159565,1,0,0:0:0:0:
194,215,159708,1,8,0:0:0:0:
295,239,159851,1,0,0:0:0:0:
311,246,159994,1,0,0:0:0:0:
328,211,160137,1,8,0:0:0:0:
108,130,160280,1,4,0:0:0:0:
108,130,160565,1,4,0:0:0:0:
108,130,160851,1,12,0:0:0:0:
232,212,161280,1,0,0:0:0:0:
218,227,161565,1,8,0:0:0:0:
209,211,161708,1,8,0:0:0:0:
238,217,161851,1,0,0:0:0:0:
242,206,161994,1,0,0:0:0:0:
240,202,162137,1,8,0:0:0:0:
175,127,162280,1,8,0:0:0:0:
292,196,162422,1,0,0:0:0:0:
301,169,162565,1,12,0:0:0:0:
301,169,162851,1,12,0:0:0:0:
301,169,163137,1,4,0:0:0:0:
141,177,163565,1,8,0:0:0:0:
238,223,163851,1,0,0:0:0:0:
238,223,163994,1,0,0:0:0:0:
168,126,164137,1,8,0:0:0:0:
168,126,164280,1,8,0:0:0:0:
168,126,164422,1,0,0:0:0:0:
168,126,164565,1,0,0:0:0:0:
168,126,164708,1,8,0:0:0:0:
168,126,164851,1,4,0:0:0:0:
168,126,165137,1,4,0:0:0:0:
168,126,165422,1,12,0:0:0:0:
311,226,165851,1,8,0:0:0:0:
328,255,166137,1,0,0:0:0:0:
328,255,166280,1,8,0:0:0:0:
286,208,166422,1,0,0:0:0:0:
286,208,166565,1,0,0:0:0:0:
148,111,166708,1,8,0:0:0:0:
148,111,166851,1,8,0:0:0:0:
153,111,166994,1,0,0:0:0:0:
153,111,167137,1,12,0:0:0:0:
272,274,167422,1,4,0:0:0:0:
338,239,167708,1,8,0:0:0:0:
338,239,167851,1,8,0:0:0:0:
338,239,167994,1,8,0:0:0:0:
336,223,168137,1,0,0:0:0:0:
319,245,168422,1,8,0:0:0:0:
319,245,168708,1,8,0:0:0:0:
319,245,169137,1,8,0:0:0:0:
319,245,169422,1,8,0:0:0:0:
319,245,169708,1,8,0:0:0:0:
197,199,170422,1,8,0:0:0:0:
230,213,170708,1,0,0:0:0:0:
145,153,170994,1,0,0:0:0:0:
265,234,171422,1,0,0:0:0:0:
265,234,171708,1,0,0:0:0:0:
265,234,171994,1,0,0:0:0:0:
297,274,172708,1,8,0:0:0:0:
297,274,172994,1,0,0:0:0:0:
297,274,173280,1,8,0:0:0:0:
222,168,173708,1,8,0:0:0:0:
222,168,173994,1,0,0:0:0:0:
222,168,174280,1,0,0:0:0:0:
222,168,174994,1,0,0:0:0:0:
161,98,175280,1,8,0:0:0:0:
165,94,175565,1,0,0:0:0:0:
236,197,175994,1,8,0:0:0:0:
236,197,176280,1,8,0:0:0:0:
236,197,176565,1,0,0:0:0:0:
236,197,177137,1,8,0:0:0:0:
