osu file format v14

[General]
AudioFilename: audio.mp3
AudioLeadIn: 0
PreviewTime: 57280
Countdown: 0
SampleSet: Normal
StackLeniency: 0.7
Mode: 1
LetterboxInBreaks: 0
WidescreenStoryboard: 1

[Editor]
DistanceSpacing: 0.5
BeatDivisor: 2
GridSize: 8
TimelineZoom: 0.9999996

[Metadata]
Title:Streaming Heart feat. Hatsune Miku
TitleUnicode:ストリーミングハート feat. 初音ミク
Artist:DECO*27
ArtistUnicode:DECO*27
Creator:Chromoxx
Version:Kantan
Source:
Tags:tasuke912 electronic j-rock jrock rock japanese vocaloid deco27 ががめ gagame yuma saito kous
BeatmapID:3598710
BeatmapSetID:1758476

[Difficulty]
HPDrainRate:8
CircleSize:5
OverallDifficulty:3
ApproachRate:6
SliderMultiplier:1.4
SliderTickRate:1

[Events]
//Background and Video events
0,0,"bg.jpg",0,0
Video,-125,"output.mp4"
//Break Periods
2,75765,83658
2,103194,111087
//Storyboard Layer 0 (Background)
//Storyboard Layer 1 (Fail)
//Storyboard Layer 2 (Pass)
//Storyboard Layer 3 (Foreground)
//Storyboard Layer 4 (Overlay)
//Storyboard Sound Samples

[TimingPoints]
1280,285.714285714286,4,1,0,80,1,0
10422,-100,4,1,0,100,0,0
29922,-100,4,1,0,70,0,0
38994,-100,4,1,0,100,0,0
48280,-100,4,1,0,60,0,0
57280,-100,4,1,0,100,0,1
75565,-100,4,1,0,100,0,0
75851,-100,4,1,0,70,0,0
84851,-100,4,1,0,50,0,0
92565,-100,4,1,0,65,0,0
93708,-100,4,1,0,100,0,0
103137,-100,4,1,0,75,0,0
112137,-100,4,1,0,100,0,0
121208,-100,4,1,0,50,0,0
129137,-100,4,1,0,65,0,0
131137,-100,4,1,0,85,0,0
131565,-100,4,1,0,100,0,1
139422,-100,4,1,0,100,0,0
140708,-100,4,1,0,100,0,1
168137,-100,4,1,0,100,0,0
168280,-100,4,1,0,50,0,0

[HitObjects]
117,170,1280,5,0,0:0:0:0:
196,241,1851,1,0,0:0:0:0:
196,241,2422,1,8,0:0:0:0:
214,221,2851,1,0,0:0:0:0:
200,217,3565,1,8,0:0:0:0:
190,207,4137,1,8,0:0:0:0:
190,207,4708,1,0,0:0:0:0:
190,207,5137,1,8,0:0:0:0:
181,207,5851,1,0,0:0:0:0:
217,195,6422,1,8,0:0:0:0:
217,195,6994,1,0,0:0:0:0:
217,195,7422,1,0,0:0:0:0:
217,195,8137,1,8,0:0:0:0:
201,188,9280,1,8,0:0:0:0:
173,190,10422,1,0,0:0:0:0:
245,256,10851,1,0,0:0:0:0:
245,256,11565,1,8,0:0:0:0:
275,240,11994,1,8,0:0:0:0:
260,233,12708,1,0,0:0:0:0:
260,233,13137,1,8,0:0:0:0:
260,233,13851,1,8,0:0:0:0:
260,233,14280,1,0,0:0:0:0:
260,233,14994,1,8,0:0:0:0:
218,235,15422,1,8,0:0:0:0:
218,235,16137,1,0,0:0:0:0:
272,281,16565,1,0,0:0:0:0:
272,281,17280,1,8,0:0:0:0:
272,281,17708,1,0,0:0:0:0:
272,281,18422,1,0,0:0:0:0:
272,281,18851,1,8,0:0:0:0:
272,281,19565,1,0,0:0:0:0:
272,281,19994,1,0,0:0:0:0:
272,281,20708,1,8,0:0:0:0:
217,271,21137,1,8,0:0:0:0:
217,271,21851,1,0,0:0:0:0:
217,271,22280,1,8,0:0:0:0:
217,271,22994,1,8,0:0:0:0:
209,259,23422,1,0,0:0:0:0:
209,259,24137,1,8,0:0:0:0:
219,248,24565,1,8,0:0:0:0:
219,248,25280,1,0,0:0:0:0:
219,248,25708,1,0,0:0:0:0:
219,248,26422,1,8,0:0:0:0:
219,248,26851,1,0,0:0:0:0:
219,248,27565,1,0,0:0:0:0:
219,248,27994,1,8,0:0:0:0:
193,191,29851,1,0,0:0:0:0:
202,128,30422,1,8,0:0:0:0:
191,190,30994,1,0,0:0:0:0:
188,127,31280,1,0,0:0:0:0:
177,127,31565,1,8,0:0:0:0:
230,179,32137,1,0,0:0:0:0:
156,154,32708,1,8,0:0:0:0:
140,157,33280,1,0,0:0:0:0:
239,217,34422,1,8,0:0:0:0:
239,217,34994,1,0,0:0:0:0:
239,217,35565,1,8,0:0:0:0:
239,217,35851,1,8,0:0:0:0:
239,217,36137,1,0,0:0:0:0:
239,217,36708,1,8,0:0:0:0:
239,217,37280,1,0,0:0:0:0:
239,217,37851,1,8,0:0:0:0:
228,182,38994,1,0,0:0:0:0:
213,185,39565,1,8,0:0:0:0:
236,191,39851,1,8,0:0:0:0:
236,191,40137,1,0,0:0:0:0:
236,191,40708,1,8,0:0:0:0:
236,191,41280,1,0,0:0:0:0:
236,191,41565,1,0,0:0:0:0:
236,191,41851,1,8,0:0:0:0:
236,191,42422,1,0,0:0:0:0:
285,225,42994,1,8,0:0:0:0:
207,225,43565,1,0,0:0:0:0:
124,233,43851,1,8,0:0:0:0:
124,233,44137,1,0,0:0:0:0:
124,233,44708,1,8,0:0:0:0:
204,243,45280,1,8,0:0:0:0:
204,243,45851,1,0,0:0:0:0:
204,243,46422,1,8,0:0:0:0:
204,243,46708,1,8,0:0:0:0:
204,243,46994,1,0,0:0:0:0:
204,243,47280,1,0,0:0:0:0:
204,243,47565,1,8,0:0:0:0:
138,128,48137,1,0,0:0:0:0:
124,162,50422,1,0,0:0:0:0:
136,188,52708,1,0,0:0:0:0:
135,163,53851,1,0,0:0:0:0:
135,169,54994,1,0,0:0:0:0:
135,169,55851,1,8,0:0:0:0:
135,169,56137,1,0,0:0:0:0:
135,168,57280,1,8,0:0:0:0:
135,168,57851,1,8,0:0:0:0:
135,168,58422,1,0,0:0:0:0:
135,168,58708,1,0,0:0:0:0:
135,168,58994,1,8,0:0:0:0:
135,168,59565,1,0,0:0:0:0:
135,168,60137,1,8,0:0:0:0:
135,168,60708,1,0,0:0:0:0:
226,278,60994,1,0,0:0:0:0:
217,277,61280,1,8,0:0:0:0:
214,276,61565,1,8,0:0:0:0:
267,185,61851,1,0,0:0:0:0:
267,185,62422,1,0,0:0:0:0:
101,151,62994,1,8,0:0:0:0:
101,151,63280,1,8,0:0:0:0:
101,151,63565,1,0,0:0:0:0:
101,151,64137,1,8,0:0:0:0:
252,206,64708,1,8,0:0:0:0:
252,206,65280,1,0,0:0:0:0:
196,141,66422,1,8,0:0:0:0:
193,236,66851,1,8,0:0:0:0:
193,236,67708,1,8,0:0:0:0:
193,236,67994,1,8,0:0:0:0:
136,167,68280,1,8,0:0:0:0:
207,216,68708,1,0,0:0:0:0:
207,216,69137,1,0,0:0:0:0:
257,153,69994,1,0,0:0:0:0:
257,153,70280,1,0,0:0:0:0:
160,179,70565,1,0,0:0:0:0:
257,153,70994,1,8,0:0:0:0:
257,153,71422,1,8,0:0:0:0:
257,153,72280,1,8,0:0:0:0:
257,153,72565,1,8,0:0:0:0:
154,179,72851,1,8,0:0:0:0:
257,153,73280,1,0,0:0:0:0:
257,153,73708,1,0,0:0:0:0:
257,153,74565,1,8,0:0:0:0:
257,153,74851,1,8,0:0:0:0:
259,195,75565,1,4,0:0:0:0:
124,157,84708,5,0,0:0:0:0:
124,157,86994,1,0,0:0:0:0:
197,241,89280,1,0,0:0:0:0:
198,242,91565,1,0,0:0:0:0:
205,228,92708,1,8,0:0:0:0:
228,182,93851,1,0,0:0:0:0:
213,185,94422,1,8,0:0:0:0:
236,191,94708,1,8,0:0:0:0:
236,191,94994,1,0,0:0:0:0:
236,191,95565,1,8,0:0:0:0:
236,191,96137,1,0,0:0:0:0:
236,191,96422,1,0,0:0:0:0:
236,191,96708,1,8,0:0:0:0:
236,191,97280,1,0,0:0:0:0:
285,225,97851,1,8,0:0:0:0:
207,225,98422,1,0,0:0:0:0:
124,233,98708,1,8,0:0:0:0:
124,233,98994,1,0,0:0:0:0:
124,233,99565,1,8,0:0:0:0:
204,243,100137,1,8,0:0:0:0:
204,243,100708,1,0,0:0:0:0:
204,243,101280,1,8,0:0:0:0:
204,243,101565,1,8,0:0:0:0:
204,243,101851,1,0,0:0:0:0:
204,243,102137,1,0,0:0:0:0:
204,243,102422,1,8,0:0:0:0:
138,128,102994,1,0,0:0:0:0:
363,193,112137,5,0,0:0:0:0:
363,193,112708,1,8,0:0:0:0:
319,221,113280,1,0,0:0:0:0:
317,213,113565,1,0,0:0:0:0:
317,213,113851,1,8,0:0:0:0:
317,213,114422,1,0,0:0:0:0:
317,213,114994,1,0,0:0:0:0:
317,213,115565,1,8,0:0:0:0:
322,246,115851,1,8,0:0:0:0:
322,246,116137,1,8,0:0:0:0:
309,224,116708,1,0,0:0:0:0:
309,224,117280,1,8,0:0:0:0:
300,222,118137,1,0,0:0:0:0:
300,222,118422,1,8,0:0:0:0:
292,207,118994,1,0,0:0:0:0:
292,207,119565,1,8,0:0:0:0:
292,207,120137,1,0,0:0:0:0:
292,207,120422,1,0,0:0:0:0:
292,207,120708,1,8,0:0:0:0:
292,207,121280,1,0,0:0:0:0:
195,81,123565,1,0,0:0:0:0:
260,179,125851,1,0,0:0:0:0:
260,179,126994,1,0,0:0:0:0:
260,179,128137,1,0,0:0:0:0:
260,179,128994,1,8,0:0:0:0:
260,179,129280,1,0,0:0:0:0:
135,168,131565,1,8,0:0:0:0:
135,168,132137,1,8,0:0:0:0:
135,168,132708,1,0,0:0:0:0:
135,168,132994,1,0,0:0:0:0:
135,168,133280,1,8,0:0:0:0:
135,168,133851,1,0,0:0:0:0:
135,168,134422,1,8,0:0:0:0:
135,168,134994,1,0,0:0:0:0:
226,278,135280,1,0,0:0:0:0:
217,277,135565,1,8,0:0:0:0:
214,276,135851,1,8,0:0:0:0:
267,185,136137,1,0,0:0:0:0:
267,185,136708,1,0,0:0:0:0:
101,151,137280,1,8,0:0:0:0:
101,151,137565,1,8,0:0:0:0:
101,151,137851,1,0,0:0:0:0:
101,151,138422,1,8,0:0:0:0:
252,206,138994,1,8,0:0:0:0:
146,173,139422,1,8,0:0:0:0:
135,168,140708,1,8,0:0:0:0:
135,168,141280,1,8,0:0:0:0:
135,168,141851,1,0,0:0:0:0:
135,168,142137,1,0,0:0:0:0:
135,168,142422,1,8,0:0:0:0:
135,168,142994,1,0,0:0:0:0:
135,168,143565,1,8,0:0:0:0:
135,168,144137,1,0,0:0:0:0:
226,278,144422,1,0,0:0:0:0:
217,277,144708,1,8,0:0:0:0:
214,276,144994,1,8,0:0:0:0:
267,185,145280,1,0,0:0:0:0:
267,185,145851,1,0,0:0:0:0:
101,151,146422,1,8,0:0:0:0:
101,151,146708,1,8,0:0:0:0:
101,151,146994,1,0,0:0:0:0:
101,151,147565,1,8,0:0:0:0:
199,219,147851,1,0,0:0:0:0:
252,206,148137,1,8,0:0:0:0:
199,219,148422,1,0,0:0:0:0:
199,219,148708,1,8,0:0:0:0:
190,218,149280,1,8,0:0:0:0:
200,212,150137,1,12,0:0:0:0:
163,239,151137,1,8,0:0:0:0:
163,239,151422,1,8,0:0:0:0:
163,239,151708,1,8,0:0:0:0:
163,239,152137,1,0,0:0:0:0:
163,239,152565,1,0,0:0:0:0:
178,229,153422,1,0,0:0:0:0:
178,229,153708,1,0,0:0:0:0:
178,229,153994,1,0,0:0:0:0:
178,229,154422,1,8,0:0:0:0:
178,229,154851,1,8,0:0:0:0:
178,229,155708,1,8,0:0:0:0:
178,229,155994,1,8,0:0:0:0:
178,229,156280,1,8,0:0:0:0:
178,229,156708,1,0,0:0:0:0:
178,229,157137,1,0,0:0:0:0:
178,229,157994,1,8,0:0:0:0:
178,229,158280,1,8,0:0:0:0:
166,167,158994,1,0,0:0:0:0:
177,187,159565,1,0,0:0:0:0:
177,187,159851,1,8,0:0:0:0:
177,187,160280,1,0,0:0:0:0:
177,187,160565,1,0,0:0:0:0:
145,189,160851,1,0,0:0:0:0:
145,189,161280,1,8,0:0:0:0:
145,189,161851,1,8,0:0:0:0:
145,189,162137,1,0,0:0:0:0:
145,189,162565,1,8,0:0:0:0:
145,189,162851,1,8,0:0:0:0:
145,189,163137,1,8,0:0:0:0:
145,189,163565,1,0,0:0:0:0:
145,189,164137,1,0,0:0:0:0:
145,189,164422,1,8,0:0:0:0:
145,189,164851,1,0,0:0:0:0:
145,189,165137,1,0,0:0:0:0:
145,189,165422,1,0,0:0:0:0:
297,261,165851,1,8,0:0:0:0:
297,261,166137,1,0,0:0:0:0:
297,261,166422,1,8,0:0:0:0:
258,253,166708,1,0,0:0:0:0:
258,253,166994,1,8,0:0:0:0:
258,253,167280,1,0,0:0:0:0:
258,253,167565,1,8,0:0:0:0:
240,254,168137,1,0,0:0:0:0:
195,175,169280,1,8,0:0:0:0:
229,171,170422,1,0,0:0:0:0:
173,167,170994,1,0,0:0:0:0:
173,167,171565,1,8,0:0:0:0:
52,170,172708,1,0,0:0:0:0:
192,177,173851,1,0,0:0:0:0:
192,177,174994,1,8,0:0:0:0:
255,229,175565,1,8,0:0:0:0:
255,229,176137,1,0,0:0:0:0:
255,229,177137,1,8,0:0:0:0:
